osu file format v14

[General]
AudioFilename: audio.mp3
AudioLeadIn: 0
PreviewTime: 68732
Countdown: 0
SampleSet: Normal
StackLeniency: 0.7
Mode: 1
LetterboxInBreaks: 0
WidescreenStoryboard: 0

[Editor]
Bookmarks: 3653,24986,46320,69320,90649,111982
DistanceSpacing: 0.1
BeatDivisor: 4
GridSize: 32
TimelineZoom: 2.799999

[Metadata]
Title:Future Coaster
TitleUnicode:Future Coaster
Artist:Sakuzyo
ArtistUnicode:削除
Creator:_DUSK_
Version:Future
Source:GROOVE COASTER 3EX DREAM PARTY
Tags:グルーヴコースター ドリームパーティ AC TAITO タイトー bass Cyber Meteoroid Electronic Instrumental
BeatmapID:2209095
BeatmapSetID:1056866

[Difficulty]
HPDrainRate:6
CircleSize:5
OverallDifficulty:7
ApproachRate:9
SliderMultiplier:1.4
SliderTickRate:1

[Events]
//Background and Video events
0,0,"thanks nifty.jpg",0,20
//Break Periods
2,61516,63382
2,101516,110882
//Storyboard Layer 0 (Background)
//Storyboard Layer 1 (Fail)
//Storyboard Layer 2 (Pass)
//Storyboard Layer 3 (Foreground)
//Storyboard Layer 4 (Overlay)
//Storyboard Sound Samples

[TimingPoints]
-17,333.333333333333,4,1,0,100,1,0
2732,-125,4,1,0,100,0,0
12816,-121.951219512195,4,1,0,100,0,0
12899,-119.047619047619,4,1,0,100,0,0
12982,-116.279069767442,4,1,0,100,0,0
13066,-113.636363636364,4,1,0,100,0,0
13149,-111.111111111111,4,1,0,100,0,0
13232,-108.695652173913,4,1,0,100,0,0
13316,-106.382978723404,4,1,0,100,0,0
21316,-105.263157894737,4,1,0,100,0,0
21399,-104.166666666667,4,1,0,100,0,0
21482,-103.092783505155,4,1,0,100,0,0
21566,-102.040816326531,4,1,0,100,0,0
21649,-101.010101010101,4,1,0,100,0,0
21732,-100,4,1,0,100,0,0
21816,-99.009900990099,4,1,0,100,0,0
21871,-98.0392156862745,4,1,0,100,0,0
21927,-97.0873786407767,4,1,0,100,0,0
21982,-96.1538461538461,4,1,0,100,0,0
22066,-95.2380952380952,4,1,0,100,0,0
22149,-94.3396226415094,4,1,0,100,0,0
22205,-93.4579439252336,4,1,0,100,0,0
22260,-92.5925925925926,4,1,0,100,0,0
22316,-91.743119266055,4,1,0,100,0,0
22371,-90.9090909090909,4,1,0,100,0,0
22427,-90.0900900900901,4,1,0,100,0,0
22482,-89.2857142857143,4,1,0,100,0,0
22566,-88.4955752212389,4,1,0,100,0,0
22649,-87.7192982456139,4,1,0,100,0,0
22732,-86.9565217391304,4,1,0,100,0,0
22816,-86.2068965517241,4,1,0,100,0,0
22899,-85.4700854700855,4,1,0,100,0,0
22982,-84.7457627118644,4,1,0,100,0,0
23038,-84.0336134453781,4,1,0,100,0,0
23094,-83.3333333333333,4,1,0,100,0,0
23149,-82.6446280991736,4,1,0,100,0,0
23232,-81.9672131147541,4,1,0,100,0,0
23316,-81.3008130081301,4,1,0,100,0,0
23399,-80.6451612903226,4,1,0,100,0,0
23482,-80,4,1,0,100,0,0
23566,-79.3650793650794,4,1,0,100,0,0
23649,-78.7401574803149,4,1,0,100,0,0
23982,-100,4,1,0,100,0,0
42816,-99.009900990099,4,1,0,100,0,0
42899,-98.0392156862745,4,1,0,100,0,0
42982,-97.0873786407767,4,1,0,100,0,0
43066,-96.1538461538461,4,1,0,100,0,0
43149,-95.2380952380952,4,1,0,100,0,0
43205,-94.3396226415094,4,1,0,100,0,0
43260,-93.4579439252336,4,1,0,100,0,0
43316,-92.5925925925926,4,1,0,100,0,0
43399,-91.743119266055,4,1,0,100,0,0
43482,-90.9090909090909,4,1,0,100,0,0
43538,-90.0900900900901,4,1,0,100,0,0
43594,-89.2857142857143,4,1,0,100,0,0
43649,-88.4955752212389,4,1,0,100,0,0
43705,-87.719298245614,4,1,0,100,0,0
43760,-86.9565217391304,4,1,0,100,0,0
43816,-86.2068965517241,4,1,0,100,0,0
43899,-85.4700854700855,4,1,0,100,0,0
43982,-84.7457627118644,4,1,0,100,0,0
44066,-84.0336134453781,4,1,0,100,0,0
44149,-83.3333333333333,4,1,0,100,0,0
44232,-82.6446280991736,4,1,0,100,0,0
44316,-81.9672131147541,4,1,0,100,0,0
44399,-81.3008130081301,4,1,0,100,0,0
44482,-80.6451612903226,4,1,0,100,0,0
44566,-80,4,1,0,100,0,0
44649,-79.3650793650794,4,1,0,100,0,0
44705,-78.7401574803149,4,1,0,100,0,0
44760,-78.125,4,1,0,100,0,0
44816,-77.5193798449612,4,1,0,100,0,0
44899,-76.9230769230769,4,1,0,100,0,0
44982,-76.3358778625954,4,1,0,100,0,0
45038,-75.7575757575758,4,1,0,100,0,0
45094,-75.187969924812,4,1,0,100,0,0
45149,-74.6268656716418,4,1,0,100,0,0
45232,-74.0740740740741,4,1,0,100,0,0
45316,-73.5294117647059,4,1,0,100,0,0
45399,-125,4,1,0,100,0,0
55316,-123.456790123457,4,1,0,100,0,0
55482,-121.951219512195,4,1,0,100,0,0
55649,-119.047619047619,4,1,0,100,0,0
55816,-116.279069767442,4,1,0,100,0,0
55982,-113.636363636364,4,1,0,100,0,0
60816,-111.111111111111,4,1,0,100,0,0
60899,-108.695652173913,4,1,0,100,0,0
60982,-106.382978723404,4,1,0,100,0,0
61066,-104.166666666667,4,1,0,100,0,0
61149,-102.040816326531,4,1,0,100,0,0
61232,-100,4,1,0,100,0,0
61316,-98.0392156862745,4,1,0,100,0,0
61399,-125,4,1,0,30,0,0
63899,-111.111111111111,4,1,0,100,0,0
66649,-109.89010989011,4,1,0,100,0,0
66816,-108.695652173913,4,1,0,100,0,0
66982,-107.52688172043,4,1,0,100,0,0
67149,-106.382978723404,4,1,0,100,0,0
67232,-105.263157894737,4,1,0,100,0,0
67316,-104.166666666667,4,1,0,100,0,0
67399,-103.092783505155,4,1,0,100,0,0
67482,-102.040816326531,4,1,0,100,0,0
67649,-101.010101010101,4,1,0,100,0,0
67816,-100,4,1,0,100,0,0
67899,-99.009900990099,4,1,0,100,0,0
67982,-98.0392156862745,4,1,0,100,0,0
68066,-97.0873786407767,4,1,0,100,0,0
68149,-96.1538461538461,4,1,0,100,0,0
68232,-95.2380952380952,4,1,0,100,0,0
68316,-94.3396226415094,4,1,0,100,0,0
68399,-93.4579439252336,4,1,0,100,0,0
68482,-92.5925925925926,4,1,0,100,0,0
68566,-91.743119266055,4,1,0,100,0,0
68649,-90.9090909090909,4,1,0,100,0,0
68816,-102.040816326531,4,1,0,100,0,0
68871,-101.010101010101,4,1,0,100,0,0
68927,-100,4,1,0,100,0,0
68982,-99.009900990099,4,1,0,100,0,0
69066,-98.0392156862745,4,1,0,100,0,0
69149,-97.0873786407767,4,1,0,100,0,0
69232,-96.1538461538461,4,1,0,100,0,0
69316,-95.2380952380952,4,1,0,100,0,1
79649,-94.3396226415094,4,1,0,100,0,1
79732,-93.4579439252336,4,1,0,100,0,1
79816,-92.5925925925926,4,1,0,100,0,1
79899,-91.743119266055,4,1,0,100,0,1
79982,-90.9090909090909,4,1,0,100,0,1
89316,-91.743119266055,4,1,0,100,0,0
89566,-92.5925925925926,4,1,0,100,0,0
89649,-93.4579439252336,4,1,0,100,0,0
89732,-94.3396226415094,4,1,0,100,0,0
89871,-95.2380952380952,4,1,0,100,0,0
89927,-96.1538461538461,4,1,0,100,0,0
89982,-97.0873786407767,4,1,0,100,0,0
90066,-98.0392156862745,4,1,0,100,0,0
90205,-99.009900990099,4,1,0,100,0,0
90260,-100,4,1,0,100,0,0
90316,-101.010101010101,4,1,0,100,0,0
90649,-90.9090909090909,4,1,0,100,0,1
96482,-90.0900900900901,4,1,0,100,0,1
96982,-89.2857142857143,4,1,0,100,0,1
97482,-88.4955752212389,4,1,0,100,0,1
97982,-87.719298245614,4,1,0,100,0,1
101316,-87.719298245614,4,1,0,100,0,0
101399,-142.857142857143,4,1,0,30,0,0
111399,-142.857142857143,4,1,0,100,0,0
111482,-138.888888888889,4,1,0,100,0,0
111566,-135.135135135135,4,1,0,100,0,0
111649,-131.578947368421,4,1,0,100,0,0
111732,-128.205128205128,4,1,0,100,0,0
111816,-125,4,1,0,100,0,0
111899,-121.951219512195,4,1,0,100,0,0
111982,-119.047619047619,4,1,0,100,0,0
112649,-117.647058823529,4,1,0,100,0,0
112982,-116.279069767442,4,1,0,100,0,0
113316,-114.942528735632,4,1,0,100,0,0
113649,-113.636363636364,4,1,0,100,0,0
113982,-112.359550561798,4,1,0,100,0,0
114316,-111.111111111111,4,1,0,100,0,0
114649,-109.89010989011,4,1,0,100,0,0
114982,-108.695652173913,4,1,0,100,0,0
115649,-107.52688172043,4,1,0,100,0,0
115982,-106.382978723404,4,1,0,100,0,0
116316,-105.263157894737,4,1,0,100,0,0
116649,-104.166666666667,4,1,0,100,0,0
116982,-103.092783505155,4,1,0,100,0,0
117316,-102.040816326531,4,1,0,100,0,0
117649,-101.010101010101,4,1,0,100,0,0
117982,-100,4,1,0,100,0,0
119982,-99.009900990099,4,1,0,100,0,0
120066,-98.0392156862745,4,1,0,100,0,0
120149,-97.0873786407767,4,1,0,100,0,0
120232,-96.1538461538461,4,1,0,100,0,0
120316,-95.2380952380952,4,1,0,100,0,0
120399,-94.3396226415094,4,1,0,100,0,0
120482,-93.4579439252336,4,1,0,100,0,0
120538,-92.5925925925926,4,1,0,100,0,0
120594,-91.743119266055,4,1,0,100,0,0
120649,-90.9090909090909,4,1,0,100,0,0
120732,-90.0900900900901,4,1,0,100,0,0
120816,-89.2857142857143,4,1,0,100,0,0
120871,-88.4955752212389,4,1,0,100,0,0
120927,-87.719298245614,4,1,0,100,0,0
120982,-86.9565217391304,4,1,0,100,0,0
121038,-86.2068965517241,4,1,0,100,0,0
121094,-85.4700854700855,4,1,0,100,0,0
121149,-84.7457627118644,4,1,0,100,0,0
121232,-84.0336134453781,4,1,0,100,0,0
121316,-83.3333333333333,4,1,0,100,0,0
121399,-82.6446280991736,4,1,0,100,0,0
121482,-81.9672131147541,4,1,0,100,0,0
121566,-81.3008130081301,4,1,0,100,0,0
121649,-80.6451612903226,4,1,0,100,0,0
121705,-80,4,1,0,100,0,0
121760,-79.3650793650794,4,1,0,100,0,0
121816,-78.7401574803149,4,1,0,100,0,0
121982,-100,4,1,0,80,0,0
122649,-100,4,1,0,60,0,0
122982,-100,4,1,0,40,0,0
123316,-100,4,1,0,20,0,0
123649,-100,4,1,0,10,0,0

[HitObjects]
256,192,1982,5,8,0:0:0:0:
256,192,2316,1,0,0:0:0:0:
256,192,2649,1,12,0:0:0:0:
256,192,3649,1,8,0:0:0:0:
256,192,3816,1,0,0:0:0:0:
256,192,4482,1,0,0:0:0:0:
256,192,5316,1,0,0:0:0:0:
256,192,6316,1,8,0:0:0:0:
256,192,6482,1,0,0:0:0:0:
256,192,7149,1,0,0:0:0:0:
256,192,7649,1,8,0:0:0:0:
256,192,7982,1,0,0:0:0:0:
256,192,8982,1,8,0:0:0:0:
256,192,9149,1,0,0:0:0:0:
256,192,9816,1,0,0:0:0:0:
256,192,10649,1,0,0:0:0:0:
256,192,11649,1,8,0:0:0:0:
256,192,11816,1,0,0:0:0:0:
256,192,12482,1,0,0:0:0:0:
256,192,12816,1,0,0:0:0:0:
256,192,12899,1,0,0:0:0:0:
256,192,12982,1,8,0:0:0:0:
256,192,13066,1,0,0:0:0:0:
256,192,13149,1,8,0:0:0:0:
256,192,13232,1,8,0:0:0:0:
256,192,13316,1,0,0:0:0:0:
256,192,13982,1,8,0:0:0:0:
256,192,14316,1,8,0:0:0:0:
256,192,14482,1,0,0:0:0:0:
256,192,14816,1,8,0:0:0:0:
256,192,14982,1,8,0:0:0:0:
256,192,15149,1,0,0:0:0:0:
256,192,15482,1,8,0:0:0:0:
256,192,15816,1,8,0:0:0:0:
256,192,15982,1,0,0:0:0:0:
256,192,16649,1,8,0:0:0:0:
256,192,16982,1,8,0:0:0:0:
256,192,17149,1,0,0:0:0:0:
256,192,17482,1,8,0:0:0:0:
256,192,17649,1,8,0:0:0:0:
256,192,17816,1,0,0:0:0:0:
256,192,18316,1,8,0:0:0:0:
256,192,18649,1,0,0:0:0:0:
256,192,18982,1,0,0:0:0:0:
256,192,19316,1,0,0:0:0:0:
256,192,19482,1,8,0:0:0:0:
256,192,19649,1,0,0:0:0:0:
256,192,19816,1,8,0:0:0:0:
256,192,19982,1,0,0:0:0:0:
256,192,20316,1,0,0:0:0:0:
256,192,20482,1,8,0:0:0:0:
256,192,20649,1,0,0:0:0:0:
256,192,20816,1,8,0:0:0:0:
256,192,20899,1,8,0:0:0:0:
256,192,20982,1,0,0:0:0:0:
256,192,21066,1,8,0:0:0:0:
256,192,21149,1,8,0:0:0:0:
256,192,21316,1,0,0:0:0:0:
256,192,21399,1,8,0:0:0:0:
256,192,21482,1,8,0:0:0:0:
256,192,21566,1,8,0:0:0:0:
256,192,21649,1,0,0:0:0:0:
256,192,21732,1,0,0:0:0:0:
256,192,21816,1,8,0:0:0:0:
256,192,21871,1,8,0:0:0:0:
256,192,21927,1,8,0:0:0:0:
256,192,21982,1,0,0:0:0:0:
256,192,22066,1,0,0:0:0:0:
256,192,22149,1,8,0:0:0:0:
256,192,22205,1,0,0:0:0:0:
256,192,22260,1,0,0:0:0:0:
256,192,22316,1,8,0:0:0:0:
256,192,22371,1,0,0:0:0:0:
256,192,22427,1,0,0:0:0:0:
256,192,22482,1,8,0:0:0:0:
256,192,22566,1,0,0:0:0:0:
256,192,22649,1,8,0:0:0:0:
256,192,22732,1,8,0:0:0:0:
256,192,22816,1,0,0:0:0:0:
256,192,22899,1,0,0:0:0:0:
256,192,22982,1,8,0:0:0:0:
256,192,23038,1,8,0:0:0:0:
256,192,23094,1,8,0:0:0:0:
256,192,23149,1,8,0:0:0:0:
256,192,23232,1,8,0:0:0:0:
256,192,23316,1,0,0:0:0:0:
256,192,23399,1,8,0:0:0:0:
256,192,23482,1,0,0:0:0:0:
256,192,23566,1,0,0:0:0:0:
256,192,23649,1,8,0:0:0:0:
256,192,23982,1,4,0:0:0:0:
256,192,24316,1,8,0:0:0:0:
256,192,24482,1,8,0:0:0:0:
256,192,24566,1,0,0:0:0:0:
256,192,24649,1,8,0:0:0:0:
256,192,24732,1,8,0:0:0:0:
256,192,24816,1,0,0:0:0:0:
256,192,24982,1,8,0:0:0:0:
256,192,25149,1,8,0:0:0:0:
256,192,25232,1,8,0:0:0:0:
256,192,25316,1,0,0:0:0:0:
256,192,25482,1,0,0:0:0:0:
256,192,25649,1,8,0:0:0:0:
256,192,25816,1,8,0:0:0:0:
256,192,25899,1,0,0:0:0:0:
256,192,25982,1,0,0:0:0:0:
256,192,26066,1,8,0:0:0:0:
256,192,26149,1,0,0:0:0:0:
256,192,26316,1,8,0:0:0:0:
256,192,26399,1,0,0:0:0:0:
256,192,26482,1,8,0:0:0:0:
256,192,26566,1,0,0:0:0:0:
256,192,26649,1,0,0:0:0:0:
256,192,26982,1,8,0:0:0:0:
256,192,27149,1,8,0:0:0:0:
256,192,27232,1,0,0:0:0:0:
256,192,27316,1,8,0:0:0:0:
256,192,27399,1,0,0:0:0:0:
256,192,27482,1,8,0:0:0:0:
256,192,27649,1,8,0:0:0:0:
256,192,27816,1,8,0:0:0:0:
256,192,27982,1,0,0:0:0:0:
256,192,28316,1,8,0:0:0:0:
256,192,28482,1,0,0:0:0:0:
256,192,28732,1,0,0:0:0:0:
256,192,28899,1,8,0:0:0:0:
256,192,28982,1,0,0:0:0:0:
256,192,29149,1,0,0:0:0:0:
256,192,29316,1,4,0:0:0:0:
256,192,29649,1,8,0:0:0:0:
256,192,29816,1,8,0:0:0:0:
256,192,29899,1,8,0:0:0:0:
256,192,29982,1,8,0:0:0:0:
256,192,30066,1,0,0:0:0:0:
256,192,30149,1,0,0:0:0:0:
256,192,30316,1,8,0:0:0:0:
256,192,30482,1,8,0:0:0:0:
256,192,30566,1,8,0:0:0:0:
256,192,30649,1,0,0:0:0:0:
256,192,30816,1,0,0:0:0:0:
256,192,30982,1,8,0:0:0:0:
256,192,31149,1,8,0:0:0:0:
256,192,31232,1,8,0:0:0:0:
256,192,31316,1,8,0:0:0:0:
256,192,31399,1,0,0:0:0:0:
256,192,31482,1,8,0:0:0:0:
256,192,31649,1,8,0:0:0:0:
256,192,31732,1,0,0:0:0:0:
256,192,31816,1,8,0:0:0:0:
256,192,31899,1,0,0:0:0:0:
256,192,31982,1,0,0:0:0:0:
256,192,32232,1,0,0:0:0:0:
256,192,32316,1,8,0:0:0:0:
256,192,32482,1,8,0:0:0:0:
256,192,32566,1,0,0:0:0:0:
256,192,32649,1,8,0:0:0:0:
256,192,32732,1,0,0:0:0:0:
256,192,32816,1,8,0:0:0:0:
256,192,32982,1,8,0:0:0:0:
256,192,33038,1,8,0:0:0:0:
256,192,33094,1,8,0:0:0:0:
256,192,33149,1,8,0:0:0:0:
256,192,33232,1,8,0:0:0:0:
256,192,33316,1,0,0:0:0:0:
256,192,33649,1,8,0:0:0:0:
256,192,33816,1,0,0:0:0:0:
256,192,34149,1,0,0:0:0:0:
256,192,34316,1,8,0:0:0:0:
256,192,34482,1,8,0:0:0:0:
256,192,34649,1,4,0:0:0:0:
256,192,34982,1,8,0:0:0:0:
256,192,35149,1,8,0:0:0:0:
256,192,35232,1,0,0:0:0:0:
256,192,35399,1,0,0:0:0:0:
256,192,35482,1,8,0:0:0:0:
256,192,35566,1,0,0:0:0:0:
256,192,35649,1,8,0:0:0:0:
256,192,35732,1,8,0:0:0:0:
256,192,35816,1,0,0:0:0:0:
256,192,35899,1,8,0:0:0:0:
256,192,35982,1,0,0:0:0:0:
256,192,36149,1,0,0:0:0:0:
256,192,36232,1,0,0:0:0:0:
256,192,36316,1,8,0:0:0:0:
256,192,36482,1,8,0:0:0:0:
256,192,36566,1,0,0:0:0:0:
256,192,36732,1,0,0:0:0:0:
256,192,36816,1,8,0:0:0:0:
256,192,36899,1,8,0:0:0:0:
256,192,36982,1,0,0:0:0:0:
256,192,37066,1,8,0:0:0:0:
256,192,37149,1,8,0:0:0:0:
256,192,37232,1,0,0:0:0:0:
256,192,37316,1,0,0:0:0:0:
256,192,37482,1,0,0:0:0:0:
256,192,37649,1,8,0:0:0:0:
256,192,37816,1,8,0:0:0:0:
256,192,37899,1,0,0:0:0:0:
256,192,37982,1,0,0:0:0:0:
256,192,38066,1,8,0:0:0:0:
256,192,38149,1,8,0:0:0:0:
256,192,38232,1,0,0:0:0:0:
256,192,38316,1,0,0:0:0:0:
256,192,38399,1,8,0:0:0:0:
256,192,38482,1,8,0:0:0:0:
256,192,38566,1,8,0:0:0:0:
256,192,38649,1,0,0:0:0:0:
256,192,38982,1,8,0:0:0:0:
256,192,39149,1,0,0:0:0:0:
256,192,39399,1,0,0:0:0:0:
256,192,39566,1,8,0:0:0:0:
256,192,39649,1,0,0:0:0:0:
256,192,39816,1,0,0:0:0:0:
256,192,39982,1,0,0:0:0:0:
256,192,40066,1,0,0:0:0:0:
256,192,40149,1,8,0:0:0:0:
256,192,40316,1,8,0:0:0:0:
256,192,40482,1,8,0:0:0:0:
256,192,40566,1,0,0:0:0:0:
256,192,40649,1,8,0:0:0:0:
256,192,40732,1,8,0:0:0:0:
256,192,40816,1,0,0:0:0:0:
256,192,40899,1,0,0:0:0:0:
256,192,40982,1,8,0:0:0:0:
256,192,41038,1,0,0:0:0:0:
256,192,41094,1,0,0:0:0:0:
256,192,41149,1,8,0:0:0:0:
256,192,41205,1,8,0:0:0:0:
256,192,41260,1,8,0:0:0:0:
256,192,41316,1,0,0:0:0:0:
256,192,41482,1,0,0:0:0:0:
256,192,41649,1,8,0:0:0:0:
256,192,41816,1,0,0:0:0:0:
256,192,42066,1,0,0:0:0:0:
256,192,42149,1,8,0:0:0:0:
256,192,42232,1,8,0:0:0:0:
256,192,42316,1,8,0:0:0:0:
256,192,42399,1,0,0:0:0:0:
256,192,42566,1,8,0:0:0:0:
256,192,42649,1,0,0:0:0:0:
256,192,42816,1,8,0:0:0:0:
256,192,42899,1,8,0:0:0:0:
256,192,42982,1,0,0:0:0:0:
256,192,43066,1,0,0:0:0:0:
256,192,43149,1,8,0:0:0:0:
256,192,43205,1,0,0:0:0:0:
256,192,43260,1,0,0:0:0:0:
256,192,43316,1,8,0:0:0:0:
256,192,43399,1,0,0:0:0:0:
256,192,43482,1,8,0:0:0:0:
256,192,43538,1,0,0:0:0:0:
256,192,43594,1,0,0:0:0:0:
256,192,43649,1,8,0:0:0:0:
256,192,43705,1,8,0:0:0:0:
256,192,43760,1,8,0:0:0:0:
256,192,43816,1,0,0:0:0:0:
256,192,43899,1,8,0:0:0:0:
256,192,43982,1,0,0:0:0:0:
256,192,44066,1,8,0:0:0:0:
256,192,44149,1,8,0:0:0:0:
256,192,44232,1,8,0:0:0:0:
256,192,44316,1,0,0:0:0:0:
256,192,44399,1,0,0:0:0:0:
256,192,44482,1,8,0:0:0:0:
256,192,44566,1,8,0:0:0:0:
256,192,44649,1,0,0:0:0:0:
256,192,44705,1,0,0:0:0:0:
256,192,44760,1,0,0:0:0:0:
256,192,44816,1,8,0:0:0:0:
256,192,44899,1,8,0:0:0:0:
256,192,44982,1,0,0:0:0:0:
256,192,45038,1,8,0:0:0:0:
256,192,45094,1,8,0:0:0:0:
256,192,45149,1,0,0:0:0:0:
256,192,45232,1,8,0:0:0:0:
256,192,45316,1,0,0:0:0:0:
256,192,46482,1,8,0:0:0:0:
256,192,46649,1,8,0:0:0:0:
256,192,47149,1,8,0:0:0:0:
256,192,47232,1,8,0:0:0:0:
256,192,47316,1,8,0:0:0:0:
256,192,47566,1,8,0:0:0:0:
256,192,47816,1,8,0:0:0:0:
256,192,47982,1,0,0:0:0:0:
256,192,48149,1,8,0:0:0:0:
256,192,48316,1,8,0:0:0:0:
256,192,48482,1,8,0:0:0:0:
256,192,49649,1,8,0:0:0:0:
256,192,49816,1,8,0:0:0:0:
256,192,49982,1,8,0:0:0:0:
256,192,50232,1,8,0:0:0:0:
256,192,50482,1,8,0:0:0:0:
256,192,50649,1,0,0:0:0:0:
256,192,51149,1,8,0:0:0:0:
256,192,51232,1,8,0:0:0:0:
256,192,51316,1,8,0:0:0:0:
256,192,51566,1,8,0:0:0:0:
256,192,51816,1,8,0:0:0:0:
256,192,51982,1,8,0:0:0:0:
256,192,52649,1,8,0:0:0:0:
256,192,52899,1,8,0:0:0:0:
256,192,53149,1,8,0:0:0:0:
256,192,53316,1,0,0:0:0:0:
256,192,53816,1,8,0:0:0:0:
256,192,53899,1,8,0:0:0:0:
256,192,53982,1,8,0:0:0:0:
256,192,54232,1,8,0:0:0:0:
256,192,54482,1,8,0:0:0:0:
256,192,54816,1,0,0:0:0:0:
256,192,54982,1,0,0:0:0:0:
256,192,55149,1,8,0:0:0:0:
256,192,55316,1,8,0:0:0:0:
256,192,55482,1,8,0:0:0:0:
256,192,55649,1,0,0:0:0:0:
256,192,55816,1,8,0:0:0:0:
256,192,55982,1,0,0:0:0:0:
256,192,56232,1,8,0:0:0:0:
256,192,56316,1,0,0:0:0:0:
256,192,56482,1,8,0:0:0:0:
256,192,56566,1,8,0:0:0:0:
256,192,56649,1,0,0:0:0:0:
256,192,56732,1,8,0:0:0:0:
256,192,56899,1,8,0:0:0:0:
256,192,56982,1,0,0:0:0:0:
256,192,57149,1,8,0:0:0:0:
256,192,57316,1,0,0:0:0:0:
256,192,57566,1,8,0:0:0:0:
256,192,57649,1,0,0:0:0:0:
256,192,57816,1,8,0:0:0:0:
256,192,57899,1,8,0:0:0:0:
256,192,57982,1,0,0:0:0:0:
256,192,58149,1,0,0:0:0:0:
256,192,58232,1,8,0:0:0:0:
256,192,58316,1,0,0:0:0:0:
256,192,58399,1,0,0:0:0:0:
256,192,58482,1,8,0:0:0:0:
256,192,58649,1,0,0:0:0:0:
256,192,58899,1,8,0:0:0:0:
256,192,58982,1,0,0:0:0:0:
256,192,59149,1,8,0:0:0:0:
256,192,59232,1,8,0:0:0:0:
256,192,59316,1,0,0:0:0:0:
256,192,59482,1,8,0:0:0:0:
256,192,59566,1,8,0:0:0:0:
256,192,59649,1,0,0:0:0:0:
256,192,59732,1,8,0:0:0:0:
256,192,59816,1,8,0:0:0:0:
256,192,59982,1,0,0:0:0:0:
256,192,60066,1,8,0:0:0:0:
256,192,60232,1,8,0:0:0:0:
256,192,60316,1,0,0:0:0:0:
256,192,60482,1,8,0:0:0:0:
256,192,60566,1,8,0:0:0:0:
256,192,60649,1,0,0:0:0:0:
256,192,60816,1,0,0:0:0:0:
256,192,60899,1,8,0:0:0:0:
256,192,60982,1,0,0:0:0:0:
256,192,61066,1,0,0:0:0:0:
256,192,61149,1,8,0:0:0:0:
256,192,61232,1,8,0:0:0:0:
256,192,61316,1,0,0:0:0:0:
256,192,63982,5,4,0:0:0:0:
256,192,64649,1,8,0:0:0:0:
256,192,65316,1,0,0:0:0:0:
256,192,65649,1,0,0:0:0:0:
256,192,65982,1,8,0:0:0:0:
256,192,66149,1,0,0:0:0:0:
256,192,66316,1,0,0:0:0:0:
256,192,66482,1,0,0:0:0:0:
256,192,66649,1,8,0:0:0:0:
256,192,66816,1,0,0:0:0:0:
256,192,66982,1,0,0:0:0:0:
256,192,67149,1,0,0:0:0:0:
256,192,67232,1,0,0:0:0:0:
256,192,67316,1,8,0:0:0:0:
256,192,67399,1,8,0:0:0:0:
256,192,67482,1,0,0:0:0:0:
256,192,67649,1,8,0:0:0:0:
256,192,67816,1,0,0:0:0:0:
256,192,67899,1,0,0:0:0:0:
256,192,67982,1,8,0:0:0:0:
256,192,68066,1,0,0:0:0:0:
256,192,68149,1,8,0:0:0:0:
256,192,68232,1,8,0:0:0:0:
256,192,68316,1,0,0:0:0:0:
256,192,68399,1,8,0:0:0:0:
256,192,68482,1,0,0:0:0:0:
256,192,68566,1,0,0:0:0:0:
256,192,68649,1,8,0:0:0:0:
256,192,68816,1,0,0:0:0:0:
256,192,68871,1,0,0:0:0:0:
256,192,68927,1,0,0:0:0:0:
256,192,68982,1,8,0:0:0:0:
256,192,69066,1,0,0:0:0:0:
256,192,69149,1,8,0:0:0:0:
256,192,69232,1,8,0:0:0:0:
256,192,69316,1,0,0:0:0:0:
256,192,69482,1,8,0:0:0:0:
256,192,69566,1,8,0:0:0:0:
256,192,69649,1,0,0:0:0:0:
256,192,69732,1,8,0:0:0:0:
256,192,69816,1,8,0:0:0:0:
256,192,69899,1,8,0:0:0:0:
256,192,69982,1,0,0:0:0:0:
256,192,70149,1,8,0:0:0:0:
256,192,70232,1,0,0:0:0:0:
256,192,70316,1,0,0:0:0:0:
256,192,70482,1,8,0:0:0:0:
256,192,70649,1,0,0:0:0:0:
256,192,70816,1,8,0:0:0:0:
256,192,70899,1,8,0:0:0:0:
256,192,70982,1,0,0:0:0:0:
256,192,71066,1,0,0:0:0:0:
256,192,71149,1,8,0:0:0:0:
256,192,71316,1,0,0:0:0:0:
256,192,71482,1,8,0:0:0:0:
256,192,71566,1,0,0:0:0:0:
256,192,71732,1,0,0:0:0:0:
256,192,71816,1,8,0:0:0:0:
256,192,71899,1,8,0:0:0:0:
256,192,71982,1,0,0:0:0:0:
256,192,72149,1,0,0:0:0:0:
256,192,72232,1,0,0:0:0:0:
256,192,72316,1,8,0:0:0:0:
256,192,72399,1,0,0:0:0:0:
256,192,72482,1,8,0:0:0:0:
256,192,72566,1,8,0:0:0:0:
256,192,72649,1,0,0:0:0:0:
256,192,72816,1,0,0:0:0:0:
256,192,72899,1,8,0:0:0:0:
256,192,72982,1,0,0:0:0:0:
256,192,73066,1,0,0:0:0:0:
256,192,73149,1,8,0:0:0:0:
256,192,73316,1,0,0:0:0:0:
256,192,73482,1,0,0:0:0:0:
256,192,73566,1,0,0:0:0:0:
256,192,73649,1,8,0:0:0:0:
256,192,73732,1,0,0:0:0:0:
256,192,73816,1,8,0:0:0:0:
256,192,73982,1,0,0:0:0:0:
256,192,74149,1,0,0:0:0:0:
256,192,74232,1,8,0:0:0:0:
256,192,74316,1,8,0:0:0:0:
256,192,74482,1,8,0:0:0:0:
256,192,74649,1,0,0:0:0:0:
256,192,74816,1,0,0:0:0:0:
256,192,74899,1,0,0:0:0:0:
256,192,74982,1,8,0:0:0:0:
256,192,75066,1,0,0:0:0:0:
256,192,75149,1,8,0:0:0:0:
256,192,75232,1,8,0:0:0:0:
256,192,75316,1,0,0:0:0:0:
256,192,75482,1,8,0:0:0:0:
256,192,75566,1,0,0:0:0:0:
256,192,75649,1,8,0:0:0:0:
256,192,75816,1,8,0:0:0:0:
256,192,75982,1,0,0:0:0:0:
256,192,76149,1,8,0:0:0:0:
256,192,76232,1,0,0:0:0:0:
256,192,76316,1,0,0:0:0:0:
256,192,76482,1,8,0:0:0:0:
256,192,76566,1,8,0:0:0:0:
256,192,76649,1,0,0:0:0:0:
256,192,76816,1,8,0:0:0:0:
256,192,76899,1,0,0:0:0:0:
256,192,77066,1,0,0:0:0:0:
256,192,77149,1,8,0:0:0:0:
256,192,77316,1,0,0:0:0:0:
256,192,77482,1,8,0:0:0:0:
256,192,77566,1,8,0:0:0:0:
256,192,77649,1,0,0:0:0:0:
256,192,77732,1,8,0:0:0:0:
256,192,77816,1,0,0:0:0:0:
256,192,77899,1,0,0:0:0:0:
256,192,77982,1,8,0:0:0:0:
256,192,78149,1,8,0:0:0:0:
256,192,78232,1,0,0:0:0:0:
256,192,78316,1,8,0:0:0:0:
256,192,78399,1,8,0:0:0:0:
256,192,78482,1,0,0:0:0:0:
256,192,78649,1,0,0:0:0:0:
256,192,78816,1,8,0:0:0:0:
256,192,78899,1,0,0:0:0:0:
256,192,78982,1,0,0:0:0:0:
256,192,79149,1,8,0:0:0:0:
256,192,79232,1,8,0:0:0:0:
256,192,79316,1,0,0:0:0:0:
256,192,79399,1,8,0:0:0:0:
256,192,79482,1,0,0:0:0:0:
256,192,79566,1,8,0:0:0:0:
256,192,79649,1,0,0:0:0:0:
256,192,79732,1,0,0:0:0:0:
256,192,79816,1,8,0:0:0:0:
256,192,79899,1,8,0:0:0:0:
256,192,79982,1,0,0:0:0:0:
256,192,80232,1,8,0:0:0:0:
256,192,80316,1,0,0:0:0:0:
256,192,80482,1,8,0:0:0:0:
256,192,80566,1,0,0:0:0:0:
256,192,80649,1,0,0:0:0:0:
256,192,80732,1,8,0:0:0:0:
256,192,80899,1,8,0:0:0:0:
256,192,80982,1,0,0:0:0:0:
256,192,81149,1,8,0:0:0:0:
256,192,81232,1,8,0:0:0:0:
256,192,81316,1,0,0:0:0:0:
256,192,81566,1,8,0:0:0:0:
256,192,81649,1,0,0:0:0:0:
256,192,81816,1,8,0:0:0:0:
256,192,81899,1,8,0:0:0:0:
256,192,81982,1,0,0:0:0:0:
256,192,82066,1,8,0:0:0:0:
256,192,82232,1,8,0:0:0:0:
256,192,82316,1,0,0:0:0:0:
256,192,82482,1,8,0:0:0:0:
256,192,82566,1,8,0:0:0:0:
256,192,82649,1,0,0:0:0:0:
256,192,82816,1,0,0:0:0:0:
256,192,82899,1,0,0:0:0:0:
256,192,82982,1,8,0:0:0:0:
256,192,83066,1,0,0:0:0:0:
256,192,83149,1,8,0:0:0:0:
256,192,83232,1,8,0:0:0:0:
256,192,83316,1,0,0:0:0:0:
256,192,83371,1,0,0:0:0:0:
256,192,83427,1,0,0:0:0:0:
256,192,83482,1,8,0:0:0:0:
256,192,83538,1,8,0:0:0:0:
256,192,83594,1,8,0:0:0:0:
256,192,83649,1,0,0:0:0:0:
256,192,83732,1,0,0:0:0:0:
256,192,83816,1,8,0:0:0:0:
256,192,83899,1,8,0:0:0:0:
256,192,83982,1,0,0:0:0:0:
256,192,84149,1,8,0:0:0:0:
256,192,84232,1,8,0:0:0:0:
256,192,84316,1,0,0:0:0:0:
256,192,84399,1,8,0:0:0:0:
256,192,84482,1,8,0:0:0:0:
256,192,84566,1,8,0:0:0:0:
256,192,84649,1,0,0:0:0:0:
256,192,84732,1,8,0:0:0:0:
256,192,84816,1,0,0:0:0:0:
256,192,84899,1,8,0:0:0:0:
256,192,84982,1,8,0:0:0:0:
256,192,85066,1,0,0:0:0:0:
256,192,85149,1,8,0:0:0:0:
256,192,85232,1,0,0:0:0:0:
256,192,85316,1,8,0:0:0:0:
256,192,85399,1,8,0:0:0:0:
256,192,85482,1,0,0:0:0:0:
256,192,85538,1,8,0:0:0:0:
256,192,85594,1,8,0:0:0:0:
256,192,85649,1,0,0:0:0:0:
256,192,85732,1,0,0:0:0:0:
256,192,85816,1,8,0:0:0:0:
256,192,85871,1,0,0:0:0:0:
256,192,85927,1,0,0:0:0:0:
256,192,85982,1,8,0:0:0:0:
256,192,86066,1,0,0:0:0:0:
256,192,86149,1,8,0:0:0:0:
256,192,86205,1,8,0:0:0:0:
256,192,86260,1,8,0:0:0:0:
256,192,86316,1,0,0:0:0:0:
256,192,86399,1,0,0:0:0:0:
256,192,86482,1,8,0:0:0:0:
256,192,86538,1,0,0:0:0:0:
256,192,86594,1,0,0:0:0:0:
256,192,86649,1,8,0:0:0:0:
256,192,86816,1,8,0:0:0:0:
256,192,86899,1,0,0:0:0:0:
256,192,86982,1,8,0:0:0:0:
256,192,87066,1,8,0:0:0:0:
256,192,87149,1,0,0:0:0:0:
256,192,87316,1,0,0:0:0:0:
256,192,87482,1,8,0:0:0:0:
256,192,87566,1,0,0:0:0:0:
256,192,87732,1,0,0:0:0:0:
256,192,87816,1,8,0:0:0:0:
256,192,87982,1,0,0:0:0:0:
256,192,88149,1,8,0:0:0:0:
256,192,88232,1,8,0:0:0:0:
256,192,88316,1,0,0:0:0:0:
256,192,88399,1,0,0:0:0:0:
256,192,88482,1,8,0:0:0:0:
256,192,88649,1,0,0:0:0:0:
256,192,88816,1,8,0:0:0:0:
256,192,88899,1,0,0:0:0:0:
256,192,88982,1,0,0:0:0:0:
256,192,89066,1,0,0:0:0:0:
256,192,89149,1,8,0:0:0:0:
256,192,89316,1,0,0:0:0:0:
256,192,89482,1,8,0:0:0:0:
256,192,89566,1,8,0:0:0:0:
256,192,89649,1,8,0:0:0:0:
256,192,89732,1,8,0:0:0:0:
256,192,89816,1,8,0:0:0:0:
256,192,89871,1,8,0:0:0:0:
256,192,89927,1,8,0:0:0:0:
256,192,89982,1,8,0:0:0:0:
256,192,90066,1,8,0:0:0:0:
256,192,90149,1,8,0:0:0:0:
256,192,90205,1,8,0:0:0:0:
256,192,90260,1,8,0:0:0:0:
256,192,90316,1,0,0:0:0:0:
256,192,90482,1,0,0:0:0:0:
256,192,90649,1,0,0:0:0:0:
256,192,90732,1,0,0:0:0:0:
256,192,90816,1,0,0:0:0:0:
256,192,90899,1,0,0:0:0:0:
256,192,90982,1,8,0:0:0:0:
256,192,91149,1,0,0:0:0:0:
256,192,91232,1,0,0:0:0:0:
256,192,91316,1,0,0:0:0:0:
256,192,91399,1,8,0:0:0:0:
256,192,91482,1,8,0:0:0:0:
256,192,91649,1,0,0:0:0:0:
256,192,91732,1,0,0:0:0:0:
256,192,91816,1,8,0:0:0:0:
256,192,91899,1,8,0:0:0:0:
256,192,91982,1,8,0:0:0:0:
256,192,92149,1,0,0:0:0:0:
256,192,92205,1,8,0:0:0:0:
256,192,92260,1,8,0:0:0:0:
256,192,92316,1,0,0:0:0:0:
256,192,92399,1,0,0:0:0:0:
256,192,92482,1,8,0:0:0:0:
256,192,92566,1,0,0:0:0:0:
256,192,92649,1,8,0:0:0:0:
256,192,92732,1,8,0:0:0:0:
256,192,92816,1,0,0:0:0:0:
256,192,92899,1,0,0:0:0:0:
256,192,92982,1,8,0:0:0:0:
256,192,93066,1,0,0:0:0:0:
256,192,93149,1,8,0:0:0:0:
256,192,93232,1,8,0:0:0:0:
256,192,93316,1,0,0:0:0:0:
256,192,93399,1,0,0:0:0:0:
256,192,93482,1,0,0:0:0:0:
256,192,93566,1,8,0:0:0:0:
256,192,93649,1,8,0:0:0:0:
256,192,93732,1,0,0:0:0:0:
256,192,93816,1,0,0:0:0:0:
256,192,93899,1,8,0:0:0:0:
256,192,93982,1,8,0:0:0:0:
256,192,94066,1,0,0:0:0:0:
256,192,94149,1,8,0:0:0:0:
256,192,94232,1,0,0:0:0:0:
256,192,94316,1,0,0:0:0:0:
256,192,94399,1,8,0:0:0:0:
256,192,94482,1,0,0:0:0:0:
256,192,94566,1,0,0:0:0:0:
256,192,94649,1,8,0:0:0:0:
256,192,94816,1,0,0:0:0:0:
256,192,94871,1,8,0:0:0:0:
256,192,94927,1,0,0:0:0:0:
256,192,94982,1,0,0:0:0:0:
256,192,95066,1,0,0:0:0:0:
256,192,95149,1,8,0:0:0:0:
256,192,95232,1,0,0:0:0:0:
256,192,95316,1,8,0:0:0:0:
256,192,95399,1,8,0:0:0:0:
256,192,95482,1,0,0:0:0:0:
256,192,95566,1,0,0:0:0:0:
256,192,95649,1,8,0:0:0:0:
256,192,95732,1,8,0:0:0:0:
256,192,95899,1,8,0:0:0:0:
256,192,95982,1,0,0:0:0:0:
256,192,96066,1,0,0:0:0:0:
256,192,96149,1,8,0:0:0:0:
256,192,96232,1,0,0:0:0:0:
256,192,96316,1,8,0:0:0:0:
256,192,96482,1,0,0:0:0:0:
256,192,96538,1,0,0:0:0:0:
256,192,96594,1,0,0:0:0:0:
256,192,96649,1,8,0:0:0:0:
256,192,96705,1,8,0:0:0:0:
256,192,96760,1,8,0:0:0:0:
256,192,96816,1,0,0:0:0:0:
256,192,96982,1,0,0:0:0:0:
256,192,97066,1,0,0:0:0:0:
256,192,97149,1,8,0:0:0:0:
256,192,97232,1,0,0:0:0:0:
256,192,97316,1,8,0:0:0:0:
256,192,97482,1,0,0:0:0:0:
256,192,97538,1,8,0:0:0:0:
256,192,97594,1,8,0:0:0:0:
256,192,97649,1,8,0:0:0:0:
256,192,97705,1,8,0:0:0:0:
256,192,97760,1,8,0:0:0:0:
256,192,97816,1,0,0:0:0:0:
256,192,97899,1,0,0:0:0:0:
256,192,97982,1,8,0:0:0:0:
256,192,98066,1,8,0:0:0:0:
256,192,98149,1,0,0:0:0:0:
256,192,98232,1,0,0:0:0:0:
256,192,98316,1,8,0:0:0:0:
256,192,98399,1,0,0:0:0:0:
256,192,98482,1,8,0:0:0:0:
256,192,98566,1,0,0:0:0:0:
256,192,98649,1,8,0:0:0:0:
256,192,98732,1,8,0:0:0:0:
256,192,98816,1,0,0:0:0:0:
256,192,98871,1,0,0:0:0:0:
256,192,98927,1,0,0:0:0:0:
256,192,98982,1,8,0:0:0:0:
256,192,99066,1,8,0:0:0:0:
256,192,99121,1,0,0:0:0:0:
256,192,99177,1,0,0:0:0:0:
256,192,99232,1,8,0:0:0:0:
256,192,99316,1,0,0:0:0:0:
256,192,99371,1,0,0:0:0:0:
256,192,99427,1,0,0:0:0:0:
256,192,99482,1,8,0:0:0:0:
256,192,99566,1,8,0:0:0:0:
256,192,99649,1,0,0:0:0:0:
256,192,99732,1,8,0:0:0:0:
256,192,99816,1,0,0:0:0:0:
256,192,99899,1,0,0:0:0:0:
256,192,99982,1,8,0:0:0:0:
256,192,100149,1,8,0:0:0:0:
256,192,100232,1,8,0:0:0:0:
256,192,100316,1,0,0:0:0:0:
256,192,100399,1,0,0:0:0:0:
256,192,100482,1,8,0:0:0:0:
256,192,100566,1,0,0:0:0:0:
256,192,100649,1,8,0:0:0:0:
256,192,100732,1,8,0:0:0:0:
256,192,100816,1,0,0:0:0:0:
256,192,100899,1,0,0:0:0:0:
256,192,100982,1,8,0:0:0:0:
256,192,101066,1,8,0:0:0:0:
256,192,101149,1,8,0:0:0:0:
256,192,101232,1,8,0:0:0:0:
256,192,101316,1,0,0:0:0:0:
256,192,111482,5,0,0:0:0:0:
256,192,111566,1,0,0:0:0:0:
256,192,111649,1,8,0:0:0:0:
256,192,111732,1,0,0:0:0:0:
256,192,111816,1,8,0:0:0:0:
256,192,111899,1,8,0:0:0:0:
256,192,111982,1,0,0:0:0:0:
256,192,112649,1,8,0:0:0:0:
256,192,112816,1,0,0:0:0:0:
256,192,112982,1,8,0:0:0:0:
256,192,113149,1,0,0:0:0:0:
256,192,113482,1,8,0:0:0:0:
256,192,113649,1,8,0:0:0:0:
256,192,113816,1,0,0:0:0:0:
256,192,114149,1,8,0:0:0:0:
256,192,114482,1,8,0:0:0:0:
256,192,114649,1,0,0:0:0:0:
256,192,114982,1,8,0:0:0:0:
256,192,115149,1,8,0:0:0:0:
256,192,115232,1,8,0:0:0:0:
256,192,115316,1,0,0:0:0:0:
256,192,115399,1,8,0:0:0:0:
256,192,115482,1,0,0:0:0:0:
256,192,115649,1,8,0:0:0:0:
256,192,115816,1,0,0:0:0:0:
256,192,116149,1,0,0:0:0:0:
256,192,116316,1,8,0:0:0:0:
256,192,116482,1,0,0:0:0:0:
256,192,116816,1,0,0:0:0:0:
256,192,116982,1,8,0:0:0:0:
256,192,117149,1,0,0:0:0:0:
256,192,117232,1,0,0:0:0:0:
256,192,117316,1,8,0:0:0:0:
256,192,117482,1,0,0:0:0:0:
256,192,117649,1,8,0:0:0:0:
256,192,117982,1,8,0:0:0:0:
256,192,118149,1,0,0:0:0:0:
256,192,118316,1,8,0:0:0:0:
256,192,118482,1,8,0:0:0:0:
256,192,118649,1,0,0:0:0:0:
256,192,118816,1,8,0:0:0:0:
256,192,118982,1,8,0:0:0:0:
256,192,119149,1,0,0:0:0:0:
256,192,119316,1,8,0:0:0:0:
256,192,119482,1,8,0:0:0:0:
256,192,119566,1,8,0:0:0:0:
256,192,119649,1,0,0:0:0:0:
256,192,119732,1,8,0:0:0:0:
256,192,119816,1,8,0:0:0:0:
256,192,119982,1,8,0:0:0:0:
256,192,120066,1,8,0:0:0:0:
256,192,120149,1,8,0:0:0:0:
256,192,120232,1,8,0:0:0:0:
256,192,120316,1,0,0:0:0:0:
256,192,120399,1,0,0:0:0:0:
256,192,120482,1,8,0:0:0:0:
256,192,120538,1,8,0:0:0:0:
256,192,120594,1,8,0:0:0:0:
256,192,120649,1,0,0:0:0:0:
256,192,120732,1,0,0:0:0:0:
256,192,120816,1,8,0:0:0:0:
256,192,120871,1,0,0:0:0:0:
256,192,120927,1,0,0:0:0:0:
256,192,120982,1,8,0:0:0:0:
256,192,121038,1,8,0:0:0:0:
256,192,121094,1,8,0:0:0:0:
256,192,121149,1,0,0:0:0:0:
256,192,121232,1,0,0:0:0:0:
256,192,121316,1,8,0:0:0:0:
256,192,121399,1,8,0:0:0:0:
256,192,121482,1,0,0:0:0:0:
256,192,121566,1,8,0:0:0:0:
256,192,121649,1,0,0:0:0:0:
256,192,121705,1,0,0:0:0:0:
256,192,121760,1,0,0:0:0:0:
256,192,121816,1,8,0:0:0:0:
256,192,122149,1,8,0:0:0:0:
256,192,122316,1,8,0:0:0:0:
256,192,122482,1,8,0:0:0:0:
