osu file format v14

[General]
AudioFilename: audio.mp3
AudioLeadIn: 0
PreviewTime: 186582
Countdown: 0
SampleSet: Normal
StackLeniency: 0.7
Mode: 1
LetterboxInBreaks: 0
WidescreenStoryboard: 0

[Editor]
DistanceSpacing: 0.7
BeatDivisor: 4
GridSize: 32
TimelineZoom: 3.599999

[Metadata]
Title:Future Coaster
TitleUnicode:Future Coaster
Artist:Sakuzyo
ArtistUnicode:Sakuzyo
Creator:TKS
Version:Hell Oni
Source:GROOVE COASTER 3EX DREAM PARTY
Tags:グルーヴコースター ドリームパーティ ac taito タイトー C93 Cyber Meteoroid
BeatmapID:1628823
BeatmapSetID:775082

[Difficulty]
HPDrainRate:6.5
CircleSize:5
OverallDifficulty:6.5
ApproachRate:5
SliderMultiplier:1.4
SliderTickRate:1

[Events]
//Background and Video events
0,0,"bg.jpg",0,0
//Break Periods
2,103999,110299
2,247999,254299
//Storyboard Layer 0 (Background)
//Storyboard Layer 1 (Fail)
//Storyboard Layer 2 (Pass)
//Storyboard Layer 3 (Foreground)
//Storyboard Sound Samples

[TimingPoints]
0,333.333333333333,4,1,0,85,1,8
2666,333.333333333333,4,1,0,85,1,0
45415,-117.647058823529,4,1,0,65,0,0
55915,-100,4,1,0,85,0,0
61415,-100,4,1,0,5,0,0
63915,-100,4,1,0,85,0,0
69332,-100,4,1,0,85,0,1
89332,-100,4,1,0,85,0,0
89415,-105.263157894737,4,1,0,80,0,0
90665,-100,4,1,0,85,0,1
101332,-100,4,1,0,85,0,0
101415,-133.333333333333,4,1,0,5,0,0
111415,-100,4,1,0,85,0,0
122082,-111.111111111111,4,1,0,85,0,0
122249,-120.481927710843,4,1,0,80,0,0
122415,-128.205128205128,4,1,0,75,0,0
122582,-133.333333333333,4,1,0,70,0,0
133249,-113.636363636364,4,1,0,75,0,0
138582,-100,4,1,0,85,0,0
186665,-100,4,1,0,85,0,1
205332,-100,4,1,0,85,0,0
213054,-98.0392156862745,4,1,0,85,0,0
213138,-96.1538461538461,4,1,0,85,0,0
213221,-93.4579439252336,4,1,0,85,0,0
213332,-90.9090909090909,4,1,0,85,0,1
233332,-90.9090909090909,4,1,0,85,0,0
233415,-95.2380952380952,4,1,0,85,0,0
234665,-90.9090909090909,4,1,0,85,0,1
245332,-90.9090909090909,4,1,0,85,0,0
245415,-133.333333333333,4,1,0,5,0,0
255415,-100,4,1,0,85,0,0
266082,-100,4,1,0,60,0,0
266582,-100,4,1,0,5,0,0

[HitObjects]
256,192,2000,5,8,0:0:0:0:
256,192,2333,1,0,0:0:0:0:
256,192,2666,1,4,0:0:0:0:
256,192,3666,1,0,0:0:0:0:
256,192,3832,1,8,0:0:0:0:
256,192,4499,1,0,0:0:0:0:
256,192,5332,1,0,0:0:0:0:
256,192,6332,1,8,0:0:0:0:
256,192,6499,1,0,0:0:0:0:
256,192,7166,1,0,0:0:0:0:
256,192,7666,1,8,0:0:0:0:
256,192,7999,1,0,0:0:0:0:
256,192,8999,1,0,0:0:0:0:
256,192,9165,1,8,0:0:0:0:
256,192,9832,1,0,0:0:0:0:
256,192,10665,1,0,0:0:0:0:
256,192,11665,1,8,0:0:0:0:
256,192,11832,1,8,0:0:0:0:
256,192,12499,1,0,0:0:0:0:
256,192,12832,1,0,0:0:0:0:
256,192,12916,1,0,0:0:0:0:
256,192,12999,1,8,0:0:0:0:
256,192,13082,1,0,0:0:0:0:
256,192,13166,1,8,0:0:0:0:
256,192,13249,1,8,0:0:0:0:
256,192,13332,1,0,0:0:0:0:
256,192,13666,1,8,0:0:0:0:
256,192,13999,1,8,0:0:0:0:
256,192,14332,1,0,0:0:0:0:
256,192,14498,1,8,0:0:0:0:
256,192,14999,1,8,0:0:0:0:
256,192,15165,1,0,0:0:0:0:
256,192,15666,1,8,0:0:0:0:
256,192,15998,1,0,0:0:0:0:
256,192,16332,1,8,0:0:0:0:
256,192,16666,1,8,0:0:0:0:
256,192,16998,1,8,0:0:0:0:
256,192,17165,1,0,0:0:0:0:
256,192,17666,1,8,0:0:0:0:
256,192,17832,1,0,0:0:0:0:
256,192,18332,1,8,0:0:0:0:
256,192,18665,1,0,0:0:0:0:
256,192,18999,1,0,0:0:0:0:
256,192,19332,1,0,0:0:0:0:
256,192,19665,1,0,0:0:0:0:
256,192,19831,1,8,0:0:0:0:
256,192,19999,1,0,0:0:0:0:
256,192,20332,1,0,0:0:0:0:
256,192,20666,1,0,0:0:0:0:
256,192,20832,1,8,0:0:0:0:
256,192,20916,1,8,0:0:0:0:
256,192,20999,1,0,0:0:0:0:
256,192,21082,1,0,0:0:0:0:
256,192,21166,1,8,0:0:0:0:
256,192,21331,1,0,0:0:0:0:
256,192,21416,1,8,0:0:0:0:
256,192,21499,1,8,0:0:0:0:
256,192,21582,1,0,0:0:0:0:
256,192,21666,1,8,0:0:0:0:
256,192,21749,1,0,0:0:0:0:
256,192,21832,1,8,0:0:0:0:
256,192,21888,1,8,0:0:0:0:
256,192,21943,1,8,0:0:0:0:
256,192,21999,1,0,0:0:0:0:
256,192,22082,1,8,0:0:0:0:
256,192,22166,1,0,0:0:0:0:
256,192,22221,1,0,0:0:0:0:
256,192,22277,1,0,0:0:0:0:
256,192,22331,1,8,0:0:0:0:
256,192,22388,1,0,0:0:0:0:
256,192,22443,1,0,0:0:0:0:
256,192,22498,1,8,0:0:0:0:
256,192,22582,1,8,0:0:0:0:
256,192,22666,1,0,0:0:0:0:
256,192,22749,1,8,0:0:0:0:
256,192,22832,1,0,0:0:0:0:
256,192,22916,1,0,0:0:0:0:
256,192,22999,1,8,0:0:0:0:
256,192,23054,1,0,0:0:0:0:
256,192,23110,1,0,0:0:0:0:
256,192,23165,1,8,0:0:0:0:
256,192,23249,1,8,0:0:0:0:
256,192,23332,1,0,0:0:0:0:
256,192,23416,1,0,0:0:0:0:
256,192,23499,1,0,0:0:0:0:
256,192,23582,1,0,0:0:0:0:
256,192,23666,1,8,0:0:0:0:
256,192,23999,1,4,0:0:0:0:
256,192,24249,1,0,0:0:0:0:
256,192,24332,1,8,0:0:0:0:
256,192,24499,1,8,0:0:0:0:
256,192,24582,1,0,0:0:0:0:
256,192,24749,1,0,0:0:0:0:
256,192,24832,1,0,0:0:0:0:
256,192,24999,1,8,0:0:0:0:
256,192,25166,1,8,0:0:0:0:
256,192,25249,1,8,0:0:0:0:
256,192,25332,1,0,0:0:0:0:
256,192,25582,1,0,0:0:0:0:
256,192,25666,1,8,0:0:0:0:
256,192,25832,1,8,0:0:0:0:
256,192,25916,1,0,0:0:0:0:
256,192,26082,1,0,0:0:0:0:
256,192,26249,1,0,0:0:0:0:
256,192,26332,1,8,0:0:0:0:
256,192,26416,1,0,0:0:0:0:
256,192,26499,1,8,0:0:0:0:
256,192,26582,1,8,0:0:0:0:
256,192,26666,1,0,0:0:0:0:
256,192,26916,1,0,0:0:0:0:
256,192,26999,1,8,0:0:0:0:
256,192,27166,1,8,0:0:0:0:
256,192,27249,1,0,0:0:0:0:
256,192,27332,1,8,0:0:0:0:
256,192,27416,1,0,0:0:0:0:
256,192,27499,1,0,0:0:0:0:
256,192,27666,1,8,0:0:0:0:
256,192,27833,1,8,0:0:0:0:
256,192,27999,1,4,0:0:0:0:
256,192,28249,1,0,0:0:0:0:
256,192,28333,1,8,0:0:0:0:
256,192,28499,1,4,0:0:0:0:
256,192,28749,1,0,0:0:0:0:
256,192,28832,1,0,0:0:0:0:
256,192,28916,1,8,0:0:0:0:
256,192,28999,1,0,0:0:0:0:
256,192,29166,1,8,0:0:0:0:
256,192,29249,1,8,0:0:0:0:
256,192,29333,1,0,0:0:0:0:
256,192,29582,1,0,0:0:0:0:
256,192,29665,1,8,0:0:0:0:
256,192,29832,1,8,0:0:0:0:
256,192,29915,1,8,0:0:0:0:
256,192,29999,1,8,0:0:0:0:
256,192,30082,1,0,0:0:0:0:
256,192,30249,1,0,0:0:0:0:
256,192,30332,1,8,0:0:0:0:
256,192,30499,1,8,0:0:0:0:
256,192,30582,1,8,0:0:0:0:
256,192,30665,1,0,0:0:0:0:
256,192,30915,1,0,0:0:0:0:
256,192,30999,1,8,0:0:0:0:
256,192,31165,1,8,0:0:0:0:
256,192,31249,1,8,0:0:0:0:
256,192,31332,1,8,0:0:0:0:
256,192,31415,1,0,0:0:0:0:
256,192,31582,1,0,0:0:0:0:
256,192,31665,1,8,0:0:0:0:
256,192,31749,1,0,0:0:0:0:
256,192,31832,1,8,0:0:0:0:
256,192,31915,1,8,0:0:0:0:
256,192,31999,1,0,0:0:0:0:
256,192,32249,1,0,0:0:0:0:
256,192,32332,1,8,0:0:0:0:
256,192,32499,1,8,0:0:0:0:
256,192,32582,1,0,0:0:0:0:
256,192,32665,1,8,0:0:0:0:
256,192,32749,1,0,0:0:0:0:
256,192,32832,1,0,0:0:0:0:
256,192,32999,1,8,0:0:0:0:
256,192,33054,1,8,0:0:0:0:
256,192,33110,1,8,0:0:0:0:
256,192,33166,1,8,0:0:0:0:
256,192,33249,1,8,0:0:0:0:
256,192,33332,1,0,0:0:0:0:
256,192,33582,1,8,0:0:0:0:
256,192,33666,1,0,0:0:0:0:
256,192,33832,1,12,0:0:0:0:
256,192,34165,1,0,0:0:0:0:
256,192,34249,1,0,0:0:0:0:
256,192,34332,1,8,0:0:0:0:
256,192,34499,1,8,0:0:0:0:
256,192,34666,1,4,0:0:0:0:
256,192,34915,1,0,0:0:0:0:
256,192,34998,1,8,0:0:0:0:
256,192,35165,1,8,0:0:0:0:
256,192,35248,1,0,0:0:0:0:
256,192,35415,1,0,0:0:0:0:
256,192,35498,1,0,0:0:0:0:
256,192,35582,1,0,0:0:0:0:
256,192,35665,1,8,0:0:0:0:
256,192,35749,1,0,0:0:0:0:
256,192,35832,1,8,0:0:0:0:
256,192,35915,1,8,0:0:0:0:
256,192,35998,1,0,0:0:0:0:
256,192,36248,1,0,0:0:0:0:
256,192,36332,1,8,0:0:0:0:
256,192,36498,1,8,0:0:0:0:
256,192,36582,1,0,0:0:0:0:
256,192,36748,1,0,0:0:0:0:
256,192,36832,1,8,0:0:0:0:
256,192,36915,1,0,0:0:0:0:
256,192,36999,1,8,0:0:0:0:
256,192,37082,1,0,0:0:0:0:
256,192,37165,1,0,0:0:0:0:
256,192,37248,1,8,0:0:0:0:
256,192,37332,1,0,0:0:0:0:
256,192,37499,1,0,0:0:0:0:
256,192,37665,1,8,0:0:0:0:
256,192,37832,1,8,0:0:0:0:
256,192,37915,1,0,0:0:0:0:
256,192,37998,1,8,0:0:0:0:
256,192,38082,1,0,0:0:0:0:
256,192,38165,1,0,0:0:0:0:
256,192,38249,1,8,0:0:0:0:
256,192,38332,1,8,0:0:0:0:
256,192,38415,1,0,0:0:0:0:
256,192,38499,1,8,0:0:0:0:
256,192,38665,1,4,0:0:0:0:
256,192,38915,1,0,0:0:0:0:
256,192,38999,1,8,0:0:0:0:
256,192,39165,1,4,0:0:0:0:
256,192,39415,1,0,0:0:0:0:
256,192,39498,1,0,0:0:0:0:
256,192,39582,1,8,0:0:0:0:
256,192,39665,1,0,0:0:0:0:
256,192,39832,1,8,0:0:0:0:
256,192,39915,1,8,0:0:0:0:
256,192,39999,1,0,0:0:0:0:
256,192,40165,1,0,0:0:0:0:
256,192,40248,1,0,0:0:0:0:
256,192,40331,1,8,0:0:0:0:
256,192,40498,1,8,0:0:0:0:
256,192,40581,1,8,0:0:0:0:
256,192,40665,1,0,0:0:0:0:
256,192,40748,1,8,0:0:0:0:
256,192,40832,1,0,0:0:0:0:
256,192,40915,1,0,0:0:0:0:
256,192,40998,1,8,0:0:0:0:
256,192,41082,1,0,0:0:0:0:
256,192,41165,1,8,0:0:0:0:
256,192,41248,1,8,0:0:0:0:
256,192,41331,1,0,0:0:0:0:
256,192,41499,1,0,0:0:0:0:
256,192,41582,1,8,0:0:0:0:
256,192,41665,1,0,0:0:0:0:
256,192,41831,1,12,0:0:0:0:
256,192,42165,1,0,0:0:0:0:
256,192,42248,1,0,0:0:0:0:
256,192,42331,1,8,0:0:0:0:
256,192,42415,1,0,0:0:0:0:
256,192,42498,1,8,0:0:0:0:
256,192,42581,1,8,0:0:0:0:
256,192,42665,1,0,0:0:0:0:
256,192,42749,1,8,0:0:0:0:
256,192,42832,1,0,0:0:0:0:
256,192,42915,1,0,0:0:0:0:
256,192,42998,1,8,0:0:0:0:
256,192,43082,1,0,0:0:0:0:
256,192,43165,1,8,0:0:0:0:
256,192,43221,1,8,0:0:0:0:
256,192,43277,1,8,0:0:0:0:
256,192,43331,1,0,0:0:0:0:
256,192,43415,1,0,0:0:0:0:
256,192,43498,1,8,0:0:0:0:
256,192,43582,1,0,0:0:0:0:
256,192,43665,1,8,0:0:0:0:
256,192,43720,1,8,0:0:0:0:
256,192,43776,1,8,0:0:0:0:
256,192,43832,1,0,0:0:0:0:
256,192,43915,1,8,0:0:0:0:
256,192,43998,1,0,0:0:0:0:
256,192,44082,1,0,0:0:0:0:
256,192,44165,1,8,0:0:0:0:
256,192,44249,1,0,0:0:0:0:
256,192,44332,1,8,0:0:0:0:
256,192,44415,1,8,0:0:0:0:
256,192,44498,1,0,0:0:0:0:
256,192,44582,1,8,0:0:0:0:
256,192,44665,1,0,0:0:0:0:
256,192,44721,1,0,0:0:0:0:
256,192,44777,1,0,0:0:0:0:
256,192,44831,1,8,0:0:0:0:
256,192,44915,1,0,0:0:0:0:
256,192,44998,1,8,0:0:0:0:
256,192,45054,1,8,0:0:0:0:
256,192,45110,1,8,0:0:0:0:
256,192,45165,1,0,0:0:0:0:
256,192,45249,1,8,0:0:0:0:
256,192,45332,1,0,0:0:0:0:
256,192,46499,1,8,0:0:0:0:
256,192,46665,1,8,0:0:0:0:
256,192,47165,1,8,0:0:0:0:
256,192,47249,1,8,0:0:0:0:
256,192,47332,1,8,0:0:0:0:
256,192,47582,1,8,0:0:0:0:
256,192,47832,1,8,0:0:0:0:
256,192,47999,1,0,0:0:0:0:
256,192,48332,1,8,0:0:0:0:
256,192,48499,1,8,0:0:0:0:
256,192,49665,1,8,0:0:0:0:
256,192,49832,1,8,0:0:0:0:
256,192,49999,1,8,0:0:0:0:
256,192,50249,1,8,0:0:0:0:
256,192,50499,1,8,0:0:0:0:
256,192,50665,1,0,0:0:0:0:
256,192,51165,1,8,0:0:0:0:
256,192,51249,1,8,0:0:0:0:
256,192,51332,1,8,0:0:0:0:
256,192,51582,1,8,0:0:0:0:
256,192,51832,1,8,0:0:0:0:
256,192,51999,1,8,0:0:0:0:
256,192,52665,1,8,0:0:0:0:
256,192,52915,1,8,0:0:0:0:
256,192,53165,1,8,0:0:0:0:
256,192,53332,1,0,0:0:0:0:
256,192,53832,1,8,0:0:0:0:
256,192,53915,1,8,0:0:0:0:
256,192,53999,1,8,0:0:0:0:
256,192,54249,1,8,0:0:0:0:
256,192,54499,1,8,0:0:0:0:
256,192,54832,1,8,0:0:0:0:
256,192,54999,1,8,0:0:0:0:
256,192,55165,1,8,0:0:0:0:
256,192,55332,1,0,0:0:0:0:
256,192,55388,1,0,0:0:0:0:
256,192,55443,1,0,0:0:0:0:
256,192,55499,1,0,0:0:0:0:
256,192,55582,1,0,0:0:0:0:
256,192,55665,1,0,0:0:0:0:
256,192,55832,1,8,0:0:0:0:
256,192,55999,1,4,0:0:0:0:
256,192,56249,1,8,0:0:0:0:
256,192,56332,1,0,0:0:0:0:
256,192,56499,1,8,0:0:0:0:
256,192,56665,1,0,0:0:0:0:
256,192,56749,1,0,0:0:0:0:
256,192,56832,1,0,0:0:0:0:
256,192,56915,1,8,0:0:0:0:
256,192,56999,1,0,0:0:0:0:
256,192,57165,1,8,0:0:0:0:
256,192,57332,1,0,0:0:0:0:
256,192,57582,1,8,0:0:0:0:
256,192,57665,1,0,0:0:0:0:
256,192,57832,1,8,0:0:0:0:
256,192,57999,1,0,0:0:0:0:
256,192,58165,1,0,0:0:0:0:
256,192,58249,1,8,0:0:0:0:
256,192,58332,1,0,0:0:0:0:
256,192,58415,1,0,0:0:0:0:
256,192,58499,1,8,0:0:0:0:
256,192,58665,1,0,0:0:0:0:
256,192,58832,1,0,0:0:0:0:
256,192,58915,1,8,0:0:0:0:
256,192,58999,1,0,0:0:0:0:
256,192,59165,1,8,0:0:0:0:
256,192,59332,1,0,0:0:0:0:
256,192,59499,1,8,0:0:0:0:
256,192,59582,1,8,0:0:0:0:
256,192,59665,1,0,0:0:0:0:
256,192,59832,1,8,0:0:0:0:
256,192,59999,1,0,0:0:0:0:
256,192,60249,1,8,0:0:0:0:
256,192,60332,1,0,0:0:0:0:
256,192,60499,1,8,0:0:0:0:
256,192,60582,1,0,0:0:0:0:
256,192,60665,1,8,0:0:0:0:
256,192,60832,1,0,0:0:0:0:
256,192,60915,1,8,0:0:0:0:
256,192,60999,1,0,0:0:0:0:
256,192,61165,1,8,0:0:0:0:
256,192,61249,1,8,0:0:0:0:
256,192,61332,1,0,0:0:0:0:
256,192,63999,1,4,0:0:0:0:
224,192,64665,1,8,0:0:0:0:
256,192,65332,1,0,0:0:0:0:
256,192,65665,1,0,0:0:0:0:
256,192,65999,1,8,0:0:0:0:
256,192,66165,1,0,0:0:0:0:
256,192,66332,1,0,0:0:0:0:
256,192,66499,1,0,0:0:0:0:
256,192,66665,1,0,0:0:0:0:
256,192,66749,1,8,0:0:0:0:
256,192,66832,1,0,0:0:0:0:
256,192,66915,1,0,0:0:0:0:
256,192,66999,1,8,0:0:0:0:
256,192,67165,1,8,0:0:0:0:
256,192,67249,1,8,0:0:0:0:
256,192,67332,1,0,0:0:0:0:
256,192,67415,1,0,0:0:0:0:
256,192,67499,1,0,0:0:0:0:
256,192,67665,1,8,0:0:0:0:
256,192,67832,1,8,0:0:0:0:
256,192,67915,1,8,0:0:0:0:
256,192,67999,1,0,0:0:0:0:
256,192,68082,1,0,0:0:0:0:
256,192,68165,1,0,0:0:0:0:
256,192,68249,1,0,0:0:0:0:
256,192,68332,1,0,0:0:0:0:
256,192,68415,1,0,0:0:0:0:
256,192,68499,1,0,0:0:0:0:
256,192,68582,1,0,0:0:0:0:
256,192,68665,1,8,0:0:0:0:
256,192,68832,1,0,0:0:0:0:
256,192,68888,1,0,0:0:0:0:
256,192,68943,1,0,0:0:0:0:
256,192,68999,1,8,0:0:0:0:
256,192,69082,1,0,0:0:0:0:
256,192,69165,1,8,0:0:0:0:
256,192,69249,1,8,0:0:0:0:
256,192,69332,1,0,0:0:0:0:
256,192,69499,1,0,0:0:0:0:
256,192,69582,1,0,0:0:0:0:
256,192,69665,1,8,0:0:0:0:
256,192,69749,1,0,0:0:0:0:
256,192,69832,1,8,0:0:0:0:
256,192,69915,1,8,0:0:0:0:
256,192,69999,1,0,0:0:0:0:
256,192,70165,1,0,0:0:0:0:
256,192,70249,1,8,0:0:0:0:
256,192,70332,1,0,0:0:0:0:
256,192,70415,1,0,0:0:0:0:
256,192,70499,1,8,0:0:0:0:
256,192,70582,1,0,0:0:0:0:
256,192,70665,1,0,0:0:0:0:
256,192,70749,1,8,0:0:0:0:
256,192,70915,1,8,0:0:0:0:
256,192,70999,1,0,0:0:0:0:
256,192,71082,1,0,0:0:0:0:
256,192,71165,1,8,0:0:0:0:
256,192,71249,1,8,0:0:0:0:
256,192,71332,1,0,0:0:0:0:
256,192,71499,1,8,0:0:0:0:
256,192,71582,1,0,0:0:0:0:
256,192,71749,1,0,0:0:0:0:
256,192,71832,1,8,0:0:0:0:
256,192,71915,1,8,0:0:0:0:
256,192,71999,1,0,0:0:0:0:
256,192,72165,1,0,0:0:0:0:
256,192,72249,1,8,0:0:0:0:
256,192,72332,1,8,0:0:0:0:
256,192,72415,1,0,0:0:0:0:
256,192,72499,1,8,0:0:0:0:
256,192,72582,1,0,0:0:0:0:
256,192,72665,1,0,0:0:0:0:
256,192,72832,1,8,0:0:0:0:
256,192,72915,1,0,0:0:0:0:
256,192,72999,1,8,0:0:0:0:
256,192,73082,1,8,0:0:0:0:
256,192,73165,1,0,0:0:0:0:
256,192,73249,1,8,0:0:0:0:
256,192,73332,1,0,0:0:0:0:
256,192,73499,1,8,0:0:0:0:
256,192,73582,1,8,0:0:0:0:
256,192,73749,1,0,0:0:0:0:
256,192,73832,1,8,0:0:0:0:
256,192,73999,1,0,0:0:0:0:
256,192,74082,1,0,0:0:0:0:
256,192,74249,1,8,0:0:0:0:
256,192,74332,1,0,0:0:0:0:
256,192,74415,1,0,0:0:0:0:
256,192,74499,1,8,0:0:0:0:
256,192,74582,1,8,0:0:0:0:
256,192,74665,1,0,0:0:0:0:
256,192,74832,1,0,0:0:0:0:
256,192,74915,1,0,0:0:0:0:
256,192,74998,1,8,0:0:0:0:
256,192,75082,1,0,0:0:0:0:
256,192,75165,1,8,0:0:0:0:
256,192,75248,1,8,0:0:0:0:
256,192,75332,1,0,0:0:0:0:
256,192,75498,1,0,0:0:0:0:
256,192,75582,1,8,0:0:0:0:
256,192,75665,1,0,0:0:0:0:
256,192,75748,1,0,0:0:0:0:
256,192,75832,1,8,0:0:0:0:
256,192,75915,1,0,0:0:0:0:
256,192,75998,1,0,0:0:0:0:
256,192,76082,1,8,0:0:0:0:
256,192,76248,1,8,0:0:0:0:
256,192,76332,1,0,0:0:0:0:
256,192,76415,1,0,0:0:0:0:
256,192,76498,1,8,0:0:0:0:
256,192,76582,1,8,0:0:0:0:
256,192,76665,1,0,0:0:0:0:
256,192,76832,1,8,0:0:0:0:
256,192,76915,1,0,0:0:0:0:
256,192,77082,1,0,0:0:0:0:
256,192,77165,1,8,0:0:0:0:
256,192,77248,1,8,0:0:0:0:
256,192,77332,1,0,0:0:0:0:
256,192,77498,1,0,0:0:0:0:
256,192,77582,1,0,0:0:0:0:
256,192,77665,1,8,0:0:0:0:
256,192,77748,1,0,0:0:0:0:
256,192,77832,1,8,0:0:0:0:
256,192,77915,1,8,0:0:0:0:
256,192,77998,1,8,0:0:0:0:
256,192,78082,1,0,0:0:0:0:
256,192,78165,1,0,0:0:0:0:
256,192,78248,1,8,0:0:0:0:
256,192,78332,1,0,0:0:0:0:
256,192,78415,1,0,0:0:0:0:
256,192,78498,1,8,0:0:0:0:
256,192,78665,1,0,0:0:0:0:
256,192,78832,1,8,0:0:0:0:
256,192,78915,1,8,0:0:0:0:
256,192,79082,1,0,0:0:0:0:
256,192,79165,1,8,0:0:0:0:
256,192,79332,1,0,0:0:0:0:
256,192,79415,1,8,0:0:0:0:
256,192,79499,1,0,0:0:0:0:
256,192,79582,1,8,0:0:0:0:
256,192,79665,1,0,0:0:0:0:
256,192,79748,1,0,0:0:0:0:
256,192,79832,1,8,0:0:0:0:
256,192,79915,1,8,0:0:0:0:
256,192,79998,1,0,0:0:0:0:
256,192,80165,1,0,0:0:0:0:
256,192,80249,1,0,0:0:0:0:
256,192,80332,1,8,0:0:0:0:
256,192,80415,1,8,0:0:0:0:
256,192,80499,1,8,0:0:0:0:
256,192,80665,1,0,0:0:0:0:
256,192,80832,1,0,0:0:0:0:
256,192,80915,1,8,0:0:0:0:
256,192,80999,1,0,0:0:0:0:
256,192,81082,1,0,0:0:0:0:
256,192,81165,1,8,0:0:0:0:
256,192,81332,1,0,0:0:0:0:
256,192,81499,1,8,0:0:0:0:
256,192,81582,1,8,0:0:0:0:
256,192,81665,1,0,0:0:0:0:
256,192,81749,1,0,0:0:0:0:
256,192,81832,1,8,0:0:0:0:
256,192,81999,1,0,0:0:0:0:
256,192,82165,1,8,0:0:0:0:
256,192,82249,1,0,0:0:0:0:
256,192,82415,1,0,0:0:0:0:
256,192,82499,1,8,0:0:0:0:
256,192,82582,1,8,0:0:0:0:
256,192,82665,1,0,0:0:0:0:
256,192,82832,1,8,0:0:0:0:
256,192,82915,1,0,0:0:0:0:
256,192,82999,1,8,0:0:0:0:
256,192,83082,1,8,0:0:0:0:
256,192,83165,1,0,0:0:0:0:
256,192,83249,1,8,0:0:0:0:
256,192,83332,1,0,0:0:0:0:
256,192,83388,1,0,0:0:0:0:
256,192,83443,1,0,0:0:0:0:
256,192,83499,1,8,0:0:0:0:
256,192,83554,1,8,0:0:0:0:
256,192,83610,1,8,0:0:0:0:
256,192,83665,1,0,0:0:0:0:
256,192,83749,1,0,0:0:0:0:
256,192,83832,1,8,0:0:0:0:
256,192,83915,1,8,0:0:0:0:
256,192,83999,1,0,0:0:0:0:
256,192,84165,1,8,0:0:0:0:
256,192,84249,1,8,0:0:0:0:
256,192,84415,1,0,0:0:0:0:
256,192,84499,1,8,0:0:0:0:
256,192,84665,1,0,0:0:0:0:
256,192,84749,1,8,0:0:0:0:
256,192,84915,1,0,0:0:0:0:
256,192,85082,1,0,0:0:0:0:
256,192,85165,1,8,0:0:0:0:
256,192,85332,1,0,0:0:0:0:
256,192,85415,1,0,0:0:0:0:
256,192,85499,1,8,0:0:0:0:
256,192,85554,1,0,0:0:0:0:
256,192,85610,1,0,0:0:0:0:
256,192,85665,1,8,0:0:0:0:
256,192,85749,1,0,0:0:0:0:
256,192,85832,1,8,0:0:0:0:
256,192,85888,1,8,0:0:0:0:
256,192,85943,1,8,0:0:0:0:
256,192,85999,1,0,0:0:0:0:
256,192,86082,1,8,0:0:0:0:
256,192,86165,1,0,0:0:0:0:
256,192,86221,1,0,0:0:0:0:
256,192,86277,1,0,0:0:0:0:
256,192,86332,1,8,0:0:0:0:
256,192,86415,1,0,0:0:0:0:
256,192,86499,1,8,0:0:0:0:
256,192,86554,1,8,0:0:0:0:
256,192,86610,1,8,0:0:0:0:
256,192,86665,1,0,0:0:0:0:
256,192,86832,1,8,0:0:0:0:
256,192,86915,1,0,0:0:0:0:
256,192,86999,1,8,0:0:0:0:
256,192,87082,1,8,0:0:0:0:
256,192,87165,1,0,0:0:0:0:
256,192,87249,1,0,0:0:0:0:
256,192,87332,1,8,0:0:0:0:
256,192,87499,1,8,0:0:0:0:
256,192,87582,1,0,0:0:0:0:
256,192,87749,1,0,0:0:0:0:
256,192,87832,1,8,0:0:0:0:
256,192,87915,1,8,0:0:0:0:
256,192,87999,1,0,0:0:0:0:
256,192,88165,1,0,0:0:0:0:
256,192,88249,1,8,0:0:0:0:
256,192,88332,1,0,0:0:0:0:
256,192,88415,1,0,0:0:0:0:
256,192,88499,1,8,0:0:0:0:
256,192,88582,1,8,0:0:0:0:
256,192,88665,1,0,0:0:0:0:
256,192,88749,1,0,0:0:0:0:
256,192,88832,1,8,0:0:0:0:
256,192,88915,1,0,0:0:0:0:
256,192,88999,1,0,0:0:0:0:
256,192,89082,1,8,0:0:0:0:
256,192,89165,1,8,0:0:0:0:
256,192,89249,1,8,0:0:0:0:
256,192,89332,1,0,0:0:0:0:
256,192,89499,1,8,0:0:0:0:
256,192,89582,1,8,0:0:0:0:
256,192,89665,1,8,0:0:0:0:
256,192,89749,1,8,0:0:0:0:
256,192,89832,1,8,0:0:0:0:
256,192,89888,1,8,0:0:0:0:
256,192,89943,1,8,0:0:0:0:
256,192,89999,1,8,0:0:0:0:
256,192,90082,1,8,0:0:0:0:
256,192,90165,1,0,0:0:0:0:
256,192,90221,1,0,0:0:0:0:
256,192,90277,1,0,0:0:0:0:
256,192,90332,1,8,0:0:0:0:
256,192,90415,1,8,0:0:0:0:
256,192,90499,1,0,0:0:0:0:
256,192,90665,1,0,0:0:0:0:
256,192,90749,1,0,0:0:0:0:
256,192,90832,1,0,0:0:0:0:
256,192,90915,1,0,0:0:0:0:
256,192,90999,1,8,0:0:0:0:
256,192,91165,1,0,0:0:0:0:
256,192,91249,1,0,0:0:0:0:
256,192,91332,1,0,0:0:0:0:
256,192,91415,1,8,0:0:0:0:
256,192,91499,1,8,0:0:0:0:
256,192,91665,1,0,0:0:0:0:
256,192,91749,1,0,0:0:0:0:
256,192,91832,1,8,0:0:0:0:
256,192,91915,1,8,0:0:0:0:
256,192,91999,1,8,0:0:0:0:
256,192,92165,1,0,0:0:0:0:
256,192,92221,1,0,0:0:0:0:
256,192,92277,1,0,0:0:0:0:
256,192,92332,1,8,0:0:0:0:
256,192,92415,1,8,0:0:0:0:
256,192,92499,1,8,0:0:0:0:
256,192,92582,1,0,0:0:0:0:
256,192,92665,1,8,0:0:0:0:
256,192,92749,1,0,0:0:0:0:
256,192,92832,1,0,0:0:0:0:
256,192,92915,1,0,0:0:0:0:
256,192,92999,1,8,0:0:0:0:
256,192,93082,1,0,0:0:0:0:
256,192,93165,1,8,0:0:0:0:
256,192,93249,1,8,0:0:0:0:
256,192,93332,1,0,0:0:0:0:
256,192,93415,1,0,0:0:0:0:
256,192,93499,1,8,0:0:0:0:
256,192,93582,1,0,0:0:0:0:
256,192,93665,1,8,0:0:0:0:
256,192,93749,1,8,0:0:0:0:
256,192,93832,1,0,0:0:0:0:
256,192,93915,1,8,0:0:0:0:
256,192,93999,1,0,0:0:0:0:
256,192,94082,1,0,0:0:0:0:
256,192,94165,1,8,0:0:0:0:
256,192,94249,1,8,0:0:0:0:
256,192,94332,1,0,0:0:0:0:
256,192,94415,1,8,0:0:0:0:
256,192,94499,1,0,0:0:0:0:
256,192,94582,1,0,0:0:0:0:
256,192,94665,1,8,0:0:0:0:
256,192,94749,1,8,0:0:0:0:
256,192,94832,1,0,0:0:0:0:
256,192,94888,1,8,0:0:0:0:
256,192,94943,1,0,0:0:0:0:
256,192,94999,1,8,0:0:0:0:
256,192,95082,1,0,0:0:0:0:
256,192,95165,1,8,0:0:0:0:
256,192,95249,1,8,0:0:0:0:
256,192,95332,1,0,0:0:0:0:
256,192,95415,1,8,0:0:0:0:
256,192,95499,1,0,0:0:0:0:
256,192,95582,1,0,0:0:0:0:
256,192,95665,1,8,0:0:0:0:
256,192,95749,1,8,0:0:0:0:
256,192,95915,1,8,0:0:0:0:
256,192,95999,1,0,0:0:0:0:
256,192,96082,1,8,0:0:0:0:
256,192,96165,1,0,0:0:0:0:
256,192,96249,1,0,0:0:0:0:
256,192,96332,1,8,0:0:0:0:
256,192,96415,1,8,0:0:0:0:
256,192,96499,1,0,0:0:0:0:
256,192,96554,1,0,0:0:0:0:
256,192,96610,1,0,0:0:0:0:
256,192,96665,1,8,0:0:0:0:
256,192,96721,1,8,0:0:0:0:
256,192,96777,1,0,0:0:0:0:
256,192,96832,1,8,0:0:0:0:
256,192,96999,1,0,0:0:0:0:
256,192,97082,1,8,0:0:0:0:
256,192,97165,1,0,0:0:0:0:
256,192,97249,1,0,0:0:0:0:
256,192,97332,1,8,0:0:0:0:
256,192,97415,1,8,0:0:0:0:
256,192,97499,1,0,0:0:0:0:
256,192,97554,1,0,0:0:0:0:
256,192,97610,1,0,0:0:0:0:
256,192,97665,1,8,0:0:0:0:
256,192,97721,1,0,0:0:0:0:
256,192,97777,1,0,0:0:0:0:
256,192,97832,1,8,0:0:0:0:
256,192,97999,1,8,0:0:0:0:
256,192,98082,1,8,0:0:0:0:
256,192,98165,1,0,0:0:0:0:
256,192,98249,1,0,0:0:0:0:
256,192,98332,1,8,0:0:0:0:
256,192,98415,1,0,0:0:0:0:
256,192,98499,1,8,0:0:0:0:
256,192,98582,1,8,0:0:0:0:
256,192,98665,1,0,0:0:0:0:
256,192,98749,1,8,0:0:0:0:
256,192,98832,1,0,0:0:0:0:
256,192,98888,1,0,0:0:0:0:
256,192,98943,1,0,0:0:0:0:
256,192,98999,1,8,0:0:0:0:
256,192,99082,1,0,0:0:0:0:
256,192,99165,1,0,0:0:0:0:
256,192,99249,1,8,0:0:0:0:
256,192,99332,1,0,0:0:0:0:
256,192,99388,1,8,0:0:0:0:
256,192,99443,1,8,0:0:0:0:
256,192,99499,1,0,0:0:0:0:
256,192,99582,1,8,0:0:0:0:
256,192,99665,1,0,0:0:0:0:
256,192,99749,1,8,0:0:0:0:
256,192,99832,1,8,0:0:0:0:
256,192,99915,1,0,0:0:0:0:
256,192,99999,1,8,0:0:0:0:
256,192,100165,1,8,0:0:0:0:
256,192,100249,1,8,0:0:0:0:
256,192,100332,1,8,0:0:0:0:
256,192,100415,1,0,0:0:0:0:
256,192,100499,1,8,0:0:0:0:
256,192,100582,1,8,0:0:0:0:
256,192,100665,1,0,0:0:0:0:
256,192,100749,1,8,0:0:0:0:
256,192,100832,1,8,0:0:0:0:
256,192,100915,1,0,0:0:0:0:
256,192,100999,1,8,0:0:0:0:
256,192,101082,1,8,0:0:0:0:
256,192,101165,1,8,0:0:0:0:
256,192,101249,1,8,0:0:0:0:
256,192,101332,1,0,0:0:0:0:
256,192,111499,5,0,0:0:0:0:
256,192,111583,1,0,0:0:0:0:
256,192,111666,1,8,0:0:0:0:
256,192,111749,1,0,0:0:0:0:
256,192,111833,1,8,0:0:0:0:
256,192,111916,1,8,0:0:0:0:
256,192,111999,1,0,0:0:0:0:
256,192,112333,1,8,0:0:0:0:
256,192,112666,1,8,0:0:0:0:
256,192,112999,1,0,0:0:0:0:
256,192,113165,1,8,0:0:0:0:
256,192,113666,1,8,0:0:0:0:
256,192,113832,1,0,0:0:0:0:
256,192,114333,1,8,0:0:0:0:
256,192,114665,1,0,0:0:0:0:
256,192,114999,1,8,0:0:0:0:
256,192,115333,1,8,0:0:0:0:
256,192,115665,1,8,0:0:0:0:
256,192,115832,1,0,0:0:0:0:
256,192,116333,1,8,0:0:0:0:
256,192,116499,1,0,0:0:0:0:
256,192,116999,1,8,0:0:0:0:
256,192,117332,1,0,0:0:0:0:
256,192,117666,1,0,0:0:0:0:
256,192,117999,1,0,0:0:0:0:
256,192,118332,1,0,0:0:0:0:
256,192,118498,1,8,0:0:0:0:
256,192,118666,1,0,0:0:0:0:
256,192,118999,1,0,0:0:0:0:
256,192,119333,1,0,0:0:0:0:
256,192,119499,1,8,0:0:0:0:
256,192,119583,1,8,0:0:0:0:
256,192,119666,1,0,0:0:0:0:
256,192,119749,1,0,0:0:0:0:
256,192,119833,1,8,0:0:0:0:
256,192,119998,1,0,0:0:0:0:
256,192,120083,1,8,0:0:0:0:
256,192,120166,1,8,0:0:0:0:
256,192,120249,1,0,0:0:0:0:
256,192,120333,1,8,0:0:0:0:
256,192,120416,1,0,0:0:0:0:
256,192,120499,1,8,0:0:0:0:
256,192,120555,1,8,0:0:0:0:
256,192,120610,1,8,0:0:0:0:
256,192,120666,1,0,0:0:0:0:
256,192,120749,1,8,0:0:0:0:
256,192,120833,1,0,0:0:0:0:
256,192,120888,1,0,0:0:0:0:
256,192,120944,1,0,0:0:0:0:
256,192,120998,1,8,0:0:0:0:
256,192,121055,1,0,0:0:0:0:
256,192,121110,1,0,0:0:0:0:
256,192,121165,1,8,0:0:0:0:
256,192,121249,1,8,0:0:0:0:
256,192,121333,1,0,0:0:0:0:
256,192,121416,1,8,0:0:0:0:
256,192,121499,1,0,0:0:0:0:
256,192,121583,1,0,0:0:0:0:
256,192,121666,1,8,0:0:0:0:
256,192,121721,1,0,0:0:0:0:
256,192,121777,1,0,0:0:0:0:
256,192,121832,1,8,0:0:0:0:
256,192,122165,1,8,0:0:0:0:
256,192,122332,1,8,0:0:0:0:
256,192,122499,1,8,0:0:0:0:
256,192,122665,1,4,0:0:0:0:
256,192,122999,1,0,0:0:0:0:
256,192,123165,1,0,0:0:0:0:
256,192,123332,1,0,0:0:0:0:
256,192,123665,1,0,0:0:0:0:
256,192,123832,1,0,0:0:0:0:
256,192,124332,1,0,0:0:0:0:
256,192,124499,1,0,0:0:0:0:
256,192,124665,1,0,0:0:0:0:
256,192,124999,1,0,0:0:0:0:
256,192,125332,1,8,0:0:0:0:
256,192,125665,1,8,0:0:0:0:
256,192,125832,1,8,0:0:0:0:
256,192,125999,1,8,0:0:0:0:
256,192,126332,1,8,0:0:0:0:
256,192,126499,1,8,0:0:0:0:
256,192,126999,1,8,0:0:0:0:
256,192,127165,1,8,0:0:0:0:
256,192,127332,1,8,0:0:0:0:
256,192,127665,1,8,0:0:0:0:
256,192,127999,1,0,0:0:0:0:
256,192,128332,1,0,0:0:0:0:
256,192,128498,1,0,0:0:0:0:
256,192,128665,1,0,0:0:0:0:
256,192,128998,1,0,0:0:0:0:
256,192,129165,1,0,0:0:0:0:
256,192,129665,1,0,0:0:0:0:
256,192,129832,1,0,0:0:0:0:
256,192,129998,1,0,0:0:0:0:
256,192,130165,1,8,0:0:0:0:
256,192,130332,1,0,0:0:0:0:
256,192,130665,1,8,0:0:0:0:
256,192,130998,1,8,0:0:0:0:
256,192,131165,1,8,0:0:0:0:
256,192,131332,1,8,0:0:0:0:
256,192,131665,1,8,0:0:0:0:
256,192,131832,1,8,0:0:0:0:
256,192,132332,1,8,0:0:0:0:
256,192,132498,1,8,0:0:0:0:
256,192,132665,1,8,0:0:0:0:
256,192,132832,1,0,0:0:0:0:
256,192,132998,1,8,0:0:0:0:
256,192,133332,1,0,0:0:0:0:
256,192,133665,1,0,0:0:0:0:
256,192,133832,1,8,0:0:0:0:
256,192,133999,1,0,0:0:0:0:
256,192,134332,1,0,0:0:0:0:
256,192,134499,1,8,0:0:0:0:
256,192,134832,1,8,0:0:0:0:
256,192,134999,1,8,0:0:0:0:
256,192,135165,1,0,0:0:0:0:
256,192,135332,1,8,0:0:0:0:
256,192,135665,1,8,0:0:0:0:
256,192,135999,1,0,0:0:0:0:
256,192,136332,1,0,0:0:0:0:
256,192,136499,1,8,0:0:0:0:
256,192,136665,1,0,0:0:0:0:
256,192,136832,1,8,0:0:0:0:
256,192,136999,1,8,0:0:0:0:
256,192,137165,1,0,0:0:0:0:
256,192,137499,1,8,0:0:0:0:
256,192,137665,1,8,0:0:0:0:
256,192,137832,1,0,0:0:0:0:
256,192,138165,1,0,0:0:0:0:
256,192,138332,1,8,0:0:0:0:
256,192,138499,1,8,0:0:0:0:
256,192,138665,1,0,0:0:0:0:
256,192,138999,1,0,0:0:0:0:
256,192,139332,1,0,0:0:0:0:
256,192,139665,1,0,0:0:0:0:
256,192,139832,1,8,0:0:0:0:
256,192,139999,1,0,0:0:0:0:
256,192,140332,1,0,0:0:0:0:
256,192,140665,1,0,0:0:0:0:
256,192,140832,1,8,0:0:0:0:
256,192,140999,1,0,0:0:0:0:
256,192,141165,1,8,0:0:0:0:
256,192,141249,1,8,0:0:0:0:
256,192,141332,1,0,0:0:0:0:
256,192,141415,1,0,0:0:0:0:
256,192,141499,1,8,0:0:0:0:
256,192,141582,1,8,0:0:0:0:
256,192,141665,1,8,0:0:0:0:
256,192,141749,1,0,0:0:0:0:
256,192,141832,1,8,0:0:0:0:
256,192,141915,1,8,0:0:0:0:
256,192,141999,1,0,0:0:0:0:
256,192,142082,1,8,0:0:0:0:
256,192,142165,1,0,0:0:0:0:
256,192,142221,1,0,0:0:0:0:
256,192,142277,1,0,0:0:0:0:
256,192,142332,1,8,0:0:0:0:
256,192,142415,1,0,0:0:0:0:
256,192,142499,1,8,0:0:0:0:
256,192,142554,1,8,0:0:0:0:
256,192,142610,1,8,0:0:0:0:
256,192,142665,1,0,0:0:0:0:
256,192,142721,1,0,0:0:0:0:
256,192,142777,1,0,0:0:0:0:
256,192,142832,1,8,0:0:0:0:
256,192,142915,1,8,0:0:0:0:
256,192,142999,1,0,0:0:0:0:
256,192,143082,1,0,0:0:0:0:
256,192,143165,1,8,0:0:0:0:
256,192,143249,1,0,0:0:0:0:
256,192,143332,1,8,0:0:0:0:
256,192,143388,1,8,0:0:0:0:
256,192,143443,1,8,0:0:0:0:
256,192,143499,1,0,0:0:0:0:
256,192,143582,1,0,0:0:0:0:
256,192,143665,1,8,0:0:0:0:
256,192,143749,1,8,0:0:0:0:
256,192,143832,1,8,0:0:0:0:
256,192,143915,1,8,0:0:0:0:
256,192,143999,1,0,0:0:0:0:
256,192,144249,1,8,0:0:0:0:
256,192,144332,1,0,0:0:0:0:
256,192,144499,1,8,0:0:0:0:
256,192,144665,1,0,0:0:0:0:
256,192,144832,1,8,0:0:0:0:
256,192,144915,1,8,0:0:0:0:
256,192,144999,1,0,0:0:0:0:
256,192,145165,1,8,0:0:0:0:
256,192,145332,1,0,0:0:0:0:
256,192,145582,1,8,0:0:0:0:
256,192,145832,1,8,0:0:0:0:
256,192,145999,1,0,0:0:0:0:
256,192,146165,1,0,0:0:0:0:
256,192,146249,1,8,0:0:0:0:
256,192,146332,1,0,0:0:0:0:
256,192,146499,1,8,0:0:0:0:
256,192,146665,1,0,0:0:0:0:
256,192,146915,1,8,0:0:0:0:
256,192,146999,1,0,0:0:0:0:
256,192,147165,1,8,0:0:0:0:
256,192,147332,1,0,0:0:0:0:
256,192,147499,1,8,0:0:0:0:
256,192,147582,1,8,0:0:0:0:
256,192,147665,1,0,0:0:0:0:
256,192,147832,1,8,0:0:0:0:
256,192,147999,1,0,0:0:0:0:
256,192,148249,1,8,0:0:0:0:
256,192,148332,1,0,0:0:0:0:
256,192,148499,1,8,0:0:0:0:
256,192,148665,1,0,0:0:0:0:
256,192,148832,1,0,0:0:0:0:
256,192,148915,1,8,0:0:0:0:
256,192,148999,1,0,0:0:0:0:
256,192,149165,1,8,0:0:0:0:
256,192,149332,1,0,0:0:0:0:
256,192,149582,1,8,0:0:0:0:
256,192,149665,1,0,0:0:0:0:
256,192,149832,1,8,0:0:0:0:
256,192,149915,1,8,0:0:0:0:
256,192,149998,1,0,0:0:0:0:
256,192,150165,1,0,0:0:0:0:
256,192,150248,1,8,0:0:0:0:
256,192,150332,1,0,0:0:0:0:
256,192,150498,1,8,0:0:0:0:
256,192,150665,1,0,0:0:0:0:
256,192,150749,1,0,0:0:0:0:
256,192,150832,1,0,0:0:0:0:
256,192,150915,1,8,0:0:0:0:
256,192,150998,1,0,0:0:0:0:
256,192,151165,1,8,0:0:0:0:
256,192,151332,1,0,0:0:0:0:
256,192,151582,1,8,0:0:0:0:
256,192,151832,1,8,0:0:0:0:
256,192,151998,1,0,0:0:0:0:
256,192,152248,1,8,0:0:0:0:
256,192,152332,1,0,0:0:0:0:
256,192,152498,1,8,0:0:0:0:
256,192,152665,1,0,0:0:0:0:
256,192,152832,1,8,0:0:0:0:
256,192,152915,1,8,0:0:0:0:
256,192,152998,1,0,0:0:0:0:
256,192,153165,1,8,0:0:0:0:
256,192,153332,1,0,0:0:0:0:
256,192,153582,1,8,0:0:0:0:
256,192,153665,1,0,0:0:0:0:
256,192,153832,1,8,0:0:0:0:
256,192,153998,1,0,0:0:0:0:
256,192,154165,1,0,0:0:0:0:
256,192,154248,1,8,0:0:0:0:
256,192,154332,1,0,0:0:0:0:
256,192,154498,1,8,0:0:0:0:
256,192,154665,1,0,0:0:0:0:
256,192,154915,1,8,0:0:0:0:
256,192,154998,1,0,0:0:0:0:
256,192,155165,1,8,0:0:0:0:
256,192,155331,1,0,0:0:0:0:
256,192,155415,1,0,0:0:0:0:
256,192,155498,1,8,0:0:0:0:
256,192,155581,1,8,0:0:0:0:
256,192,155665,1,0,0:0:0:0:
256,192,155831,1,8,0:0:0:0:
256,192,155998,1,0,0:0:0:0:
256,192,156165,1,0,0:0:0:0:
256,192,156248,1,8,0:0:0:0:
256,192,156332,1,0,0:0:0:0:
256,192,156498,1,8,0:0:0:0:
256,192,156665,1,0,0:0:0:0:
256,192,156831,1,8,0:0:0:0:
256,192,156915,1,8,0:0:0:0:
256,192,156998,1,0,0:0:0:0:
256,192,157082,1,0,0:0:0:0:
256,192,157165,1,8,0:0:0:0:
256,192,157331,1,0,0:0:0:0:
256,192,157581,1,8,0:0:0:0:
256,192,157665,1,0,0:0:0:0:
256,192,157831,1,8,0:0:0:0:
256,192,157998,1,0,0:0:0:0:
256,192,158082,1,0,0:0:0:0:
256,192,158165,1,8,0:0:0:0:
256,192,158248,1,8,0:0:0:0:
256,192,158331,1,0,0:0:0:0:
256,192,158498,1,8,0:0:0:0:
256,192,158665,1,0,0:0:0:0:
256,192,158832,1,0,0:0:0:0:
256,192,158915,1,8,0:0:0:0:
256,192,158998,1,0,0:0:0:0:
256,192,159165,1,8,0:0:0:0:
256,192,159331,1,0,0:0:0:0:
224,192,159415,1,0,0:0:0:0:
256,192,159498,1,0,0:0:0:0:
256,192,159581,1,8,0:0:0:0:
256,192,159665,1,0,0:0:0:0:
256,192,159831,1,8,0:0:0:0:
256,192,159915,1,8,0:0:0:0:
256,192,159998,1,0,0:0:0:0:
256,192,160249,1,0,0:0:0:0:
256,192,160332,1,8,0:0:0:0:
256,192,160499,1,8,0:0:0:0:
256,192,160582,1,8,0:0:0:0:
256,192,160665,1,0,0:0:0:0:
256,192,160749,1,0,0:0:0:0:
256,192,160915,1,8,0:0:0:0:
256,192,160999,1,0,0:0:0:0:
256,192,161165,1,8,0:0:0:0:
256,192,161332,1,0,0:0:0:0:
256,192,161582,1,8,0:0:0:0:
256,192,161665,1,0,0:0:0:0:
256,192,161749,1,0,0:0:0:0:
256,192,161832,1,8,0:0:0:0:
256,192,161999,1,0,0:0:0:0:
256,192,162082,1,8,0:0:0:0:
256,192,162165,1,0,0:0:0:0:
256,192,162249,1,0,0:0:0:0:
256,192,162332,1,8,0:0:0:0:
256,192,162499,1,8,0:0:0:0:
256,192,162582,1,8,0:0:0:0:
256,192,162665,1,0,0:0:0:0:
256,192,162749,1,8,0:0:0:0:
256,192,162832,1,0,0:0:0:0:
256,192,162915,1,0,0:0:0:0:
256,192,162999,1,0,0:0:0:0:
256,192,163082,1,0,0:0:0:0:
256,192,163165,1,8,0:0:0:0:
256,192,163221,1,8,0:0:0:0:
256,192,163277,1,8,0:0:0:0:
256,192,163332,1,0,0:0:0:0:
256,192,163415,1,0,0:0:0:0:
256,192,163499,1,0,0:0:0:0:
256,192,163582,1,0,0:0:0:0:
256,192,163665,1,8,0:0:0:0:
256,192,163721,1,8,0:0:0:0:
256,192,163777,1,8,0:0:0:0:
256,192,163832,1,8,0:0:0:0:
256,192,163888,1,8,0:0:0:0:
256,192,163943,1,8,0:0:0:0:
256,192,163999,1,0,0:0:0:0:
256,192,164082,1,8,0:0:0:0:
256,192,164165,1,8,0:0:0:0:
256,192,164249,1,8,0:0:0:0:
256,192,164332,1,0,0:0:0:0:
256,192,164388,1,0,0:0:0:0:
256,192,164443,1,0,0:0:0:0:
256,192,164499,1,8,0:0:0:0:
256,192,164582,1,8,0:0:0:0:
256,192,164665,1,0,0:0:0:0:
256,192,164749,1,0,0:0:0:0:
256,192,164832,1,0,0:0:0:0:
256,192,164915,1,0,0:0:0:0:
256,192,164999,1,8,0:0:0:0:
256,192,165332,1,0,0:0:0:0:
256,192,165665,1,0,0:0:0:0:
256,192,165999,1,0,0:0:0:0:
256,192,166249,1,0,0:0:0:0:
256,192,166499,1,0,0:0:0:0:
256,192,166665,1,0,0:0:0:0:
256,192,166832,1,0,0:0:0:0:
256,192,166999,1,0,0:0:0:0:
256,192,167165,1,0,0:0:0:0:
256,192,167332,1,0,0:0:0:0:
256,192,167582,1,0,0:0:0:0:
256,192,167832,1,8,0:0:0:0:
256,192,167999,1,0,0:0:0:0:
256,192,168332,1,0,0:0:0:0:
256,192,168666,1,0,0:0:0:0:
256,192,168916,1,0,0:0:0:0:
256,192,169166,1,0,0:0:0:0:
256,192,169332,1,0,0:0:0:0:
256,192,169499,1,0,0:0:0:0:
256,192,169666,1,0,0:0:0:0:
256,192,169832,1,0,0:0:0:0:
256,192,169999,1,0,0:0:0:0:
256,192,170165,1,8,0:0:0:0:
256,192,170332,1,8,0:0:0:0:
256,192,170665,1,0,0:0:0:0:
256,192,170998,1,0,0:0:0:0:
256,192,171332,1,0,0:0:0:0:
256,192,171582,1,0,0:0:0:0:
256,192,171832,1,0,0:0:0:0:
256,192,171998,1,0,0:0:0:0:
256,192,172165,1,0,0:0:0:0:
256,192,172332,1,0,0:0:0:0:
256,192,172498,1,0,0:0:0:0:
256,192,172665,1,0,0:0:0:0:
256,192,172915,1,0,0:0:0:0:
256,192,173165,1,8,0:0:0:0:
256,192,173332,1,0,0:0:0:0:
256,192,173665,1,0,0:0:0:0:
256,192,173999,1,0,0:0:0:0:
256,192,174249,1,0,0:0:0:0:
256,192,174499,1,0,0:0:0:0:
256,192,174665,1,0,0:0:0:0:
256,192,174832,1,0,0:0:0:0:
256,192,174999,1,0,0:0:0:0:
256,192,175165,1,0,0:0:0:0:
256,192,175332,1,0,0:0:0:0:
256,192,175582,1,0,0:0:0:0:
256,192,175665,1,8,0:0:0:0:
256,192,175999,1,0,0:0:0:0:
256,192,176165,1,0,0:0:0:0:
256,192,176249,1,0,0:0:0:0:
256,192,176332,1,8,0:0:0:0:
256,192,176499,1,8,0:0:0:0:
256,192,176665,1,0,0:0:0:0:
256,192,176832,1,8,0:0:0:0:
256,192,176915,1,0,0:0:0:0:
256,192,177082,1,0,0:0:0:0:
256,192,177165,1,8,0:0:0:0:
256,192,177332,1,0,0:0:0:0:
256,192,177499,1,0,0:0:0:0:
256,192,177582,1,0,0:0:0:0:
256,192,177665,1,0,0:0:0:0:
256,192,177832,1,8,0:0:0:0:
256,192,177999,1,0,0:0:0:0:
256,192,178249,1,0,0:0:0:0:
256,192,178499,1,8,0:0:0:0:
256,192,178665,1,0,0:0:0:0:
256,192,178831,1,0,0:0:0:0:
256,192,178915,1,0,0:0:0:0:
256,192,178998,1,8,0:0:0:0:
256,192,179165,1,8,0:0:0:0:
256,192,179331,1,0,0:0:0:0:
256,192,179498,1,8,0:0:0:0:
256,192,179581,1,0,0:0:0:0:
256,192,179748,1,0,0:0:0:0:
256,192,179831,1,8,0:0:0:0:
256,192,179998,1,0,0:0:0:0:
256,192,180165,1,0,0:0:0:0:
256,192,180248,1,0,0:0:0:0:
256,192,180331,1,0,0:0:0:0:
256,192,180498,1,8,0:0:0:0:
256,192,180665,1,0,0:0:0:0:
256,192,180832,1,8,0:0:0:0:
256,192,180999,1,8,0:0:0:0:
256,192,181082,1,0,0:0:0:0:
256,192,181165,1,8,0:0:0:0:
256,192,181249,1,8,0:0:0:0:
256,192,181332,1,0,0:0:0:0:
256,192,181498,1,0,0:0:0:0:
256,192,181582,1,0,0:0:0:0:
256,192,181665,1,8,0:0:0:0:
256,192,181832,1,8,0:0:0:0:
256,192,181998,1,0,0:0:0:0:
256,192,182165,1,8,0:0:0:0:
256,192,182248,1,0,0:0:0:0:
256,192,182415,1,0,0:0:0:0:
256,192,182498,1,8,0:0:0:0:
256,192,182665,1,0,0:0:0:0:
256,192,182832,1,0,0:0:0:0:
256,192,182915,1,0,0:0:0:0:
256,192,182998,1,0,0:0:0:0:
256,192,183165,1,8,0:0:0:0:
256,192,183332,1,0,0:0:0:0:
256,192,183582,1,0,0:0:0:0:
256,192,183832,1,8,0:0:0:0:
256,192,183999,1,0,0:0:0:0:
256,192,184165,1,0,0:0:0:0:
256,192,184249,1,0,0:0:0:0:
256,192,184332,1,8,0:0:0:0:
256,192,184499,1,8,0:0:0:0:
256,192,184665,1,0,0:0:0:0:
256,192,184832,1,8,0:0:0:0:
256,192,184915,1,0,0:0:0:0:
256,192,185082,1,0,0:0:0:0:
256,192,185165,1,8,0:0:0:0:
256,192,185332,1,0,0:0:0:0:
256,192,185499,1,8,0:0:0:0:
256,192,185582,1,0,0:0:0:0:
256,192,185665,1,8,0:0:0:0:
256,192,185749,1,8,0:0:0:0:
256,192,185832,1,0,0:0:0:0:
256,192,185915,1,8,0:0:0:0:
256,192,185999,1,0,0:0:0:0:
256,192,186054,1,0,0:0:0:0:
256,192,186110,1,0,0:0:0:0:
256,192,186165,1,0,0:0:0:0:
256,192,186221,1,0,0:0:0:0:
256,192,186277,1,0,0:0:0:0:
256,192,186332,1,8,0:0:0:0:
256,192,186665,1,4,0:0:0:0:
256,192,186832,1,8,0:0:0:0:
256,192,186915,1,8,0:0:0:0:
256,192,186999,1,0,0:0:0:0:
256,192,187082,1,8,0:0:0:0:
256,192,187165,1,0,0:0:0:0:
256,192,187249,1,0,0:0:0:0:
256,192,187332,1,8,0:0:0:0:
256,192,187499,1,0,0:0:0:0:
256,192,187582,1,8,0:0:0:0:
256,192,187665,1,0,0:0:0:0:
256,192,187749,1,0,0:0:0:0:
256,192,187832,1,8,0:0:0:0:
256,192,187999,1,0,0:0:0:0:
256,192,188165,1,8,0:0:0:0:
256,192,188249,1,8,0:0:0:0:
256,192,188332,1,0,0:0:0:0:
256,192,188415,1,0,0:0:0:0:
256,192,188499,1,8,0:0:0:0:
256,192,188665,1,0,0:0:0:0:
256,192,188832,1,0,0:0:0:0:
256,192,188915,1,8,0:0:0:0:
256,192,188999,1,0,0:0:0:0:
256,192,189082,1,0,0:0:0:0:
256,192,189165,1,8,0:0:0:0:
256,192,189249,1,8,0:0:0:0:
256,192,189332,1,0,0:0:0:0:
256,192,189499,1,8,0:0:0:0:
256,192,189582,1,8,0:0:0:0:
256,192,189665,1,0,0:0:0:0:
256,192,189749,1,0,0:0:0:0:
256,192,189832,1,8,0:0:0:0:
256,192,189915,1,0,0:0:0:0:
256,192,189999,1,0,0:0:0:0:
256,192,190165,1,0,0:0:0:0:
256,192,190249,1,8,0:0:0:0:
256,192,190332,1,0,0:0:0:0:
256,192,190415,1,0,0:0:0:0:
256,192,190499,1,8,0:0:0:0:
256,192,190665,1,0,0:0:0:0:
256,192,190832,1,0,0:0:0:0:
256,192,190999,1,8,0:0:0:0:
256,192,191165,1,8,0:0:0:0:
256,192,191332,1,0,0:0:0:0:
256,192,191499,1,0,0:0:0:0:
256,192,191582,1,8,0:0:0:0:
256,192,191665,1,0,0:0:0:0:
256,192,191832,1,8,0:0:0:0:
256,192,191999,1,0,0:0:0:0:
256,192,192165,1,8,0:0:0:0:
256,192,192248,1,8,0:0:0:0:
256,192,192332,1,0,0:0:0:0:
256,192,192415,1,8,0:0:0:0:
256,192,192498,1,0,0:0:0:0:
256,192,192582,1,0,0:0:0:0:
256,192,192665,1,8,0:0:0:0:
256,192,192749,1,8,0:0:0:0:
256,192,192832,1,0,0:0:0:0:
256,192,192915,1,8,0:0:0:0:
256,192,192998,1,0,0:0:0:0:
256,192,193165,1,8,0:0:0:0:
256,192,193332,1,0,0:0:0:0:
256,192,193498,1,8,0:0:0:0:
256,192,193582,1,8,0:0:0:0:
256,192,193665,1,0,0:0:0:0:
256,192,193748,1,0,0:0:0:0:
256,192,193832,1,8,0:0:0:0:
256,192,193915,1,8,0:0:0:0:
256,192,193998,1,0,0:0:0:0:
256,192,194082,1,0,0:0:0:0:
256,192,194165,1,0,0:0:0:0:
256,192,194248,1,8,0:0:0:0:
256,192,194332,1,0,0:0:0:0:
256,192,194415,1,0,0:0:0:0:
256,192,194498,1,8,0:0:0:0:
256,192,194582,1,8,0:0:0:0:
256,192,194665,1,0,0:0:0:0:
256,192,194832,1,8,0:0:0:0:
256,192,194915,1,8,0:0:0:0:
256,192,194998,1,0,0:0:0:0:
256,192,195082,1,0,0:0:0:0:
256,192,195165,1,8,0:0:0:0:
256,192,195248,1,0,0:0:0:0:
256,192,195332,1,0,0:0:0:0:
256,192,195498,1,8,0:0:0:0:
256,192,195582,1,8,0:0:0:0:
256,192,195665,1,0,0:0:0:0:
256,192,195748,1,0,0:0:0:0:
256,192,195832,1,8,0:0:0:0:
256,192,195999,1,0,0:0:0:0:
256,192,196165,1,0,0:0:0:0:
256,192,196249,1,8,0:0:0:0:
256,192,196332,1,0,0:0:0:0:
256,192,196499,1,8,0:0:0:0:
256,192,196582,1,0,0:0:0:0:
256,192,196665,1,8,0:0:0:0:
256,192,196749,1,0,0:0:0:0:
256,192,196832,1,8,0:0:0:0:
256,192,196915,1,0,0:0:0:0:
256,192,196999,1,8,0:0:0:0:
256,192,197165,1,8,0:0:0:0:
256,192,197332,1,4,0:0:0:0:
256,192,197499,1,8,0:0:0:0:
256,192,197582,1,0,0:0:0:0:
256,192,197666,1,8,0:0:0:0:
256,192,197749,1,8,0:0:0:0:
256,192,197832,1,0,0:0:0:0:
256,192,197916,1,0,0:0:0:0:
256,192,197999,1,8,0:0:0:0:
256,192,198166,1,0,0:0:0:0:
256,192,198249,1,8,0:0:0:0:
256,192,198332,1,0,0:0:0:0:
256,192,198416,1,8,0:0:0:0:
256,192,198499,1,8,0:0:0:0:
256,192,198666,1,0,0:0:0:0:
256,192,198832,1,8,0:0:0:0:
256,192,198916,1,8,0:0:0:0:
256,192,198999,1,0,0:0:0:0:
256,192,199082,1,0,0:0:0:0:
256,192,199166,1,8,0:0:0:0:
256,192,199332,1,0,0:0:0:0:
256,192,199499,1,0,0:0:0:0:
256,192,199582,1,8,0:0:0:0:
256,192,199666,1,8,0:0:0:0:
256,192,199749,1,0,0:0:0:0:
256,192,199832,1,8,0:0:0:0:
256,192,199916,1,0,0:0:0:0:
256,192,199999,1,0,0:0:0:0:
256,192,200166,1,8,0:0:0:0:
256,192,200249,1,0,0:0:0:0:
256,192,200332,1,0,0:0:0:0:
256,192,200416,1,0,0:0:0:0:
256,192,200499,1,8,0:0:0:0:
256,192,200582,1,8,0:0:0:0:
256,192,200666,1,0,0:0:0:0:
256,192,200832,1,0,0:0:0:0:
256,192,200916,1,8,0:0:0:0:
256,192,200999,1,0,0:0:0:0:
256,192,201082,1,0,0:0:0:0:
256,192,201166,1,8,0:0:0:0:
256,192,201332,1,0,0:0:0:0:
256,192,201499,1,0,0:0:0:0:
256,192,201666,1,8,0:0:0:0:
256,192,201832,1,8,0:0:0:0:
256,192,201999,1,0,0:0:0:0:
256,192,202082,1,8,0:0:0:0:
256,192,202249,1,8,0:0:0:0:
256,192,202332,1,0,0:0:0:0:
256,192,202415,1,0,0:0:0:0:
256,192,202499,1,8,0:0:0:0:
256,192,202666,1,4,0:0:0:0:
256,192,202832,1,8,0:0:0:0:
256,192,202915,1,8,0:0:0:0:
256,192,202999,1,0,0:0:0:0:
256,192,203082,1,0,0:0:0:0:
256,192,203165,1,8,0:0:0:0:
256,192,203332,1,4,0:0:0:0:
256,192,203499,1,0,0:0:0:0:
256,192,203582,1,8,0:0:0:0:
256,192,203665,1,0,0:0:0:0:
256,192,203832,1,12,0:0:0:0:
256,192,203999,1,0,0:0:0:0:
256,192,204165,1,8,0:0:0:0:
256,192,204249,1,0,0:0:0:0:
256,192,204332,1,8,0:0:0:0:
256,192,204415,1,8,0:0:0:0:
256,192,204499,1,0,0:0:0:0:
256,192,204582,1,8,0:0:0:0:
256,192,204665,1,8,0:0:0:0:
256,192,204749,1,0,0:0:0:0:
256,192,204832,1,0,0:0:0:0:
256,192,204915,1,8,0:0:0:0:
256,192,204999,1,8,0:0:0:0:
256,192,205082,1,0,0:0:0:0:
256,192,205165,1,0,0:0:0:0:
256,192,205249,1,8,0:0:0:0:
256,192,205332,1,0,0:0:0:0:
256,192,207999,1,4,0:0:0:0:
224,192,208665,1,8,0:0:0:0:
256,192,209332,1,0,0:0:0:0:
256,192,209665,1,0,0:0:0:0:
256,192,209999,1,8,0:0:0:0:
256,192,210165,1,0,0:0:0:0:
256,192,210332,1,0,0:0:0:0:
256,192,210499,1,0,0:0:0:0:
256,192,210665,1,0,0:0:0:0:
256,192,210749,1,8,0:0:0:0:
256,192,210832,1,0,0:0:0:0:
256,192,210915,1,0,0:0:0:0:
256,192,210999,1,8,0:0:0:0:
256,192,211165,1,8,0:0:0:0:
256,192,211249,1,8,0:0:0:0:
256,192,211332,1,0,0:0:0:0:
256,192,211415,1,8,0:0:0:0:
256,192,211499,1,0,0:0:0:0:
256,192,211582,1,0,0:0:0:0:
256,192,211665,1,8,0:0:0:0:
256,192,211832,1,8,0:0:0:0:
256,192,211915,1,8,0:0:0:0:
256,192,211999,1,0,0:0:0:0:
256,192,212082,1,0,0:0:0:0:
256,192,212165,1,0,0:0:0:0:
256,192,212249,1,0,0:0:0:0:
256,192,212332,1,0,0:0:0:0:
256,192,212415,1,0,0:0:0:0:
256,192,212499,1,0,0:0:0:0:
256,192,212582,1,0,0:0:0:0:
256,192,212665,1,8,0:0:0:0:
256,192,212832,1,0,0:0:0:0:
256,192,212888,1,0,0:0:0:0:
256,192,212943,1,0,0:0:0:0:
256,192,212999,1,8,0:0:0:0:
256,192,213082,1,0,0:0:0:0:
256,192,213165,1,8,0:0:0:0:
256,192,213249,1,8,0:0:0:0:
256,192,213332,1,0,0:0:0:0:
256,192,213499,1,8,0:0:0:0:
256,192,213582,1,8,0:0:0:0:
256,192,213665,1,0,0:0:0:0:
256,192,213749,1,8,0:0:0:0:
256,192,213832,1,0,0:0:0:0:
256,192,213915,1,0,0:0:0:0:
256,192,213999,1,8,0:0:0:0:
256,192,214165,1,0,0:0:0:0:
256,192,214249,1,8,0:0:0:0:
256,192,214332,1,0,0:0:0:0:
256,192,214415,1,8,0:0:0:0:
256,192,214499,1,8,0:0:0:0:
256,192,214582,1,0,0:0:0:0:
256,192,214665,1,0,0:0:0:0:
256,192,214749,1,8,0:0:0:0:
256,192,214915,1,8,0:0:0:0:
256,192,214999,1,0,0:0:0:0:
256,192,215165,1,8,0:0:0:0:
256,192,215249,1,8,0:0:0:0:
256,192,215332,1,0,0:0:0:0:
256,192,215415,1,8,0:0:0:0:
256,192,215499,1,0,0:0:0:0:
256,192,215582,1,8,0:0:0:0:
256,192,215665,1,0,0:0:0:0:
256,192,215749,1,0,0:0:0:0:
256,192,215832,1,8,0:0:0:0:
256,192,215999,1,0,0:0:0:0:
256,192,216165,1,0,0:0:0:0:
256,192,216249,1,8,0:0:0:0:
256,192,216332,1,8,0:0:0:0:
256,192,216415,1,0,0:0:0:0:
256,192,216499,1,8,0:0:0:0:
256,192,216582,1,0,0:0:0:0:
256,192,216665,1,0,0:0:0:0:
256,192,216832,1,8,0:0:0:0:
256,192,216915,1,0,0:0:0:0:
256,192,216999,1,8,0:0:0:0:
256,192,217082,1,8,0:0:0:0:
256,192,217165,1,0,0:0:0:0:
256,192,217249,1,8,0:0:0:0:
256,192,217332,1,0,0:0:0:0:
256,192,217499,1,8,0:0:0:0:
256,192,217582,1,8,0:0:0:0:
256,192,217749,1,0,0:0:0:0:
256,192,217832,1,8,0:0:0:0:
256,192,217999,1,0,0:0:0:0:
256,192,218082,1,0,0:0:0:0:
256,192,218249,1,8,0:0:0:0:
256,192,218332,1,0,0:0:0:0:
256,192,218415,1,0,0:0:0:0:
256,192,218499,1,8,0:0:0:0:
256,192,218582,1,8,0:0:0:0:
256,192,218665,1,0,0:0:0:0:
256,192,218832,1,8,0:0:0:0:
256,192,218915,1,8,0:0:0:0:
256,192,218998,1,0,0:0:0:0:
256,192,219082,1,8,0:0:0:0:
256,192,219165,1,0,0:0:0:0:
256,192,219248,1,0,0:0:0:0:
256,192,219332,1,8,0:0:0:0:
256,192,219498,1,0,0:0:0:0:
256,192,219582,1,8,0:0:0:0:
256,192,219665,1,0,0:0:0:0:
256,192,219748,1,0,0:0:0:0:
256,192,219832,1,8,0:0:0:0:
256,192,219915,1,0,0:0:0:0:
256,192,219998,1,0,0:0:0:0:
256,192,220082,1,8,0:0:0:0:
256,192,220248,1,8,0:0:0:0:
256,192,220332,1,0,0:0:0:0:
256,192,220415,1,0,0:0:0:0:
256,192,220498,1,8,0:0:0:0:
256,192,220582,1,8,0:0:0:0:
256,192,220665,1,0,0:0:0:0:
256,192,220749,1,8,0:0:0:0:
256,192,220832,1,8,0:0:0:0:
256,192,220915,1,0,0:0:0:0:
256,192,221082,1,0,0:0:0:0:
256,192,221165,1,8,0:0:0:0:
256,192,221248,1,8,0:0:0:0:
256,192,221332,1,0,0:0:0:0:
256,192,221498,1,0,0:0:0:0:
256,192,221582,1,0,0:0:0:0:
256,192,221665,1,8,0:0:0:0:
256,192,221748,1,0,0:0:0:0:
256,192,221832,1,8,0:0:0:0:
256,192,221915,1,8,0:0:0:0:
256,192,221998,1,8,0:0:0:0:
256,192,222082,1,0,0:0:0:0:
256,192,222165,1,0,0:0:0:0:
256,192,222248,1,8,0:0:0:0:
256,192,222332,1,0,0:0:0:0:
256,192,222415,1,0,0:0:0:0:
256,192,222498,1,8,0:0:0:0:
256,192,222665,1,0,0:0:0:0:
256,192,222832,1,8,0:0:0:0:
256,192,222915,1,8,0:0:0:0:
256,192,223082,1,0,0:0:0:0:
256,192,223165,1,8,0:0:0:0:
256,192,223332,1,0,0:0:0:0:
256,192,223415,1,8,0:0:0:0:
256,192,223499,1,0,0:0:0:0:
256,192,223582,1,8,0:0:0:0:
256,192,223665,1,0,0:0:0:0:
256,192,223748,1,0,0:0:0:0:
256,192,223832,1,8,0:0:0:0:
256,192,223915,1,8,0:0:0:0:
256,192,223998,1,0,0:0:0:0:
256,192,224165,1,0,0:0:0:0:
256,192,224249,1,0,0:0:0:0:
256,192,224332,1,0,0:0:0:0:
256,192,224415,1,8,0:0:0:0:
256,192,224499,1,8,0:0:0:0:
256,192,224582,1,8,0:0:0:0:
256,192,224665,1,0,0:0:0:0:
256,192,224832,1,0,0:0:0:0:
256,192,224915,1,8,0:0:0:0:
256,192,224999,1,0,0:0:0:0:
256,192,225082,1,0,0:0:0:0:
256,192,225165,1,8,0:0:0:0:
256,192,225332,1,0,0:0:0:0:
256,192,225499,1,8,0:0:0:0:
256,192,225582,1,0,0:0:0:0:
256,192,225665,1,0,0:0:0:0:
256,192,225749,1,8,0:0:0:0:
256,192,225832,1,8,0:0:0:0:
256,192,225915,1,8,0:0:0:0:
256,192,225999,1,0,0:0:0:0:
256,192,226165,1,8,0:0:0:0:
256,192,226249,1,0,0:0:0:0:
256,192,226415,1,0,0:0:0:0:
256,192,226499,1,8,0:0:0:0:
256,192,226582,1,8,0:0:0:0:
256,192,226665,1,0,0:0:0:0:
256,192,226832,1,8,0:0:0:0:
256,192,226915,1,0,0:0:0:0:
256,192,226999,1,8,0:0:0:0:
256,192,227082,1,8,0:0:0:0:
256,192,227165,1,0,0:0:0:0:
256,192,227249,1,8,0:0:0:0:
256,192,227332,1,0,0:0:0:0:
256,192,227388,1,0,0:0:0:0:
256,192,227443,1,0,0:0:0:0:
256,192,227499,1,8,0:0:0:0:
256,192,227554,1,8,0:0:0:0:
256,192,227610,1,8,0:0:0:0:
256,192,227665,1,0,0:0:0:0:
256,192,227749,1,0,0:0:0:0:
256,192,227832,1,8,0:0:0:0:
256,192,227915,1,8,0:0:0:0:
256,192,227999,1,0,0:0:0:0:
256,192,228165,1,8,0:0:0:0:
256,192,228249,1,8,0:0:0:0:
256,192,228415,1,0,0:0:0:0:
256,192,228499,1,8,0:0:0:0:
256,192,228665,1,0,0:0:0:0:
256,192,228749,1,8,0:0:0:0:
256,192,228915,1,0,0:0:0:0:
256,192,229082,1,0,0:0:0:0:
256,192,229165,1,8,0:0:0:0:
256,192,229249,1,8,0:0:0:0:
256,192,229332,1,0,0:0:0:0:
256,192,229415,1,0,0:0:0:0:
256,192,229499,1,8,0:0:0:0:
256,192,229554,1,0,0:0:0:0:
256,192,229610,1,0,0:0:0:0:
256,192,229665,1,8,0:0:0:0:
256,192,229749,1,0,0:0:0:0:
256,192,229832,1,8,0:0:0:0:
256,192,229888,1,8,0:0:0:0:
256,192,229943,1,0,0:0:0:0:
256,192,229999,1,8,0:0:0:0:
256,192,230082,1,0,0:0:0:0:
256,192,230165,1,8,0:0:0:0:
256,192,230221,1,8,0:0:0:0:
256,192,230277,1,8,0:0:0:0:
256,192,230332,1,0,0:0:0:0:
256,192,230415,1,0,0:0:0:0:
256,192,230499,1,8,0:0:0:0:
256,192,230554,1,0,0:0:0:0:
256,192,230610,1,0,0:0:0:0:
256,192,230665,1,8,0:0:0:0:
256,192,230832,1,8,0:0:0:0:
256,192,230915,1,0,0:0:0:0:
256,192,230999,1,8,0:0:0:0:
256,192,231082,1,8,0:0:0:0:
256,192,231165,1,0,0:0:0:0:
256,192,231249,1,0,0:0:0:0:
256,192,231332,1,8,0:0:0:0:
256,192,231499,1,8,0:0:0:0:
256,192,231582,1,0,0:0:0:0:
256,192,231665,1,0,0:0:0:0:
256,192,231749,1,8,0:0:0:0:
256,192,231832,1,8,0:0:0:0:
256,192,231999,1,0,0:0:0:0:
256,192,232082,1,0,0:0:0:0:
256,192,232165,1,0,0:0:0:0:
256,192,232249,1,8,0:0:0:0:
256,192,232332,1,0,0:0:0:0:
256,192,232415,1,0,0:0:0:0:
256,192,232499,1,8,0:0:0:0:
256,192,232582,1,8,0:0:0:0:
256,192,232665,1,0,0:0:0:0:
256,192,232749,1,0,0:0:0:0:
256,192,232832,1,8,0:0:0:0:
256,192,232915,1,0,0:0:0:0:
256,192,232999,1,0,0:0:0:0:
256,192,233082,1,8,0:0:0:0:
256,192,233165,1,8,0:0:0:0:
256,192,233249,1,8,0:0:0:0:
256,192,233332,1,0,0:0:0:0:
256,192,233499,1,8,0:0:0:0:
256,192,233582,1,0,0:0:0:0:
256,192,233665,1,8,0:0:0:0:
256,192,233749,1,0,0:0:0:0:
256,192,233832,1,8,0:0:0:0:
256,192,233888,1,8,0:0:0:0:
256,192,233943,1,8,0:0:0:0:
256,192,233999,1,8,0:0:0:0:
256,192,234082,1,8,0:0:0:0:
256,192,234165,1,0,0:0:0:0:
256,192,234221,1,0,0:0:0:0:
256,192,234277,1,0,0:0:0:0:
256,192,234332,1,8,0:0:0:0:
256,192,234415,1,8,0:0:0:0:
256,192,234499,1,0,0:0:0:0:
256,192,234665,1,0,0:0:0:0:
256,192,234749,1,0,0:0:0:0:
256,192,234832,1,0,0:0:0:0:
256,192,234915,1,8,0:0:0:0:
256,192,234999,1,8,0:0:0:0:
256,192,235165,1,0,0:0:0:0:
256,192,235249,1,0,0:0:0:0:
256,192,235332,1,8,0:0:0:0:
256,192,235415,1,8,0:0:0:0:
256,192,235499,1,8,0:0:0:0:
256,192,235665,1,0,0:0:0:0:
256,192,235749,1,8,0:0:0:0:
256,192,235832,1,8,0:0:0:0:
256,192,235915,1,8,0:0:0:0:
256,192,235999,1,8,0:0:0:0:
256,192,236165,1,0,0:0:0:0:
256,192,236221,1,0,0:0:0:0:
256,192,236277,1,0,0:0:0:0:
256,192,236332,1,8,0:0:0:0:
256,192,236415,1,8,0:0:0:0:
256,192,236499,1,8,0:0:0:0:
256,192,236582,1,0,0:0:0:0:
256,192,236665,1,8,0:0:0:0:
256,192,236749,1,0,0:0:0:0:
256,192,236832,1,0,0:0:0:0:
256,192,236915,1,0,0:0:0:0:
256,192,236999,1,8,0:0:0:0:
256,192,237082,1,0,0:0:0:0:
256,192,237165,1,8,0:0:0:0:
256,192,237249,1,8,0:0:0:0:
256,192,237332,1,0,0:0:0:0:
256,192,237415,1,0,0:0:0:0:
256,192,237499,1,8,0:0:0:0:
256,192,237582,1,0,0:0:0:0:
256,192,237665,1,8,0:0:0:0:
256,192,237749,1,8,0:0:0:0:
256,192,237832,1,0,0:0:0:0:
256,192,237915,1,8,0:0:0:0:
256,192,237999,1,0,0:0:0:0:
256,192,238082,1,0,0:0:0:0:
256,192,238165,1,8,0:0:0:0:
256,192,238249,1,8,0:0:0:0:
256,192,238332,1,0,0:0:0:0:
256,192,238415,1,8,0:0:0:0:
256,192,238499,1,0,0:0:0:0:
256,192,238582,1,0,0:0:0:0:
256,192,238665,1,8,0:0:0:0:
256,192,238749,1,8,0:0:0:0:
256,192,238832,1,0,0:0:0:0:
256,192,238888,1,8,0:0:0:0:
256,192,238943,1,0,0:0:0:0:
256,192,238999,1,8,0:0:0:0:
256,192,239082,1,0,0:0:0:0:
256,192,239165,1,8,0:0:0:0:
256,192,239249,1,8,0:0:0:0:
256,192,239332,1,0,0:0:0:0:
256,192,239415,1,8,0:0:0:0:
256,192,239499,1,0,0:0:0:0:
256,192,239582,1,0,0:0:0:0:
256,192,239665,1,8,0:0:0:0:
256,192,239749,1,8,0:0:0:0:
256,192,239915,1,8,0:0:0:0:
256,192,239999,1,0,0:0:0:0:
256,192,240082,1,8,0:0:0:0:
256,192,240165,1,0,0:0:0:0:
256,192,240249,1,0,0:0:0:0:
256,192,240332,1,8,0:0:0:0:
256,192,240415,1,8,0:0:0:0:
256,192,240499,1,0,0:0:0:0:
256,192,240554,1,0,0:0:0:0:
256,192,240610,1,0,0:0:0:0:
256,192,240665,1,8,0:0:0:0:
256,192,240721,1,8,0:0:0:0:
256,192,240777,1,0,0:0:0:0:
256,192,240832,1,8,0:0:0:0:
256,192,240915,1,8,0:0:0:0:
256,192,240999,1,0,0:0:0:0:
256,192,241082,1,8,0:0:0:0:
256,192,241165,1,0,0:0:0:0:
256,192,241249,1,0,0:0:0:0:
256,192,241332,1,8,0:0:0:0:
256,192,241415,1,8,0:0:0:0:
256,192,241499,1,0,0:0:0:0:
256,192,241554,1,0,0:0:0:0:
256,192,241610,1,0,0:0:0:0:
256,192,241665,1,8,0:0:0:0:
256,192,241721,1,0,0:0:0:0:
256,192,241777,1,0,0:0:0:0:
256,192,241832,1,8,0:0:0:0:
256,192,241915,1,0,0:0:0:0:
256,192,241999,1,8,0:0:0:0:
256,192,242082,1,8,0:0:0:0:
256,192,242165,1,0,0:0:0:0:
256,192,242249,1,0,0:0:0:0:
256,192,242332,1,8,0:0:0:0:
256,192,242415,1,0,0:0:0:0:
256,192,242499,1,8,0:0:0:0:
256,192,242582,1,8,0:0:0:0:
256,192,242665,1,0,0:0:0:0:
256,192,242749,1,8,0:0:0:0:
256,192,242832,1,0,0:0:0:0:
256,192,242888,1,0,0:0:0:0:
256,192,242943,1,0,0:0:0:0:
256,192,242999,1,8,0:0:0:0:
256,192,243082,1,0,0:0:0:0:
256,192,243165,1,0,0:0:0:0:
256,192,243249,1,8,0:0:0:0:
256,192,243332,1,0,0:0:0:0:
256,192,243388,1,8,0:0:0:0:
256,192,243443,1,8,0:0:0:0:
256,192,243499,1,0,0:0:0:0:
256,192,243582,1,8,0:0:0:0:
256,192,243665,1,0,0:0:0:0:
256,192,243749,1,8,0:0:0:0:
256,192,243832,1,8,0:0:0:0:
256,192,243915,1,0,0:0:0:0:
256,192,243999,1,8,0:0:0:0:
256,192,244165,1,8,0:0:0:0:
256,192,244249,1,8,0:0:0:0:
256,192,244332,1,0,0:0:0:0:
256,192,244415,1,8,0:0:0:0:
256,192,244499,1,8,0:0:0:0:
256,192,244582,1,0,0:0:0:0:
256,192,244665,1,0,0:0:0:0:
256,192,244749,1,0,0:0:0:0:
256,192,244832,1,8,0:0:0:0:
256,192,244915,1,8,0:0:0:0:
256,192,244999,1,0,0:0:0:0:
256,192,245082,1,8,0:0:0:0:
256,192,245165,1,8,0:0:0:0:
256,192,245249,1,8,0:0:0:0:
256,192,245332,1,0,0:0:0:0:
256,192,255499,5,0,0:0:0:0:
256,192,255583,1,0,0:0:0:0:
256,192,255666,1,8,0:0:0:0:
256,192,255749,1,0,0:0:0:0:
256,192,255833,1,8,0:0:0:0:
256,192,255916,1,8,0:0:0:0:
256,192,255999,1,0,0:0:0:0:
256,192,256333,1,8,0:0:0:0:
256,192,256666,1,8,0:0:0:0:
256,192,256999,1,0,0:0:0:0:
256,192,257165,1,8,0:0:0:0:
256,192,257666,1,8,0:0:0:0:
256,192,257832,1,0,0:0:0:0:
256,192,258333,1,8,0:0:0:0:
256,192,258665,1,0,0:0:0:0:
256,192,258999,1,8,0:0:0:0:
256,192,259333,1,8,0:0:0:0:
256,192,259665,1,8,0:0:0:0:
256,192,259832,1,0,0:0:0:0:
256,192,260333,1,8,0:0:0:0:
256,192,260499,1,0,0:0:0:0:
256,192,260999,1,8,0:0:0:0:
256,192,261332,1,0,0:0:0:0:
256,192,261666,1,0,0:0:0:0:
256,192,261999,1,0,0:0:0:0:
256,192,262332,1,0,0:0:0:0:
256,192,262498,1,8,0:0:0:0:
256,192,262666,1,0,0:0:0:0:
256,192,262999,1,0,0:0:0:0:
256,192,263333,1,0,0:0:0:0:
256,192,263499,1,8,0:0:0:0:
256,192,263583,1,8,0:0:0:0:
256,192,263666,1,0,0:0:0:0:
256,192,263749,1,0,0:0:0:0:
256,192,263833,1,8,0:0:0:0:
256,192,263998,1,0,0:0:0:0:
256,192,264083,1,8,0:0:0:0:
256,192,264166,1,8,0:0:0:0:
256,192,264249,1,0,0:0:0:0:
256,192,264333,1,8,0:0:0:0:
256,192,264416,1,0,0:0:0:0:
256,192,264499,1,8,0:0:0:0:
256,192,264555,1,8,0:0:0:0:
256,192,264610,1,8,0:0:0:0:
256,192,264666,1,0,0:0:0:0:
256,192,264749,1,8,0:0:0:0:
256,192,264833,1,0,0:0:0:0:
256,192,264888,1,0,0:0:0:0:
256,192,264944,1,0,0:0:0:0:
256,192,264998,1,8,0:0:0:0:
256,192,265055,1,0,0:0:0:0:
256,192,265110,1,0,0:0:0:0:
256,192,265165,1,8,0:0:0:0:
256,192,265249,1,8,0:0:0:0:
256,192,265333,1,0,0:0:0:0:
256,192,265416,1,8,0:0:0:0:
256,192,265499,1,0,0:0:0:0:
256,192,265583,1,0,0:0:0:0:
256,192,265666,1,8,0:0:0:0:
256,192,265721,1,0,0:0:0:0:
256,192,265777,1,0,0:0:0:0:
256,192,265832,1,8,0:0:0:0:
256,192,266165,1,0,0:0:0:0:
256,192,266332,1,8,0:0:0:0:
256,192,266499,1,8,0:0:0:0:
256,192,266665,12,0,268999,0:0:0:0:
