osu file format v14

[General]
AudioFilename: audio.mp3
AudioLeadIn: 0
PreviewTime: 70486
Countdown: 0
SampleSet: Normal
StackLeniency: 0.7
Mode: 1
LetterboxInBreaks: 0
WidescreenStoryboard: 1

[Editor]
DistanceSpacing: 0.8
BeatDivisor: 4
GridSize: 32
TimelineZoom: 2.799999

[Metadata]
Title:Future Coaster
TitleUnicode:Future Coaster
Artist:Sakuzyo
ArtistUnicode:削除
Creator:Felt7z
Version:Futsuu
Source:GROOVE COASTER
Tags:3EX DREAM PARTY bass
BeatmapID:1622815
BeatmapSetID:643521

[Difficulty]
HPDrainRate:5
CircleSize:5
OverallDifficulty:3
ApproachRate:5
SliderMultiplier:1.4
SliderTickRate:1

[Events]
//Background and Video events
0,0,"FC.jpg",0,20
//Break Periods
//Storyboard Layer 0 (Background)
//Storyboard Layer 1 (Fail)
//Storyboard Layer 2 (Pass)
//Storyboard Layer 3 (Foreground)
//Storyboard Sound Samples

[TimingPoints]
990,333.333333333333,4,1,0,100,1,0
990,-111.111111111111,4,1,0,100,0,0
70323,-111.111111111111,4,1,0,100,0,1
80989,-111.111111111111,4,1,0,100,0,0
91656,-111.111111111111,4,1,0,100,0,1
102323,-111.111111111111,4,1,0,100,0,0

[HitObjects]
256,192,2989,5,8,0:0:0:0:
256,192,3656,1,0,0:0:0:0:
256,192,4823,1,0,0:0:0:0:
256,192,5489,1,8,0:0:0:0:
256,192,6323,1,0,0:0:0:0:
256,192,7489,1,0,0:0:0:0:
256,192,8156,1,8,0:0:0:0:
256,192,8656,1,0,0:0:0:0:
256,192,8989,1,0,0:0:0:0:
256,192,10156,1,0,0:0:0:0:
256,192,10823,1,8,0:0:0:0:
256,192,11656,1,0,0:0:0:0:
256,192,12823,1,8,0:0:0:0:
256,192,13489,1,8,0:0:0:0:
256,192,13823,1,0,0:0:0:0:
256,192,13989,1,8,0:0:0:0:
256,192,14323,1,8,0:0:0:0:
256,192,14656,1,8,0:0:0:0:
256,192,14989,1,8,0:0:0:0:
256,192,15323,1,8,0:0:0:0:
256,192,15656,1,8,0:0:0:0:
256,192,15989,1,8,0:0:0:0:
256,192,16323,1,8,0:0:0:0:
256,192,16989,1,8,0:0:0:0:
256,192,17323,1,8,0:0:0:0:
256,192,17656,1,8,0:0:0:0:
256,192,17990,1,8,0:0:0:0:
256,192,18323,1,8,0:0:0:0:
256,192,18656,1,8,0:0:0:0:
256,192,18989,1,8,0:0:0:0:
256,192,19656,1,0,0:0:0:0:
256,192,19989,1,0,0:0:0:0:
256,192,20323,1,0,0:0:0:0:
256,192,20656,1,0,0:0:0:0:
256,192,20989,1,0,0:0:0:0:
256,192,21323,1,0,0:0:0:0:
256,192,21656,1,0,0:0:0:0:
256,192,22323,1,0,0:0:0:0:
256,192,22656,1,0,0:0:0:0:
256,192,22989,1,0,0:0:0:0:
256,192,23323,1,0,0:0:0:0:
256,192,23656,2,0,L|64:192,1,188.999994232178
256,192,24489,1,0,0:0:0:0:
256,192,24656,1,8,0:0:0:0:
256,192,24989,1,0,0:0:0:0:
256,192,25489,1,8,0:0:0:0:
256,192,25656,1,8,0:0:0:0:
256,192,25823,1,8,0:0:0:0:
256,192,26156,1,8,0:0:0:0:
256,192,26323,1,8,0:0:0:0:
256,192,26489,1,8,0:0:0:0:
256,192,26823,1,8,0:0:0:0:
256,192,26989,1,8,0:0:0:0:
256,192,27323,1,0,0:0:0:0:
256,192,27656,1,0,0:0:0:0:
256,192,28156,1,8,0:0:0:0:
256,192,28323,1,8,0:0:0:0:
256,192,28489,1,8,0:0:0:0:
256,192,28823,1,8,0:0:0:0:
256,192,28989,1,0,0:0:0:0:
256,192,29489,1,0,0:0:0:0:
256,192,29989,1,0,0:0:0:0:
256,192,30323,1,0,0:0:0:0:
256,192,30823,1,8,0:0:0:0:
256,192,30989,1,8,0:0:0:0:
256,192,31156,1,8,0:0:0:0:
256,192,31489,1,8,0:0:0:0:
256,192,31656,1,8,0:0:0:0:
256,192,31823,1,8,0:0:0:0:
256,192,32156,1,8,0:0:0:0:
256,192,32323,1,8,0:0:0:0:
256,192,32656,1,0,0:0:0:0:
256,192,32989,1,0,0:0:0:0:
256,192,33323,1,8,0:0:0:0:
256,192,33656,1,8,0:0:0:0:
256,192,33989,1,8,0:0:0:0:
256,192,34323,1,0,0:0:0:0:
256,192,34823,1,0,0:0:0:0:
256,192,35656,2,0,L|0:192,1,251.999992309571
256,192,36989,2,0,L|0:192,1,251.999992309571
256,192,38323,1,0,0:0:0:0:
256,192,38656,1,8,0:0:0:0:
256,192,38989,1,0,0:0:0:0:
256,192,39156,1,0,0:0:0:0:
256,192,39323,1,8,0:0:0:0:
256,192,39656,1,0,0:0:0:0:
256,192,40156,1,0,0:0:0:0:
256,192,40989,1,0,0:0:0:0:
256,192,41323,1,8,0:0:0:0:
256,192,41656,1,0,0:0:0:0:
256,192,41823,1,0,0:0:0:0:
256,192,41989,1,8,0:0:0:0:
256,192,42323,1,0,0:0:0:0:
256,192,42823,1,0,0:0:0:0:
256,192,43323,1,8,0:0:0:0:
256,192,43656,1,0,0:0:0:0:
256,192,43989,1,0,0:0:0:0:
256,192,44323,1,0,0:0:0:0:
256,192,44989,1,0,0:0:0:0:
256,192,45323,1,0,0:0:0:0:
256,192,45656,1,8,0:0:0:0:
256,192,45989,1,8,0:0:0:0:
256,192,46323,1,0,0:0:0:0:
256,192,47656,1,8,0:0:0:0:
256,192,48323,1,8,0:0:0:0:
256,192,48656,1,0,0:0:0:0:
256,192,48989,1,0,0:0:0:0:
256,192,50656,1,0,0:0:0:0:
256,192,50989,1,0,0:0:0:0:
256,192,51323,1,8,0:0:0:0:
256,192,51656,1,0,0:0:0:0:
256,192,52323,1,0,0:0:0:0:
256,192,52656,1,8,0:0:0:0:
256,192,52989,1,8,0:0:0:0:
256,192,53656,1,8,0:0:0:0:
256,192,53989,1,8,0:0:0:0:
256,192,54323,1,8,0:0:0:0:
256,192,55989,1,0,0:0:0:0:
256,192,56323,1,0,0:0:0:0:
256,192,56656,1,8,0:0:0:0:
256,192,56989,1,0,0:0:0:0:
256,192,57323,1,0,0:0:0:0:
256,192,57656,1,0,0:0:0:0:
256,192,57989,1,0,0:0:0:0:
256,192,58156,1,8,0:0:0:0:
256,192,58323,1,0,0:0:0:0:
256,192,58656,1,0,0:0:0:0:
256,192,58989,1,8,0:0:0:0:
256,192,59656,1,0,0:0:0:0:
256,192,59989,1,0,0:0:0:0:
256,192,60323,1,0,0:0:0:0:
256,192,60489,1,8,0:0:0:0:
256,192,60656,1,0,0:0:0:0:
256,192,60823,1,8,0:0:0:0:
256,192,60989,1,0,0:0:0:0:
256,192,61323,1,0,0:0:0:0:
256,192,61656,1,8,0:0:0:0:
256,192,62323,1,0,0:0:0:0:
256,192,64989,1,0,0:0:0:0:
256,192,65656,1,8,0:0:0:0:
256,192,66323,1,0,0:0:0:0:
256,192,66656,1,0,0:0:0:0:
256,192,66989,1,8,0:0:0:0:
256,192,67656,1,8,0:0:0:0:
256,192,68156,1,8,0:0:0:0:
256,192,68489,1,8,0:0:0:0:
256,192,68823,1,8,0:0:0:0:
256,192,69323,1,0,0:0:0:0:
256,192,69656,1,8,0:0:0:0:
256,192,70323,1,0,0:0:0:0:
256,192,70656,1,0,0:0:0:0:
256,192,70989,1,8,0:0:0:0:
256,192,71323,1,0,0:0:0:0:
256,192,71489,1,8,0:0:0:0:
256,192,71656,1,8,0:0:0:0:
256,192,71989,1,8,0:0:0:0:
256,192,72323,1,0,0:0:0:0:
256,192,72989,1,8,0:0:0:0:
256,192,73323,1,0,0:0:0:0:
256,192,73656,1,8,0:0:0:0:
256,192,73989,1,0,0:0:0:0:
256,192,74156,1,0,0:0:0:0:
256,192,74323,1,0,0:0:0:0:
256,192,74656,1,0,0:0:0:0:
256,192,74989,1,8,0:0:0:0:
256,192,75656,1,0,0:0:0:0:
256,192,75989,1,0,0:0:0:0:
256,192,76323,1,8,0:0:0:0:
256,192,76656,1,0,0:0:0:0:
256,192,76823,1,8,0:0:0:0:
256,192,76989,1,8,0:0:0:0:
256,192,77323,1,8,0:0:0:0:
256,192,77656,1,0,0:0:0:0:
256,192,78323,1,0,0:0:0:0:
256,192,78656,1,8,0:0:0:0:
256,192,78989,1,8,0:0:0:0:
256,192,79323,1,8,0:0:0:0:
256,192,79489,2,0,L|64:192,1,188.999994232178
256,192,80323,1,8,0:0:0:0:
256,192,80823,12,8,81823,0:0:0:0:
256,192,82156,12,8,83156,0:0:0:0:
256,192,83489,5,8,0:0:0:0:
256,192,83989,1,8,0:0:0:0:
256,192,84323,1,0,0:0:0:0:
256,192,84656,1,8,0:0:0:0:
256,192,84989,1,0,0:0:0:0:
256,192,85323,1,8,0:0:0:0:
256,192,85656,1,8,0:0:0:0:
256,192,86323,1,0,0:0:0:0:
256,192,86656,1,8,0:0:0:0:
256,192,86989,1,0,0:0:0:0:
256,192,87323,1,8,0:0:0:0:
256,192,87656,1,0,0:0:0:0:
256,192,87989,1,8,0:0:0:0:
256,192,88156,1,8,0:0:0:0:
256,192,88323,1,8,0:0:0:0:
256,192,88823,12,0,90323,0:0:0:0:
256,192,90656,5,8,0:0:0:0:
256,192,90989,1,0,0:0:0:0:
256,192,91323,1,8,0:0:0:0:
256,192,91656,1,0,0:0:0:0:
256,192,91989,1,8,0:0:0:0:
256,192,92156,1,0,0:0:0:0:
256,192,92489,1,8,0:0:0:0:
256,192,92656,1,0,0:0:0:0:
256,192,92989,1,8,0:0:0:0:
256,192,93156,1,0,0:0:0:0:
256,192,93489,1,8,0:0:0:0:
256,192,93656,1,0,0:0:0:0:
256,192,93989,1,8,0:0:0:0:
256,192,94323,1,8,0:0:0:0:
256,192,94656,1,0,0:0:0:0:
256,192,94823,1,8,0:0:0:0:
256,192,95156,1,0,0:0:0:0:
256,192,95323,1,8,0:0:0:0:
256,192,95656,1,0,0:0:0:0:
256,192,95823,1,8,0:0:0:0:
256,192,96156,1,0,0:0:0:0:
256,192,96323,1,8,0:0:0:0:
256,192,96989,1,0,0:0:0:0:
256,192,97323,1,8,0:0:0:0:
256,192,97489,1,0,0:0:0:0:
256,192,97823,1,8,0:0:0:0:
256,192,97989,1,0,0:0:0:0:
256,192,98323,1,8,0:0:0:0:
256,192,98489,1,0,0:0:0:0:
256,192,98823,1,8,0:0:0:0:
256,192,98989,1,0,0:0:0:0:
256,192,99323,1,8,0:0:0:0:
256,192,99656,1,8,0:0:0:0:
256,192,99989,1,0,0:0:0:0:
256,192,100156,1,8,0:0:0:0:
256,192,100489,1,0,0:0:0:0:
256,192,100656,1,8,0:0:0:0:
256,192,100989,1,0,0:0:0:0:
256,192,101156,1,8,0:0:0:0:
256,192,101489,1,0,0:0:0:0:
256,192,101656,1,8,0:0:0:0:
256,192,102323,1,0,0:0:0:0:
256,192,104989,1,0,0:0:0:0:
256,192,107656,1,0,0:0:0:0:
256,192,110323,1,0,0:0:0:0:
256,192,112489,1,0,0:0:0:0:
256,192,112656,1,8,0:0:0:0:
256,192,112989,1,8,0:0:0:0:
256,192,113323,1,8,0:0:0:0:
256,192,113656,1,8,0:0:0:0:
256,192,113989,1,8,0:0:0:0:
256,192,114156,1,0,0:0:0:0:
256,192,114323,1,8,0:0:0:0:
256,192,114656,1,8,0:0:0:0:
256,192,114989,1,8,0:0:0:0:
256,192,115656,1,8,0:0:0:0:
256,192,115989,1,8,0:0:0:0:
256,192,116323,1,8,0:0:0:0:
256,192,116489,1,0,0:0:0:0:
256,192,116656,1,8,0:0:0:0:
256,192,116823,1,0,0:0:0:0:
256,192,116989,1,8,0:0:0:0:
256,192,117323,1,8,0:0:0:0:
256,192,117656,1,8,0:0:0:0:
256,192,118323,1,0,0:0:0:0:
256,192,118656,1,0,0:0:0:0:
256,192,118989,1,0,0:0:0:0:
256,192,119323,1,0,0:0:0:0:
256,192,119489,1,8,0:0:0:0:
256,192,119656,1,0,0:0:0:0:
256,192,119989,1,0,0:0:0:0:
256,192,120323,1,0,0:0:0:0:
256,192,120989,1,0,0:0:0:0:
256,192,121323,1,8,0:0:0:0:
256,192,121656,1,8,0:0:0:0:
256,192,121989,1,8,0:0:0:0:
256,192,122156,1,8,0:0:0:0:
256,192,122323,1,8,0:0:0:0:
256,192,122656,1,0,0:0:0:0:
256,192,122823,1,8,0:0:0:0:
