osu file format v14

[General]
AudioFilename: audio.mp3
AudioLeadIn: 0
PreviewTime: 70486
Countdown: 0
SampleSet: Normal
StackLeniency: 0.7
Mode: 1
LetterboxInBreaks: 0
WidescreenStoryboard: 0

[Editor]
DistanceSpacing: 0.8
BeatDivisor: 4
GridSize: 32
TimelineZoom: 3.199999

[Metadata]
Title:Future Coaster
TitleUnicode:Future Coaster
Artist:Sakuzyo
ArtistUnicode:削除
Creator:Felt7z
Version:Inner Oni
Source:GROOVE COASTER
Tags:3EX DREAM PARTY bass
BeatmapID:1622816
BeatmapSetID:643521

[Difficulty]
HPDrainRate:5
CircleSize:5
OverallDifficulty:6
ApproachRate:5
SliderMultiplier:1.4
SliderTickRate:1

[Events]
//Background and Video events
0,0,"FC.jpg",0,20
//Break Periods
//Storyboard Layer 0 (Background)
//Storyboard Layer 1 (Fail)
//Storyboard Layer 2 (Pass)
//Storyboard Layer 3 (Foreground)
//Storyboard Sound Samples

[TimingPoints]
990,333.333333333333,4,1,0,100,1,0
43823,-95.2380952380952,4,1,0,100,0,0
47489,-100,4,1,0,100,0,0
70323,-100,4,1,0,100,0,1
70489,-95.2380952380952,4,1,0,100,0,1
80989,-95.2380952380952,4,1,0,100,0,0
91656,-95.2380952380952,4,1,0,100,0,1
102323,-100,4,1,0,100,0,0

[HitObjects]
256,192,2989,5,8,0:0:0:0:
256,192,3323,1,0,0:0:0:0:
256,192,3656,1,0,0:0:0:0:
256,192,4656,1,8,0:0:0:0:
256,192,4823,1,0,0:0:0:0:
256,192,5489,1,8,0:0:0:0:
256,192,6323,1,0,0:0:0:0:
256,192,7323,1,8,0:0:0:0:
256,192,7489,1,0,0:0:0:0:
256,192,8156,1,8,0:0:0:0:
256,192,8656,1,0,0:0:0:0:
256,192,8989,1,0,0:0:0:0:
256,192,9989,1,8,0:0:0:0:
256,192,10156,1,0,0:0:0:0:
256,192,10823,1,8,0:0:0:0:
256,192,11656,1,0,0:0:0:0:
256,192,12656,1,0,0:0:0:0:
256,192,12823,1,8,0:0:0:0:
256,192,13489,1,8,0:0:0:0:
256,192,13823,1,8,0:0:0:0:
256,192,13906,1,0,0:0:0:0:
256,192,13989,1,8,0:0:0:0:
256,192,14073,1,8,0:0:0:0:
256,192,14156,1,0,0:0:0:0:
256,192,14239,1,8,0:0:0:0:
256,192,14323,1,0,0:0:0:0:
256,192,14656,1,8,0:0:0:0:
256,192,14989,1,8,0:0:0:0:
256,192,15156,1,0,0:0:0:0:
256,192,15323,1,8,0:0:0:0:
256,192,15489,1,0,0:0:0:0:
256,192,15823,1,0,0:0:0:0:
256,192,15989,1,8,0:0:0:0:
256,192,16156,1,0,0:0:0:0:
256,192,16489,1,0,0:0:0:0:
256,192,16656,1,8,0:0:0:0:
256,192,16823,1,8,0:0:0:0:
256,192,16989,1,0,0:0:0:0:
256,192,17323,1,8,0:0:0:0:
256,192,17489,1,8,0:0:0:0:
256,192,17656,1,0,0:0:0:0:
256,192,17989,1,8,0:0:0:0:
256,192,18156,1,0,0:0:0:0:
256,192,18489,1,0,0:0:0:0:
256,192,18656,1,8,0:0:0:0:
256,192,18823,1,8,0:0:0:0:
256,192,19156,1,0,0:0:0:0:
256,192,19239,1,0,0:0:0:0:
256,192,19323,1,8,0:0:0:0:
256,192,19489,1,0,0:0:0:0:
256,192,19656,1,0,0:0:0:0:
256,192,19989,1,0,0:0:0:0:
256,192,20323,1,0,0:0:0:0:
256,192,20656,1,0,0:0:0:0:
256,192,20989,1,0,0:0:0:0:
256,192,21323,1,0,0:0:0:0:
256,192,21656,1,0,0:0:0:0:
256,192,21823,1,8,0:0:0:0:
256,192,21906,1,0,0:0:0:0:
256,192,21990,1,8,0:0:0:0:
256,192,22073,1,8,0:0:0:0:
256,192,22156,1,0,0:0:0:0:
256,192,22323,1,8,0:0:0:0:
256,192,22489,1,0,0:0:0:0:
256,192,22573,1,8,0:0:0:0:
256,192,22656,1,0,0:0:0:0:
256,192,22739,1,0,0:0:0:0:
256,192,22823,1,8,0:0:0:0:
256,192,22989,1,0,0:0:0:0:
256,192,23073,1,0,0:0:0:0:
256,192,23156,1,8,0:0:0:0:
256,192,23212,1,0,0:0:0:0:
256,192,23267,1,0,0:0:0:0:
256,192,23323,1,8,0:0:0:0:
256,192,23489,1,8,0:0:0:0:
256,192,23573,1,8,0:0:0:0:
256,192,23656,1,8,0:0:0:0:
256,192,23739,1,8,0:0:0:0:
256,192,23823,1,0,0:0:0:0:
256,192,23989,1,8,0:0:0:0:
256,192,24156,1,8,0:0:0:0:
256,192,24239,1,8,0:0:0:0:
256,192,24323,1,0,0:0:0:0:
256,192,24406,1,8,0:0:0:0:
256,192,24489,1,0,0:0:0:0:
256,192,24573,1,0,0:0:0:0:
256,192,24656,1,8,0:0:0:0:
256,192,24712,1,8,0:0:0:0:
256,192,24767,1,8,0:0:0:0:
256,192,24823,1,0,0:0:0:0:
256,192,24989,1,0,0:0:0:0:
256,192,25323,1,8,0:0:0:0:
256,192,25489,1,0,0:0:0:0:
256,192,25573,1,8,0:0:0:0:
256,192,25739,1,8,0:0:0:0:
256,192,25823,1,0,0:0:0:0:
256,192,25989,1,8,0:0:0:0:
256,192,26156,1,8,0:0:0:0:
256,192,26239,1,8,0:0:0:0:
256,192,26323,1,0,0:0:0:0:
256,192,26406,1,0,0:0:0:0:
256,192,26489,1,0,0:0:0:0:
256,192,26656,1,8,0:0:0:0:
256,192,26823,1,0,0:0:0:0:
256,192,26906,1,8,0:0:0:0:
256,192,27073,1,8,0:0:0:0:
256,192,27156,1,0,0:0:0:0:
256,192,27323,1,8,0:0:0:0:
256,192,27406,1,0,0:0:0:0:
256,192,27573,1,0,0:0:0:0:
256,192,27656,1,0,0:0:0:0:
256,192,27989,1,8,0:0:0:0:
256,192,28156,1,0,0:0:0:0:
256,192,28239,1,8,0:0:0:0:
256,192,28406,1,8,0:0:0:0:
256,192,28489,1,0,0:0:0:0:
256,192,28656,1,8,0:0:0:0:
256,192,28739,1,8,0:0:0:0:
256,192,28823,1,0,0:0:0:0:
256,192,28989,1,8,0:0:0:0:
256,192,29323,1,0,0:0:0:0:
256,192,29489,1,8,0:0:0:0:
256,192,29739,1,8,0:0:0:0:
256,192,29906,1,8,0:0:0:0:
256,192,29989,1,0,0:0:0:0:
256,192,30156,1,8,0:0:0:0:
256,192,30323,1,0,0:0:0:0:
256,192,30573,1,0,0:0:0:0:
256,192,30656,1,8,0:0:0:0:
256,192,30823,1,8,0:0:0:0:
256,192,30906,1,8,0:0:0:0:
256,192,30989,1,8,0:0:0:0:
256,192,31156,1,8,0:0:0:0:
256,192,31323,1,8,0:0:0:0:
256,192,31406,1,0,0:0:0:0:
256,192,31489,1,8,0:0:0:0:
256,192,31573,1,8,0:0:0:0:
256,192,31656,1,8,0:0:0:0:
256,192,31823,1,8,0:0:0:0:
256,192,31989,1,0,0:0:0:0:
256,192,32073,1,0,0:0:0:0:
256,192,32156,1,8,0:0:0:0:
256,192,32239,1,8,0:0:0:0:
256,192,32323,1,8,0:0:0:0:
256,192,32406,1,0,0:0:0:0:
256,192,32489,1,8,0:0:0:0:
256,192,32656,1,8,0:0:0:0:
256,192,32739,1,0,0:0:0:0:
256,192,32906,1,0,0:0:0:0:
256,192,32989,1,0,0:0:0:0:
256,192,33239,1,8,0:0:0:0:
256,192,33323,1,8,0:0:0:0:
256,192,33489,1,8,0:0:0:0:
256,192,33656,1,8,0:0:0:0:
256,192,33823,1,8,0:0:0:0:
256,192,33989,1,8,0:0:0:0:
256,192,34045,1,8,0:0:0:0:
256,192,34101,1,8,0:0:0:0:
256,192,34156,1,8,0:0:0:0:
256,192,34239,1,8,0:0:0:0:
256,192,34323,1,0,0:0:0:0:
256,192,34573,1,8,0:0:0:0:
256,192,34656,1,0,0:0:0:0:
256,192,34823,1,0,0:0:0:0:
256,192,35156,1,0,0:0:0:0:
256,192,35239,1,0,0:0:0:0:
256,192,35323,1,8,0:0:0:0:
256,192,35656,1,0,0:0:0:0:
256,192,35989,1,8,0:0:0:0:
256,192,36156,1,0,0:0:0:0:
256,192,36239,1,8,0:0:0:0:
256,192,36406,1,8,0:0:0:0:
256,192,36489,1,8,0:0:0:0:
256,192,36573,1,0,0:0:0:0:
256,192,36656,1,8,0:0:0:0:
256,192,36739,1,0,0:0:0:0:
256,192,36823,1,0,0:0:0:0:
256,192,36906,1,8,0:0:0:0:
256,192,36989,1,0,0:0:0:0:
256,192,37323,1,8,0:0:0:0:
256,192,37489,1,0,0:0:0:0:
256,192,37573,1,8,0:0:0:0:
256,192,37739,1,8,0:0:0:0:
256,192,37823,1,8,0:0:0:0:
256,192,37906,1,0,0:0:0:0:
256,192,37989,1,8,0:0:0:0:
256,192,38073,1,8,0:0:0:0:
256,192,38156,1,0,0:0:0:0:
256,192,38239,1,8,0:0:0:0:
256,192,38323,1,0,0:0:0:0:
256,192,38489,1,0,0:0:0:0:
256,192,38656,1,8,0:0:0:0:
256,192,38823,1,0,0:0:0:0:
256,192,38989,1,0,0:0:0:0:
256,192,39073,1,0,0:0:0:0:
256,192,39156,1,8,0:0:0:0:
256,192,39239,1,8,0:0:0:0:
256,192,39323,1,0,0:0:0:0:
256,192,39406,1,8,0:0:0:0:
256,192,39489,1,8,0:0:0:0:
256,192,39573,1,8,0:0:0:0:
256,192,39656,1,0,0:0:0:0:
256,192,39906,1,8,0:0:0:0:
256,192,39989,1,0,0:0:0:0:
256,192,40156,1,8,0:0:0:0:
256,192,40406,1,8,0:0:0:0:
256,192,40573,1,8,0:0:0:0:
256,192,40656,1,0,0:0:0:0:
256,192,40823,1,8,0:0:0:0:
256,192,40989,1,0,0:0:0:0:
256,192,41156,1,0,0:0:0:0:
256,192,41323,1,8,0:0:0:0:
256,192,41489,1,0,0:0:0:0:
256,192,41573,1,8,0:0:0:0:
256,192,41656,1,0,0:0:0:0:
256,192,41739,1,0,0:0:0:0:
256,192,41823,1,8,0:0:0:0:
256,192,41906,1,0,0:0:0:0:
256,192,41989,1,8,0:0:0:0:
256,192,42045,1,0,0:0:0:0:
256,192,42101,1,0,0:0:0:0:
256,192,42156,1,8,0:0:0:0:
256,192,42323,1,0,0:0:0:0:
256,192,42573,1,0,0:0:0:0:
256,192,42656,1,0,0:0:0:0:
256,192,42823,1,8,0:0:0:0:
256,192,43156,1,0,0:0:0:0:
256,192,43239,1,0,0:0:0:0:
256,192,43323,1,8,0:0:0:0:
256,192,43406,1,0,0:0:0:0:
256,192,43573,1,0,0:0:0:0:
256,192,43656,1,8,0:0:0:0:
256,192,43823,1,8,0:0:0:0:
256,192,43906,1,8,0:0:0:0:
256,192,43989,1,0,0:0:0:0:
256,192,44073,1,0,0:0:0:0:
256,192,44156,1,8,0:0:0:0:
256,192,44212,1,8,0:0:0:0:
256,192,44267,1,8,0:0:0:0:
256,192,44323,1,0,0:0:0:0:
256,192,44406,1,0,0:0:0:0:
256,192,44489,1,8,0:0:0:0:
256,192,44545,1,0,0:0:0:0:
256,192,44600,1,0,0:0:0:0:
256,192,44656,1,8,0:0:0:0:
256,192,44823,1,8,0:0:0:0:
256,192,44906,1,8,0:0:0:0:
256,192,44989,1,0,0:0:0:0:
256,192,45073,1,0,0:0:0:0:
256,192,45156,1,8,0:0:0:0:
256,192,45239,1,0,0:0:0:0:
256,192,45323,1,0,0:0:0:0:
256,192,45406,1,8,0:0:0:0:
256,192,45489,1,0,0:0:0:0:
256,192,45573,1,0,0:0:0:0:
256,192,45656,1,8,0:0:0:0:
256,192,45712,1,8,0:0:0:0:
256,192,45767,1,8,0:0:0:0:
256,192,45823,1,0,0:0:0:0:
256,192,45906,1,0,0:0:0:0:
256,192,45989,1,8,0:0:0:0:
256,192,46045,1,0,0:0:0:0:
256,192,46101,1,0,0:0:0:0:
256,192,46156,1,8,0:0:0:0:
256,192,46239,1,0,0:0:0:0:
256,192,46323,1,0,0:0:0:0:
256,192,47489,1,8,0:0:0:0:
256,192,47656,1,8,0:0:0:0:
256,192,48156,1,8,0:0:0:0:
256,192,48239,1,8,0:0:0:0:
256,192,48323,1,8,0:0:0:0:
256,192,48573,1,0,0:0:0:0:
256,192,48823,1,8,0:0:0:0:
256,192,48989,1,0,0:0:0:0:
256,192,49156,1,8,0:0:0:0:
256,192,49323,1,8,0:0:0:0:
256,192,49489,1,0,0:0:0:0:
256,192,50656,1,0,0:0:0:0:
256,192,50823,1,8,0:0:0:0:
256,192,50989,1,0,0:0:0:0:
256,192,51239,1,8,0:0:0:0:
256,192,51489,1,8,0:0:0:0:
256,192,51656,1,0,0:0:0:0:
256,192,52156,1,0,0:0:0:0:
256,192,52239,1,8,0:0:0:0:
256,192,52323,1,0,0:0:0:0:
256,192,52573,1,8,0:0:0:0:
256,192,52823,1,8,0:0:0:0:
256,192,52989,1,8,0:0:0:0:
256,192,53656,1,8,0:0:0:0:
256,192,53906,1,8,0:0:0:0:
256,192,54156,1,0,0:0:0:0:
256,192,54323,1,8,0:0:0:0:
256,192,54823,1,8,0:0:0:0:
256,192,54906,1,0,0:0:0:0:
256,192,54989,1,8,0:0:0:0:
256,192,55239,1,0,0:0:0:0:
256,192,55489,1,8,0:0:0:0:
256,192,55823,1,0,0:0:0:0:
256,192,55989,1,0,0:0:0:0:
256,192,56156,1,8,0:0:0:0:
256,192,56323,1,0,0:0:0:0:
256,192,56489,1,8,0:0:0:0:
256,192,56573,1,8,0:0:0:0:
256,192,56656,1,0,0:0:0:0:
256,192,56823,1,8,0:0:0:0:
256,192,56989,1,0,0:0:0:0:
256,192,57239,1,8,0:0:0:0:
256,192,57323,1,0,0:0:0:0:
256,192,57489,1,8,0:0:0:0:
256,192,57656,1,0,0:0:0:0:
256,192,57739,1,0,0:0:0:0:
256,192,57823,1,0,0:0:0:0:
256,192,57906,1,8,0:0:0:0:
256,192,57989,1,0,0:0:0:0:
256,192,58156,1,8,0:0:0:0:
256,192,58323,1,0,0:0:0:0:
256,192,58656,1,0,0:0:0:0:
256,192,58823,1,8,0:0:0:0:
256,192,58906,1,8,0:0:0:0:
256,192,58989,1,0,0:0:0:0:
256,192,59239,1,8,0:0:0:0:
256,192,59323,1,0,0:0:0:0:
256,192,59489,1,8,0:0:0:0:
256,192,59656,1,0,0:0:0:0:
256,192,59989,1,0,0:0:0:0:
256,192,60156,1,8,0:0:0:0:
256,192,60323,1,0,0:0:0:0:
256,192,60489,1,8,0:0:0:0:
256,192,60573,1,8,0:0:0:0:
256,192,60656,1,0,0:0:0:0:
256,192,60823,1,8,0:0:0:0:
256,192,60989,1,0,0:0:0:0:
256,192,61239,1,8,0:0:0:0:
256,192,61323,1,0,0:0:0:0:
256,192,61489,1,8,0:0:0:0:
256,192,61656,1,8,0:0:0:0:
256,192,61739,1,8,0:0:0:0:
256,192,61823,1,0,0:0:0:0:
256,192,61906,1,8,0:0:0:0:
256,192,61989,1,0,0:0:0:0:
256,192,62156,1,8,0:0:0:0:
256,192,62239,1,8,0:0:0:0:
256,192,62323,1,0,0:0:0:0:
256,192,64989,1,0,0:0:0:0:
256,192,65656,1,8,0:0:0:0:
256,192,66323,1,0,0:0:0:0:
256,192,66656,1,0,0:0:0:0:
256,192,66989,1,8,0:0:0:0:
256,192,67156,1,0,0:0:0:0:
256,192,67323,1,0,0:0:0:0:
256,192,67489,1,0,0:0:0:0:
256,192,67656,1,8,0:0:0:0:
256,192,67739,1,8,0:0:0:0:
256,192,67823,1,0,0:0:0:0:
256,192,67906,1,8,0:0:0:0:
256,192,67989,1,0,0:0:0:0:
256,192,68156,1,8,0:0:0:0:
256,192,68323,1,0,0:0:0:0:
256,192,68378,1,0,0:0:0:0:
256,192,68434,1,0,0:0:0:0:
256,192,68489,1,8,0:0:0:0:
256,192,68573,1,8,0:0:0:0:
256,192,68656,1,0,0:0:0:0:
256,192,68823,1,0,0:0:0:0:
256,192,68906,1,0,0:0:0:0:
256,192,68989,1,8,0:0:0:0:
256,192,69156,1,8,0:0:0:0:
256,192,69239,1,8,0:0:0:0:
256,192,69323,1,0,0:0:0:0:
256,192,69406,1,0,0:0:0:0:
256,192,69489,1,8,0:0:0:0:
256,192,69545,1,0,0:0:0:0:
256,192,69601,1,0,0:0:0:0:
256,192,69656,1,8,0:0:0:0:
256,192,69823,1,0,0:0:0:0:
256,192,69989,1,0,0:0:0:0:
256,192,70156,1,8,0:0:0:0:
256,192,70323,1,0,0:0:0:0:
256,192,70489,1,8,0:0:0:0:
256,192,70573,1,8,0:0:0:0:
256,192,70656,1,0,0:0:0:0:
256,192,70739,1,8,0:0:0:0:
256,192,70823,1,8,0:0:0:0:
256,192,70906,1,0,0:0:0:0:
256,192,70989,1,8,0:0:0:0:
256,192,71156,1,0,0:0:0:0:
256,192,71239,1,0,0:0:0:0:
256,192,71323,1,8,0:0:0:0:
256,192,71489,1,8,0:0:0:0:
256,192,71573,1,8,0:0:0:0:
256,192,71656,1,8,0:0:0:0:
256,192,71739,1,8,0:0:0:0:
256,192,71823,1,0,0:0:0:0:
256,192,71989,1,8,0:0:0:0:
256,192,72156,1,0,0:0:0:0:
256,192,72239,1,0,0:0:0:0:
256,192,72323,1,0,0:0:0:0:
256,192,72489,1,8,0:0:0:0:
256,192,72573,1,0,0:0:0:0:
256,192,72739,1,0,0:0:0:0:
256,192,72823,1,8,0:0:0:0:
256,192,72989,1,8,0:0:0:0:
256,192,73156,1,0,0:0:0:0:
256,192,73239,1,0,0:0:0:0:
256,192,73323,1,8,0:0:0:0:
256,192,73406,1,0,0:0:0:0:
256,192,73489,1,8,0:0:0:0:
256,192,73656,1,8,0:0:0:0:
256,192,73823,1,0,0:0:0:0:
256,192,73989,1,8,0:0:0:0:
256,192,74073,1,8,0:0:0:0:
256,192,74156,1,0,0:0:0:0:
256,192,74323,1,8,0:0:0:0:
256,192,74489,1,0,0:0:0:0:
256,192,74573,1,0,0:0:0:0:
256,192,74656,1,8,0:0:0:0:
256,192,74739,1,0,0:0:0:0:
256,192,74823,1,8,0:0:0:0:
256,192,74989,1,0,0:0:0:0:
256,192,75156,1,0,0:0:0:0:
256,192,75239,1,0,0:0:0:0:
256,192,75323,1,8,0:0:0:0:
256,192,75406,1,8,0:0:0:0:
256,192,75489,1,0,0:0:0:0:
256,192,75656,1,0,0:0:0:0:
256,192,75823,1,8,0:0:0:0:
256,192,75906,1,8,0:0:0:0:
256,192,75989,1,0,0:0:0:0:
256,192,76073,1,8,0:0:0:0:
256,192,76156,1,8,0:0:0:0:
256,192,76239,1,0,0:0:0:0:
256,192,76323,1,8,0:0:0:0:
256,192,76489,1,0,0:0:0:0:
256,192,76573,1,0,0:0:0:0:
256,192,76656,1,8,0:0:0:0:
256,192,76823,1,8,0:0:0:0:
256,192,76906,1,8,0:0:0:0:
256,192,76989,1,8,0:0:0:0:
256,192,77073,1,8,0:0:0:0:
256,192,77156,1,0,0:0:0:0:
256,192,77323,1,8,0:0:0:0:
256,192,77489,1,0,0:0:0:0:
256,192,77573,1,0,0:0:0:0:
256,192,77656,1,8,0:0:0:0:
256,192,77823,1,8,0:0:0:0:
256,192,77906,1,0,0:0:0:0:
256,192,78073,1,0,0:0:0:0:
256,192,78156,1,8,0:0:0:0:
256,192,78323,1,0,0:0:0:0:
256,192,78489,1,8,0:0:0:0:
256,192,78573,1,8,0:0:0:0:
256,192,78656,1,0,0:0:0:0:
256,192,78739,1,8,0:0:0:0:
256,192,78823,1,0,0:0:0:0:
256,192,78906,1,0,0:0:0:0:
256,192,78989,1,8,0:0:0:0:
256,192,79156,1,8,0:0:0:0:
256,192,79239,1,8,0:0:0:0:
256,192,79323,1,8,0:0:0:0:
256,192,79406,1,0,0:0:0:0:
256,192,79489,1,8,0:0:0:0:
256,192,79573,1,8,0:0:0:0:
256,192,79656,1,0,0:0:0:0:
256,192,79906,1,8,0:0:0:0:
256,192,79989,1,0,0:0:0:0:
256,192,80156,1,0,0:0:0:0:
256,192,80239,1,0,0:0:0:0:
256,192,80323,1,8,0:0:0:0:
256,192,80406,1,0,0:0:0:0:
256,192,80489,1,8,0:0:0:0:
256,192,80573,1,8,0:0:0:0:
256,192,80656,1,8,0:0:0:0:
256,192,80823,1,8,0:0:0:0:
256,192,80906,1,8,0:0:0:0:
256,192,80989,1,0,0:0:0:0:
256,192,81239,1,8,0:0:0:0:
256,192,81323,1,0,0:0:0:0:
256,192,81489,1,0,0:0:0:0:
256,192,81573,1,0,0:0:0:0:
256,192,81656,1,8,0:0:0:0:
256,192,81739,1,0,0:0:0:0:
256,192,81823,1,8,0:0:0:0:
256,192,81906,1,8,0:0:0:0:
256,192,81989,1,0,0:0:0:0:
256,192,82156,1,8,0:0:0:0:
256,192,82239,1,8,0:0:0:0:
256,192,82323,1,0,0:0:0:0:
256,192,82573,1,8,0:0:0:0:
256,192,82656,1,0,0:0:0:0:
256,192,82823,1,0,0:0:0:0:
256,192,82906,1,0,0:0:0:0:
256,192,82989,1,8,0:0:0:0:
256,192,83073,1,8,0:0:0:0:
256,192,83156,1,0,0:0:0:0:
256,192,83239,1,8,0:0:0:0:
256,192,83323,1,0,0:0:0:0:
256,192,83489,1,0,0:0:0:0:
256,192,83573,1,8,0:0:0:0:
256,192,83823,1,0,0:0:0:0:
256,192,83906,1,0,0:0:0:0:
256,192,83989,1,8,0:0:0:0:
256,192,84073,1,0,0:0:0:0:
256,192,84156,1,0,0:0:0:0:
256,192,84239,1,8,0:0:0:0:
256,192,84323,1,0,0:0:0:0:
256,192,84489,1,8,0:0:0:0:
256,192,84573,1,0,0:0:0:0:
256,192,84656,1,8,0:0:0:0:
256,192,84739,1,8,0:0:0:0:
256,192,84823,1,0,0:0:0:0:
256,192,84906,1,8,0:0:0:0:
256,192,84989,1,0,0:0:0:0:
256,192,85156,1,0,0:0:0:0:
256,192,85239,1,8,0:0:0:0:
256,192,85406,1,0,0:0:0:0:
256,192,85489,1,8,0:0:0:0:
256,192,85573,1,8,0:0:0:0:
256,192,85656,1,0,0:0:0:0:
256,192,85739,1,8,0:0:0:0:
256,192,85906,1,8,0:0:0:0:
256,192,85989,1,0,0:0:0:0:
256,192,86073,1,0,0:0:0:0:
256,192,86156,1,8,0:0:0:0:
256,192,86323,1,0,0:0:0:0:
256,192,86406,1,0,0:0:0:0:
256,192,86489,1,8,0:0:0:0:
256,192,86545,1,0,0:0:0:0:
256,192,86601,1,0,0:0:0:0:
256,192,86656,1,8,0:0:0:0:
256,192,86739,1,0,0:0:0:0:
256,192,86823,1,8,0:0:0:0:
256,192,86989,1,0,0:0:0:0:
256,192,87073,1,0,0:0:0:0:
256,192,87156,1,8,0:0:0:0:
256,192,87212,1,0,0:0:0:0:
256,192,87267,1,0,0:0:0:0:
256,192,87323,1,8,0:0:0:0:
256,192,87406,1,0,0:0:0:0:
256,192,87489,1,8,0:0:0:0:
256,192,87656,1,8,0:0:0:0:
256,192,87823,1,0,0:0:0:0:
256,192,87906,1,8,0:0:0:0:
256,192,87989,1,8,0:0:0:0:
256,192,88073,1,0,0:0:0:0:
256,192,88156,1,8,0:0:0:0:
256,192,88323,1,8,0:0:0:0:
256,192,88406,1,0,0:0:0:0:
256,192,88489,1,8,0:0:0:0:
256,192,88573,1,8,0:0:0:0:
256,192,88739,1,0,0:0:0:0:
256,192,88823,1,8,0:0:0:0:
256,192,88906,1,8,0:0:0:0:
256,192,88989,1,0,0:0:0:0:
256,192,89239,1,8,0:0:0:0:
256,192,89323,1,8,0:0:0:0:
256,192,89406,1,0,0:0:0:0:
256,192,89489,1,8,0:0:0:0:
256,192,89573,1,8,0:0:0:0:
256,192,89656,1,0,0:0:0:0:
256,192,89823,1,8,0:0:0:0:
256,192,89906,1,8,0:0:0:0:
256,192,90073,1,0,0:0:0:0:
256,192,90156,1,8,0:0:0:0:
256,192,90239,1,8,0:0:0:0:
256,192,90323,1,0,0:0:0:0:
256,192,90489,1,8,0:0:0:0:
256,192,90573,1,8,0:0:0:0:
256,192,90656,1,0,0:0:0:0:
256,192,90739,1,0,0:0:0:0:
256,192,90823,1,8,0:0:0:0:
256,192,90878,1,8,0:0:0:0:
256,192,90934,1,8,0:0:0:0:
256,192,90989,1,0,0:0:0:0:
256,192,91073,1,0,0:0:0:0:
256,192,91156,1,8,0:0:0:0:
256,192,91212,1,0,0:0:0:0:
256,192,91267,1,0,0:0:0:0:
256,192,91323,1,8,0:0:0:0:
256,192,91656,1,0,0:0:0:0:
256,192,91739,1,0,0:0:0:0:
256,192,91823,1,8,0:0:0:0:
256,192,91906,1,0,0:0:0:0:
256,192,91989,1,8,0:0:0:0:
256,192,92156,1,0,0:0:0:0:
256,192,92239,1,0,0:0:0:0:
256,192,92323,1,8,0:0:0:0:
256,192,92406,1,0,0:0:0:0:
256,192,92489,1,8,0:0:0:0:
256,192,92656,1,0,0:0:0:0:
256,192,92739,1,0,0:0:0:0:
256,192,92823,1,8,0:0:0:0:
256,192,92906,1,0,0:0:0:0:
256,192,92989,1,8,0:0:0:0:
256,192,93156,1,0,0:0:0:0:
256,192,93212,1,0,0:0:0:0:
256,192,93267,1,0,0:0:0:0:
256,192,93323,1,8,0:0:0:0:
256,192,93406,1,0,0:0:0:0:
256,192,93489,1,8,0:0:0:0:
256,192,93656,1,8,0:0:0:0:
256,192,93739,1,8,0:0:0:0:
256,192,93823,1,0,0:0:0:0:
256,192,93906,1,0,0:0:0:0:
256,192,93989,1,8,0:0:0:0:
256,192,94073,1,0,0:0:0:0:
256,192,94156,1,0,0:0:0:0:
256,192,94239,1,8,0:0:0:0:
256,192,94323,1,0,0:0:0:0:
256,192,94489,1,0,0:0:0:0:
256,192,94573,1,0,0:0:0:0:
256,192,94656,1,8,0:0:0:0:
256,192,94712,1,8,0:0:0:0:
256,192,94767,1,8,0:0:0:0:
256,192,94823,1,0,0:0:0:0:
256,192,94906,1,0,0:0:0:0:
256,192,94989,1,8,0:0:0:0:
256,192,95073,1,0,0:0:0:0:
256,192,95156,1,0,0:0:0:0:
256,192,95239,1,8,0:0:0:0:
256,192,95323,1,0,0:0:0:0:
256,192,95406,1,0,0:0:0:0:
256,192,95489,1,8,0:0:0:0:
256,192,95573,1,0,0:0:0:0:
256,192,95656,1,0,0:0:0:0:
256,192,95823,1,8,0:0:0:0:
256,192,95878,1,8,0:0:0:0:
256,192,95934,1,8,0:0:0:0:
256,192,95989,1,0,0:0:0:0:
256,192,96073,1,0,0:0:0:0:
256,192,96156,1,8,0:0:0:0:
256,192,96323,1,8,0:0:0:0:
256,192,96406,1,8,0:0:0:0:
256,192,96489,1,0,0:0:0:0:
256,192,96573,1,0,0:0:0:0:
256,192,96656,1,0,0:0:0:0:
256,192,96739,1,8,0:0:0:0:
256,192,96906,1,8,0:0:0:0:
256,192,96989,1,0,0:0:0:0:
256,192,97073,1,8,0:0:0:0:
256,192,97156,1,8,0:0:0:0:
256,192,97239,1,0,0:0:0:0:
256,192,97323,1,8,0:0:0:0:
256,192,97406,1,8,0:0:0:0:
256,192,97489,1,0,0:0:0:0:
256,192,97545,1,8,0:0:0:0:
256,192,97601,1,8,0:0:0:0:
256,192,97656,1,0,0:0:0:0:
256,192,97739,1,8,0:0:0:0:
256,192,97823,1,8,0:0:0:0:
256,192,97989,1,0,0:0:0:0:
256,192,98073,1,8,0:0:0:0:
256,192,98156,1,8,0:0:0:0:
256,192,98239,1,0,0:0:0:0:
256,192,98323,1,8,0:0:0:0:
256,192,98406,1,8,0:0:0:0:
256,192,98489,1,0,0:0:0:0:
256,192,98545,1,8,0:0:0:0:
256,192,98601,1,8,0:0:0:0:
256,192,98656,1,0,0:0:0:0:
256,192,98739,1,8,0:0:0:0:
256,192,98823,1,8,0:0:0:0:
256,192,98989,1,0,0:0:0:0:
256,192,99073,1,8,0:0:0:0:
256,192,99156,1,0,0:0:0:0:
256,192,99239,1,0,0:0:0:0:
256,192,99323,1,8,0:0:0:0:
256,192,99406,1,0,0:0:0:0:
256,192,99489,1,8,0:0:0:0:
256,192,99573,1,0,0:0:0:0:
256,192,99656,1,8,0:0:0:0:
256,192,99739,1,8,0:0:0:0:
256,192,99823,1,0,0:0:0:0:
256,192,99878,1,0,0:0:0:0:
256,192,99934,1,0,0:0:0:0:
256,192,99989,1,8,0:0:0:0:
256,192,100156,1,0,0:0:0:0:
256,192,100239,1,8,0:0:0:0:
256,192,100323,1,0,0:0:0:0:
256,192,100378,1,0,0:0:0:0:
256,192,100434,1,0,0:0:0:0:
256,192,100489,1,8,0:0:0:0:
256,192,100656,1,0,0:0:0:0:
256,192,100739,1,0,0:0:0:0:
256,192,100823,1,8,0:0:0:0:
256,192,100906,1,0,0:0:0:0:
256,192,100989,1,0,0:0:0:0:
256,192,101156,1,8,0:0:0:0:
256,192,101239,1,0,0:0:0:0:
256,192,101406,1,0,0:0:0:0:
256,192,101489,1,8,0:0:0:0:
256,192,101573,1,0,0:0:0:0:
256,192,101656,1,0,0:0:0:0:
256,192,101739,1,8,0:0:0:0:
256,192,101823,1,0,0:0:0:0:
256,192,101906,1,0,0:0:0:0:
256,192,101989,1,8,0:0:0:0:
256,192,102323,1,0,0:0:0:0:
256,192,104989,1,0,0:0:0:0:
256,192,107156,1,0,0:0:0:0:
256,192,107323,1,0,0:0:0:0:
256,192,107489,1,8,0:0:0:0:
256,192,107656,1,0,0:0:0:0:
256,192,110323,1,0,0:0:0:0:
256,192,112489,1,0,0:0:0:0:
256,192,112573,1,0,0:0:0:0:
256,192,112656,1,8,0:0:0:0:
256,192,112989,1,8,0:0:0:0:
256,192,113156,1,0,0:0:0:0:
256,192,113323,1,8,0:0:0:0:
256,192,113656,1,0,0:0:0:0:
256,192,113823,1,8,0:0:0:0:
256,192,113989,1,0,0:0:0:0:
256,192,114156,1,8,0:0:0:0:
256,192,114489,1,8,0:0:0:0:
256,192,114656,1,8,0:0:0:0:
256,192,114823,1,0,0:0:0:0:
256,192,115156,1,0,0:0:0:0:
256,192,115323,1,0,0:0:0:0:
256,192,115489,1,8,0:0:0:0:
256,192,115656,1,8,0:0:0:0:
256,192,115823,1,8,0:0:0:0:
256,192,116156,1,8,0:0:0:0:
256,192,116323,1,0,0:0:0:0:
256,192,116489,1,0,0:0:0:0:
256,192,116656,1,8,0:0:0:0:
256,192,116823,1,0,0:0:0:0:
256,192,117156,1,0,0:0:0:0:
256,192,117323,1,0,0:0:0:0:
256,192,117489,1,8,0:0:0:0:
256,192,117573,1,8,0:0:0:0:
256,192,117656,1,8,0:0:0:0:
256,192,117823,1,0,0:0:0:0:
256,192,117989,1,8,0:0:0:0:
256,192,118156,1,0,0:0:0:0:
256,192,118323,1,0,0:0:0:0:
256,192,118573,1,8,0:0:0:0:
256,192,118656,1,0,0:0:0:0:
256,192,118823,1,8,0:0:0:0:
256,192,118906,1,8,0:0:0:0:
256,192,118989,1,0,0:0:0:0:
256,192,119156,1,8,0:0:0:0:
256,192,119323,1,0,0:0:0:0:
256,192,119489,1,8,0:0:0:0:
256,192,119573,1,8,0:0:0:0:
256,192,119656,1,0,0:0:0:0:
256,192,119906,1,8,0:0:0:0:
256,192,119989,1,0,0:0:0:0:
256,192,120156,1,8,0:0:0:0:
256,192,120239,1,8,0:0:0:0:
256,192,120323,1,0,0:0:0:0:
256,192,120489,1,8,0:0:0:0:
256,192,120573,1,8,0:0:0:0:
256,192,120656,1,0,0:0:0:0:
256,192,120739,1,8,0:0:0:0:
256,192,120823,1,0,0:0:0:0:
256,192,120989,1,0,0:0:0:0:
256,192,121156,1,8,0:0:0:0:
256,192,121239,1,0,0:0:0:0:
256,192,121323,1,8,0:0:0:0:
256,192,121406,1,8,0:0:0:0:
256,192,121489,1,0,0:0:0:0:
256,192,121656,1,8,0:0:0:0:
256,192,121739,1,8,0:0:0:0:
256,192,121823,1,0,0:0:0:0:
256,192,121878,1,0,0:0:0:0:
256,192,121934,1,0,0:0:0:0:
256,192,121989,1,8,0:0:0:0:
256,192,122156,1,8,0:0:0:0:
256,192,122239,1,8,0:0:0:0:
256,192,122323,1,0,0:0:0:0:
256,192,122489,1,0,0:0:0:0:
256,192,122573,1,8,0:0:0:0:
256,192,122656,1,0,0:0:0:0:
256,192,122739,1,0,0:0:0:0:
256,192,122823,1,8,0:0:0:0:
