osu file format v14

[General]
AudioFilename: audio.mp3
AudioLeadIn: 0
PreviewTime: -1
Countdown: 1
SampleSet: Normal
StackLeniency: 0.7
Mode: 0
LetterboxInBreaks: 0
WidescreenStoryboard: 0

[Editor]
DistanceSpacing: 0.2
BeatDivisor: 4
GridSize: 32
TimelineZoom: 5.839997

[Metadata]
Title:Fracture ray
TitleUnicode:Fracture ray
Artist:Sakuzyo
ArtistUnicode:Sakuzyo
Creator:gxytcgxytc
Version:qiu GD
Source:Arcaea
Tags:骨折光线!哔哔哔哔哔~!
BeatmapID:1736974
BeatmapSetID:829055

[Difficulty]
HPDrainRate:8
CircleSize:4
OverallDifficulty:7
ApproachRate:9.5
SliderMultiplier:2.3
SliderTickRate:1

[Events]
//Background and Video events
//Break Periods
2,45093,48083
2,49858,55883
2,62908,67583
2,68308,72683
2,92308,99083
2,101908,133083
2,141058,145958
//Storyboard Layer 0 (Background)
//Storyboard Layer 1 (Fail)
//Storyboard Layer 2 (Pass)
//Storyboard Layer 3 (Foreground)
//Storyboard Sound Samples

[TimingPoints]
1208,300,4,1,1,71,1,0
6008,-285.714285714286,4,1,1,71,0,0
34208,-47.6190476190476,4,1,1,71,0,0
37208,-58.8235294117647,4,1,1,71,0,0
39608,-47.6190476190476,4,1,1,71,0,0
40058,-58.8235294117647,4,1,1,71,0,0
41408,-47.6190476190476,4,1,1,71,0,0
58808,-47.6190476190476,4,1,1,71,0,0
60608,-58.8235294117647,4,1,1,71,0,0
64808,240,4,1,1,71,1,0
65408,300,4,1,1,71,1,0
66008,300,4,1,1,71,1,0
66608,240,4,1,1,71,1,0
67208,342.857142857143,4,1,1,71,1,0
67808,300,4,1,1,71,1,0
68408,300,4,1,1,71,1,0
82808,-250,4,1,1,71,0,0
85058,-500,4,1,1,71,0,0
87608,-250,4,1,1,71,0,0
88808,-500,4,1,1,71,0,0
136808,240,4,1,1,71,1,0
137408,300,4,1,1,71,1,0
138008,300,4,1,1,71,1,0
139208,342.857142857143,4,1,1,71,1,0
139808,300,4,1,1,71,1,0
140408,300,4,1,1,71,1,0

[HitObjects]
256,192,1208,12,0,4208,0:0:0:0:
256,192,4958,12,0,5933,0:0:0:0:
206,122,6008,5,0,0:0:0:0:
229,170,7208,1,0,0:0:0:0:
267,207,8408,1,0,0:0:0:0:
307,125,10508,1,0,0:0:0:0:
401,288,10808,1,0,0:0:0:0:
168,276,12008,1,0,0:0:0:0:
303,164,13208,1,0,0:0:0:0:
274,222,15008,1,0,0:0:0:0:
274,222,15608,1,0,0:0:0:0:
260,240,16808,1,0,0:0:0:0:
252,163,17408,1,0,0:0:0:0:
217,235,17708,1,0,0:0:0:0:
146,280,18008,1,0,0:0:0:0:
179,149,18308,1,0,0:0:0:0:
313,95,18608,1,0,0:0:0:0:
361,80,19208,1,0,0:0:0:0:
415,60,19808,1,0,0:0:0:0:
361,80,20108,1,0,0:0:0:0:
313,95,20408,1,0,0:0:0:0:
281,118,21608,1,0,0:0:0:0:
176,257,22208,1,0,0:0:0:0:
88,224,22508,1,0,0:0:0:0:
50,130,22808,1,0,0:0:0:0:
50,130,23708,1,0,0:0:0:0:
88,224,23858,1,0,0:0:0:0:
176,257,24008,1,0,0:0:0:0:
270,242,24608,1,0,0:0:0:0:
256,192,24683,12,0,25133,0:0:0:0:
185,307,25208,5,0,0:0:0:0:
256,192,25808,12,0,26333,0:0:0:0:
256,328,26408,5,0,0:0:0:0:
256,192,27008,12,0,27533,0:0:0:0:
327,302,27608,5,0,0:0:0:0:
256,192,28208,12,0,28733,0:0:0:0:
375,253,28808,5,0,0:0:0:0:
256,192,29408,12,0,29933,0:0:0:0:
388,190,30008,5,0,0:0:0:0:
256,192,30608,12,0,31133,0:0:0:0:
364,122,31208,5,0,0:0:0:0:
256,192,31808,12,0,32333,0:0:0:0:
310,89,32408,6,0,B|256:152|256:152|304:200|304:200|208:200|208:200|256:256|256:256|256:264|256:264|256:256|256:256|256:264|256:264|256:256|256:256|256:264|256:264|256:256|256:256|256:264|256:264|256:256|256:256|256:264|256:264|256:256|256:256|256:264|256:264|256:256|256:256|256:264|256:264|256:320,1,462.874985874176
256,302,34208,6,0,B|256:256|256:256|208:200|208:200|304:200|304:200|256:152|256:152|254:69,1,362.249988945008
255,194,34508,1,0,0:0:0:0:
464,280,34808,2,0,B|448:240|448:240|480:200|480:200|440:168|440:168|480:120|480:120|432:80,1,241.499992630005
57,98,35108,2,0,B|32:120|32:120|72:168|72:168|32:200|32:200|64:240|64:240|48:280,1,241.499992630005
349,37,35408,1,0,0:0:0:0:
228,102,35558,2,0,B|139:75|139:75|309:39,2,241.499992630005
163,347,36008,1,0,0:0:0:0:
284,282,36158,2,0,B|373:309|373:309|203:345,2,241.499992630005
50,301,36608,2,0,P|77:144|132:259,1,362.249988945008
123,236,36908,1,0,0:0:0:0:
105,252,36983,1,0,0:0:0:0:
87,268,37058,1,0,0:0:0:0:
69,284,37133,1,0,0:0:0:0:
49,300,37208,2,0,P|-1:272|-14:220,1,97.7500018644333
150,56,37358,2,0,P|201:84|218:136,1,97.7500018644333
302,279,37508,2,0,L|202:261,1,97.7500018644333
12,130,37658,2,0,L|125:149,1,97.7500018644333
334,206,37808,2,0,P|390:280|241:334,1,293.2500055933
133,351,38108,2,0,L|18:386,2,97.7500018644333
184,210,38408,2,0,P|197:255|181:315,1,97.7500018644333
100,153,38558,2,0,P|87:198|103:258,1,97.7500018644333
187,116,38708,2,0,P|174:161|190:221,1,97.7500018644333
96,58,38858,2,0,P|109:104|99:152,1,97.7500018644333
256,192,39008,12,0,39233,0:0:0:0:
257,192,39308,5,0,0:0:0:0:
464,280,39608,6,0,B|448:240|448:240|480:200|480:200|440:168|440:168|480:120|480:120|432:80,1,241.499992630005
57,98,39908,2,0,B|32:120|32:120|72:168|72:168|32:200|32:200|64:240|64:240|48:280,1,241.499992630005
75,124,41408,2,0,B|52:190|122:168|20:246|97:325,1,181.124994472504
346,335,41708,2,0,L|352:209,1,120.749996315003
372,227,41858,2,0,L|378:101,1,120.749996315003
249,55,44408,6,0,P|145:271|290:60,1,782.000014915467
223,110,48608,6,0,L|318:70,1,60.3749981575013
167,133,48758,6,0,L|262:93,1,60.3749981575013
232,243,48908,6,0,L|176:219,1,60.3749981575013
287,266,49058,6,0,L|231:242,1,60.3749981575013
464,280,49208,6,0,B|448:240|448:240|480:200|480:200|440:168|440:168|480:120|480:120|432:80,1,241.499992630005
57,98,49508,2,0,B|32:120|32:120|72:168|72:168|32:200|32:200|64:240|64:240|48:280,1,241.499992630005
92,130,56408,5,0,0:0:0:0:
77,181,56483,1,0,0:0:0:0:
92,240,56558,1,0,0:0:0:0:
237,268,56708,5,0,0:0:0:0:
259,187,56783,1,0,0:0:0:0:
237,95,56858,1,0,0:0:0:0:
432,32,57008,1,0,0:0:0:0:
328,184,57158,1,0,0:0:0:0:
432,328,57308,1,0,0:0:0:0:
104,192,57608,1,0,0:0:0:0:
256,192,57758,5,0,0:0:0:0:
256,192,57795,1,0,0:0:0:0:
256,192,57833,1,0,0:0:0:0:
256,192,57908,1,0,0:0:0:0:
392,192,58058,1,0,0:0:0:0:
321,81,58208,1,0,0:0:0:0:
321,303,58358,1,0,0:0:0:0:
480,224,58508,2,0,L|480:128,7,60.3749981575013
412,309,58808,2,0,P|343:215|231:266,1,241.499992630005
100,75,59108,2,0,P|169:169|237:148,1,181.124994472504
302,55,59258,2,0,L|392:75,1,60.3749981575013
383,156,59408,2,0,L|324:142,1,60.3749981575013
338,227,59558,2,0,L|428:247,1,60.3749981575013
454,185,59708,2,0,L|544:205,1,60.3749981575013
454,185,60008,2,0,L|544:205,1,60.3749981575013
413,293,60158,1,0,0:0:0:0:
314,293,60233,2,0,L|248:313,1,60.3749981575013
243,226,60308,2,0,L|165:251,3,80.499997543335
36,330,60608,2,0,L|16:221,1,97.7500018644333
36,65,60758,2,0,L|17:130,2,65.1666679096222
193,64,60908,2,0,L|297:53,1,97.7500018644333
283,148,61058,2,0,L|396:134,1,97.7500018644333
380,135,61208,1,0,0:0:0:0:
111,72,61608,1,0,0:0:0:0:
111,72,61708,1,0,0:0:0:0:
62,272,61808,1,0,0:0:0:0:
306,339,62008,1,0,0:0:0:0:
268,84,62208,1,0,0:0:0:0:
62,272,62408,1,0,0:0:0:0:
219,226,62558,2,0,L|207:281,2,48.8750009322167
219,226,62708,1,0,0:0:0:0:
416,192,68108,5,0,0:0:0:0:
64,320,73208,5,0,0:0:0:0:
128,320,73508,1,0,0:0:0:0:
192,320,73808,1,0,0:0:0:0:
256,320,74108,1,0,0:0:0:0:
256,320,74708,1,0,0:0:0:0:
192,320,74858,1,0,0:0:0:0:
128,320,75008,1,0,0:0:0:0:
64,320,75308,1,0,0:0:0:0:
94,257,75608,5,0,0:0:0:0:
169,257,75908,1,0,0:0:0:0:
244,257,76208,1,0,0:0:0:0:
319,257,76508,1,0,0:0:0:0:
319,257,77108,1,0,0:0:0:0:
244,257,77258,1,0,0:0:0:0:
169,257,77408,1,0,0:0:0:0:
94,257,77708,1,0,0:0:0:0:
136,185,78008,5,0,0:0:0:0:
227,185,78308,1,0,0:0:0:0:
319,185,78608,1,0,0:0:0:0:
411,185,78908,1,0,0:0:0:0:
411,185,79508,1,0,0:0:0:0:
319,185,79658,1,0,0:0:0:0:
227,185,79808,1,0,0:0:0:0:
319,185,80108,1,0,0:0:0:0:
411,185,80408,1,0,0:0:0:0:
319,185,80708,1,0,0:0:0:0:
411,185,81008,1,0,0:0:0:0:
227,185,81308,1,0,0:0:0:0:
411,185,81608,1,0,0:0:0:0:
136,185,81908,5,0,0:0:0:0:
411,185,82208,1,0,0:0:0:0:
44,185,82508,5,0,0:0:0:0:
411,185,82808,2,0,B|430:235|415:267|412:307|397:326|374:349|317:356|332:394|237:388|201:373|213:323|168:326|154:303|159:272|150:240|149:238|149:238|86:303|86:303|81:208|81:208,1,644
61,135,85208,2,0,L|82:95,1,46
143,136,85808,2,0,L|194:102,1,46
61,135,86408,2,0,L|82:95,3,46
82,94,87458,1,0,0:0:0:0:
506,307,87608,2,0,L|218:323,1,276
173,126,88808,2,0,L|170:171,1,46
116,221,89408,2,0,L|113:266,1,46
49,311,90008,2,0,L|46:356,1,46
222,238,90608,2,0,P|231:215|237:176,1,46
337,85,91208,2,0,P|370:69|393:72,3,46
252,115,99608,5,0,0:0:0:0:
274,248,100208,1,0,0:0:0:0:
155,202,100808,1,0,0:0:0:0:
225,190,101108,1,0,0:0:0:0:
153,163,101408,1,0,0:0:0:0:
229,165,101708,1,0,0:0:0:0:
384,224,133608,5,0,0:0:0:0:
384,224,133708,1,0,0:0:0:0:
384,224,133808,1,0,0:0:0:0:
224,96,134008,1,0,0:0:0:0:
352,224,134208,1,0,0:0:0:0:
448,160,134408,1,0,0:0:0:0:
480,288,134558,1,0,0:0:0:0:
480,288,134595,1,0,0:0:0:0:
480,288,134633,1,0,0:0:0:0:
192,256,135233,5,0,0:0:0:0:
128,256,135308,5,0,0:0:0:0:
288,64,135408,1,0,0:0:0:0:
288,64,135508,5,0,0:0:0:0:
352,128,135608,1,0,0:0:0:0:
416,224,135908,1,0,0:0:0:0:
416,224,135958,1,0,0:0:0:0:
416,224,136008,1,0,0:0:0:0:
416,224,136058,1,0,0:0:0:0:
416,224,136108,1,0,0:0:0:0:
416,224,136158,1,0,0:0:0:0:
416,224,136208,1,0,0:0:0:0:
192,96,136808,1,0,0:0:0:0:
192,96,136928,1,0,0:0:0:0:
192,96,137048,1,0,0:0:0:0:
192,96,137168,1,0,0:0:0:0:
256,96,137228,1,0,0:0:0:0:
256,96,137288,1,0,0:0:0:0:
256,96,137348,1,0,0:0:0:0:
320,128,137408,1,0,0:0:0:0:
384,192,138008,1,0,0:0:0:0:
384,192,138408,1,0,0:0:0:0:
384,192,138608,1,0,0:0:0:0:
448,224,138758,1,0,0:0:0:0:
448,224,138908,1,0,0:0:0:0:
448,224,139058,1,0,0:0:0:0:
320,192,139208,1,0,0:0:0:0:
256,128,139293,1,0,0:0:0:0:
160,128,139379,1,0,0:0:0:0:
256,128,139465,1,0,0:0:0:0:
160,128,139550,1,0,0:0:0:0:
256,128,139636,1,0,0:0:0:0:
288,128,139722,1,0,0:0:0:0:
160,128,139808,1,0,0:0:0:0:
352,192,140708,1,0,0:0:0:0:
352,192,140745,1,0,0:0:0:0:
352,192,140783,1,0,0:0:0:0:
352,192,140820,1,0,0:0:0:0:
352,192,140858,1,0,0:0:0:0:
320,160,147158,5,0,0:0:0:0:
320,160,147308,1,0,0:0:0:0:
320,160,147458,1,0,0:0:0:0:
