osu file format v14

[General]
AudioFilename: FractureRay.mp3
AudioLeadIn: 0
PreviewTime: -1
Countdown: 0
SampleSet: Soft
StackLeniency: 0.4
Mode: 0
LetterboxInBreaks: 0
WidescreenStoryboard: 0

[Editor]
DistanceSpacing: 1
BeatDivisor: 8
GridSize: 16
TimelineZoom: 2.9

[Metadata]
Title:Fracture Ray
TitleUnicode:Fracture Ray
Artist:Sakuzyo
ArtistUnicode:削除
Creator:ak74
Version:.
Source:Arcaea
Tags:
BeatmapID:2080701
BeatmapSetID:994885

[Difficulty]
HPDrainRate:5
CircleSize:4.8
OverallDifficulty:8
ApproachRate:9.6
SliderMultiplier:2
SliderTickRate:1

[Events]
//Background and Video events
0,0,"16848987_p0.jpg",0,0
//Break Periods
//Storyboard Layer 0 (Background)
//Storyboard Layer 1 (Fail)
//Storyboard Layer 2 (Pass)
//Storyboard Layer 3 (Foreground)
//Storyboard Sound Samples

[TimingPoints]
10,300,4,2,0,10,1,0
6010,-133.333333333333,4,2,0,10,0,0
8410,-400,4,2,0,10,0,0
10810,-208.333333333333,4,2,0,10,0,0
13210,-172.413793103448,4,2,0,10,0,0
14410,-333.333333333333,4,2,0,10,0,0
15010,-250,4,2,0,10,0,0
15610,-133.333333333333,4,2,0,10,0,0
22810,-333.333333333333,4,2,0,10,0,0
32410,-74.6268656716418,4,2,0,10,0,0
34510,-35.7142857142857,4,2,0,10,0,0
34810,-50,4,2,0,10,0,0
35035,-100,4,2,0,10,0,0
35110,-50,4,2,0,10,0,0
35410,-83.3333333333333,4,2,0,10,0,0
35485,-90.9090909090909,4,2,0,10,0,0
35560,-100,4,2,0,10,0,0
35635,-111.111111111111,4,2,0,10,0,0
35710,-125,4,2,0,10,0,0
35785,-142.857142857143,4,2,0,10,0,0
35860,-166.666666666667,4,2,0,10,0,0
35935,-200,4,2,0,10,0,0
36010,-50,4,2,0,10,0,0
36160,-40,4,2,0,10,0,0
36310,-33.3333333333333,4,2,0,10,0,0
36460,-100,4,2,0,10,0,0
36610,-31.25,4,2,0,10,0,0
36910,-66.6666666666667,4,2,0,10,0,0
37210,-222.222222222222,4,2,0,10,0,0
37810,-28.5714285714286,4,2,0,10,0,0
38110,-50,4,2,0,10,0,0
38410,-66.6666666666667,4,2,0,10,0,0
38560,-66.6666666666667,4,2,0,10,0,0
38710,-33.3333333333333,4,2,0,10,0,0
39010,-27.027027027027,4,2,0,10,0,0
39610,-45.4545454545455,4,2,0,10,0,0
39910,-40,4,2,0,10,0,0
39985,-50,4,2,0,10,0,0
40060,-66.6666666666667,4,2,0,10,0,0
40210,-83.3333333333333,4,2,0,10,0,0
40285,-90.9090909090909,4,2,0,10,0,0
40360,-100,4,2,0,10,0,0
40435,-111.111111111111,4,2,0,10,0,0
40510,-125,4,2,0,10,0,0
40585,-142.857142857143,4,2,0,10,0,0
40660,-166.666666666667,4,2,0,10,0,0
40735,-200,4,2,0,10,0,0
40810,-50,4,2,0,10,0,0
40960,-40,4,2,0,10,0,0
41110,-33.3333333333333,4,2,0,10,0,0
41260,-100,4,2,0,10,0,0
41410,-31.2500000000001,4,2,0,10,0,0
41710,-100,4,2,0,10,0,0
42010,-55.5555555555556,4,2,0,10,0,0
43060,-40,4,2,0,10,0,0
43210,-66.6666666666667,4,2,0,10,0,0
43510,-33.3333333333333,4,2,0,10,0,0
43810,-40,4,2,0,10,0,0
44410,-37.037037037037,4,2,0,10,0,0
45010,-45.4545454545455,4,2,0,10,0,0
45310,-57.1428571428571,4,2,0,10,0,0
45610,-50,4,2,0,10,0,0
45760,-40,4,2,0,10,0,0
45910,-33.3333333333333,4,2,0,10,0,0
46060,-100,4,2,0,10,0,0
46210,-25,4,2,0,10,0,0
46660,-55.5555555555556,4,2,0,10,0,0
47410,-66.6666666666667,4,2,0,10,0,0
47710,-74.0740740740741,4,2,0,10,0,0
48010,-47.6190476190476,4,2,0,10,0,0
49210,-45.4545454545455,4,2,0,10,0,0
49510,-40,4,2,0,10,0,0
49585,-50,4,2,0,10,0,0
49660,-66.6666666666667,4,2,0,10,0,0
49810,-40,4,2,0,10,0,0
50110,-55.5555555555556,4,2,0,10,0,0
50410,-66.6666666666667,4,2,0,10,0,0
51010,-52.6315789473684,4,2,0,10,0,0
51610,-38.4615384615385,4,2,0,10,0,0
52210,-66.6666666666667,4,2,0,10,0,0
52510,-50,4,2,0,10,0,0
52810,-66.6666666666667,4,2,0,10,0,0

[Colours]
Combo1 : 255,255,0
Combo2 : 255,128,128
Combo3 : 255,128,255

[HitObjects]
146,120,6010,6,0,B|41:136|41:136|-7:138|-17:70|28:57|28:57|152:40|152:40|156:33|156:33|436:-7|436:-7|497:-8|512:93|454:108|454:108|272:137|272:137|265:132|265:132|189:143,1,1050.00004005432
6,282,8410,6,0,B|-3:248|-3:248|22:217|22:217|59:232|59:232|94:352|94:352|70:386|70:386|31:370|31:370|22:337,1,350
205,302,10810,6,0,B|259:336|342:303|370:247|276:204|351:143|404:122|454:143|478:172|478:172|508:314|508:314|511:332|483:370|447:343|443:323|443:323|418:209,1,720.000017578125
309,76,13135,1,0,0:0:0:0:
309,76,13210,6,0,B|318:42|318:42|293:11|293:11|256:26|256:26|221:146|221:146|245:180|245:180|284:164|284:164|293:131,1,348.000010620117
161,46,14410,6,0,B|135:36|135:36|122:-4,1,59.9999981689454
0,190,15010,2,0,B|33:172|33:172|45:123,1,80
302,310,15610,6,0,B|340:302|340:302|363:284|353:245|325:242|325:242|286:249|286:249|256:190|162:206|155:278|155:278|117:286|117:286|93:299|101:346|131:346|131:346|167:339|167:339|206:393|275:373|284:343,1,600.000022888185
452,249,17410,5,0,0:0:0:0:
230,297,17710,1,0,0:0:0:0:
414,369,18010,5,0,0:0:0:0:
452,249,18310,1,0,0:0:0:0:
490,129,18610,1,0,0:0:0:0:
54,222,19210,5,0,0:0:0:0:
429,78,19810,5,0,0:0:0:0:
213,32,20110,1,0,0:0:0:0:
133,183,20410,6,0,B|97:166|67:136|53:66|118:-1|169:9|243:42|261:71|263:170|199:199|138:184|138:184|124:198|124:198|66:192|66:192|43:210|43:210|-28:201,1,600.000022888185
269,368,22210,5,0,0:0:0:0:
484,311,22510,1,0,0:0:0:0:
327,153,22810,6,0,L|314:307,1,150
259,346,23710,5,0,0:0:0:0:
162,365,23860,5,0,0:0:0:0:
88,381,24010,5,0,0:0:0:0:
75,384,24610,5,0,0:0:0:0:
442,53,25210,5,0,0:0:0:0:
256,192,25285,12,0,25810,0:0:0:0:
25,144,26410,5,0,0:0:0:0:
256,192,26485,12,0,27010,0:0:0:0:
256,192,27310,5,0,0:0:0:0:
199,378,27610,5,0,0:0:0:0:
256,192,27685,12,0,28210,0:0:0:0:
94,20,28810,5,0,0:0:0:0:
256,192,28885,12,0,29410,0:0:0:0:
256,192,29710,5,0,0:0:0:0:
491,273,30010,5,0,0:0:0:0:
256,192,30085,12,0,30610,0:0:0:0:
305,7,31210,5,0,0:0:0:0:
256,192,31285,12,0,31810,0:0:0:0:
256,192,32110,5,0,0:0:0:0:
100,308,32335,1,0,0:0:0:0:
68,367,32410,6,0,B|2:338|2:338|-21:213|-21:213|79:117|79:117|136:138|136:138|143:178|143:178|60:250|60:250|83:372|83:372|132:393|132:393|234:299|234:299|210:169|210:169|135:142,1,1071.99994929199
135,299,33910,1,0,0:0:0:0:
471,221,34210,6,0,B|479:186|479:186|464:195|464:195|458:221,1,66.9999968307497
448,281,34360,1,0,0:0:0:0:
428,134,34510,6,0,P|391:2|414:136,1,419.999987182618
412,69,34810,6,0,B|406:59|406:59|196:34,1,200
79,72,35035,2,0,L|50:67,1,25
29,64,35110,6,0,B|42:46|42:46|298:17|298:17|310:-2,1,300
497,25,35410,6,0,L|508:73,1,29.9999990844727
478,91,35485,6,0,L|471:130,1,27.5000008392334
499,150,35560,6,0,L|509:195,1,25
472,194,35635,6,0,L|465:230,1,22.4999993133545
491,231,35710,6,0,L|499:266,1,20
471,260,35785,6,0,L|463:291,1,17.4999994659424
485,278,35860,6,0,L|491:302,1,14.9999995422363
477,286,35935,6,0,L|472:305,1,12.5
484,312,36010,6,0,B|469:330|438:334|438:334|417:308|423:284,1,100
356,240,36160,2,0,B|316:230|302:202|302:202|321:174|356:168,1,125
393,100,36310,2,0,B|392:48|415:26|415:26|447:35|476:81,1,150.000005722046
512,178,36460,6,0,L|504:231,1,50
419,300,36610,6,0,B|260:364|307:185|108:255|108:255|81:327|81:327|96:291|152:290,1,480
191,333,36910,6,0,P|204:322|222:322,1,37.5000014305115
231,322,36985,2,0,P|243:335|242:353,1,37.5000014305115
244,361,37060,2,0,P|231:372|213:372,1,37.5000014305115
204,373,37135,2,0,P|192:360|193:342,1,37.5000014305115
200,343,37210,6,0,B|185:256|242:291|222:186,1,157.499995193482
120,81,37810,6,0,B|304:121|304:121|319:157|319:157|291:183|291:183|103:142|103:142|92:105|92:105|118:79,1,525.00000500679
176,23,38110,6,0,B|224:19|224:19|217:15|217:15|272:11,1,100
376,117,38260,2,0,B|424:113|424:113|417:109|417:109|472:105,1,100
504,45,38410,6,0,B|511:-5|511:-5|503:28,1,75.0000028610231,0|0,0:2|0:2,0:2:0:0:
460,105,38560,2,0,B|466:155|466:155|465:121,1,75.0000028610231,0|0,0:2|0:2,0:2:0:0:
512,222,38710,6,0,B|428:203|461:272|363:251,1,150.000005722046
305,285,38860,2,0,B|218:281|268:223|168:218,1,150.000005722046
128,119,39010,6,0,B|110:186|110:186|33:239|33:239|-10:45|-10:45|74:71|74:71|101:192,1,554.999997882843
125,259,39310,1,0,0:0:0:0:
186,377,39610,6,0,B|225:363|225:363|233:340,3,55.0000016784668
281,301,39760,2,0,B|249:274|249:274|225:278,3,55.0000016784668
298,369,39910,6,0,L|393:359,1,62.5
365,377,39985,2,0,L|437:371,1,50
427,384,40060,2,0,L|485:379,3,37.5000014305115
499,263,40210,6,0,L|451:252,1,29.9999990844727
446,221,40285,6,0,L|407:228,1,27.5000008392334
395,261,40360,6,0,L|350:251,1,25
345,245,40435,6,0,L|309:252,1,22.4999993133545
328,280,40510,6,0,L|293:272,1,20
293,276,40585,6,0,L|262:284,1,17.4999994659424
281,301,40660,6,0,L|257:295,1,14.9999995422363
261,292,40735,6,0,L|242:297,1,12.5
240,305,40810,6,0,B|223:302|223:302|169:326|169:326|141:321,1,100
82,274,40960,2,0,B|58:262|58:262|70:191|70:191|99:185,1,125
160,139,41110,2,0,B|190:133|190:133|274:180|274:180|314:173,1,150.000005722046
353,116,41260,6,0,L|366:60,1,50
311,0,41410,6,0,B|9:54|9:54|6:81|6:81|25:106|25:106|21:139|21:139|-5:151|-5:151|-20:232,1,480
4,266,41710,6,0,B|15:304|15:304|77:320|77:320|90:364,1,150
109,370,42010,6,0,P|231:151|-14:202,1,629.999980773926
44,271,42610,6,0,L|55:219,1,44.999998626709
71,254,42685,2,0,L|82:202,1,44.999998626709
105,222,42760,2,0,L|116:170,1,44.999998626709
137,167,42835,2,0,L|148:115,1,44.999998626709
166,101,42910,2,0,L|177:49,1,44.999998626709
240,12,43060,6,0,B|326:-2|326:-2|311:21|311:21|399:7,1,187.5
405,20,43210,6,0,B|416:69|383:84|363:74|374:50|395:50,1,75.0000028610231
498,119,43360,2,0,B|491:129|516:120|509:98|475:86|448:128,1,75.0000028610231
450,127,43510,6,0,P|444:200|511:273,1,150.000005722046
499,372,43660,2,0,P|438:330|342:351,1,150.000005722046
142,280,43810,6,0,B|234:310|206:221|288:255|288:255|238:281|238:355|291:386|350:378|376:316,1,375
378,263,44110,5,0,0:0:0:0:
426,218,44185,1,0,0:0:0:0:
440,282,44260,1,0,0:0:0:0:
499,372,44410,6,0,B|515:198|515:198|484:138|436:178|457:283|285:237|178:121|264:-11|382:-83|478:-52|564:66|514:162|449:189|449:189|439:296,1,945.000003604889
405,350,45010,6,0,B|231:376|278:249|89:283,1,330.000010070801
84,290,45310,6,0,L|100:196,1,87.500000834465
15,159,45460,2,0,L|0:245,1,87.500000834465
12,335,45610,6,0,B|-1:353|-1:353|10:371|10:371|32:365|32:365|33:344|33:344|10:334,1,100
155,269,45760,2,0,B|150:297|150:297|176:309|176:309|194:290|194:290|182:266|182:266|153:269,1,125
299,338,45910,2,0,B|316:362|316:362|348:355|348:355|350:325|350:325|322:311|322:311|301:335,1,150.000005722046
456,316,46060,6,0,L|505:321,1,50
490,232,46210,6,0,P|461:210|429:257,10,100
337,239,46660,6,0,L|438:251,1,89.9999972534181
512,152,46810,6,0,B|497:36|497:36|489:-13|422:-43|360:5|366:49|366:49|379:144|379:144|381:161|352:183|317:169|315:154|315:154|304:77|304:77|301:61|267:49|248:103|299:104|314:91,1,629.999980773926
433,55,47410,1,0,0:0:0:0:
254,6,47560,6,0,B|234:1|234:1|200:21|200:21|166:13,1,75.0000028610231
27,86,47710,2,0,L|36:139,1,33.750000128746
49,109,47785,2,0,L|58:162,1,33.750000128746
81,146,47860,1,0,0:0:0:0:
124,190,47935,1,0,0:0:0:0:
174,239,48010,6,0,B|149:266|149:266|96:228|4:246|4:246|128:192|171:258|274:220|274:220|285:284|285:284|247:274|215:297|199:338|214:391|268:399|313:380|318:346,1,734.999977569581
370,327,48610,6,0,B|428:308|422:354|490:333,1,104.999996795654
502,307,48760,2,0,B|483:249|529:255|508:187,1,104.999996795654
482,175,48910,2,0,B|424:194|430:148|362:169,1,104.999996795654
350,195,49060,2,0,B|369:253|323:247|344:315,1,104.999996795654
266,357,49210,6,0,B|225:364|225:364|206:348,3,55.0000016784668
145,338,49360,2,0,B|159:298|159:298|181:290,3,55.0000016784668
189,227,49510,6,0,L|94:217,1,62.5
122,235,49585,2,0,L|50:229,1,50
60,242,49660,2,0,L|2:237,3,37.5000014305115
105,137,49810,6,0,B|87:110|87:110|112:51|112:51|167:44|167:44|192:81|192:81|164:143|164:143|35:168,1,375
7,109,50110,6,0,B|4:102|4:102|39:20,1,89.9999972534181
220,0,50260,2,0,B|227:0|227:0|281:72,1,89.9999972534181
307,161,50410,6,0,B|344:169|344:169|366:156|345:130,1,75.0000028610231
277,66,50560,2,0,B|239:57|239:57|217:70|238:96,1,75.0000028610231
236,184,50710,5,0,0:0:0:0:
307,161,50785,1,0,0:0:0:0:
378,138,50860,1,0,0:0:0:0:
449,115,50935,1,0,0:0:0:0:
418,55,51010,6,0,B|411:120|411:120|417:114|417:114|411:120|411:120|398:233|398:233|392:239|392:239|398:233|398:233|387:317,2,284.999992389679
315,352,51610,6,0,B|264:326|203:339|203:339|119:362|-11:333|-7:196|-7:196|85:77|201:150|251:197|251:197|150:249|192:341|234:388,1,909.999958343508
397,378,52210,6,0,L|386:284,1,75.0000028610231
376,232,52360,1,0,0:0:0:0:
498,160,52510,2,0,P|413:154|503:151,1,300
457,131,52810,6,0,B|447:139|447:139|367:122,1,75.0000028610231
341,75,52960,2,0,B|335:63|335:63|274:50,1,75.0000028610231
252,115,53110,2,0,B|257:126|257:126|318:139,1,75.0000028610231
457,131,53260,1,0,0:0:0:0:
