osu file format v14

[General]
AudioFilename: Fracture Ray.mp3
AudioLeadIn: 0
PreviewTime: 99635
Countdown: 0
SampleSet: Soft
StackLeniency: 0.7
Mode: 3
LetterboxInBreaks: 0
SpecialStyle: 0
WidescreenStoryboard: 1

[Editor]
DistanceSpacing: 1.3
BeatDivisor: 4
GridSize: 8
TimelineZoom: 2.308

[Metadata]
Title:Fracture Ray
TitleUnicode:Fracture Ray
Artist:Sakuzyo
ArtistUnicode:削除
Creator:Kuo Kyoka
Version:Past
Source:Arcaea
Tags:lowrio Sound Collection Memories of Light CHUNITHM AMAZON PLUS チュウニズム アマゾン プラス SEGA Zero Hikari Artstep Drumstep Dubstep Chapter 3 Luminious Sky Spire of Convergence Critical_Star Akasha
BeatmapID:1858951
BeatmapSetID:889405

[Difficulty]
HPDrainRate:7.5
CircleSize:7
OverallDifficulty:7
ApproachRate:5
SliderMultiplier:1.4
SliderTickRate:1

[Events]
//Background and Video events
0,0,"BG-N.jpg",0,0
//Break Periods
//Storyboard Layer 0 (Background)
//Storyboard Layer 1 (Fail)
//Storyboard Layer 2 (Pass)
//Storyboard Layer 3 (Foreground)
//Storyboard Layer 4 (Overlay)
//Storyboard Sound Samples

[TimingPoints]
1235,300,4,2,1,5,1,0
34835,-100,4,2,1,40,0,0
73235,-100,4,2,1,5,0,0
82835,-100,4,2,1,20,0,0
99635,-100,4,2,1,5,0,0
102035,-100,4,2,1,40,0,1
111635,-100,4,2,1,40,0,0
112235,-100,4,2,1,40,0,1
121235,-100,4,2,1,20,0,0
126035,-100,4,2,1,40,0,1
145235,-100,4,2,1,5,0,0

[HitObjects]
36,192,1385,5,0,0:0:0:0:
182,192,1535,1,0,0:0:0:0:
475,192,1835,1,0,0:0:0:0:
329,192,1985,1,0,0:0:0:0:
256,192,2285,1,0,0:0:0:0:
182,192,2585,1,0,0:0:0:0:
256,192,2735,1,0,0:0:0:0:
329,192,2885,1,0,0:0:0:0:
182,192,3185,1,0,0:0:0:0:
109,192,3335,1,0,0:0:0:0:
36,192,3485,1,0,0:0:0:0:
329,192,3785,1,0,0:0:0:0:
475,192,3935,1,0,0:0:0:0:
182,192,4235,1,0,0:0:0:0:
36,192,4385,1,0,0:0:0:0:
256,192,4685,1,0,0:0:0:0:
109,192,4985,128,0,5285:0:0:0:0:
182,192,5285,128,0,5585:0:0:0:0:
256,192,5585,128,0,5885:0:0:0:0:
475,192,6035,128,0,6635:0:0:0:0:
36,192,6035,128,0,6635:0:0:0:0:
182,192,6935,128,0,7685:0:0:0:0:
402,192,7235,1,0,0:0:0:0:
329,192,7685,128,0,7835:0:0:0:0:
475,192,7835,128,0,8135:0:0:0:0:
256,192,8435,128,0,9035:0:0:0:0:
109,192,8435,1,0,0:0:0:0:
475,192,9035,1,0,0:0:0:0:
36,192,9185,1,0,0:0:0:0:
256,192,9485,1,0,0:0:0:0:
109,192,9935,1,0,0:0:0:0:
402,192,10235,1,0,0:0:0:0:
182,192,10535,128,0,10835:0:0:0:0:
475,192,10835,128,0,11735:0:0:0:0:
329,192,10835,1,0,0:0:0:0:
109,192,11735,128,0,12035:0:0:0:0:
402,192,12035,128,0,13085:0:0:0:0:
256,192,12035,1,0,0:0:0:0:
36,192,13085,128,0,13235:0:0:0:0:
329,192,13235,128,0,14135:0:0:0:0:
182,192,13235,1,0,0:0:0:0:
475,192,13835,1,0,0:0:0:0:
36,192,13985,1,0,0:0:0:0:
182,192,14285,1,0,0:0:0:0:
402,192,14585,1,0,0:0:0:0:
256,192,14735,1,0,0:0:0:0:
109,192,14885,1,0,0:0:0:0:
329,192,15185,1,0,0:0:0:0:
182,192,15335,1,0,0:0:0:0:
36,192,15485,1,0,0:0:0:0:
329,192,15635,1,0,0:0:0:0:
475,192,15635,1,0,0:0:0:0:
182,192,16835,1,0,0:0:0:0:
402,192,17435,1,0,0:0:0:0:
256,192,17735,1,0,0:0:0:0:
109,192,18035,1,0,0:0:0:0:
36,192,18035,1,0,0:0:0:0:
329,192,18335,1,0,0:0:0:0:
475,192,18635,1,0,0:0:0:0:
182,192,19235,1,0,0:0:0:0:
402,192,19835,1,0,0:0:0:0:
256,192,20135,1,0,0:0:0:0:
109,192,20435,1,0,0:0:0:0:
36,192,21635,1,0,0:0:0:0:
182,192,21635,1,0,0:0:0:0:
182,192,22235,1,0,0:0:0:0:
329,192,22535,1,0,0:0:0:0:
475,192,22835,1,0,0:0:0:0:
402,192,23735,1,0,0:0:0:0:
256,192,23885,1,0,0:0:0:0:
109,192,24035,1,0,0:0:0:0:
182,192,24635,1,0,0:0:0:0:
475,192,25235,128,0,25535:0:0:0:0:
256,192,25235,1,0,0:0:0:0:
402,192,26435,128,0,26735:0:0:0:0:
329,192,27635,128,0,27935:0:0:0:0:
256,192,28835,128,0,29135:0:0:0:0:
182,192,30035,128,0,30335:0:0:0:0:
109,192,31235,128,0,31535:0:0:0:0:
36,192,32435,128,0,32735:0:0:0:0:
475,192,32435,128,0,32735:0:0:0:0:
329,192,32735,128,0,33035:0:0:0:0:
109,192,33035,128,0,33335:0:0:0:0:
256,192,33335,128,0,33635:0:0:0:0:
402,192,33635,128,0,33935:0:0:0:0:
182,192,33935,128,0,34235:0:0:0:0:
36,192,34235,128,0,34535:0:0:0:0:
329,192,34235,1,0,0:0:0:0:
475,192,34235,1,0,0:0:0:0:
36,192,34835,1,0,0:0:0:70:cymbal.wav
256,192,34835,1,0,0:0:0:70:kick.wav
475,192,34835,128,0,35135:0:0:0:0:
109,192,34985,1,0,0:0:0:0:
329,192,35135,128,0,35435:0:0:0:0:
182,192,35135,1,0,0:0:0:0:
109,192,35285,1,0,0:0:0:0:
475,192,35435,128,0,35735:0:0:0:70:snare.wav
36,192,35435,1,0,0:0:0:0:
182,192,35735,1,0,0:0:0:0:
256,192,35885,1,0,0:0:0:0:
329,192,36035,1,0,0:0:0:70:kick.wav
475,192,36035,1,0,0:0:0:0:
109,192,36335,1,0,0:0:0:0:
109,192,36485,1,0,0:0:0:0:
256,192,36635,128,0,36935:0:0:0:70:snare.wav
402,192,36935,1,0,0:0:0:0:
402,192,37085,1,0,0:0:0:0:
36,192,37235,1,0,0:0:0:70:kick.wav
182,192,37235,128,0,37835:0:0:0:0:
475,192,37385,1,0,0:0:0:0:
402,192,37535,1,0,0:0:0:0:
329,192,37685,1,0,0:0:0:0:
36,192,37835,1,0,0:0:0:70:snare.wav
109,192,37835,1,0,0:0:0:0:
329,192,37985,1,0,0:0:0:0:
256,192,38135,1,0,0:0:0:0:
182,192,38285,1,0,0:0:0:0:
475,192,38435,1,0,0:0:0:70:kick.wav
329,192,38435,128,0,39035:0:0:0:0:
182,192,38585,1,0,0:0:0:0:
109,192,38735,1,0,0:0:0:0:
36,192,38885,1,0,0:0:0:0:
402,192,39035,1,0,0:0:0:70:snare.wav
475,192,39035,1,0,0:0:0:0:
109,192,39335,1,0,0:0:0:70:kick.wav
36,192,39335,1,0,0:0:0:0:
182,192,39635,128,0,39935:0:0:0:70:kick.wav
475,192,39635,1,0,0:0:0:70:cymbal.wav
402,192,39785,1,0,0:0:0:0:
329,192,39935,128,0,40235:0:0:0:0:
36,192,39935,1,0,0:0:0:0:
109,192,40085,1,0,0:0:0:0:
182,192,40235,128,0,40535:0:0:0:70:snare.wav
475,192,40235,1,0,0:0:0:0:
402,192,40535,1,0,0:0:0:0:
329,192,40685,1,0,0:0:0:0:
109,192,40835,1,0,0:0:0:70:kick.wav
256,192,40835,1,0,0:0:0:0:
182,192,41135,1,0,0:0:0:0:
182,192,41285,1,0,0:0:0:0:
36,192,41435,128,0,42035:0:0:0:70:snare.wav
329,192,41435,1,0,0:0:0:0:
475,192,42035,1,0,0:0:0:70:kick.wav
329,192,42035,128,0,42635:0:0:0:0:
109,192,42185,1,0,0:0:0:0:
182,192,42335,1,0,0:0:0:0:
256,192,42485,1,0,0:0:0:0:
475,192,42635,1,0,0:0:0:70:snare.wav
402,192,42635,1,0,0:0:0:0:
182,192,42785,1,0,0:0:0:0:
256,192,42935,1,0,0:0:0:0:
329,192,43085,1,0,0:0:0:0:
182,192,43235,128,0,43835:0:0:0:70:kick.wav
36,192,43235,1,0,0:0:0:0:
256,192,43385,1,0,0:0:0:0:
329,192,43535,1,0,0:0:0:0:
402,192,43685,1,0,0:0:0:70:kick.wav
475,192,43685,1,0,0:0:0:0:
109,192,43835,1,0,0:0:0:70:snare.wav
36,192,43835,1,0,0:0:0:0:
109,192,44135,1,0,0:0:0:70:kick.wav
402,192,44285,1,0,0:0:0:70:snare.wav
256,192,44285,1,0,0:0:0:0:
109,192,44435,1,0,0:0:0:70:kick.wav
256,192,44585,128,0,45035:0:0:0:0:
36,192,45035,1,0,0:0:0:70:snare.wav
475,192,45035,1,0,0:0:0:0:
256,192,45335,1,0,0:0:0:0:
256,192,45485,1,0,0:0:0:0:
109,192,45635,128,0,45935:0:0:0:70:kick.wav
402,192,45935,1,0,0:0:0:0:
402,192,46085,1,0,0:0:0:0:
182,192,46235,128,0,46535:0:0:0:70:snare.wav
36,192,46235,128,0,46535:0:0:0:0:
329,192,46685,1,0,0:0:0:70:kick.wav
475,192,46685,1,0,0:0:0:0:
402,192,46835,128,0,47435:0:0:0:70:kick.wav
109,192,46835,1,0,0:0:0:0:
182,192,46985,1,0,0:0:0:0:
256,192,47135,1,0,0:0:0:0:
36,192,47285,1,0,0:0:0:0:
109,192,47435,1,0,0:0:0:70:snare.wav
329,192,47435,1,0,0:0:0:0:
182,192,47585,1,0,0:0:0:0:
109,192,47735,1,0,0:0:0:0:
36,192,47885,1,0,0:0:0:0:
182,192,48035,128,0,48635:0:0:0:70:kick.wav
475,192,48035,1,0,0:0:0:0:
402,192,48185,1,0,0:0:0:0:
329,192,48335,1,0,0:0:0:0:
402,192,48485,1,0,0:0:0:0:
475,192,48635,1,0,0:0:0:70:snare.wav
36,192,48635,1,0,0:0:0:0:
182,192,48785,1,0,0:0:0:0:
329,192,48785,1,0,0:0:0:0:
36,192,48935,1,0,0:0:0:70:kick.wav
475,192,48935,1,0,0:0:0:0:
182,192,49085,1,0,0:0:0:0:
329,192,49085,1,0,0:0:0:0:
36,192,49235,1,0,0:0:0:70:kick.wav
475,192,49235,128,0,49535:0:0:0:70:cymbal.wav
109,192,49385,1,0,0:0:0:0:
329,192,49535,128,0,49835:0:0:0:0:
182,192,49535,1,0,0:0:0:0:
109,192,49685,1,0,0:0:0:0:
475,192,49835,128,0,50135:0:0:0:70:snare.wav
36,192,49835,1,0,0:0:0:0:
182,192,50135,1,0,0:0:0:0:
256,192,50285,1,0,0:0:0:0:
329,192,50435,128,0,50735:0:0:0:70:kick.wav
475,192,50435,1,0,0:0:0:0:
256,192,50735,1,0,0:0:0:0:
256,192,50885,1,0,0:0:0:0:
36,192,51035,1,0,0:0:0:70:snare.wav
182,192,51035,128,0,51635:0:0:0:0:
36,192,51635,128,0,52235:0:0:0:70:kick.wav
329,192,51635,1,0,0:0:0:0:
256,192,51785,1,0,0:0:0:0:
182,192,51935,1,0,0:0:0:0:
475,192,52085,1,0,0:0:0:0:
402,192,52235,1,0,0:0:0:70:snare.wav
109,192,52235,1,0,0:0:0:0:
329,192,52385,1,0,0:0:0:0:
182,192,52535,1,0,0:0:0:70:kick.wav
475,192,52535,1,0,0:0:0:0:
109,192,52685,1,0,0:0:0:0:
475,192,52835,128,0,53285:0:0:0:70:kick.wav
36,192,52835,1,0,0:0:0:0:
329,192,52985,1,0,0:0:0:0:
256,192,53135,1,0,0:0:0:0:
182,192,53285,1,0,0:0:0:70:kick.wav
36,192,53285,1,0,0:0:0:0:
256,192,53735,1,0,0:0:0:70:kick.wav
256,192,53885,1,0,0:0:0:70:kick.wav
475,192,54035,1,0,0:0:0:70:cymbal.wav
36,192,54035,1,0,0:0:0:70:kick.wav
402,192,54035,1,0,0:0:0:0:
182,192,54185,1,0,0:0:0:0:
36,192,54335,1,0,0:0:0:0:
402,192,54485,1,0,0:0:0:70:kick.wav
475,192,54485,1,0,0:0:0:0:
256,192,54635,1,0,0:0:0:70:snare.wav
109,192,54635,1,0,0:0:0:0:
402,192,54785,1,0,0:0:0:70:kick.wav
475,192,54785,1,0,0:0:0:0:
329,192,55085,1,0,0:0:0:70:snare.wav
182,192,55085,1,0,0:0:0:0:
256,192,55385,1,0,0:0:0:70:snare.wav
109,192,55385,1,0,0:0:0:0:
329,192,55535,1,0,0:0:0:70:kick.wav
475,192,55535,1,0,0:0:0:0:
182,192,55685,1,0,0:0:0:70:kick.wav
36,192,55685,1,0,0:0:0:0:
256,192,55835,128,0,56135:0:0:0:70:snare.wav
402,192,55835,1,0,0:0:0:0:
36,192,56135,1,0,0:0:0:70:kick.wav
475,192,56135,1,0,0:0:0:0:
109,192,56285,1,0,0:0:0:70:kick.wav
402,192,56285,1,0,0:0:0:0:
329,192,56435,1,0,0:0:0:70:kick.wav
182,192,56435,1,0,0:0:0:0:
182,192,56585,1,0,0:0:0:0:
329,192,56735,1,0,0:0:0:0:
329,192,56885,1,0,0:0:0:0:
109,192,57035,1,0,0:0:0:70:snare.wav
36,192,57035,1,0,0:0:0:0:
402,192,57185,1,0,0:0:0:70:kick.wav
475,192,57185,1,0,0:0:0:0:
329,192,57335,128,0,57635:0:0:0:70:kick.wav
182,192,57335,128,0,57635:0:0:0:0:
36,192,57635,1,0,0:0:0:70:kick.wav
109,192,57635,1,0,0:0:0:0:
256,192,57785,1,0,0:0:0:70:kick.wav
402,192,57935,1,0,0:0:0:70:kick.wav
475,192,57935,1,0,0:0:0:0:
256,192,58085,1,0,0:0:0:70:kick.wav
109,192,58235,1,0,0:0:0:70:snare.wav
36,192,58235,1,0,0:0:0:0:
402,192,58406,1,0,0:0:0:70:kick.wav
256,192,58406,1,0,0:0:0:0:
329,192,58535,128,0,58835:0:0:0:0:
36,192,58835,1,0,0:0:0:70:kick.wav
475,192,58835,1,0,0:0:0:70:cymbal.wav
109,192,58985,5,0,0:0:0:0:
182,192,59135,1,0,0:0:0:0:
256,192,59285,1,0,0:0:0:70:kick.wav
475,192,59285,1,0,0:0:0:0:
182,192,59435,1,0,0:0:0:70:snare.wav
402,192,59435,1,0,0:0:0:0:
109,192,59585,1,0,0:0:0:70:kick.wav
329,192,59585,1,0,0:0:0:0:
256,192,59735,1,0,0:0:0:70:kick.wav
36,192,59735,1,0,0:0:0:0:
36,192,60035,5,0,0:0:0:70:snare.wav
475,192,60035,1,0,0:0:0:0:
182,192,60185,1,0,0:0:0:70:kick.wav
329,192,60185,1,0,0:0:0:0:
109,192,60335,1,0,0:0:0:70:kick.wav
256,192,60410,1,0,0:0:0:70:kick.wav
475,192,60485,1,0,0:0:0:70:snare.wav
402,192,60485,1,0,0:0:0:0:
402,192,60785,1,0,0:0:0:70:kick.wav
256,192,60860,1,0,0:0:0:70:kick.wav
109,192,60935,1,0,0:0:0:70:snare.wav
36,192,60935,1,0,0:0:0:0:
182,192,61085,1,0,0:0:0:70:kick.wav
329,192,61085,1,0,0:0:0:0:
475,192,61235,128,0,61635:0:0:0:70:kick.wav
36,192,61235,128,0,61635:0:0:0:0:
329,192,61635,1,0,0:0:0:70:kick.wav
256,192,61735,1,0,0:0:0:70:kick.wav
182,192,61835,1,0,0:0:0:70:snare.wav
36,192,61835,1,0,0:0:0:0:
402,192,62035,1,0,0:0:0:70:kick.wav
329,192,62035,1,0,0:0:0:0:
182,192,62235,1,0,0:0:0:70:kick.wav
109,192,62235,1,0,0:0:0:0:
329,192,62435,1,0,0:0:0:70:kick.wav
475,192,62435,1,0,0:0:0:0:
256,192,62585,1,0,0:0:0:70:kick.wav
182,192,62735,1,0,0:0:0:70:kick.wav
36,192,62735,1,0,0:0:0:0:
256,192,62885,1,0,0:0:0:70:kick.wav
329,192,63035,1,0,0:0:0:70:snare.wav
475,192,63035,1,0,0:0:0:0:
182,192,63235,1,0,0:0:0:70:kick.wav
109,192,63235,1,0,0:0:0:0:
329,192,63435,1,0,0:0:0:70:snare.wav
402,192,63435,1,0,0:0:0:0:
36,192,63635,1,0,0:0:0:70:cymbal.wav
182,192,63635,1,0,0:0:0:70:kick.wav
109,192,63935,128,0,64235:0:0:0:70:snare.wav
475,192,64235,1,0,0:0:0:70:snare.wav
329,192,64235,1,0,0:0:0:0:
402,192,64535,128,0,64835:0:0:0:70:snare.wav
182,192,64835,1,0,0:0:0:70:kick.wav
36,192,64955,1,0,0:0:0:70:kick.wav
329,192,65075,1,0,0:0:0:70:kick.wav
475,192,65195,1,0,0:0:0:70:kick.wav
182,192,65315,1,0,0:0:0:70:kick.wav
36,192,65435,1,0,0:0:0:70:snare.wav
256,192,65585,128,0,66035:0:0:0:0:
109,192,66035,1,0,0:0:0:70:cymbal.wav
402,192,66035,1,0,0:0:0:70:kick.wav
182,192,66635,1,0,0:0:0:70:snare.wav
329,192,66755,1,0,0:0:0:70:kick.wav
109,192,66875,1,0,0:0:0:70:kick.wav
402,192,66995,1,0,0:0:0:70:kick.wav
36,192,67115,1,0,0:0:0:70:snare.wav
256,192,67235,128,0,67835:0:0:0:70:kick.wav
475,192,67235,1,0,0:0:0:0:
36,192,67835,1,0,0:0:0:70:snare.wav
182,192,67835,1,0,0:0:0:0:
109,192,68135,128,0,68435:0:0:0:70:kick.wav
475,192,68435,1,0,0:0:0:70:cymbal.wav
402,192,68435,128,0,68735:0:0:0:70:kick.wav
256,192,68585,1,0,0:0:0:0:
109,192,68735,128,0,69035:0:0:0:0:
36,192,68735,1,0,0:0:0:0:
256,192,68885,1,0,0:0:0:70:kick.wav
475,192,69035,1,0,0:0:0:70:snare.wav
402,192,69035,1,0,0:0:0:0:
329,192,69335,1,0,0:0:0:70:kick.wav
36,192,69335,1,0,0:0:0:0:
402,192,69485,1,0,0:0:0:70:kick.wav
109,192,69485,1,0,0:0:0:0:
182,192,69635,1,0,0:0:0:70:kick.wav
475,192,69635,1,0,0:0:0:0:
475,192,69935,5,0,0:0:0:50:drum.wav
402,192,70010,1,0,0:0:0:50:drum.wav
329,192,70085,1,0,0:0:0:50:drum.wav
256,192,70160,1,0,0:0:0:50:drum.wav
182,192,70235,1,0,0:0:0:70:snare.wav
402,192,70535,1,0,0:0:0:50:drum.wav
329,192,70610,1,0,0:0:0:50:drum.wav
256,192,70685,1,0,0:0:0:50:drum.wav
182,192,70760,1,0,0:0:0:50:drum.wav
109,192,70835,1,0,0:0:0:70:kick.wav
329,192,71135,1,0,0:0:0:50:drum.wav
256,192,71210,1,0,0:0:0:50:drum.wav
182,192,71285,1,0,0:0:0:50:drum.wav
109,192,71360,1,0,0:0:0:50:drum.wav
36,192,71435,1,0,0:0:0:70:snare.wav
475,192,71585,1,0,0:0:0:50:drum.wav
402,192,71660,1,0,0:0:0:50:drum.wav
329,192,71735,1,0,0:0:0:50:drum.wav
256,192,71810,1,0,0:0:0:50:drum.wav
182,192,71885,1,0,0:0:0:50:drum.wav
109,192,71960,1,0,0:0:0:50:drum.wav
36,192,72035,1,0,0:0:0:70:kick.wav
329,192,72035,1,0,0:0:0:0:
109,192,72185,1,0,0:0:0:0:
402,192,72335,1,0,0:0:0:70:kick.wav
182,192,72335,1,0,0:0:0:0:
475,192,72485,1,0,0:0:0:70:kick.wav
36,192,72485,1,0,0:0:0:0:
256,192,72485,1,0,0:0:0:0:
256,192,72785,128,0,73235:0:0:0:0:
475,192,73235,1,0,0:0:0:0:
36,192,73235,1,0,0:0:0:0:
329,192,73835,1,0,0:0:0:0:
109,192,74135,1,0,0:0:0:0:
109,192,74435,1,0,0:0:0:0:
256,192,74735,1,0,0:0:0:0:
329,192,74885,1,0,0:0:0:0:
402,192,75035,1,0,0:0:0:0:
182,192,75335,1,0,0:0:0:0:
182,192,75635,1,0,0:0:0:0:
329,192,75935,1,0,0:0:0:0:
109,192,76235,1,0,0:0:0:0:
402,192,76535,1,0,0:0:0:0:
402,192,76835,1,0,0:0:0:0:
475,192,77135,1,0,0:0:0:0:
329,192,77285,1,0,0:0:0:0:
182,192,77435,1,0,0:0:0:0:
256,192,77735,1,0,0:0:0:0:
329,192,78035,1,0,0:0:0:0:
182,192,78335,1,0,0:0:0:0:
329,192,78635,1,0,0:0:0:0:
36,192,78935,1,0,0:0:0:0:
36,192,79235,1,0,0:0:0:0:
402,192,79535,1,0,0:0:0:0:
256,192,79685,1,0,0:0:0:0:
109,192,79835,1,0,0:0:0:0:
475,192,80135,1,0,0:0:0:0:
475,192,80435,128,0,80735:0:0:0:0:
329,192,80735,128,0,81035:0:0:0:0:
182,192,81035,128,0,81335:0:0:0:0:
402,192,81335,128,0,81635:0:0:0:0:
256,192,81635,128,0,81935:0:0:0:0:
109,192,81935,128,0,82235:0:0:0:0:
329,192,82235,128,0,82535:0:0:0:0:
182,192,82535,128,0,82835:0:0:0:0:
36,192,82835,128,0,84335:0:0:0:0:
475,192,82835,128,0,83135:0:0:0:0:
329,192,83435,128,0,83735:0:0:0:0:
475,192,84035,128,0,84335:0:0:0:0:
402,192,84335,128,0,84635:0:0:0:0:
329,192,84635,128,0,84935:0:0:0:0:
402,192,84935,128,0,85235:0:0:0:0:
475,192,85235,128,0,85835:0:0:0:0:
182,192,85835,128,0,87335:0:0:0:0:
329,192,86435,128,0,87335:0:0:0:0:
475,192,87635,1,0,0:0:0:0:
36,192,87635,128,0,89435:0:0:0:0:
182,192,88835,128,0,89435:0:0:0:0:
475,192,89435,128,0,90635:0:0:0:0:
329,192,90035,128,0,90635:0:0:0:0:
109,192,90635,128,0,92285:0:0:0:0:
402,192,91235,128,0,92285:0:0:0:0:
256,192,92435,128,0,93935:0:0:0:0:
36,192,92435,1,0,0:0:0:0:
475,192,92435,1,0,0:0:0:0:
36,192,93935,128,0,94235:0:0:0:0:
182,192,94235,128,0,94535:0:0:0:0:
329,192,94535,128,0,94835:0:0:0:0:
475,192,94835,128,0,95435:0:0:0:0:
109,192,95435,128,0,96935:0:0:0:0:
402,192,96035,128,0,96935:0:0:0:0:
256,192,97235,128,0,98435:0:0:0:0:
475,192,98435,128,0,99635:0:0:0:0:
36,192,99035,128,0,99635:0:0:0:0:
182,192,99635,1,0,0:0:0:50:finish.wav
329,192,99635,1,0,0:0:0:0:
256,192,100235,1,0,0:0:0:0:
256,192,100835,128,0,101735:0:0:0:0:
36,192,100835,1,0,0:0:0:0:
182,192,101135,1,0,0:0:0:0:
329,192,101435,1,0,0:0:0:0:
475,192,101735,1,0,0:0:0:0:
109,192,102035,128,0,102485:0:0:0:70:cymbal.wav
402,192,102035,128,0,102485:0:0:0:70:kick.wav
256,192,102035,1,0,0:0:0:0:
182,192,102635,1,0,0:0:0:70:snare.wav
36,192,102635,1,0,0:0:0:0:
329,192,102635,1,0,0:0:0:0:
109,192,102935,1,0,0:0:0:0:
182,192,103085,1,0,0:0:0:0:
256,192,103235,1,0,0:0:0:70:kick.wav
329,192,103235,128,0,103685:0:0:0:0:
475,192,103235,128,0,103685:0:0:0:0:
36,192,103385,1,0,0:0:0:0:
109,192,103535,1,0,0:0:0:0:
182,192,103685,1,0,0:0:0:0:
402,192,103835,1,0,0:0:0:70:snare.wav
329,192,103835,1,0,0:0:0:0:
475,192,103835,1,0,0:0:0:0:
256,192,104135,1,0,0:0:0:0:
256,192,104285,1,0,0:0:0:0:
109,192,104435,128,0,104885:0:0:0:70:kick.wav
36,192,104435,128,0,104885:0:0:0:0:
402,192,104435,1,0,0:0:0:0:
402,192,105035,1,0,0:0:0:70:snare.wav
109,192,105035,1,0,0:0:0:0:
36,192,105035,1,0,0:0:0:0:
329,192,105185,1,0,0:0:0:0:
256,192,105335,1,0,0:0:0:0:
182,192,105485,1,0,0:0:0:0:
109,192,105635,1,0,0:0:0:70:kick.wav
329,192,105635,128,0,106085:0:0:0:0:
475,192,105635,128,0,106085:0:0:0:0:
182,192,106235,1,0,0:0:0:70:snare.wav
36,192,106235,1,0,0:0:0:0:
329,192,106235,1,0,0:0:0:0:
109,192,106535,1,0,0:0:0:70:kick.wav
402,192,106535,1,0,0:0:0:0:
256,192,106535,128,0,106685:0:0:0:0:
475,192,106835,1,0,0:0:0:70:kick.wav
182,192,106835,128,0,107285:0:0:0:70:cymbal.wav
329,192,106835,128,0,107285:0:0:0:0:
402,192,107435,1,0,0:0:0:70:snare.wav
109,192,107435,1,0,0:0:0:0:
256,192,107435,1,0,0:0:0:0:
182,192,107735,1,0,0:0:0:0:
109,192,107885,1,0,0:0:0:0:
402,192,108035,128,0,108485:0:0:0:70:kick.wav
475,192,108035,128,0,108485:0:0:0:0:
36,192,108035,1,0,0:0:0:0:
256,192,108185,1,0,0:0:0:0:
182,192,108335,1,0,0:0:0:0:
109,192,108485,1,0,0:0:0:0:
36,192,108635,128,0,109235:0:0:0:70:snare.wav
329,192,108635,1,0,0:0:0:0:
256,192,108635,1,0,0:0:0:0:
256,192,109235,128,0,109685:0:0:0:70:kick.wav
402,192,109235,128,0,109685:0:0:0:0:
475,192,109235,1,0,0:0:0:0:
109,192,109685,1,0,0:0:0:0:
182,192,109835,1,0,0:0:0:70:snare.wav
475,192,109835,1,0,0:0:0:0:
36,192,109835,1,0,0:0:0:0:
256,192,109985,1,0,0:0:0:0:
329,192,110135,1,0,0:0:0:0:
402,192,110285,1,0,0:0:0:0:
36,192,110435,128,0,110885:0:0:0:70:kick.wav
182,192,110435,128,0,110885:0:0:0:0:
475,192,110435,1,0,0:0:0:0:
402,192,110885,1,0,0:0:0:70:kick.wav
475,192,110885,1,0,0:0:0:0:
109,192,111035,128,0,111335:0:0:0:70:snare.wav
256,192,111035,128,0,111335:0:0:0:0:
402,192,111335,1,0,0:0:0:70:kick.wav
475,192,111335,1,0,0:0:0:0:
256,192,111485,1,0,0:0:0:70:snare.wav
109,192,111485,1,0,0:0:0:0:
182,192,111635,128,0,112235:0:0:0:70:kick.wav
329,192,111785,128,0,112235:0:0:0:0:
36,192,112235,128,0,112685:0:0:0:70:cymbal.wav
475,192,112235,128,0,112685:0:0:0:70:snare.wav
256,192,112535,1,0,0:0:0:0:
256,192,112685,1,0,0:0:0:0:
36,192,112835,128,0,113285:0:0:0:70:cymbal.wav
475,192,112835,128,0,113285:0:0:0:70:kick.wav
256,192,113435,128,0,113885:0:0:0:70:snare.wav
36,192,113435,1,0,0:0:0:0:
475,192,113435,1,0,0:0:0:0:
475,192,113885,1,0,0:0:0:70:kick.wav
402,192,113885,1,0,0:0:0:0:
182,192,114035,128,0,114485:0:0:0:70:kick.wav
36,192,114035,128,0,114485:0:0:0:0:
329,192,114035,1,0,0:0:0:0:
109,192,114635,1,0,0:0:0:70:snare.wav
402,192,114635,1,0,0:0:0:0:
475,192,114635,1,0,0:0:0:0:
329,192,114785,1,0,0:0:0:0:
256,192,114935,1,0,0:0:0:0:
182,192,115085,1,0,0:0:0:0:
109,192,115235,1,0,0:0:0:70:kick.wav
329,192,115235,128,0,115685:0:0:0:0:
475,192,115235,128,0,115685:0:0:0:0:
109,192,115835,1,0,0:0:0:70:snare.wav
36,192,115835,1,0,0:0:0:0:
402,192,115985,1,0,0:0:0:0:
475,192,115985,1,0,0:0:0:0:
109,192,116135,1,0,0:0:0:70:kick.wav
36,192,116135,1,0,0:0:0:0:
402,192,116285,1,0,0:0:0:0:
475,192,116285,1,0,0:0:0:0:
109,192,116435,128,0,116885:0:0:0:70:kick.wav
256,192,116435,128,0,116885:0:0:0:70:cymbal.wav
182,192,116435,1,0,0:0:0:0:
475,192,117035,1,0,0:0:0:70:snare.wav
329,192,117035,1,0,0:0:0:0:
182,192,117035,1,0,0:0:0:0:
109,192,117335,1,0,0:0:0:0:
182,192,117485,1,0,0:0:0:0:
256,192,117635,1,0,0:0:0:70:kick.wav
329,192,117635,128,0,118085:0:0:0:0:
475,192,117635,128,0,118085:0:0:0:0:
36,192,117785,1,0,0:0:0:0:
109,192,117935,1,0,0:0:0:0:
182,192,118085,1,0,0:0:0:0:
329,192,118235,1,0,0:0:0:70:snare.wav
36,192,118235,1,0,0:0:0:0:
475,192,118235,1,0,0:0:0:0:
256,192,118385,1,0,0:0:0:0:
182,192,118535,1,0,0:0:0:0:
256,192,118685,1,0,0:0:0:0:
329,192,118835,128,0,119285:0:0:0:70:kick.wav
36,192,118835,128,0,119285:0:0:0:70:cymbal.wav
475,192,118835,1,0,0:0:0:0:
182,192,119285,1,0,0:0:0:0:
256,192,119435,1,0,0:0:0:70:snare.wav
402,192,119435,1,0,0:0:0:0:
475,192,119435,1,0,0:0:0:0:
109,192,119585,1,0,0:0:0:0:
182,192,119735,1,0,0:0:0:70:kick.wav
329,192,119735,1,0,0:0:0:0:
36,192,119885,1,0,0:0:0:0:
109,192,120035,128,0,120485:0:0:0:70:kick.wav
256,192,120035,128,0,120485:0:0:0:0:
402,192,120035,1,0,0:0:0:0:
329,192,120485,1,0,0:0:0:70:kick.wav
475,192,120485,1,0,0:0:0:0:
256,192,120935,1,0,0:0:0:70:kick.wav
256,192,121085,1,0,0:0:0:70:kick.wav
109,192,121235,1,0,0:0:0:50:finish.wav
402,192,121235,1,0,0:0:0:0:
36,192,121910,1,0,0:0:0:0:
182,192,122210,1,0,0:0:0:0:
329,192,122435,1,0,0:0:0:0:
256,192,122735,1,0,0:0:0:0:
182,192,123035,1,0,0:0:0:0:
109,192,123335,1,0,0:0:0:0:
36,192,123635,128,0,124835:0:0:0:0:
182,192,124235,128,0,124835:0:0:0:0:
329,192,124835,128,0,124985:0:0:0:0:
402,192,125135,128,0,125285:0:0:0:0:
475,192,125435,128,0,125585:0:0:0:0:
256,192,125735,128,0,125885:0:0:0:0:
36,192,126035,1,0,0:0:0:70:cymbal.wav
475,192,126035,1,0,0:0:0:70:kick.wav
109,192,126035,1,0,0:0:0:0:
329,192,126185,1,0,0:0:0:0:
475,192,126335,1,0,0:0:0:0:
109,192,126485,1,0,0:0:0:70:kick.wav
36,192,126485,1,0,0:0:0:0:
256,192,126635,1,0,0:0:0:70:snare.wav
402,192,126635,1,0,0:0:0:0:
109,192,126785,1,0,0:0:0:70:kick.wav
36,192,126785,1,0,0:0:0:0:
329,192,127085,1,0,0:0:0:70:snare.wav
182,192,127085,1,0,0:0:0:0:
256,192,127385,1,0,0:0:0:70:snare.wav
402,192,127385,1,0,0:0:0:0:
182,192,127535,1,0,0:0:0:70:kick.wav
36,192,127535,1,0,0:0:0:0:
329,192,127685,1,0,0:0:0:70:kick.wav
475,192,127685,1,0,0:0:0:0:
256,192,127835,1,0,0:0:0:70:snare.wav
109,192,127835,128,0,128135:0:0:0:0:
402,192,127985,1,0,0:0:0:0:
329,192,128135,1,0,0:0:0:70:kick.wav
36,192,128135,1,0,0:0:0:0:
475,192,128285,1,0,0:0:0:70:kick.wav
109,192,128285,1,0,0:0:0:0:
402,192,128435,1,0,0:0:0:70:kick.wav
182,192,128435,1,0,0:0:0:0:
109,192,128585,1,0,0:0:0:0:
36,192,128735,1,0,0:0:0:70:kick.wav
256,192,128735,1,0,0:0:0:0:
329,192,128885,1,0,0:0:0:0:
402,192,129035,1,0,0:0:0:70:snare.wav
475,192,129035,1,0,0:0:0:0:
109,192,129185,1,0,0:0:0:70:kick.wav
36,192,129185,1,0,0:0:0:0:
182,192,129335,128,0,129635:0:0:0:70:kick.wav
329,192,129335,128,0,129635:0:0:0:0:
475,192,129635,1,0,0:0:0:70:kick.wav
402,192,129635,1,0,0:0:0:0:
256,192,129785,1,0,0:0:0:70:kick.wav
109,192,129935,1,0,0:0:0:70:kick.wav
36,192,129935,1,0,0:0:0:0:
256,192,130085,1,0,0:0:0:70:kick.wav
402,192,130235,128,0,130406:0:0:0:70:snare.wav
475,192,130235,128,0,130406:0:0:0:0:
256,192,130406,1,0,0:0:0:70:kick.wav
109,192,130406,1,0,0:0:0:0:
182,192,130535,128,0,130835:0:0:0:0:
475,192,130835,1,0,0:0:0:70:kick.wav
36,192,130835,1,0,0:0:0:70:cymbal.wav
402,192,130985,1,0,0:0:0:0:
329,192,131135,1,0,0:0:0:0:
256,192,131285,1,0,0:0:0:70:kick.wav
36,192,131285,1,0,0:0:0:0:
329,192,131435,1,0,0:0:0:70:snare.wav
109,192,131435,1,0,0:0:0:0:
402,192,131585,1,0,0:0:0:70:kick.wav
182,192,131585,1,0,0:0:0:0:
256,192,131735,1,0,0:0:0:70:kick.wav
475,192,131735,1,0,0:0:0:0:
475,192,132035,1,0,0:0:0:70:snare.wav
36,192,132035,1,0,0:0:0:0:
182,192,132185,1,0,0:0:0:70:kick.wav
329,192,132185,1,0,0:0:0:0:
402,192,132335,1,0,0:0:0:70:kick.wav
256,192,132410,1,0,0:0:0:70:kick.wav
36,192,132485,1,0,0:0:0:70:snare.wav
109,192,132485,1,0,0:0:0:0:
109,192,132785,1,0,0:0:0:70:kick.wav
256,192,132860,1,0,0:0:0:70:kick.wav
402,192,132935,1,0,0:0:0:70:snare.wav
475,192,132935,1,0,0:0:0:0:
329,192,133085,1,0,0:0:0:70:kick.wav
182,192,133085,1,0,0:0:0:0:
36,192,133235,128,0,133635:0:0:0:70:kick.wav
475,192,133235,128,0,133635:0:0:0:0:
182,192,133635,1,0,0:0:0:70:kick.wav
256,192,133735,1,0,0:0:0:70:kick.wav
329,192,133835,1,0,0:0:0:70:snare.wav
475,192,133835,1,0,0:0:0:0:
109,192,134035,1,0,0:0:0:70:kick.wav
182,192,134035,1,0,0:0:0:0:
329,192,134235,1,0,0:0:0:70:kick.wav
402,192,134235,1,0,0:0:0:0:
182,192,134435,1,0,0:0:0:70:kick.wav
36,192,134435,1,0,0:0:0:0:
256,192,134585,1,0,0:0:0:70:kick.wav
329,192,134735,1,0,0:0:0:70:kick.wav
475,192,134735,1,0,0:0:0:0:
256,192,134885,1,0,0:0:0:70:kick.wav
182,192,135035,1,0,0:0:0:70:snare.wav
36,192,135035,1,0,0:0:0:0:
402,192,135185,128,0,135635:0:0:0:0:
109,192,135335,128,0,135635:0:0:0:70:kick.wav
475,192,135635,1,0,0:0:0:70:kick.wav
36,192,135635,1,0,0:0:0:70:cymbal.wav
256,192,135635,1,0,0:0:0:0:
256,192,135935,128,0,136235:0:0:0:70:snare.wav
329,192,136235,1,0,0:0:0:70:snare.wav
475,192,136235,1,0,0:0:0:0:
402,192,136385,1,0,0:0:0:70:kick.wav
182,192,136535,1,0,0:0:0:70:snare.wav
36,192,136535,1,0,0:0:0:0:
109,192,136685,1,0,0:0:0:70:snare.wav
329,192,136835,1,0,0:0:0:70:kick.wav
475,192,136955,1,0,0:0:0:70:kick.wav
182,192,137075,1,0,0:0:0:70:kick.wav
36,192,137195,1,0,0:0:0:70:kick.wav
329,192,137315,1,0,0:0:0:70:kick.wav
475,192,137435,1,0,0:0:0:70:snare.wav
402,192,137585,1,0,0:0:0:0:
329,192,137735,1,0,0:0:0:0:
256,192,137885,1,0,0:0:0:0:
182,192,138035,128,0,138435:0:0:0:70:kick.wav
36,192,138035,128,0,138435:0:0:0:0:
402,192,138435,1,0,0:0:0:70:kick.wav
256,192,138635,1,0,0:0:0:70:snare.wav
402,192,138635,1,0,0:0:0:0:
329,192,138785,1,0,0:0:0:70:kick.wav
182,192,138935,1,0,0:0:0:70:kick.wav
256,192,139085,1,0,0:0:0:70:snare.wav
109,192,139085,1,0,0:0:0:0:
329,192,139235,128,0,139835:0:0:0:70:kick.wav
475,192,139235,128,0,139835:0:0:0:0:
36,192,139835,1,0,0:0:0:70:snare.wav
182,192,139835,1,0,0:0:0:0:
256,192,140135,128,0,140435:0:0:0:70:kick.wav
402,192,140435,1,0,0:0:0:70:kick.wav
109,192,140435,1,0,0:0:0:70:cymbal.wav
36,192,140735,1,0,0:0:0:70:kick.wav
256,192,140810,1,0,0:0:0:70:kick.wav
475,192,140885,1,0,0:0:0:70:kick.wav
402,192,141035,1,0,0:0:0:70:snare.wav
109,192,141035,1,0,0:0:0:0:
475,192,141335,1,0,0:0:0:70:kick.wav
182,192,141335,1,0,0:0:0:0:
402,192,141485,1,0,0:0:0:70:kick.wav
109,192,141485,1,0,0:0:0:0:
36,192,141635,1,0,0:0:0:70:kick.wav
329,192,141635,1,0,0:0:0:0:
36,192,141935,5,0,0:0:0:50:drum.wav
109,192,142010,1,0,0:0:0:50:drum.wav
182,192,142085,1,0,0:0:0:50:drum.wav
256,192,142160,1,0,0:0:0:50:drum.wav
329,192,142235,1,0,0:0:0:70:snare.wav
36,192,142235,1,0,0:0:0:0:
109,192,142535,1,0,0:0:0:50:drum.wav
182,192,142610,1,0,0:0:0:50:drum.wav
256,192,142685,1,0,0:0:0:50:drum.wav
329,192,142760,1,0,0:0:0:50:drum.wav
402,192,142835,1,0,0:0:0:70:kick.wav
109,192,142835,1,0,0:0:0:0:
182,192,143135,1,0,0:0:0:50:drum.wav
256,192,143210,1,0,0:0:0:50:drum.wav
329,192,143285,1,0,0:0:0:50:drum.wav
402,192,143360,1,0,0:0:0:50:drum.wav
475,192,143435,1,0,0:0:0:70:snare.wav
182,192,143435,1,0,0:0:0:0:
36,192,143585,1,0,0:0:0:50:drum.wav
109,192,143660,1,0,0:0:0:50:drum.wav
182,192,143735,1,0,0:0:0:50:drum.wav
256,192,143810,1,0,0:0:0:50:drum.wav
329,192,143885,1,0,0:0:0:50:drum.wav
402,192,143960,1,0,0:0:0:50:drum.wav
475,192,144035,1,0,0:0:0:70:kick.wav
36,192,144035,1,0,0:0:0:0:
256,192,144035,1,0,0:0:0:0:
402,192,144185,1,0,0:0:0:0:
329,192,144335,1,0,0:0:0:70:kick.wav
109,192,144335,1,0,0:0:0:0:
256,192,144485,1,0,0:0:0:70:kick.wav
36,192,144485,1,0,0:0:0:0:
475,192,144485,1,0,0:0:0:0:
256,192,144785,128,0,145235:0:0:0:0:
475,192,145235,1,0,0:0:0:50:finish.wav
36,192,145235,1,0,0:0:0:0:
256,192,145685,1,0,0:0:0:0:
182,192,145985,1,0,0:0:0:0:
109,192,146135,1,0,0:0:0:0:
36,192,146285,1,0,0:0:0:0:
182,192,146585,1,0,0:0:0:0:
256,192,146735,1,0,0:0:0:0:
329,192,146885,1,0,0:0:0:0:
475,192,147185,1,0,0:0:0:0:
402,192,147335,1,0,0:0:0:0:
329,192,147485,1,0,0:0:0:0:
