osu file format v14

[General]
AudioFilename: audio.mp3
AudioLeadIn: 0
PreviewTime: 99632
Countdown: 0
SampleSet: Drum
StackLeniency: 0.7
Mode: 2
LetterboxInBreaks: 0
WidescreenStoryboard: 1

[Editor]
Bookmarks: 105894,120032
DistanceSpacing: 2.5
BeatDivisor: 4
GridSize: 16
TimelineZoom: 3.099999

[Metadata]
Title:Fracture Ray
TitleUnicode:Fracture Ray
Artist:Sakuzyo
ArtistUnicode:削除
Creator:GiGas
Version:Salad
Source:Arcaea
Tags:instrumental artstep drumstep kukkai -Luminate wonjae Paranoid Grapes video game chunithm amazon plus チュウニズム アマゾン プラス sega zero hikari chapter 3 Luminious Sky Spire of Convergence [_-Kukkai-_] Chatie
BeatmapID:2113189
BeatmapSetID:1007778

[Difficulty]
HPDrainRate:4
CircleSize:3
OverallDifficulty:7.2
ApproachRate:7.2
SliderMultiplier:1.1
SliderTickRate:1

[Events]
//Background and Video events
0,0,"bgnew.jpg",0,0
//Break Periods
2,73432,77162
2,121432,125162
//Storyboard Layer 0 (Background)
//Storyboard Layer 1 (Fail)
//Storyboard Layer 2 (Pass)
//Storyboard Layer 3 (Foreground)
//Storyboard Layer 4 (Overlay)
//Storyboard Sound Samples

[TimingPoints]
1232,300,4,1,0,70,1,0
6032,-100,4,2,1,30,0,0
25232,-100,4,2,2,40,0,0
33632,-100,4,2,3,50,0,0
34232,-133.333333333333,4,2,4,60,0,0
34832,-100,4,3,1,80,0,1
36632,-83.3333333333333,4,3,1,80,0,1
72782,-100,4,3,1,80,0,0
78032,-100,4,2,1,30,0,0
78632,-100,4,2,1,40,0,0
79232,-100,4,2,1,50,0,0
80432,-100,4,2,1,60,0,0
81632,-100,4,2,1,70,0,0
82232,-100,4,2,1,80,0,0
82832,-100,4,2,1,50,0,0
102032,-100,4,3,2,80,0,1
102632,-100,4,3,3,80,0,1
103832,-100,4,3,2,80,0,1
105032,-100,4,3,4,80,0,1
106232,-100,4,3,2,80,0,1
106532,-100,4,3,2,80,0,1
106832,-100,4,3,2,80,0,1
107432,-100,4,3,3,80,0,1
108032,-100,4,3,2,80,0,1
108632,-100,4,3,2,80,0,1
108857,-100,4,3,2,80,0,1
109232,-100,4,3,4,80,0,1
109832,-100,4,3,4,80,0,1
110132,-100,4,3,2,80,0,1
111032,-100,4,3,5,80,0,1
111332,-100,4,3,2,80,0,1
111707,-100,4,3,2,80,0,1
112232,-100,4,3,2,80,0,1
113432,-100,4,3,3,80,0,1
114332,-100,4,3,2,80,0,1
115232,-100,4,3,4,80,0,1
116432,-100,4,3,3,80,0,1
117032,-100,4,3,3,80,0,1
117182,-100,4,3,5,80,0,1
117632,-100,4,3,4,80,0,1
118232,-100,4,3,2,80,0,1
118832,-100,4,3,3,80,0,1
120032,-100,4,3,4,80,0,1
121232,-100,4,3,2,80,0,0
126032,-100,4,3,1,80,0,1
126632,-100,4,3,1,80,0,1
130232,-100,4,3,1,80,0,1
130832,-100,4,3,1,80,0,1
131432,-100,4,3,1,80,0,1
131732,-100,4,3,5,80,0,1
131957,-100,4,3,1,80,0,1
133232,-100,4,3,1,80,0,1
133607,-100,4,3,1,80,0,1
133832,-100,4,3,1,80,0,1
134732,-100,4,3,1,80,0,1
135182,-100,4,3,1,80,0,1
135632,-100,4,3,5,80,0,1
136232,-100,4,3,1,80,0,1
136682,-100,4,3,1,80,0,1
138032,-100,4,3,1,80,0,1
140432,-100,4,3,1,80,0,1
141032,-100,4,3,1,80,0,1
141632,-100,4,3,1,80,0,1
141932,-100,4,3,1,80,0,1
142832,-100,4,3,6,80,0,1
143432,-100,4,3,1,80,0,1
144032,-100,4,3,1,80,0,1
144782,-100,4,2,6,60,0,0
145232,-100,4,2,6,45,0,0

[Colours]
Combo1 : 0,122,244
Combo2 : 0,128,192
Combo3 : 53,53,255
Combo4 : 255,128,255
Combo5 : 255,128,150

[HitObjects]
160,192,6032,6,0,B|80:80|80:80|176:208|176:208|368:208,1,440,2|8,0:0|0:0,0:0:0:0:
160,208,8432,2,0,P|176:80|272:224,1,385,2|0,0:0|0:0,0:0:0:0:
128,192,10532,5,0,0:0:0:0:
240,208,10832,2,0,B|320:112|320:112|208:240|208:240|176:272,1,330,2|0,0:0|0:0,0:0:0:0:
320,256,12032,2,0,P|416:176|304:32,1,330,8|0,0:0|0:0,0:0:0:0:
72,46,13232,6,0,P|40:158|168:46,1,440,12|0,0:0|0:0,0:0:0:0:
48,48,15032,1,0,0:0:0:0:
272,240,15632,6,0,B|464:144|464:144|240:128|240:128|240:96,1,440,2|0,0:0|0:0,0:0:0:0:
80,112,17432,2,0,L|80:256,1,110,2|0,0:0|0:0,0:0:0:0:
177,221,18032,5,2,0:0:0:0:
273,221,18332,1,0,0:0:0:0:
448,240,18632,1,8,0:0:0:0:
160,240,19232,5,2,0:0:0:0:
360,236,19832,2,0,L|360:92,1,110,8|0,0:0|0:0,0:0:0:0:
87,210,20432,6,0,B|55:130|55:130|199:50,1,220,2|0,0:0|0:0,0:0:0:0:
336,64,21632,1,8,0:0:0:0:
144,64,22232,2,0,L|144:192,1,110
431,234,22832,6,0,P|431:186|287:90,1,220,2|0,0:0|0:0,0:0:0:0:
97,90,23732,2,0,L|49:26,2,55,0|0|8,0:0|0:0|0:0,0:0:0:0:
205,92,24632,1,0,0:0:0:0:
496,96,25232,6,0,P|496:160|336:208,1,220,8|0,0:0|0:0,0:0:0:0:
144,208,26432,1,2,0:0:0:0:
336,224,27032,2,0,L|336:80,1,110,8|0,0:0|0:0,0:0:0:0:
144,64,27632,6,0,P|80:96|160:192,1,220,2|0,0:0|0:0,0:0:0:0:
336,192,28832,1,2,0:0:0:0:
176,192,29432,2,0,L|176:48,1,110,8|0,0:0|0:0,0:0:0:0:
432,128,30032,6,0,L|160:128,1,220,2|0,0:0|0:0,0:0:0:0:
496,128,31232,1,2,0:0:0:0:
288,112,31832,2,0,L|288:272,1,110,8|0,0:0|0:0,0:0:0:0:
48,208,32432,6,0,P|32:144|160:208,1,330,4|0,0:0|0:0,0:0:0:0:
64,208,33632,2,0,B|32:160|48:112|48:112|144:80,1,165,2|0,0:0|0:0,0:0:0:0:
197,83,34232,1,8,0:0:0:0:
420,95,34832,6,0,L|420:255,1,110,8|0,0:0|0:0,0:0:0:0:
166,208,35432,1,4,0:0:0:0:
142,159,35582,1,0,0:0:0:0:
163,110,35732,1,0,0:0:0:0:
213,92,35882,1,0,0:0:0:0:
320,96,36032,6,0,L|320:224,1,110,8|0,0:0|0:0,0:0:0:0:
112,224,36632,2,0,P|96:144|224:96,1,197.99999395752,4|0,0:0|0:0,0:0:0:0:
255,96,37232,5,2,0:0:0:0:
192,112,37382,1,0,0:0:0:0:
159,167,37532,1,2,0:0:0:0:
173,230,37682,1,0,0:0:0:0:
336,192,37832,2,0,L|144:304,1,197.99999395752,4|0,0:0|0:0,0:0:0:0:
256,304,38432,6,0,P|288:224|256:176,1,131.99999597168
192,192,38882,1,0,0:0:0:0:
32,192,39032,1,4,0:0:0:0:
144,192,39332,1,0,0:0:0:0:
32,192,39632,6,0,B|32:112|32:112|158:112,1,197.99999395752,8|0,0:0|0:0,0:0:0:0:
302,63,40232,1,4,0:0:0:0:
355,97,40382,1,0,0:0:0:0:
361,160,40532,1,0,0:0:0:0:
315,204,40682,1,0,0:0:0:0:
238,207,40832,5,8,0:0:0:0:
400,208,41132,2,0,L|400:96,1,65.9999979858399,2|0,0:0|0:0,0:0:0:0:
256,112,41432,2,0,L|416:48,1,131.99999597168,4|0,0:0|0:0,0:0:0:0:
256,48,42032,6,0,P|192:96|288:192,1,197.99999395752,8|0,0:0|0:0,0:0:0:0:
368,192,42632,2,0,L|368:80,1,65.9999979858399,4|0,0:0|0:0,0:0:0:0:
304,112,42932,2,0,L|208:64,1,65.9999979858399,2|0,0:0|0:0,0:0:0:0:
144,80,43232,5,8,0:0:0:0:
288,80,43682,1,8,0:0:0:0:
448,80,43832,2,0,P|496:144|432:192,1,131.99999597168,4|0,0:0|0:0,0:0:0:0:
384,176,44282,1,0,0:0:0:0:
288,176,44432,6,0,B|272:256|272:256|446:159,1,263.99999194336,0|4,0:0|0:0,0:0:0:0:
144,176,45332,2,0,L|144:304,1,65.9999979858399,8|0,0:0|0:0,0:0:0:0:
224,240,45632,5,8,0:0:0:0:
96,240,45932,2,0,L|192:160,1,65.9999979858399,2|0,0:0|0:0,0:0:0:0:
304,128,46232,1,4,0:0:0:0:
338,180,46382,1,0,0:0:0:0:
314,239,46532,1,0,0:0:0:0:
252,251,46682,1,8,0:0:0:0:
160,256,46832,6,0,L|160:80,1,131.99999597168,8|0,0:0|0:0,0:0:0:0:
352,112,47432,2,0,L|416:176,1,65.9999979858399,4|0,0:0|0:0,0:0:0:0:
336,176,47732,2,0,L|304:144,2,32.99999899292,2|0|0,0:0|0:0|0:0,0:0:0:0:
416,176,48032,6,0,P|432:224|304:256,1,197.99999395752,8|0,0:0|0:0,0:0:0:0:
160,272,48632,2,0,L|160:192,1,65.9999979858399,6|0,0:0|0:0,0:0:0:0:
304,224,48932,2,0,L|304:144,1,65.9999979858399,2|0,0:0|0:0,0:0:0:0:
224,144,49232,6,0,P|160:176|224:256,1,197.99999395752,8|0,0:0|0:0,0:0:0:0:
384,256,49832,2,0,L|448:208,1,65.9999979858399,4|0,0:0|0:0,0:0:0:0:
272,192,50432,5,8,0:0:0:0:
144,192,50732,2,0,L|208:128,1,65.9999979858399,8|0,0:0|0:0,0:0:0:0:
331,126,51032,2,0,L|175:127,1,131.99999597168,6|0,0:0|0:0,0:0:0:0:
336,240,51632,6,0,P|384:208|320:96,1,197.99999395752,8|0,0:0|0:0,0:0:0:0:
192,96,52232,2,0,L|192:192,1,65.9999979858399,4|0,0:0|0:0,0:0:0:0:
272,160,52532,1,8,0:0:0:0:
480,176,52832,2,0,P|496:80|384:48,1,197.99999395752,8|0,0:0|0:0,0:0:0:0:
224,48,53732,6,0,L|224:160,1,65.9999979858399,8|0,0:0|0:0,0:0:0:0:
304,128,54032,1,8,0:0:0:0:
355,165,54182,1,0,0:0:0:0:
357,229,54332,1,0,0:0:0:0:
308,270,54482,1,0,0:0:0:0:
144,272,54632,5,4,0:0:0:0:
272,272,54932,2,0,L|272:160,1,65.9999979858399,8|0,0:0|0:0,0:0:0:0:
176,192,55382,1,8,0:0:0:0:
272,192,55532,2,0,L|272:96,1,65.9999979858399,4|0,0:0|0:0,0:0:0:0:
128,96,55832,6,0,P|96:128|144:208,1,131.99999597168,10|0,0:0|0:0,0:0:0:0:
224,208,56282,1,8,0:0:0:0:
320,208,56432,6,0,L|320:128,1,65.9999979858399,8|0,0:0|0:0,0:0:0:0:
224,208,56732,2,0,L|192:176,2,32.99999899292,2|0|0,0:0|0:0|0:0,0:0:0:0:
384,208,57032,2,0,P|400:160|320:112,1,131.99999597168,4|0,0:0|0:0,0:0:0:0:
256,96,57482,1,0,0:0:0:0:
176,96,57632,5,8,0:0:0:0:
320,240,57932,2,0,L|320:80,1,131.99999597168,8|4,0:0|0:0,0:0:0:0:
80,112,58532,2,0,L|80:176,2,32.99999899292,2|0|0,0:0|0:0|0:0,0:0:0:0:
176,144,58832,6,0,L|320:208,1,131.99999597168,8|0,0:0|0:0,0:0:0:0:
368,224,59282,1,0,0:0:0:0:
208,224,59432,1,4,0:0:0:0:
320,224,59732,2,0,L|320:144,1,65.9999979858399,2|0,0:0|0:0,0:0:0:0:
176,128,60182,6,0,L|96:80,2,65.9999979858399,2|0|8,0:0|0:0|0:0,0:0:0:0:
336,128,60632,1,4,0:0:0:0:
256,128,60932,1,12,0:0:0:0:
464,128,61232,6,0,P|480:192|320:224,1,263.99999194336,8|4,0:0|0:0,0:0:0:0:
240,208,62032,1,0,0:0:0:0:
144,208,62232,1,0,0:0:0:0:
352,208,62432,6,0,P|384:160|352:80,1,131.99999597168,8|0,0:0|0:0,0:0:0:0:
272,96,62882,1,8,0:0:0:0:
176,96,63032,2,0,L|112:160,2,87.9999973144532,4|0|0,0:0|0:0|0:0,0:0:0:0:
352,96,63632,5,8,0:0:0:0:
208,96,63932,2,0,L|144:160,2,65.9999979858399,2|0|4,0:0|0:0|0:0,0:0:0:0:
352,96,64532,5,8,0:0:0:0:
112,96,64832,2,0,P|64:128|144:288,1,263.99999194336,8|4,0:0|0:0,0:0:0:0:
352,304,66032,5,8,0:0:0:0:
384,249,66182,1,0,0:0:0:0:
354,194,66332,1,0,0:0:0:0:
291,192,66482,1,0,0:0:0:0:
128,224,66632,6,0,P|160:48|256:240,1,527.999983886719,4|12,0:0|0:0,0:0:0:0:
112,224,68132,1,8,0:0:0:0:
240,224,68432,6,0,L|352:128,1,131.99999597168,8|0,0:0|0:0,0:0:0:0:
400,96,68882,1,0,0:0:0:0:
304,96,69032,2,0,L|240:32,2,65.9999979858399,4|0|0,0:0|0:0|0:0,0:0:0:0:
432,96,69632,1,8,0:0:0:0:
304,96,69932,1,0,0:0:0:0:
36,90,70232,6,0,P|41:166|141:240,1,197.99999395752,4|0,0:0|0:0,0:0:0:0:
288,216,70832,2,0,L|400:104,2,131.99999597168,10|0|4,0:0|0:0|0:0,0:0:0:0:
132,218,71732,1,0,0:0:0:0:
356,218,72032,6,8,L|356:122,1,65.9999979858399,10|8,0:0|0:0,0:0:0:0:
196,154,72332,2,0,L|196:58,1,65.9999979858399,10|0,0:0|0:0,0:0:0:0:
256,192,72782,12,0,73232,0:0:0:0:
256,192,78032,12,0,82532,0:0:0:0:
144,288,82832,6,0,B|-16:144|256:128|560:192|432:16,1,550,8|0,0:0|0:0,0:0:0:0:
288,32,84632,2,0,L|288:160,1,110
416,160,85232,6,0,L|192:160,1,220,8|0,0:0|0:0,0:0:0:0:
384,288,86432,2,0,P|496:192|336:176,1,385,2|0,0:0|0:0,0:0:0:0:
192,256,87632,6,0,P|160:208|368:80,1,385,12|0,0:0|0:0,0:0:0:0:
272,80,88832,2,0,L|272:304,1,220,2|0,0:0|0:0,0:0:0:0:
400,304,90032,6,0,L|192:176,2,220,8|0|2,0:0|0:0|0:0,0:0:0:0:
160,288,91832,2,0,P|112:240|176:176,1,165,8|0,0:0|0:0,0:0:0:0:
320,207,92432,6,0,P|304:15|224:207,1,550,12|0,0:0|0:0,0:0:0:0:
352,192,94232,2,0,L|352:304,1,110
192,288,94832,6,0,L|16:144,1,220,2|0,0:0|0:0,0:0:0:0:
256,176,96032,2,0,P|304:128|240:64,1,165,8|0,0:0|0:0,0:0:0:0:
160,64,96632,2,0,P|160:112|272:144,1,165,2|0,0:0|0:0,0:0:0:0:
416,192,97232,6,0,P|336:32|288:192,1,440,8|2,0:0|0:0,0:0:0:0:
448,192,99032,2,0,P|464:144|368:96,1,165,2|0,0:0|0:0,0:0:0:0:
266,88,99632,5,4,0:0:0:0:
384,224,102032,6,0,P|400:176|304:112,1,165,2|0,0:0|0:0,0:0:0:0:
174,94,102632,1,12,0:0:0:0:
126,94,102782,1,0,0:0:0:0:
94,94,102932,1,0,0:0:0:0:
126,94,103082,1,0,0:0:0:0:
288,96,103232,6,0,L|432:208,1,165,2|0,0:0|0:0,0:0:0:0:
320,208,103832,1,12,0:0:0:0:
432,208,104132,2,0,L|464:176,2,27.5
272,208,104432,6,0,P|208:160|272:128,1,165,2|0,0:0|0:0,0:0:0:0:
426,117,105032,2,0,L|426:234,1,110,12|0,0:0|0:0,0:0:0:0:
293,214,105632,6,0,L|293:294,1,55,2|0,0:0|0:0,0:0:0:0:
377,213,105932,2,0,L|377:293,1,55,2|0,0:0|0:0,0:0:0:0:
192,272,106232,1,8,0:0:0:0:
304,272,106532,1,0,0:0:0:0:
80,272,106832,6,0,P|32:240|81:143,1,165
214,158,107432,2,0,L|262:110,2,55,6|0|0,0:0|0:0|0:0,0:0:0:0:
150,158,107882,1,0,0:0:0:0:
304,161,108032,6,0,P|304:209|192:257,1,165,2|0,0:0|0:0,0:0:0:0:
119,260,108632,2,0,L|119:132,1,110,12|0,0:0|0:0,0:0:0:0:
337,222,109232,6,0,L|524:221,1,165,2|0,0:0|0:0,0:0:0:0:
436,112,109832,1,12,0:0:0:0:
438,170,109982,1,0,0:0:0:0:
436,224,110132,1,0,0:0:0:0:
176,272,110432,6,0,L|176:192,1,55,2|0,0:0|0:0,0:0:0:0:
320,272,110732,2,0,L|320:192,1,55,2|0,0:0|0:0,0:0:0:0:
224,208,111032,2,0,P|192:176|224:112,1,110,8|0,0:0|0:0,0:0:0:0:
288,112,111482,1,8,0:0:0:0:
368,112,111632,6,0,P|400:144|352:240,1,165,2|0,0:0|0:0,0:0:0:0:
219,239,112232,6,0,L|53:188,1,165,8|0,0:0|0:0,0:0:0:0:
195,159,112832,2,0,P|243:127|195:47,1,165,2|0,0:0|0:0,0:0:0:0:
104,47,113432,6,0,L|104:95,2,27.5,12|0|0,0:0|0:0|0:0,0:0:0:0:
176,96,113732,2,0,L|240:144,1,55
384,144,114032,6,0,L|384:224,1,55,2|0,0:0|0:0,0:0:0:0:
224,144,114332,2,0,L|224:224,1,55,2|0,0:0|0:0,0:0:0:0:
127,145,114632,1,8,0:0:0:0:
95,97,114782,1,0,0:0:0:0:
127,49,114932,1,0,0:0:0:0:
179,44,115082,1,0,0:0:0:0:
344,32,115232,6,0,L|344:112,1,55,2|0,0:0|0:0,0:0:0:0:
504,32,115532,2,0,L|504:112,1,55,2|0,0:0|0:0,0:0:0:0:
408,96,115832,1,4,0:0:0:0:
472,96,116132,1,0,0:0:0:0:
240,96,116432,6,0,P|240:160|320:96,1,220,2|8,0:0|0:0,0:0:0:0:
80,160,117632,2,0,L|320:160,1,220,2|8,0:0|0:0,0:0:0:0:
64,288,118832,6,0,P|32:256|112:128,1,220,2|8,0:0|0:0,0:0:0:0:
224,144,119732,1,2,0:0:0:0:
96,144,120032,1,2,0:0:0:0:
288,144,120482,1,2,0:0:0:0:
143,144,120932,6,0,L|83:185,2,55,2|2|0,0:0|0:0|0:0,0:0:0:0:
368,160,126032,6,0,L|368:288,1,110,8|0,0:0|0:0,0:0:0:0:
256,256,126632,2,0,L|208:208,2,55,4|0|0,0:0|0:0|0:0,0:0:0:0:
400,256,127082,1,8,0:0:0:0:
288,256,127382,1,8,0:0:0:0:
368,256,127532,6,0,L|368:176,1,55,2|0,0:0|0:0,0:0:0:0:
224,176,127832,2,0,P|176:128|240:64,1,165,4|0,0:0|0:0,0:0:0:0:
320,64,128432,6,0,L|320:128,1,55,8|0,0:0|0:0,0:0:0:0:
400,128,128732,2,0,L|400:192,1,55,8|0,0:0|0:0,0:0:0:0:
304,192,129032,1,4,0:0:0:0:
259,230,129182,1,0,0:0:0:0:
263,289,129332,1,0,0:0:0:0:
308,328,129482,1,0,0:0:0:0:
480,304,129632,6,0,L|480:192,1,110,8|0,0:0|0:0,0:0:0:0:
320,176,130232,1,4,0:0:0:0:
448,176,130532,2,0,L|448:96,1,55,2|0,0:0|0:0,0:0:0:0:
272,176,130832,6,0,P|229:124|278:44,1,165,8|0,0:0|0:0,0:0:0:0:
407,62,131432,2,0,L|455:110,2,55,4|0|0,0:0|0:0|0:0,0:0:0:0:
352,64,131882,1,0,0:0:0:0:
176,64,132182,6,0,L|128:128,2,55,8|0|0,0:0|0:0|0:0,0:0:0:0:
341,55,132632,2,0,L|341:183,1,110,4|0,0:0|0:0,0:0:0:0:
101,239,133232,6,0,P|69:191|181:111,1,220,6|0,0:0|0:0,0:0:0:0:
304,112,134032,2,0,L|304:208,1,73.3333333333333,8|8,0:0|0:0,0:0:0:0:
128,192,134432,5,10,0:0:0:0:
48,192,134582,2,0,L|48:112,1,55
128,144,134882,1,8,0:0:0:0:
288,128,135032,6,0,P|336:160|288:240,1,165,6|0,0:0|0:0,0:0:0:0:
192,240,135632,1,8,0:0:0:0:
384,240,135932,2,0,L|384:176,1,55
288,176,136232,5,4,0:0:0:0:
268,126,136382,1,0,0:0:0:0:
297,82,136532,1,0,0:0:0:0:
350,79,136682,1,0,0:0:0:0:
213,63,136832,6,0,P|149:79|213:175,1,220,8|4,0:0|0:0,0:0:0:0:
272,176,137582,1,0,0:0:0:0:
353,176,137732,1,0,0:0:0:0:
353,176,137882,1,0,0:0:0:0:
206,287,138032,6,0,P|151:244|151:187,1,110,8|0,0:0|0:0,0:0:0:0:
227,199,138482,1,0,0:0:0:0:
144,224,138632,2,0,L|78:222,2,55,6|0|0,0:0|0:0|0:0,0:0:0:0:
245,226,139082,1,0,0:0:0:0:
337,224,139232,6,0,P|332:129|233:59,1,220,8|4,0:0|0:0,0:0:0:0:
80,96,140132,2,0,L|80:176,1,55,8|0,0:0|0:0,0:0:0:0:
240,112,140432,6,0,L|368:96,1,110,8|8,0:0|0:0,0:0:0:0:
112,112,141032,1,4,0:0:0:0:
256,112,141332,2,0,L|320:80,2,55,2|0|8,0:0|0:0|0:0,0:0:0:0:
144,112,141932,6,0,L|144:192,1,55,8|0,0:0|0:0,0:0:0:0:
240,112,142232,2,0,P|288:112|240:176,1,165,4|0,0:0|0:0,0:0:0:0:
96,80,142832,6,0,P|48:112|96:192,1,165,12|2,0:0|0:0,0:0:0:0:
176,192,143432,1,8,0:0:0:0:
352,192,143582,2,0,L|352:112,1,55,4|0,0:0|0:0,0:0:0:0:
240,192,144032,5,8,0:0:0:0:
448,194,144332,2,0,L|448:130,1,55,8|8,0:0|0:0,0:0:0:0:
256,192,144782,12,8,145232,0:0:0:0:
