osu file format v14

[General]
AudioFilename: audio.mp3
AudioLeadIn: 0
PreviewTime: 131750
Countdown: 0
SampleSet: Normal
StackLeniency: 0.7
Mode: 1
LetterboxInBreaks: 0
WidescreenStoryboard: 0

[Editor]
Bookmarks: 1084,22417,43750,65083,86417,107750,131750,152750,153083,174417,185083,206417,214417
DistanceSpacing: 0.9
BeatDivisor: 4
GridSize: 32
TimelineZoom: 2.299999

[Metadata]
Title:Eater Merry
TitleUnicode:Eater Merry
Artist:Sakuzyo
ArtistUnicode:削除
Creator:eiri-
Version:Muzukashii
Source:東方萃夢想 ~ Immaterial and Missing Power.
Tags:Ayyri Instrumental Video Game Electronic Diverse System the3.5 DVSP-0078 Reitaisai 9 RTS9 RTS 東方Project Touhou Project 7.5 TH7.5 Twilight Frontier Suimusou 御伽の国の鬼が島 ~ Onigashima Oni's Island in the Fairyland 伊吹 萃香 Ibuki Suika ZUN Team Shanghai Alice Tasofro IaMP
BeatmapID:2293611
BeatmapSetID:1097688

[Difficulty]
HPDrainRate:5
CircleSize:2
OverallDifficulty:5
ApproachRate:10
SliderMultiplier:1.4
SliderTickRate:1

[Events]
//Background and Video events
0,0,"Suika 846.jpg",0,0
//Break Periods
//Storyboard Layer 0 (Background)
//Storyboard Layer 1 (Fail)
//Storyboard Layer 2 (Pass)
//Storyboard Layer 3 (Foreground)
//Storyboard Layer 4 (Overlay)
//Storyboard Sound Samples

[TimingPoints]
1084,333.333333333333,4,1,0,30,1,0
1084,-125,4,1,0,30,0,0
11709,-125,4,1,0,50,0,0
21542,-121.951219512195,4,1,0,75,0,0
21709,-119.047619047619,4,1,0,75,0,0
21876,-116.279069767442,4,1,0,75,0,0
22042,-113.636363636364,4,1,0,75,0,0
22376,-111.111111111111,4,1,0,75,0,0
33042,-100,4,1,0,75,0,0
42376,-102.040816326531,4,1,0,75,0,0
42542,-104.166666666667,4,1,0,75,0,0
42709,-106.382978723404,4,1,0,75,0,0
42876,-108.695652173913,4,1,0,75,0,0
43042,-111.111111111111,4,1,0,75,0,0
43376,-117.647058823529,4,1,0,75,0,0
43709,-125,4,1,0,75,0,0
48209,-121.951219512195,4,1,0,75,0,0
48376,-119.047619047619,4,1,0,75,0,0
48542,-116.279069767442,4,1,0,75,0,0
48709,-113.636363636364,4,1,0,75,0,0
48876,-112.359550561798,4,1,0,75,0,0
49042,-111.111111111111,4,1,0,75,0,0
53042,-108.695652173913,4,1,0,75,0,0
53709,-106.382978723404,4,1,0,75,0,0
53876,-104.166666666667,4,1,0,75,0,0
54042,-102.040816326531,4,1,0,75,0,0
54376,-100,4,1,0,75,0,0
59042,-98.0392156862745,4,1,0,75,0,0
59209,-96.1538461538461,4,1,0,75,0,0
59376,-94.3396226415094,4,1,0,75,0,0
59542,-92.5925925925926,4,1,0,75,0,0
59709,-90.9090909090909,4,1,0,75,0,0
63709,-92.5925925925926,4,1,0,75,0,0
64209,-95.2380952380952,4,1,0,75,0,0
64376,-97.0873786407767,4,1,0,75,0,0
64709,-105.263157894737,4,1,0,75,0,0
65042,-90.9090909090909,4,1,0,75,0,0
85042,-92.5925925925926,4,1,0,75,0,0
85126,-94.3396226415094,4,1,0,75,0,0
85209,-96.1538461538461,4,1,0,75,0,0
85376,-100,4,1,0,75,0,0
85542,-105.263157894737,4,1,0,75,0,0
85709,-111.111111111111,4,1,0,75,0,0
86042,-117.647058823529,4,1,0,75,0,0
86209,-120.481927710843,4,1,0,75,0,0
86376,-125,4,1,0,75,0,0
96209,-121.951219512195,4,1,0,75,0,0
96376,-119.047619047619,4,1,0,75,0,0
96542,-116.279069767442,4,1,0,75,0,0
96709,-113.636363636364,4,1,0,75,0,0
97042,-111.111111111111,4,1,0,75,0,0
107709,-100,4,1,0,75,0,0
117042,-102.040816326531,4,1,0,75,0,0
117209,-104.166666666667,4,1,0,75,0,0
117376,-106.382978723404,4,1,0,75,0,0
117542,-108.695652173913,4,1,0,75,0,0
117709,-111.111111111111,4,1,0,75,0,0
118042,-117.647058823529,4,1,0,75,0,0
118376,-100,4,1,0,75,0,0
130042,-100,4,1,0,30,0,0
130376,-100,4,1,0,40,0,0
130709,-100,4,1,0,50,0,0
131042,-100,4,1,0,60,0,0
131376,-100,4,1,0,70,0,0
131750,-90.9090909090909,4,1,0,75,0,1
152750,-90.9090909090909,4,1,0,75,0,0
153083,-90.9090909090909,4,1,0,75,0,1
174417,-90.9090909090909,4,1,0,75,0,0
175709,-100,4,1,0,75,0,0
176209,-100,4,1,0,75,0,0
179709,-97.0873786407767,4,1,0,75,0,0
180209,-95.2380952380952,4,1,0,75,0,0
181042,-93.4579439252336,4,1,0,75,0,0
181542,-90.9090909090909,4,1,0,75,0,0
182042,-88.4955752212389,4,1,0,75,0,0
182376,-86.9565217391304,4,1,0,75,0,0
182542,-90.9090909090909,4,1,0,75,0,0
182709,-95.2380952380952,4,1,0,75,0,0
182876,-100,4,1,0,75,0,0
183376,-99.009900990099,4,1,0,75,0,0
183876,-98.0392156862745,4,1,0,75,0,0
184126,-96.1538461538461,4,1,0,75,0,0
184376,-94.3396226415094,4,1,0,75,0,0
184542,-92.5925925925926,4,1,0,75,0,0
184626,-91.743119266055,4,1,0,75,0,0
184709,-90.9090909090909,4,1,0,75,0,0
185083,-86.9565217391304,4,1,0,75,0,1
205042,-88.4955752212389,4,1,0,75,0,1
205126,-89.2857142857143,4,1,0,75,0,1
205209,-90.0900900900901,4,1,0,75,0,1
205376,-91.743119266055,4,1,0,75,0,1
205542,-93.4579439252336,4,1,0,75,0,1
205709,-95.2380952380952,4,1,0,75,0,1
205876,-97.0873786407767,4,1,0,75,0,1
206042,-99.009900990099,4,1,0,75,0,1
206209,-95.2380952380952,4,1,0,75,0,1
206417,-86.9565217391304,4,1,0,75,0,0
206542,-86.9565217391304,4,1,0,50,0,0
207708,-90.9090909090909,4,1,0,50,0,0
209042,-95.2380952380952,4,1,0,50,0,0
210375,-100,4,1,0,50,0,0
211708,-105.263157894737,4,1,0,50,0,0
213042,-111.111111111111,4,1,0,50,0,0
214417,-125,4,1,0,50,0,0

[HitObjects]
256,192,1084,5,8,0:0:0:0:
256,192,1417,1,0,0:0:0:0:
256,192,1750,1,8,0:0:0:0:
256,192,2417,1,8,0:0:0:0:
256,192,3083,1,8,0:0:0:0:
256,192,3750,1,8,0:0:0:0:
256,192,4083,1,0,0:0:0:0:
256,192,4417,1,8,0:0:0:0:
256,192,5083,1,8,0:0:0:0:
256,192,5750,1,0,0:0:0:0:
256,192,6083,1,0,0:0:0:0:
256,192,6417,1,8,0:0:0:0:
256,192,6750,1,0,0:0:0:0:
256,192,7083,1,8,0:0:0:0:
256,192,7750,1,8,0:0:0:0:
256,192,8083,1,0,0:0:0:0:
256,192,8417,1,8,0:0:0:0:
256,192,8750,1,0,0:0:0:0:
256,192,9083,1,8,0:0:0:0:
256,192,9750,1,8,0:0:0:0:
256,192,10417,1,8,0:0:0:0:
256,192,10750,1,0,0:0:0:0:
256,192,11083,1,0,0:0:0:0:
256,192,11417,1,0,0:0:0:0:
256,192,11750,1,8,0:0:0:0:
256,192,11917,1,0,0:0:0:0:
256,192,12083,1,8,0:0:0:0:
256,192,12417,1,8,0:0:0:0:
256,192,12750,1,0,0:0:0:0:
256,192,12917,1,0,0:0:0:0:
256,192,13083,1,8,0:0:0:0:
256,192,13417,1,8,0:0:0:0:
256,192,13583,1,0,0:0:0:0:
256,192,13750,1,8,0:0:0:0:
256,192,14417,1,8,0:0:0:0:
256,192,14750,1,0,0:0:0:0:
256,192,15083,1,8,0:0:0:0:
256,192,15750,1,8,0:0:0:0:
256,192,16083,1,0,0:0:0:0:
256,192,16417,1,0,0:0:0:0:
256,192,16750,1,0,0:0:0:0:
256,192,17083,1,8,0:0:0:0:
256,192,17250,1,0,0:0:0:0:
256,192,17417,1,8,0:0:0:0:
256,192,17750,1,8,0:0:0:0:
256,192,18083,1,0,0:0:0:0:
256,192,18250,1,0,0:0:0:0:
256,192,18417,1,8,0:0:0:0:
256,192,18750,1,8,0:0:0:0:
256,192,18917,1,0,0:0:0:0:
256,192,19083,1,8,0:0:0:0:
256,192,19750,1,8,0:0:0:0:
256,192,20083,1,0,0:0:0:0:
256,192,20417,1,8,0:0:0:0:
256,192,20750,1,8,0:0:0:0:
256,192,21583,1,0,0:0:0:0:
256,192,21750,1,8,0:0:0:0:
256,192,21917,1,8,0:0:0:0:
256,192,22083,1,0,0:0:0:0:
256,192,22417,1,8,0:0:0:0:
256,192,22750,1,0,0:0:0:0:
256,192,23083,1,8,0:0:0:0:
256,192,23250,1,0,0:0:0:0:
256,192,23583,1,8,0:0:0:0:
256,192,23917,1,0,0:0:0:0:
256,192,24250,1,0,0:0:0:0:
256,192,24417,1,8,0:0:0:0:
256,192,24583,1,8,0:0:0:0:
256,192,24750,1,0,0:0:0:0:
256,192,25083,1,8,0:0:0:0:
256,192,25750,1,8,0:0:0:0:
256,192,25917,1,0,0:0:0:0:
256,192,26250,1,0,0:0:0:0:
256,192,26417,1,8,0:0:0:0:
256,192,26583,1,0,0:0:0:0:
256,192,26750,1,8,0:0:0:0:
256,192,27083,1,8,0:0:0:0:
256,192,27250,1,8,0:0:0:0:
256,192,27417,1,0,0:0:0:0:
256,192,27583,1,8,0:0:0:0:
256,192,27750,1,0,0:0:0:0:
256,192,28083,1,0,0:0:0:0:
256,192,28417,1,8,0:0:0:0:
256,192,28583,1,0,0:0:0:0:
256,192,28917,1,0,0:0:0:0:
256,192,29083,1,8,0:0:0:0:
256,192,29250,1,0,0:0:0:0:
256,192,29583,1,0,0:0:0:0:
256,192,29750,1,8,0:0:0:0:
256,192,29917,1,8,0:0:0:0:
256,192,30083,1,0,0:0:0:0:
256,192,30417,1,8,0:0:0:0:
256,192,31083,1,8,0:0:0:0:
256,192,31250,1,0,0:0:0:0:
256,192,31583,1,0,0:0:0:0:
256,192,31750,1,8,0:0:0:0:
256,192,31917,1,0,0:0:0:0:
256,192,32083,1,8,0:0:0:0:
256,192,32250,1,0,0:0:0:0:
256,192,32417,1,8,0:0:0:0:
256,192,33083,1,8,0:0:0:0:
256,192,33417,1,0,0:0:0:0:
256,192,33500,1,0,0:0:0:0:
256,192,33583,1,0,0:0:0:0:
256,192,33750,1,8,0:0:0:0:
256,192,33917,1,0,0:0:0:0:
256,192,34083,1,8,0:0:0:0:
256,192,34417,1,0,0:0:0:0:
256,192,34750,1,0,0:0:0:0:
256,192,34917,1,0,0:0:0:0:
256,192,35083,1,8,0:0:0:0:
256,192,35250,1,8,0:0:0:0:
256,192,35417,1,0,0:0:0:0:
256,192,35750,1,8,0:0:0:0:
256,192,36417,1,8,0:0:0:0:
256,192,36750,1,0,0:0:0:0:
256,192,36833,1,0,0:0:0:0:
256,192,36917,1,0,0:0:0:0:
256,192,37083,1,8,0:0:0:0:
256,192,37250,1,0,0:0:0:0:
256,192,37417,1,8,0:0:0:0:
256,192,37583,1,0,0:0:0:0:
256,192,37750,1,8,0:0:0:0:
256,192,38083,1,8,0:0:0:0:
256,192,38250,1,0,0:0:0:0:
256,192,38417,1,8,0:0:0:0:
256,192,39083,1,8,0:0:0:0:
256,192,39417,1,0,0:0:0:0:
256,192,39500,1,0,0:0:0:0:
256,192,39583,1,0,0:0:0:0:
256,192,39750,1,8,0:0:0:0:
256,192,40083,1,8,0:0:0:0:
256,192,40250,1,0,0:0:0:0:
256,192,40417,1,8,0:0:0:0:
256,192,40583,1,8,0:0:0:0:
256,192,40750,1,0,0:0:0:0:
256,192,41083,1,8,0:0:0:0:
256,192,41750,1,8,0:0:0:0:
256,192,42083,1,0,0:0:0:0:
256,192,42167,1,0,0:0:0:0:
256,192,42250,1,0,0:0:0:0:
256,192,42417,1,8,0:0:0:0:
256,192,42583,1,0,0:0:0:0:
256,192,42750,1,0,0:0:0:0:
256,192,42917,1,8,0:0:0:0:
256,192,43083,1,8,0:0:0:0:
256,192,43417,1,0,0:0:0:0:
256,192,43750,1,12,0:0:0:0:
256,192,44417,1,8,0:0:0:0:
256,192,44583,1,0,0:0:0:0:
256,192,45083,1,8,0:0:0:0:
256,192,45417,1,0,0:0:0:0:
256,192,45583,1,0,0:0:0:0:
256,192,45750,1,8,0:0:0:0:
256,192,45917,1,8,0:0:0:0:
256,192,46417,1,8,0:0:0:0:
256,192,47083,1,8,0:0:0:0:
256,192,47250,1,0,0:0:0:0:
256,192,47750,1,8,0:0:0:0:
256,192,48250,1,0,0:0:0:0:
256,192,48417,1,8,0:0:0:0:
256,192,48583,1,8,0:0:0:0:
256,192,48750,1,0,0:0:0:0:
256,192,48917,1,8,0:0:0:0:
256,192,49083,1,8,0:0:0:0:
256,192,49167,1,8,0:0:0:0:
256,192,49250,1,8,0:0:0:0:
256,192,49417,1,0,0:0:0:0:
256,192,49750,1,8,0:0:0:0:
256,192,49917,1,0,0:0:0:0:
256,192,50083,1,0,0:0:0:0:
256,192,50167,1,0,0:0:0:0:
256,192,50250,1,0,0:0:0:0:
256,192,50417,1,8,0:0:0:0:
256,192,50750,1,0,0:0:0:0:
256,192,51083,1,8,0:0:0:0:
256,192,51250,1,8,0:0:0:0:
256,192,51417,1,0,0:0:0:0:
256,192,51750,1,8,0:0:0:0:
256,192,51917,1,0,0:0:0:0:
256,192,52083,1,8,0:0:0:0:
256,192,52417,1,8,0:0:0:0:
256,192,52583,1,0,0:0:0:0:
256,192,52750,1,0,0:0:0:0:
256,192,52833,1,0,0:0:0:0:
256,192,52917,1,0,0:0:0:0:
256,192,53083,1,8,0:0:0:0:
256,192,53750,1,8,0:0:0:0:
256,192,53917,1,8,0:0:0:0:
256,192,54083,1,0,0:0:0:0:
256,192,54417,1,0,0:0:0:0:
256,192,54750,1,0,0:0:0:0:
256,192,55083,1,8,0:0:0:0:
256,192,55250,1,0,0:0:0:0:
256,192,55417,1,0,0:0:0:0:
256,192,55750,1,0,0:0:0:0:
256,192,56083,1,0,0:0:0:0:
256,192,56417,1,8,0:0:0:0:
256,192,56583,1,8,0:0:0:0:
256,192,56750,1,0,0:0:0:0:
256,192,57083,1,0,0:0:0:0:
256,192,57417,1,0,0:0:0:0:
256,192,57750,1,8,0:0:0:0:
256,192,57917,1,0,0:0:0:0:
256,192,58083,1,0,0:0:0:0:
256,192,58417,1,0,0:0:0:0:
256,192,58750,1,0,0:0:0:0:
256,192,58917,1,0,0:0:0:0:
256,192,59083,1,8,0:0:0:0:
256,192,59250,1,8,0:0:0:0:
256,192,59417,1,0,0:0:0:0:
256,192,59583,1,8,0:0:0:0:
256,192,59750,1,0,0:0:0:0:
256,192,59833,1,0,0:0:0:0:
256,192,59917,1,0,0:0:0:0:
256,192,60083,1,0,0:0:0:0:
256,192,60417,1,8,0:0:0:0:
256,192,60750,1,0,0:0:0:0:
256,192,60917,1,8,0:0:0:0:
256,192,61083,1,0,0:0:0:0:
256,192,61167,1,0,0:0:0:0:
256,192,61250,1,0,0:0:0:0:
256,192,61417,1,0,0:0:0:0:
256,192,61750,1,8,0:0:0:0:
256,192,61917,1,8,0:0:0:0:
256,192,62083,1,0,0:0:0:0:
256,192,62417,1,0,0:0:0:0:
256,192,62583,1,0,0:0:0:0:
256,192,62750,1,0,0:0:0:0:
256,192,62917,1,0,0:0:0:0:
256,192,63083,1,8,0:0:0:0:
256,192,63167,1,8,0:0:0:0:
256,192,63250,1,8,0:0:0:0:
256,192,63417,1,0,0:0:0:0:
256,192,63583,1,8,0:0:0:0:
256,192,63750,1,0,0:0:0:0:
256,192,64250,1,8,0:0:0:0:
256,192,64417,1,8,0:0:0:0:
256,192,64750,1,0,0:0:0:0:
256,192,65083,1,12,0:0:0:0:
256,192,65417,1,8,0:0:0:0:
256,192,65583,1,0,0:0:0:0:
256,192,65750,1,0,0:0:0:0:
256,192,65833,1,0,0:0:0:0:
256,192,65917,1,0,0:0:0:0:
256,192,66083,1,8,0:0:0:0:
256,192,66250,1,0,0:0:0:0:
256,192,66417,1,0,0:0:0:0:
256,192,66750,1,8,0:0:0:0:
256,192,66917,1,0,0:0:0:0:
256,192,67250,1,0,0:0:0:0:
256,192,67417,1,8,0:0:0:0:
256,192,67500,1,8,0:0:0:0:
256,192,67583,1,8,0:0:0:0:
256,192,67750,1,0,0:0:0:0:
256,192,68083,1,8,0:0:0:0:
256,192,68250,1,0,0:0:0:0:
256,192,68417,1,0,0:0:0:0:
256,192,68750,1,8,0:0:0:0:
256,192,69083,1,0,0:0:0:0:
256,192,69167,1,0,0:0:0:0:
256,192,69250,1,0,0:0:0:0:
256,192,69417,1,8,0:0:0:0:
256,192,69583,1,0,0:0:0:0:
256,192,69750,1,0,0:0:0:0:
256,192,70083,1,8,0:0:0:0:
256,192,70583,1,0,0:0:0:0:
256,192,70750,1,8,0:0:0:0:
256,192,71083,1,0,0:0:0:0:
256,192,71167,1,0,0:0:0:0:
256,192,71250,1,0,0:0:0:0:
256,192,71417,1,8,0:0:0:0:
256,192,71583,1,0,0:0:0:0:
256,192,71750,1,0,0:0:0:0:
256,192,72083,1,8,0:0:0:0:
256,192,72250,1,0,0:0:0:0:
256,192,72333,1,0,0:0:0:0:
256,192,72417,1,0,0:0:0:0:
256,192,72750,1,8,0:0:0:0:
256,192,72917,1,8,0:0:0:0:
256,192,73083,1,0,0:0:0:0:
256,192,73250,1,0,0:0:0:0:
256,192,73417,1,8,0:0:0:0:
256,192,73750,1,0,0:0:0:0:
256,192,73917,1,0,0:0:0:0:
256,192,74417,1,0,0:0:0:0:
256,192,74500,1,0,0:0:0:0:
256,192,74583,1,0,0:0:0:0:
256,192,74750,1,8,0:0:0:0:
256,192,74917,1,0,0:0:0:0:
256,192,75083,1,0,0:0:0:0:
256,192,75417,1,8,0:0:0:0:
256,192,75583,1,0,0:0:0:0:
256,192,75667,1,0,0:0:0:0:
256,192,75750,1,0,0:0:0:0:
256,192,75917,1,0,0:0:0:0:
256,192,76083,1,8,0:0:0:0:
256,192,76417,1,0,0:0:0:0:
256,192,76583,1,0,0:0:0:0:
256,192,76750,1,8,0:0:0:0:
256,192,77083,1,0,0:0:0:0:
256,192,77167,1,0,0:0:0:0:
256,192,77250,1,0,0:0:0:0:
256,192,77417,1,8,0:0:0:0:
256,192,77750,1,0,0:0:0:0:
256,192,77917,1,0,0:0:0:0:
256,192,78083,1,8,0:0:0:0:
256,192,78167,1,8,0:0:0:0:
256,192,78250,1,8,0:0:0:0:
256,192,78417,1,0,0:0:0:0:
256,192,78750,1,8,0:0:0:0:
256,192,79250,1,0,0:0:0:0:
256,192,79417,1,8,0:0:0:0:
256,192,79750,1,0,0:0:0:0:
256,192,79833,1,0,0:0:0:0:
256,192,79917,1,0,0:0:0:0:
256,192,80083,1,8,0:0:0:0:
256,192,80250,1,0,0:0:0:0:
256,192,80417,1,0,0:0:0:0:
256,192,80750,1,8,0:0:0:0:
256,192,81250,1,0,0:0:0:0:
256,192,81417,1,8,0:0:0:0:
256,192,81750,1,0,0:0:0:0:
256,192,81833,1,0,0:0:0:0:
256,192,81917,1,0,0:0:0:0:
256,192,82083,1,8,0:0:0:0:
256,192,82417,1,0,0:0:0:0:
256,192,82500,1,0,0:0:0:0:
256,192,82583,1,0,0:0:0:0:
256,192,82750,1,8,0:0:0:0:
256,192,82917,1,0,0:0:0:0:
256,192,83083,1,0,0:0:0:0:
256,192,83417,1,8,0:0:0:0:
256,192,83583,1,8,0:0:0:0:
256,192,83750,1,0,0:0:0:0:
256,192,84083,1,8,0:0:0:0:
256,192,84417,1,0,0:0:0:0:
256,192,84583,1,0,0:0:0:0:
256,192,84750,1,8,0:0:0:0:
256,192,85083,1,0,0:0:0:0:
256,192,85167,1,0,0:0:0:0:
256,192,85250,1,0,0:0:0:0:
256,192,85417,1,0,0:0:0:0:
256,192,85583,1,8,0:0:0:0:
256,192,85750,1,0,0:0:0:0:
256,192,86083,1,0,0:0:0:0:
256,192,86250,1,0,0:0:0:0:
256,192,86417,1,12,0:0:0:0:
256,192,86750,1,0,0:0:0:0:
256,192,87083,1,8,0:0:0:0:
256,192,87750,1,8,0:0:0:0:
256,192,88417,1,0,0:0:0:0:
256,192,89083,1,8,0:0:0:0:
256,192,89417,1,0,0:0:0:0:
256,192,89750,1,8,0:0:0:0:
256,192,90417,1,8,0:0:0:0:
256,192,91083,1,0,0:0:0:0:
256,192,91750,1,8,0:0:0:0:
256,192,91917,1,8,0:0:0:0:
256,192,92083,1,0,0:0:0:0:
256,192,92417,1,8,0:0:0:0:
256,192,92750,1,0,0:0:0:0:
256,192,92917,1,0,0:0:0:0:
256,192,93083,1,8,0:0:0:0:
256,192,93750,1,0,0:0:0:0:
256,192,94417,1,8,0:0:0:0:
256,192,94750,1,0,0:0:0:0:
256,192,95083,1,8,0:0:0:0:
256,192,95750,1,8,0:0:0:0:
256,192,96250,1,0,0:0:0:0:
256,192,96417,1,8,0:0:0:0:
256,192,96583,1,8,0:0:0:0:
256,192,96750,1,0,0:0:0:0:
256,192,97083,1,8,0:0:0:0:
256,192,97417,1,0,0:0:0:0:
256,192,97750,1,8,0:0:0:0:
256,192,97917,1,0,0:0:0:0:
256,192,98250,1,8,0:0:0:0:
256,192,98583,1,0,0:0:0:0:
256,192,98917,1,0,0:0:0:0:
256,192,99083,1,8,0:0:0:0:
256,192,99250,1,8,0:0:0:0:
256,192,99417,1,0,0:0:0:0:
256,192,99750,1,8,0:0:0:0:
256,192,100417,1,8,0:0:0:0:
256,192,100583,1,0,0:0:0:0:
256,192,100917,1,0,0:0:0:0:
256,192,101083,1,8,0:0:0:0:
256,192,101250,1,0,0:0:0:0:
256,192,101417,1,8,0:0:0:0:
256,192,101750,1,8,0:0:0:0:
256,192,101917,1,8,0:0:0:0:
256,192,102083,1,0,0:0:0:0:
256,192,102250,1,0,0:0:0:0:
256,192,102417,1,8,0:0:0:0:
256,192,102750,1,0,0:0:0:0:
256,192,103083,1,8,0:0:0:0:
256,192,103250,1,0,0:0:0:0:
256,192,103583,1,0,0:0:0:0:
256,192,103750,1,8,0:0:0:0:
256,192,103917,1,0,0:0:0:0:
256,192,104250,1,0,0:0:0:0:
256,192,104417,1,8,0:0:0:0:
256,192,104583,1,8,0:0:0:0:
256,192,104750,1,0,0:0:0:0:
256,192,105083,1,8,0:0:0:0:
256,192,105750,1,8,0:0:0:0:
256,192,105917,1,0,0:0:0:0:
256,192,106250,1,0,0:0:0:0:
256,192,106417,1,8,0:0:0:0:
256,192,106583,1,0,0:0:0:0:
256,192,106750,1,8,0:0:0:0:
256,192,106917,1,0,0:0:0:0:
256,192,107083,1,8,0:0:0:0:
256,192,107750,1,8,0:0:0:0:
256,192,108083,1,0,0:0:0:0:
256,192,108167,1,0,0:0:0:0:
256,192,108250,1,0,0:0:0:0:
256,192,108417,1,8,0:0:0:0:
256,192,108583,1,0,0:0:0:0:
256,192,108750,1,8,0:0:0:0:
256,192,109083,1,0,0:0:0:0:
256,192,109417,1,0,0:0:0:0:
256,192,109583,1,0,0:0:0:0:
256,192,109750,1,8,0:0:0:0:
256,192,109917,1,8,0:0:0:0:
256,192,110083,1,0,0:0:0:0:
256,192,110417,1,8,0:0:0:0:
256,192,111083,1,8,0:0:0:0:
256,192,111417,1,0,0:0:0:0:
256,192,111500,1,0,0:0:0:0:
256,192,111583,1,0,0:0:0:0:
256,192,111750,1,8,0:0:0:0:
256,192,111917,1,0,0:0:0:0:
256,192,112083,1,8,0:0:0:0:
256,192,112250,1,0,0:0:0:0:
256,192,112417,1,8,0:0:0:0:
256,192,112750,1,8,0:0:0:0:
256,192,112917,1,0,0:0:0:0:
256,192,113083,1,8,0:0:0:0:
256,192,113750,1,8,0:0:0:0:
256,192,114083,1,0,0:0:0:0:
256,192,114167,1,0,0:0:0:0:
256,192,114250,1,0,0:0:0:0:
256,192,114417,1,8,0:0:0:0:
256,192,114750,1,8,0:0:0:0:
256,192,114917,1,0,0:0:0:0:
256,192,115083,1,8,0:0:0:0:
256,192,115250,1,8,0:0:0:0:
256,192,115417,1,0,0:0:0:0:
256,192,115750,1,8,0:0:0:0:
256,192,116417,1,8,0:0:0:0:
256,192,116750,1,0,0:0:0:0:
256,192,116833,1,0,0:0:0:0:
256,192,116917,1,0,0:0:0:0:
256,192,117083,1,8,0:0:0:0:
256,192,117250,1,0,0:0:0:0:
256,192,117417,1,8,0:0:0:0:
256,192,117583,1,0,0:0:0:0:
256,192,117750,1,8,0:0:0:0:
256,192,118083,1,0,0:0:0:0:
256,192,118417,1,12,0:0:0:0:
256,192,118583,1,0,0:0:0:0:
256,192,118750,1,0,0:0:0:0:
256,192,119083,1,8,0:0:0:0:
256,192,119250,1,0,0:0:0:0:
256,192,119333,1,0,0:0:0:0:
256,192,119417,1,0,0:0:0:0:
256,192,119583,1,8,0:0:0:0:
256,192,119750,1,8,0:0:0:0:
256,192,119917,1,0,0:0:0:0:
256,192,120250,1,0,0:0:0:0:
256,192,120417,1,8,0:0:0:0:
256,192,120583,1,8,0:0:0:0:
256,192,120750,1,0,0:0:0:0:
256,192,121083,1,8,0:0:0:0:
256,192,121250,1,0,0:0:0:0:
256,192,121333,1,0,0:0:0:0:
256,192,121417,1,0,0:0:0:0:
256,192,121583,1,0,0:0:0:0:
256,192,121750,1,8,0:0:0:0:
256,192,121917,1,0,0:0:0:0:
256,192,122250,1,0,0:0:0:0:
256,192,122417,1,8,0:0:0:0:
256,192,122583,1,0,0:0:0:0:
256,192,122750,1,8,0:0:0:0:
256,192,123083,1,8,0:0:0:0:
256,192,123250,1,8,0:0:0:0:
256,192,123417,1,0,0:0:0:0:
256,192,123583,1,0,0:0:0:0:
256,192,123750,1,8,0:0:0:0:
256,192,124083,1,8,0:0:0:0:
256,192,124417,1,0,0:0:0:0:
256,192,124583,1,0,0:0:0:0:
256,192,124917,1,8,0:0:0:0:
256,192,125417,1,8,0:0:0:0:
256,192,125583,1,0,0:0:0:0:
256,192,125750,1,8,0:0:0:0:
256,192,126083,1,0,0:0:0:0:
256,192,126250,1,0,0:0:0:0:
256,192,126417,1,8,0:0:0:0:
256,192,127250,1,8,0:0:0:0:
256,192,127417,1,0,0:0:0:0:
256,192,127583,1,8,0:0:0:0:
256,192,127917,1,0,0:0:0:0:
256,192,128250,1,0,0:0:0:0:
256,192,128417,1,8,0:0:0:0:
256,192,128583,1,8,0:0:0:0:
256,192,128917,1,8,0:0:0:0:
256,192,130083,8,0,131583,0:0:0:0:
256,192,131750,5,12,0:0:0:0:
256,192,132250,1,0,0:0:0:0:
256,192,132417,1,8,0:0:0:0:
256,192,132750,1,8,0:0:0:0:
256,192,132917,1,8,0:0:0:0:
256,192,133250,1,0,0:0:0:0:
256,192,133417,1,8,0:0:0:0:
256,192,133583,1,0,0:0:0:0:
256,192,133750,1,8,0:0:0:0:
256,192,134083,1,8,0:0:0:0:
256,192,134167,1,8,0:0:0:0:
256,192,134250,1,8,0:0:0:0:
256,192,134417,1,0,0:0:0:0:
256,192,134583,1,8,0:0:0:0:
256,192,134750,1,0,0:0:0:0:
256,192,134917,1,0,0:0:0:0:
256,192,135083,1,8,0:0:0:0:
256,192,135417,1,8,0:0:0:0:
256,192,135583,1,8,0:0:0:0:
256,192,135750,1,0,0:0:0:0:
256,192,135833,1,0,0:0:0:0:
256,192,135917,1,0,0:0:0:0:
256,192,136083,1,0,0:0:0:0:
256,192,136417,1,8,0:0:0:0:
256,192,136750,1,8,0:0:0:0:
256,192,136917,1,8,0:0:0:0:
256,192,137083,1,0,0:0:0:0:
256,192,137417,1,0,0:0:0:0:
256,192,137583,1,0,0:0:0:0:
256,192,137750,1,8,0:0:0:0:
256,192,138083,1,8,0:0:0:0:
256,192,138250,1,0,0:0:0:0:
256,192,138333,1,0,0:0:0:0:
256,192,138417,1,0,0:0:0:0:
256,192,138583,1,8,0:0:0:0:
256,192,138750,1,0,0:0:0:0:
256,192,138917,1,0,0:0:0:0:
256,192,139083,1,8,0:0:0:0:
256,192,139417,1,8,0:0:0:0:
256,192,139500,1,8,0:0:0:0:
256,192,139583,1,8,0:0:0:0:
256,192,139750,1,0,0:0:0:0:
256,192,140083,1,0,0:0:0:0:
256,192,140250,1,0,0:0:0:0:
256,192,140417,1,8,0:0:0:0:
256,192,140583,1,0,0:0:0:0:
256,192,140750,1,8,0:0:0:0:
256,192,140917,1,8,0:0:0:0:
256,192,141250,1,8,0:0:0:0:
256,192,141417,1,0,0:0:0:0:
256,192,141500,1,0,0:0:0:0:
256,192,141583,1,0,0:0:0:0:
256,192,141750,1,8,0:0:0:0:
256,192,142083,1,8,0:0:0:0:
256,192,142250,1,8,0:0:0:0:
256,192,142417,1,0,0:0:0:0:
256,192,142917,1,0,0:0:0:0:
256,192,143083,1,8,0:0:0:0:
256,192,143417,1,8,0:0:0:0:
256,192,143583,1,0,0:0:0:0:
256,192,143667,1,0,0:0:0:0:
256,192,143750,1,0,0:0:0:0:
256,192,143917,1,0,0:0:0:0:
256,192,144083,1,8,0:0:0:0:
256,192,144250,1,0,0:0:0:0:
256,192,144417,1,8,0:0:0:0:
256,192,144750,1,8,0:0:0:0:
256,192,144833,1,8,0:0:0:0:
256,192,144917,1,8,0:0:0:0:
256,192,145083,1,0,0:0:0:0:
256,192,145250,1,8,0:0:0:0:
256,192,145417,1,8,0:0:0:0:
256,192,145583,1,0,0:0:0:0:
256,192,145750,1,8,0:0:0:0:
256,192,146083,1,8,0:0:0:0:
256,192,146250,1,8,0:0:0:0:
256,192,146417,1,0,0:0:0:0:
256,192,146500,1,0,0:0:0:0:
256,192,146583,1,0,0:0:0:0:
256,192,146750,1,0,0:0:0:0:
256,192,147083,1,8,0:0:0:0:
256,192,147417,1,8,0:0:0:0:
256,192,147583,1,8,0:0:0:0:
256,192,147750,1,0,0:0:0:0:
256,192,148083,1,0,0:0:0:0:
256,192,148250,1,0,0:0:0:0:
256,192,148417,1,8,0:0:0:0:
256,192,148750,1,8,0:0:0:0:
256,192,148917,1,0,0:0:0:0:
256,192,149000,1,0,0:0:0:0:
256,192,149083,1,0,0:0:0:0:
256,192,149250,1,8,0:0:0:0:
256,192,149417,1,0,0:0:0:0:
256,192,149583,1,0,0:0:0:0:
256,192,149750,1,8,0:0:0:0:
256,192,150083,1,8,0:0:0:0:
256,192,150167,1,8,0:0:0:0:
256,192,150250,1,8,0:0:0:0:
256,192,150417,1,0,0:0:0:0:
256,192,150750,1,0,0:0:0:0:
256,192,150917,1,0,0:0:0:0:
256,192,151083,1,8,0:0:0:0:
256,192,151250,1,0,0:0:0:0:
256,192,151417,1,8,0:0:0:0:
256,192,151583,1,8,0:0:0:0:
256,192,151917,1,8,0:0:0:0:
256,192,152083,1,0,0:0:0:0:
256,192,152167,1,0,0:0:0:0:
256,192,152250,1,0,0:0:0:0:
256,192,152417,1,8,0:0:0:0:
256,192,152750,1,0,0:0:0:0:
256,192,152833,1,0,0:0:0:0:
256,192,152917,1,0,0:0:0:0:
256,192,153083,1,12,0:0:0:0:
256,192,153583,1,0,0:0:0:0:
256,192,153750,1,8,0:0:0:0:
256,192,153917,1,0,0:0:0:0:
256,192,154083,1,8,0:0:0:0:
256,192,154250,1,8,0:0:0:0:
256,192,154583,1,0,0:0:0:0:
256,192,154750,1,8,0:0:0:0:
256,192,154917,1,0,0:0:0:0:
256,192,155083,1,8,0:0:0:0:
256,192,155417,1,8,0:0:0:0:
256,192,155500,1,8,0:0:0:0:
256,192,155583,1,8,0:0:0:0:
256,192,155750,1,0,0:0:0:0:
256,192,155917,1,8,0:0:0:0:
256,192,156083,1,0,0:0:0:0:
256,192,156250,1,0,0:0:0:0:
256,192,156417,1,8,0:0:0:0:
256,192,156750,1,8,0:0:0:0:
256,192,156917,1,8,0:0:0:0:
256,192,157083,1,0,0:0:0:0:
256,192,157167,1,0,0:0:0:0:
256,192,157250,1,0,0:0:0:0:
256,192,157417,1,0,0:0:0:0:
256,192,157750,1,8,0:0:0:0:
256,192,157917,1,0,0:0:0:0:
256,192,158083,1,8,0:0:0:0:
256,192,158250,1,8,0:0:0:0:
256,192,158417,1,0,0:0:0:0:
256,192,158750,1,0,0:0:0:0:
256,192,158917,1,0,0:0:0:0:
256,192,159083,1,8,0:0:0:0:
256,192,159417,1,8,0:0:0:0:
256,192,159583,1,0,0:0:0:0:
256,192,159667,1,0,0:0:0:0:
256,192,159750,1,0,0:0:0:0:
256,192,159917,1,8,0:0:0:0:
256,192,160083,1,0,0:0:0:0:
256,192,160250,1,0,0:0:0:0:
256,192,160417,1,8,0:0:0:0:
256,192,160750,1,8,0:0:0:0:
256,192,160833,1,8,0:0:0:0:
256,192,160917,1,8,0:0:0:0:
256,192,161083,1,0,0:0:0:0:
256,192,161417,1,0,0:0:0:0:
256,192,161500,1,0,0:0:0:0:
256,192,161583,1,0,0:0:0:0:
256,192,161750,1,8,0:0:0:0:
256,192,161917,1,0,0:0:0:0:
256,192,162083,1,8,0:0:0:0:
256,192,162250,1,8,0:0:0:0:
256,192,162583,1,8,0:0:0:0:
256,192,162750,1,0,0:0:0:0:
256,192,162833,1,0,0:0:0:0:
256,192,162917,1,0,0:0:0:0:
256,192,163083,1,8,0:0:0:0:
256,192,163417,1,8,0:0:0:0:
256,192,163583,1,8,0:0:0:0:
256,192,163750,1,0,0:0:0:0:
256,192,164250,1,0,0:0:0:0:
256,192,164417,1,8,0:0:0:0:
256,192,164583,1,0,0:0:0:0:
256,192,164750,1,8,0:0:0:0:
256,192,164917,1,0,0:0:0:0:
256,192,165000,1,0,0:0:0:0:
256,192,165083,1,0,0:0:0:0:
256,192,165250,1,0,0:0:0:0:
256,192,165417,1,8,0:0:0:0:
256,192,165583,1,0,0:0:0:0:
256,192,165750,1,8,0:0:0:0:
256,192,166083,1,8,0:0:0:0:
256,192,166167,1,8,0:0:0:0:
256,192,166250,1,8,0:0:0:0:
256,192,166417,1,0,0:0:0:0:
256,192,166583,1,8,0:0:0:0:
256,192,166750,1,8,0:0:0:0:
256,192,166917,1,0,0:0:0:0:
256,192,167083,1,8,0:0:0:0:
256,192,167417,1,8,0:0:0:0:
256,192,167583,1,8,0:0:0:0:
256,192,167750,1,0,0:0:0:0:
256,192,167833,1,0,0:0:0:0:
256,192,167917,1,0,0:0:0:0:
256,192,168083,1,8,0:0:0:0:
256,192,168250,1,0,0:0:0:0:
256,192,168417,1,8,0:0:0:0:
256,192,168750,1,8,0:0:0:0:
256,192,168917,1,8,0:0:0:0:
256,192,169083,1,0,0:0:0:0:
256,192,169417,1,0,0:0:0:0:
256,192,169583,1,0,0:0:0:0:
256,192,169750,1,8,0:0:0:0:
256,192,169917,1,0,0:0:0:0:
256,192,170083,1,8,0:0:0:0:
256,192,170250,1,0,0:0:0:0:
256,192,170333,1,0,0:0:0:0:
256,192,170417,1,0,0:0:0:0:
256,192,170583,1,8,0:0:0:0:
256,192,170750,1,0,0:0:0:0:
256,192,170917,1,0,0:0:0:0:
256,192,171083,1,8,0:0:0:0:
256,192,171417,1,8,0:0:0:0:
256,192,171500,1,8,0:0:0:0:
256,192,171583,1,8,0:0:0:0:
256,192,171750,1,0,0:0:0:0:
256,192,172083,1,0,0:0:0:0:
256,192,172250,1,0,0:0:0:0:
256,192,172417,1,8,0:0:0:0:
256,192,172583,1,0,0:0:0:0:
256,192,172667,1,0,0:0:0:0:
256,192,172750,1,0,0:0:0:0:
256,192,172917,1,8,0:0:0:0:
256,192,173250,1,8,0:0:0:0:
256,192,173417,1,0,0:0:0:0:
256,192,173500,1,0,0:0:0:0:
256,192,173583,1,0,0:0:0:0:
256,192,173750,1,8,0:0:0:0:
256,192,173917,1,0,0:0:0:0:
256,192,174083,1,0,0:0:0:0:
256,192,174167,1,0,0:0:0:0:
256,192,174250,1,0,0:0:0:0:
256,192,174417,1,12,0:0:0:0:
256,192,176250,1,0,0:0:0:0:
256,192,176750,1,8,0:0:0:0:
256,192,177083,1,4,0:0:0:0:
256,192,177250,1,8,0:0:0:0:
256,192,177417,1,8,0:0:0:0:
256,192,177750,1,0,0:0:0:0:
256,192,178083,1,0,0:0:0:0:
256,192,178250,1,8,0:0:0:0:
256,192,178583,1,0,0:0:0:0:
256,192,178917,1,0,0:0:0:0:
256,192,179083,1,8,0:0:0:0:
256,192,179417,1,8,0:0:0:0:
256,192,179750,1,4,0:0:0:0:
256,192,180250,1,12,0:0:0:0:
256,192,181083,1,4,0:0:0:0:
256,192,181583,1,12,0:0:0:0:
256,192,182083,1,12,0:0:0:0:
256,192,182417,1,4,0:0:0:0:
256,192,182583,1,8,0:0:0:0:
256,192,182750,1,8,0:0:0:0:
256,192,182917,1,0,0:0:0:0:
256,192,183417,1,0,0:0:0:0:
256,192,183917,1,8,0:0:0:0:
256,192,184167,1,8,0:0:0:0:
256,192,184417,1,0,0:0:0:0:
256,192,184583,1,8,0:0:0:0:
256,192,184667,1,8,0:0:0:0:
256,192,184750,1,8,0:0:0:0:
256,192,185083,1,12,0:0:0:0:
256,192,185417,1,8,0:0:0:0:
256,192,185583,1,0,0:0:0:0:
256,192,185667,1,0,0:0:0:0:
256,192,185750,1,0,0:0:0:0:
256,192,185917,1,0,0:0:0:0:
256,192,186083,1,8,0:0:0:0:
256,192,186250,1,0,0:0:0:0:
256,192,186333,1,0,0:0:0:0:
256,192,186417,1,0,0:0:0:0:
256,192,186583,1,0,0:0:0:0:
256,192,186750,1,8,0:0:0:0:
256,192,186917,1,0,0:0:0:0:
256,192,187250,1,0,0:0:0:0:
256,192,187417,1,8,0:0:0:0:
256,192,187500,1,8,0:0:0:0:
256,192,187583,1,8,0:0:0:0:
256,192,187750,1,0,0:0:0:0:
256,192,188083,1,8,0:0:0:0:
256,192,188583,1,0,0:0:0:0:
256,192,188750,1,8,0:0:0:0:
256,192,189083,1,0,0:0:0:0:
256,192,189250,1,0,0:0:0:0:
256,192,189417,1,8,0:0:0:0:
256,192,189583,1,0,0:0:0:0:
256,192,189750,1,0,0:0:0:0:
256,192,189833,1,0,0:0:0:0:
256,192,189917,1,0,0:0:0:0:
256,192,190083,1,8,0:0:0:0:
256,192,190250,1,8,0:0:0:0:
256,192,190417,1,0,0:0:0:0:
256,192,190750,1,8,0:0:0:0:
256,192,190917,1,8,0:0:0:0:
256,192,191083,1,0,0:0:0:0:
256,192,191250,1,8,0:0:0:0:
256,192,191333,1,8,0:0:0:0:
256,192,191417,1,8,0:0:0:0:
256,192,191583,1,0,0:0:0:0:
256,192,191750,1,0,0:0:0:0:
256,192,192083,1,8,0:0:0:0:
256,192,192250,1,0,0:0:0:0:
256,192,192333,1,0,0:0:0:0:
256,192,192417,1,0,0:0:0:0:
256,192,192583,1,0,0:0:0:0:
256,192,192750,1,8,0:0:0:0:
256,192,192917,1,8,0:0:0:0:
256,192,193083,1,0,0:0:0:0:
256,192,193417,1,8,0:0:0:0:
256,192,193500,1,8,0:0:0:0:
256,192,193583,1,8,0:0:0:0:
256,192,193750,1,0,0:0:0:0:
256,192,193917,1,0,0:0:0:0:
256,192,194083,1,8,0:0:0:0:
256,192,194417,1,0,0:0:0:0:
256,192,194500,1,0,0:0:0:0:
256,192,194583,1,0,0:0:0:0:
256,192,194750,1,8,0:0:0:0:
256,192,194917,1,0,0:0:0:0:
256,192,195083,1,8,0:0:0:0:
256,192,195250,1,8,0:0:0:0:
256,192,195417,1,8,0:0:0:0:
256,192,195500,1,8,0:0:0:0:
256,192,195583,1,8,0:0:0:0:
256,192,195750,1,0,0:0:0:0:
256,192,196083,1,8,0:0:0:0:
256,192,196250,1,0,0:0:0:0:
256,192,196333,1,0,0:0:0:0:
256,192,196417,1,0,0:0:0:0:
256,192,196583,1,0,0:0:0:0:
256,192,196750,1,8,0:0:0:0:
256,192,196917,1,0,0:0:0:0:
256,192,197000,1,0,0:0:0:0:
256,192,197083,1,0,0:0:0:0:
256,192,197250,1,0,0:0:0:0:
256,192,197417,1,8,0:0:0:0:
256,192,197583,1,0,0:0:0:0:
256,192,197917,1,0,0:0:0:0:
256,192,198083,1,8,0:0:0:0:
256,192,198167,1,8,0:0:0:0:
256,192,198250,1,8,0:0:0:0:
256,192,198417,1,0,0:0:0:0:
256,192,198750,1,8,0:0:0:0:
256,192,199250,1,0,0:0:0:0:
256,192,199417,1,8,0:0:0:0:
256,192,199750,1,0,0:0:0:0:
256,192,199833,1,0,0:0:0:0:
256,192,199917,1,0,0:0:0:0:
256,192,200083,1,8,0:0:0:0:
256,192,200250,1,0,0:0:0:0:
256,192,200333,1,0,0:0:0:0:
256,192,200417,1,0,0:0:0:0:
256,192,200583,1,0,0:0:0:0:
256,192,200750,1,8,0:0:0:0:
256,192,200917,1,0,0:0:0:0:
256,192,201083,1,8,0:0:0:0:
256,192,201417,1,8,0:0:0:0:
256,192,201583,1,8,0:0:0:0:
256,192,201667,1,8,0:0:0:0:
256,192,201750,1,8,0:0:0:0:
256,192,201917,1,8,0:0:0:0:
256,192,202083,1,0,0:0:0:0:
256,192,202250,1,0,0:0:0:0:
256,192,202333,1,0,0:0:0:0:
256,192,202417,1,0,0:0:0:0:
256,192,202583,1,0,0:0:0:0:
256,192,202750,1,8,0:0:0:0:
256,192,202917,1,0,0:0:0:0:
256,192,203250,1,0,0:0:0:0:
256,192,203417,1,8,0:0:0:0:
256,192,203583,1,0,0:0:0:0:
256,192,203667,1,0,0:0:0:0:
256,192,203750,1,0,0:0:0:0:
256,192,203917,1,8,0:0:0:0:
256,192,204250,1,8,0:0:0:0:
256,192,204583,1,0,0:0:0:0:
256,192,204750,1,8,0:0:0:0:
256,192,204917,1,0,0:0:0:0:
256,192,205083,1,8,0:0:0:0:
256,192,205167,1,8,0:0:0:0:
256,192,205250,1,8,0:0:0:0:
256,192,205417,1,0,0:0:0:0:
256,192,205583,1,8,0:0:0:0:
256,192,205750,1,8,0:0:0:0:
256,192,205917,1,0,0:0:0:0:
256,192,206083,1,8,0:0:0:0:
256,192,206250,1,0,0:0:0:0:
256,192,206417,1,12,0:0:0:0:
256,192,206583,8,0,214417,0:0:0:0:
