osu file format v14

[General]
AudioFilename: audio.mp3
AudioLeadIn: 0
PreviewTime: 104205
Countdown: 0
SampleSet: Soft
StackLeniency: 0.7
Mode: 3
LetterboxInBreaks: 0
SpecialStyle: 0
WidescreenStoryboard: 1

[Editor]
Bookmarks: 61691,83634,116548,133005
DistanceSpacing: 0.1
BeatDivisor: 4
GridSize: 32
TimelineZoom: 2.5

[Metadata]
Title:Cryptarithm
TitleUnicode:Cryptarithm
Artist:Sakuzyo
ArtistUnicode:削除
Creator:Gahyeonln
Version:Sava's BASIC
Source:maimai でらっくす PRiSM
Tags:7srefちほー perfect challenge maimai dx deluxe sega video game electronic instrumental KALEIDXSCOPE yoshimo かわく 鵜飼沙樹 あるてら Slowpoke104 Savageeeee
BeatmapID:5334380
BeatmapSetID:2433731

[Difficulty]
HPDrainRate:6
CircleSize:4
OverallDifficulty:6
ApproachRate:5
SliderMultiplier:1.4
SliderTickRate:1

[Events]
//Background and Video events
Video,1333,"Sakuzyo-Cryptarithmmaimai-BJU0E1.mp4"
0,0,"bg.jpg",0,0
//Break Periods
//Storyboard Layer 0 (Background)
//Storyboard Layer 1 (Fail)
//Storyboard Layer 2 (Pass)
//Storyboard Layer 3 (Foreground)
//Storyboard Layer 4 (Overlay)
//Storyboard Sound Samples

[TimingPoints]
2720,342.857142857143,4,2,1,100,1,0
38377,-100,4,2,1,100,0,1
49348,-100,4,2,1,100,0,0
105577,-100,4,2,1,100,0,1
127520,-100,4,2,1,100,0,0

[HitObjects]
64,192,2719,5,0,0:0:0:0:
448,192,2719,128,0,4091:0:0:0:0:
192,192,4091,128,0,4777:0:0:0:0:
320,192,4777,1,0,0:0:0:0:
64,192,5120,1,0,0:0:0:0:
448,192,5291,1,0,0:0:0:0:
192,192,5462,1,0,0:0:0:0:
64,192,5462,128,0,6834:0:0:0:0:
320,192,6834,128,0,8205:0:0:0:0:
192,192,8205,128,0,8805:0:0:0:0:
448,192,8805,128,0,9577:0:0:0:0:
320,192,9577,128,0,10262:0:0:0:0:
192,192,10262,128,0,10948:0:0:0:0:
64,192,10948,1,0,0:0:0:0:
448,192,10948,1,0,0:0:0:0:
320,192,11291,1,0,0:0:0:0:
192,192,11977,1,0,0:0:0:0:
448,192,12491,1,0,0:0:0:0:
64,192,13177,1,0,0:0:0:0:
320,192,13691,1,0,0:0:0:0:
192,192,14034,1,0,0:0:0:0:
448,192,14720,1,0,0:0:0:0:
64,192,15062,1,0,0:0:0:0:
320,192,15405,1,0,0:0:0:0:
192,192,15662,128,0,16091:0:0:0:0:
448,192,16091,128,0,16434:0:0:0:0:
192,192,16434,1,0,0:0:0:0:
64,192,16434,128,0,21920:0:0:0:0:
448,192,21920,1,0,0:0:0:0:
192,192,22262,1,0,0:0:0:0:
320,192,22605,1,0,0:0:0:0:
64,192,22948,1,0,0:0:0:0:
448,192,23291,1,0,0:0:0:0:
320,192,23634,1,0,0:0:0:0:
192,192,23977,1,0,0:0:0:0:
448,192,24320,1,0,0:0:0:0:
64,192,24662,1,0,0:0:0:0:
320,192,25005,1,0,0:0:0:0:
192,192,25348,1,0,0:0:0:0:
448,192,25691,1,0,0:0:0:0:
64,192,26034,1,0,0:0:0:0:
192,192,26377,1,0,0:0:0:0:
320,192,26720,1,0,0:0:0:0:
64,192,27062,1,0,0:0:0:0:
320,192,27405,1,0,0:0:0:0:
448,192,27405,128,0,27920:0:0:0:0:
192,192,27920,128,0,28434:0:0:0:0:
320,192,28434,128,0,28777:0:0:0:0:
64,192,28777,128,0,29291:0:0:0:0:
448,192,29291,128,0,29805:0:0:0:0:
192,192,29805,128,0,30148:0:0:0:0:
320,192,30148,128,0,30662:0:0:0:0:
64,192,30662,128,0,31177:0:0:0:0:
448,192,31177,128,0,31520:0:0:0:0:
192,192,31520,128,0,32034:0:0:0:0:
320,192,32034,1,0,0:0:0:0:
64,192,32205,128,0,32548:0:0:0:0:
448,192,32548,128,0,32891:0:0:0:0:
192,192,32891,128,0,33405:0:0:0:0:
320,192,33405,128,0,33920:0:0:0:0:
448,192,33920,128,0,34262:0:0:0:0:
64,192,34262,128,0,34777:0:0:0:0:
320,192,34777,128,0,35291:0:0:0:0:
192,192,35291,128,0,35634:0:0:0:0:
448,192,35634,128,0,36148:0:0:0:0:
320,192,36148,128,0,36662:0:0:0:0:
64,192,36662,128,0,37005:0:0:0:0:
448,192,37005,128,0,37520:0:0:0:0:
192,192,37520,1,0,0:0:0:0:
320,192,37691,128,0,38377:0:0:0:0:
64,192,38377,1,0,0:0:0:0:
448,192,38377,1,0,0:0:0:0:
192,192,38720,1,0,0:0:0:0:
320,192,39062,1,0,0:0:0:0:
64,192,39405,1,0,0:0:0:0:
448,192,39577,1,0,0:0:0:0:
192,192,39748,128,0,40091:0:0:0:0:
64,192,40091,128,0,40434:0:0:0:0:
320,192,40434,1,0,0:0:0:0:
192,192,40605,1,0,0:0:0:0:
448,192,40777,128,0,41120:0:0:0:0:
64,192,41120,1,0,0:0:0:0:
320,192,41462,1,0,0:0:0:0:
192,192,41805,1,0,0:0:0:0:
448,192,42148,1,0,0:0:0:0:
64,192,42320,1,0,0:0:0:0:
320,192,42662,1,0,0:0:0:0:
192,192,42834,128,0,43177:0:0:0:0:
448,192,43177,1,0,0:0:0:0:
64,192,43348,1,0,0:0:0:0:
320,192,43520,128,0,43862:0:0:0:0:
192,192,43862,1,0,0:0:0:0:
320,192,44205,1,0,0:0:0:0:
448,192,44548,1,0,0:0:0:0:
64,192,44891,1,0,0:0:0:0:
320,192,45062,1,0,0:0:0:0:
192,192,45234,128,0,45577:0:0:0:0:
448,192,45577,128,0,45920:0:0:0:0:
64,192,45920,1,0,0:0:0:0:
192,192,46091,1,0,0:0:0:0:
320,192,46262,128,0,46605:0:0:0:0:
64,192,46605,1,0,0:0:0:0:
448,192,46948,1,0,0:0:0:0:
192,192,47291,1,0,0:0:0:0:
320,192,47634,1,0,0:0:0:0:
64,192,47805,1,0,0:0:0:0:
448,192,48148,1,0,0:0:0:0:
192,192,48320,128,0,48662:0:0:0:0:
320,192,48662,1,0,0:0:0:0:
64,192,48834,128,0,49348:0:0:0:0:
320,192,49348,1,0,0:0:0:0:
448,192,49348,128,0,49862:0:0:0:0:
192,192,49862,128,0,50377:0:0:0:0:
320,192,50377,128,0,50720:0:0:0:0:
64,192,50720,128,0,51234:0:0:0:0:
448,192,51234,128,0,51748:0:0:0:0:
192,192,51748,128,0,52091:0:0:0:0:
320,192,52091,128,0,52605:0:0:0:0:
64,192,52605,128,0,53120:0:0:0:0:
448,192,53120,128,0,53462:0:0:0:0:
192,192,53462,128,0,53977:0:0:0:0:
320,192,53977,128,0,54491:0:0:0:0:
64,192,54491,1,0,0:0:0:0:
448,192,54662,1,0,0:0:0:0:
192,192,54834,128,0,55348:0:0:0:0:
320,192,55348,128,0,55862:0:0:0:0:
448,192,55862,128,0,56205:0:0:0:0:
64,192,56205,128,0,56720:0:0:0:0:
320,192,56720,128,0,57234:0:0:0:0:
192,192,57234,128,0,57577:0:0:0:0:
448,192,57577,128,0,58091:0:0:0:0:
320,192,58091,128,0,58605:0:0:0:0:
64,192,58605,128,0,58948:0:0:0:0:
448,192,58948,128,0,59634:0:0:0:0:
64,192,59634,128,0,60320:0:0:0:0:
320,192,60320,1,0,0:0:0:0:
448,192,60320,1,0,0:0:0:0:
192,192,60662,1,0,0:0:0:0:
320,192,60920,128,0,61348:0:0:0:0:
64,192,61348,128,0,61691:0:0:0:0:
448,192,61691,1,0,0:0:0:0:
320,192,61691,1,0,0:0:0:0:
192,192,62034,1,0,0:0:0:0:
64,192,62377,1,0,0:0:0:0:
448,192,62720,128,0,63062:0:0:0:0:
192,192,63062,128,0,63405:0:0:0:0:
320,192,63405,1,0,0:0:0:0:
64,192,63748,128,0,64091:0:0:0:0:
448,192,64091,128,0,64434:0:0:0:0:
64,192,64434,128,0,64777:0:0:0:0:
320,192,64777,1,0,0:0:0:0:
192,192,65120,128,0,65462:0:0:0:0:
64,192,65462,128,0,65805:0:0:0:0:
448,192,65805,1,0,0:0:0:0:
320,192,66148,1,0,0:0:0:0:
64,192,66491,128,0,66834:0:0:0:0:
320,192,66834,128,0,67177:0:0:0:0:
192,192,67177,128,0,67520:0:0:0:0:
448,192,67520,1,0,0:0:0:0:
64,192,67862,128,0,68205:0:0:0:0:
320,192,68205,128,0,68548:0:0:0:0:
448,192,68548,128,0,68891:0:0:0:0:
192,192,68891,1,0,0:0:0:0:
320,192,69234,128,0,69577:0:0:0:0:
192,192,69577,128,0,69920:0:0:0:0:
64,192,69920,128,0,70262:0:0:0:0:
448,192,70262,1,0,0:0:0:0:
192,192,70605,128,0,70948:0:0:0:0:
320,192,70948,1,0,0:0:0:0:
64,192,71291,1,0,0:0:0:0:
320,192,71634,1,0,0:0:0:0:
192,192,71977,1,0,0:0:0:0:
448,192,72320,1,0,0:0:0:0:
64,192,72662,128,0,73005:0:0:0:0:
320,192,73005,1,0,0:0:0:0:
192,192,73348,128,0,73691:0:0:0:0:
320,192,73691,128,0,74034:0:0:0:0:
448,192,74034,128,0,74377:0:0:0:0:
64,192,74377,1,0,0:0:0:0:
320,192,74720,128,0,75062:0:0:0:0:
192,192,75062,128,0,75405:0:0:0:0:
64,192,75405,128,0,75748:0:0:0:0:
448,192,75748,1,0,0:0:0:0:
192,192,76091,128,0,76434:0:0:0:0:
320,192,76434,128,0,76777:0:0:0:0:
64,192,76777,128,0,77120:0:0:0:0:
192,192,77120,1,0,0:0:0:0:
448,192,77462,128,0,77805:0:0:0:0:
192,192,77805,128,0,78148:0:0:0:0:
320,192,78148,128,0,78491:0:0:0:0:
64,192,78491,1,0,0:0:0:0:
192,192,78834,1,0,0:0:0:0:
448,192,79177,128,0,79520:0:0:0:0:
64,192,79520,128,0,79862:0:0:0:0:
320,192,79862,1,0,0:0:0:0:
192,192,80205,128,0,80548:0:0:0:0:
320,192,80548,128,0,80891:0:0:0:0:
448,192,80891,128,0,81234:0:0:0:0:
64,192,81234,1,0,0:0:0:0:
320,192,81577,128,0,81920:0:0:0:0:
192,192,81920,1,0,0:0:0:0:
448,192,82262,128,0,82605:0:0:0:0:
64,192,82605,1,0,0:0:0:0:
64,192,82948,128,0,83291:0:0:0:0:
320,192,83291,128,0,83634:0:0:0:0:
64,192,83634,1,0,0:0:0:0:
448,192,83634,128,0,83977:0:0:0:0:
192,192,83977,1,0,0:0:0:0:
320,192,84148,1,0,0:0:0:0:
192,192,84320,1,0,0:0:0:0:
64,192,84320,128,0,84662:0:0:0:0:
320,192,84662,128,0,85005:0:0:0:0:
192,192,85005,1,0,0:0:0:0:
448,192,85177,1,0,0:0:0:0:
64,192,85348,1,0,0:0:0:0:
320,192,85691,1,0,0:0:0:0:
448,192,85691,128,0,86034:0:0:0:0:
192,192,86034,128,0,86377:0:0:0:0:
320,192,86377,128,0,86720:0:0:0:0:
64,192,86720,1,0,0:0:0:0:
448,192,86891,1,0,0:0:0:0:
192,192,87062,1,0,0:0:0:0:
64,192,87062,128,0,87405:0:0:0:0:
320,192,87405,1,0,0:0:0:0:
192,192,87577,1,0,0:0:0:0:
448,192,87748,1,0,0:0:0:0:
64,192,88091,1,0,0:0:0:0:
448,192,88434,1,0,0:0:0:0:
320,192,88434,128,0,88777:0:0:0:0:
64,192,88777,128,0,89120:0:0:0:0:
448,192,89120,128,0,89462:0:0:0:0:
192,192,89462,1,0,0:0:0:0:
320,192,89634,1,0,0:0:0:0:
192,192,89805,1,0,0:0:0:0:
64,192,89805,128,0,90148:0:0:0:0:
320,192,90148,128,0,90491:0:0:0:0:
192,192,90491,1,0,0:0:0:0:
448,192,90662,1,0,0:0:0:0:
192,192,90834,1,0,0:0:0:0:
64,192,90834,1,0,0:0:0:0:
320,192,91177,1,0,0:0:0:0:
448,192,91177,128,0,91520:0:0:0:0:
64,192,91520,128,0,91862:0:0:0:0:
320,192,91862,128,0,92205:0:0:0:0:
192,192,92205,1,0,0:0:0:0:
448,192,92377,1,0,0:0:0:0:
64,192,92548,1,0,0:0:0:0:
192,192,92548,128,0,92891:0:0:0:0:
320,192,92891,1,0,0:0:0:0:
64,192,93234,1,0,0:0:0:0:
192,192,93405,1,0,0:0:0:0:
320,192,93577,1,0,0:0:0:0:
448,192,93577,1,0,0:0:0:0:
64,192,93920,1,0,0:0:0:0:
192,192,93920,128,0,94262:0:0:0:0:
320,192,94262,128,0,94605:0:0:0:0:
448,192,94605,1,0,0:0:0:0:
64,192,94605,128,0,94948:0:0:0:0:
320,192,94948,1,0,0:0:0:0:
192,192,95120,1,0,0:0:0:0:
320,192,95291,128,0,95634:0:0:0:0:
448,192,95291,1,0,0:0:0:0:
192,192,95634,1,0,0:0:0:0:
64,192,95805,1,0,0:0:0:0:
448,192,95805,128,0,96148:0:0:0:0:
320,192,96148,1,0,0:0:0:0:
192,192,96320,1,0,0:0:0:0:
64,192,96320,1,0,0:0:0:0:
448,192,96662,1,0,0:0:0:0:
320,192,96662,128,0,97005:0:0:0:0:
192,192,97005,128,0,97348:0:0:0:0:
448,192,97348,1,0,0:0:0:0:
64,192,97348,128,0,97691:0:0:0:0:
320,192,97691,1,0,0:0:0:0:
192,192,97862,1,0,0:0:0:0:
320,192,98034,1,0,0:0:0:0:
448,192,98034,1,0,0:0:0:0:
64,192,98462,1,0,0:0:0:0:
320,192,98548,128,0,98891:0:0:0:0:
448,192,98891,1,0,0:0:0:0:
64,192,99062,1,0,0:0:0:0:
192,192,99062,1,0,0:0:0:0:
320,192,99405,1,0,0:0:0:0:
448,192,99405,128,0,99748:0:0:0:0:
64,192,99748,128,0,100091:0:0:0:0:
320,192,100091,128,0,100434:0:0:0:0:
192,192,100434,1,0,0:0:0:0:
448,192,100605,1,0,0:0:0:0:
192,192,100777,1,0,0:0:0:0:
64,192,100777,1,0,0:0:0:0:
320,192,101120,128,0,101462:0:0:0:0:
64,192,101462,128,0,101805:0:0:0:0:
320,192,101805,1,0,0:0:0:0:
448,192,101805,1,0,0:0:0:0:
192,192,102148,1,0,0:0:0:0:
64,192,102148,1,0,0:0:0:0:
320,192,102491,128,0,102834:0:0:0:0:
448,192,102834,128,0,103177:0:0:0:0:
64,192,102834,1,0,0:0:0:0:
192,192,103177,1,0,0:0:0:0:
320,192,103348,1,0,0:0:0:0:
192,192,103520,1,0,0:0:0:0:
64,192,103520,128,0,103862:0:0:0:0:
320,192,103862,128,0,104205:0:0:0:0:
192,192,104205,1,0,0:0:0:0:
448,192,104548,1,0,0:0:0:0:
448,192,104805,128,0,105234:0:0:0:0:
64,192,105234,128,0,105577:0:0:0:0:
320,192,105577,1,0,0:0:0:0:
448,192,105577,1,0,0:0:0:0:
192,192,105920,1,0,0:0:0:0:
320,192,105920,1,0,0:0:0:0:
64,192,106262,1,0,0:0:0:0:
192,192,106262,1,0,0:0:0:0:
320,192,106605,1,0,0:0:0:0:
192,192,106777,128,0,107120:0:0:0:0:
448,192,107120,1,0,0:0:0:0:
64,192,107291,128,0,107634:0:0:0:0:
320,192,107634,128,0,107977:0:0:0:0:
192,192,107977,128,0,108320:0:0:0:0:
448,192,108320,1,0,0:0:0:0:
64,192,108320,1,0,0:0:0:0:
192,192,108662,1,0,0:0:0:0:
64,192,108662,1,0,0:0:0:0:
192,192,109005,1,0,0:0:0:0:
320,192,109005,1,0,0:0:0:0:
448,192,109348,1,0,0:0:0:0:
64,192,109520,128,0,109862:0:0:0:0:
320,192,109862,1,0,0:0:0:0:
192,192,110034,128,0,110377:0:0:0:0:
448,192,110377,1,0,0:0:0:0:
64,192,110548,1,0,0:0:0:0:
320,192,110720,128,0,111062:0:0:0:0:
64,192,111062,1,0,0:0:0:0:
192,192,111062,1,0,0:0:0:0:
192,192,111405,1,0,0:0:0:0:
320,192,111405,1,0,0:0:0:0:
320,192,111748,1,0,0:0:0:0:
448,192,111748,1,0,0:0:0:0:
64,192,112091,1,0,0:0:0:0:
320,192,112262,128,0,112605:0:0:0:0:
192,192,112605,1,0,0:0:0:0:
448,192,112777,128,0,113120:0:0:0:0:
64,192,113120,1,0,0:0:0:0:
192,192,113291,1,0,0:0:0:0:
320,192,113462,128,0,113805:0:0:0:0:
64,192,113805,1,0,0:0:0:0:
448,192,113805,1,0,0:0:0:0:
192,192,114148,1,0,0:0:0:0:
448,192,114148,1,0,0:0:0:0:
192,192,114491,1,0,0:0:0:0:
64,192,114491,1,0,0:0:0:0:
320,192,114834,1,0,0:0:0:0:
192,192,115005,1,0,0:0:0:0:
448,192,115177,128,0,115520:0:0:0:0:
64,192,115520,128,0,115862:0:0:0:0:
320,192,115862,128,0,116205:0:0:0:0:
192,192,116205,128,0,116548:0:0:0:0:
64,192,116548,1,0,0:0:0:0:
448,192,116548,1,0,0:0:0:0:
320,192,116891,1,0,0:0:0:0:
448,192,116891,1,0,0:0:0:0:
192,192,117234,1,0,0:0:0:0:
320,192,117234,1,0,0:0:0:0:
64,192,117577,1,0,0:0:0:0:
448,192,117748,128,0,118091:0:0:0:0:
192,192,118091,1,0,0:0:0:0:
320,192,118262,128,0,118605:0:0:0:0:
64,192,118605,1,0,0:0:0:0:
448,192,118777,1,0,0:0:0:0:
192,192,118948,128,0,119291:0:0:0:0:
320,192,119291,1,0,0:0:0:0:
448,192,119291,1,0,0:0:0:0:
192,192,119634,1,0,0:0:0:0:
320,192,119634,1,0,0:0:0:0:
192,192,119977,1,0,0:0:0:0:
64,192,119977,1,0,0:0:0:0:
448,192,120320,1,0,0:0:0:0:
192,192,120491,128,0,120834:0:0:0:0:
320,192,120834,1,0,0:0:0:0:
64,192,121005,128,0,121348:0:0:0:0:
448,192,121348,1,0,0:0:0:0:
320,192,121520,1,0,0:0:0:0:
192,192,121691,128,0,122034:0:0:0:0:
64,192,122034,1,0,0:0:0:0:
448,192,122034,1,0,0:0:0:0:
64,192,122377,1,0,0:0:0:0:
320,192,122377,1,0,0:0:0:0:
320,192,122720,1,0,0:0:0:0:
448,192,122720,1,0,0:0:0:0:
192,192,123062,1,0,0:0:0:0:
320,192,123234,1,0,0:0:0:0:
192,192,123405,1,0,0:0:0:0:
64,192,123405,128,0,123748:0:0:0:0:
448,192,123748,128,0,124091:0:0:0:0:
192,192,124091,128,0,124434:0:0:0:0:
320,192,124434,128,0,124777:0:0:0:0:
192,192,124777,1,0,0:0:0:0:
64,192,124777,128,0,125120:0:0:0:0:
448,192,125120,128,0,125462:0:0:0:0:
64,192,125462,128,0,125805:0:0:0:0:
320,192,125805,1,0,0:0:0:0:
192,192,125977,1,0,0:0:0:0:
64,192,126148,1,0,0:0:0:0:
448,192,126148,1,0,0:0:0:0:
320,192,126405,1,0,0:0:0:0:
192,192,126662,1,0,0:0:0:0:
448,192,126834,128,0,127177:0:0:0:0:
64,192,127177,128,0,127520:0:0:0:0:
448,192,127520,1,0,0:0:0:0:
320,192,127520,1,0,0:0:0:0:
192,192,127777,1,0,0:0:0:0:
448,192,128034,1,0,0:0:0:0:
64,192,128291,1,0,0:0:0:0:
320,192,128548,1,0,0:0:0:0:
192,192,128720,1,0,0:0:0:0:
448,192,128891,1,0,0:0:0:0:
64,192,129148,1,0,0:0:0:0:
192,192,129405,1,0,0:0:0:0:
320,192,129662,1,0,0:0:0:0:
64,192,129920,1,0,0:0:0:0:
448,192,130091,1,0,0:0:0:0:
192,192,130262,1,0,0:0:0:0:
320,192,130520,1,0,0:0:0:0:
192,192,130777,1,0,0:0:0:0:
64,192,131034,1,0,0:0:0:0:
448,192,131291,1,0,0:0:0:0:
192,192,131462,1,0,0:0:0:0:
320,192,131634,1,0,0:0:0:0:
64,192,131891,1,0,0:0:0:0:
448,192,132148,1,0,0:0:0:0:
192,192,132405,1,0,0:0:0:0:
320,192,132662,1,0,0:0:0:0:
64,192,132834,1,0,0:0:0:0:
448,192,133005,1,0,0:0:0:0:
192,192,133262,1,0,0:0:0:0:
320,192,133520,1,0,0:0:0:0:
64,192,133777,1,0,0:0:0:0:
448,192,134034,1,0,0:0:0:0:
192,192,134205,1,0,0:0:0:0:
320,192,134377,1,0,0:0:0:0:
64,192,134634,1,0,0:0:0:0:
192,192,134891,1,0,0:0:0:0:
448,192,135148,1,0,0:0:0:0:
64,192,135405,1,0,0:0:0:0:
320,192,135577,1,0,0:0:0:0:
192,192,135748,1,0,0:0:0:0:
448,192,136005,1,0,0:0:0:0:
320,192,136262,1,0,0:0:0:0:
192,192,136520,1,0,0:0:0:0:
448,192,136777,1,0,0:0:0:0:
64,192,136948,1,0,0:0:0:0:
320,192,137120,1,0,0:0:0:0:
192,192,137377,1,0,0:0:0:0:
320,192,137634,1,0,0:0:0:0:
448,192,137805,128,0,138148:0:0:0:0:
64,192,138148,1,0,0:0:0:0:
192,192,138320,1,0,0:0:0:0:
320,192,138491,1,0,0:0:0:0:
448,192,138491,1,0,0:0:0:0:
64,192,138748,1,0,0:0:0:0:
320,192,139005,1,0,0:0:0:0:
192,192,139262,1,0,0:0:0:0:
448,192,139520,128,0,139862:0:0:0:0:
64,192,139862,1,0,0:0:0:0:
320,192,140120,1,0,0:0:0:0:
192,192,140377,1,0,0:0:0:0:
448,192,140634,1,0,0:0:0:0:
64,192,140891,128,0,141234:0:0:0:0:
448,192,141234,1,0,0:0:0:0:
192,192,141491,1,0,0:0:0:0:
320,192,141748,1,0,0:0:0:0:
64,192,142005,1,0,0:0:0:0:
320,192,142262,128,0,142605:0:0:0:0:
192,192,142605,1,0,0:0:0:0:
448,192,142862,1,0,0:0:0:0:
64,192,143120,1,0,0:0:0:0:
320,192,143291,1,0,0:0:0:0:
192,192,143462,1,0,0:0:0:0:
448,192,143634,128,0,143977:0:0:0:0:
64,192,143977,1,0,0:0:0:0:
320,192,144234,1,0,0:0:0:0:
192,192,144491,1,0,0:0:0:0:
448,192,144748,1,0,0:0:0:0:
64,192,145005,128,0,145348:0:0:0:0:
320,192,145348,1,0,0:0:0:0:
192,192,145605,1,0,0:0:0:0:
448,192,145862,1,0,0:0:0:0:
64,192,146120,1,0,0:0:0:0:
320,192,146377,1,0,0:0:0:0:
192,192,146548,1,0,0:0:0:0:
64,192,146720,1,0,0:0:0:0:
448,192,146977,1,0,0:0:0:0:
192,192,147234,1,0,0:0:0:0:
320,192,147491,1,0,0:0:0:0:
64,192,147748,1,0,0:0:0:0:
192,192,147920,1,0,0:0:0:0:
448,192,148091,1,0,0:0:0:0:
320,192,148091,1,0,0:0:0:0:
64,192,148348,1,0,0:0:0:0:
192,192,148348,1,0,0:0:0:0:
320,192,148605,1,0,0:0:0:0:
448,192,148605,1,0,0:0:0:0:
