osu file format v14

[General]
AudioFilename: audio.mp3
AudioLeadIn: 0
PreviewTime: 78045
Countdown: 0
SampleSet: Normal
StackLeniency: 0.7
Mode: 3
LetterboxInBreaks: 0
SpecialStyle: 0
WidescreenStoryboard: 1

[Editor]
Bookmarks: 95038,134141,164742
DistanceSpacing: 0.9
BeatDivisor: 4
GridSize: 4
TimelineZoom: 2

[Metadata]
Title:AngelFalse
TitleUnicode:AngelFalse
Artist:Sakuzyo
ArtistUnicode:Sakuzyo
Creator:Linyx-sama
Version:Syadow of Lie (SV)
Source:Deemo
Tags:Ari_Knight Syadow- Another_Lie lombit dionzz99 Unknown_Player MEGAtive Nixeria-sama chouyaa Ridho_2307
BeatmapID:1319781
BeatmapSetID:619596

[Difficulty]
HPDrainRate:8.4
CircleSize:5
OverallDifficulty:5.6
ApproachRate:5
SliderMultiplier:1.4
SliderTickRate:1

[Events]
//Background and Video events
0,0,"BG Sya x Lie.jpg",0,0
//Break Periods
//Storyboard Layer 0 (Background)
//Storyboard Layer 1 (Fail)
//Storyboard Layer 2 (Pass)
//Storyboard Layer 3 (Foreground)
//Storyboard Sound Samples

[TimingPoints]
0,0.3,1,1,0,37,1,0
2,60000000,4,1,0,25,1,0
7,3.32903225806452,4,1,0,25,1,0
8,0.3,1,1,0,37,1,0
10,60000000,4,1,0,25,1,0
15,0.707818930041152,4,1,0,25,1,0
16,0.3,1,1,0,37,1,0
18,60000000,4,1,0,25,1,0
19,346.820809248555,3,1,0,37,1,0
23,2.93181818181818,4,1,0,25,1,0
24,0.3,1,1,0,37,1,0
26,60000000,4,1,0,25,1,0
31,0.728813559322034,4,1,0,25,1,0
32,0.3,1,1,0,37,1,0
34,60000000,4,1,0,25,1,0
39,1.98461538461538,4,1,0,25,1,0
40,0.3,1,1,0,37,1,0
42,60000000,4,1,0,25,1,0
47,1.22565320665083,4,1,0,25,1,0
48,0.3,1,1,0,37,1,0
50,60000000,4,1,0,25,1,0
55,0.736091298145506,4,1,0,25,1,0
56,0.3,1,1,0,37,1,0
58,60000000,4,1,0,25,1,0
63,0.994219653179191,4,1,0,25,1,0
64,0.3,1,1,0,37,1,0
66,60000000,4,1,0,25,1,0
71,3.18518518518519,4,1,0,25,1,0
72,0.3,1,1,0,37,1,0
74,60000000,4,1,0,25,1,0
79,0.943327239488117,4,1,0,25,1,0
80,0.3,1,1,0,37,1,0
82,60000000,4,1,0,25,1,0
87,0.955555555555556,4,1,0,25,1,0
88,0.3,1,1,0,37,1,0
90,60000000,4,1,0,25,1,0
95,1.59752321981424,4,1,0,25,1,0
96,0.3,1,1,0,37,1,0
98,60000000,4,1,0,25,1,0
103,6.61538461538462,4,1,0,25,1,0
104,0.3,1,1,0,37,1,0
106,60000000,4,1,0,25,1,0
111,0.897391304347826,4,1,0,25,1,0
112,0.3,1,1,0,37,1,0
114,60000000,4,1,0,25,1,0
119,1.5,4,1,0,25,1,0
120,0.3,1,1,0,37,1,0
122,60000000,4,1,0,25,1,0
127,0.694481830417227,4,1,0,25,1,0
128,0.3,1,1,0,37,1,0
130,60000000,4,1,0,25,1,0
135,0.968105065666041,4,1,0,25,1,0
136,0.3,1,1,0,37,1,0
138,60000000,4,1,0,25,1,0
143,0.694481830417227,4,1,0,25,1,0
144,0.3,1,1,0,37,1,0
146,60000000,4,1,0,25,1,0
151,2.15899581589958,4,1,0,25,1,0
152,0.3,1,1,0,37,1,0
154,60000000,4,1,0,25,1,0
159,0.694481830417227,4,1,0,25,1,0
160,0.3,1,1,0,37,1,0
162,60000000,4,1,0,25,1,0
167,1.0078125,4,1,0,25,1,0
168,0.3,1,1,0,37,1,0
170,60000000,4,1,0,25,1,0
175,1.70860927152318,4,1,0,25,1,0
176,0.3,1,1,0,37,1,0
178,60000000,4,1,0,25,1,0
183,0.876061120543294,4,1,0,25,1,0
184,0.3,1,1,0,37,1,0
186,60000000,4,1,0,25,1,0
191,1.02178217821782,4,1,0,25,1,0
192,0.3,1,1,0,37,1,0
194,60000000,4,1,0,25,1,0
199,0.855721393034826,4,1,0,25,1,0
200,0.3,1,1,0,37,1,0
202,60000000,4,1,0,25,1,0
207,0.865771812080537,4,1,0,25,1,0
208,0.3,1,1,0,37,1,0
210,60000000,4,1,0,25,1,0
215,8.0625,4,1,0,25,1,0
216,0.3,1,1,0,37,1,0
218,60000000,4,1,0,25,1,0
223,4.3,4,1,0,25,1,0
224,0.3,1,1,0,37,1,0
226,60000000,4,1,0,25,1,0
231,0.694481830417227,4,1,0,25,1,0
232,0.3,1,1,0,37,1,0
234,60000000,4,1,0,25,1,0
239,1.44134078212291,4,1,0,25,1,0
240,0.3,1,1,0,37,1,0
242,60000000,4,1,0,25,1,0
247,0.694481830417227,4,1,0,25,1,0
248,0.3,1,1,0,37,1,0
250,60000000,4,1,0,25,1,0
255,1.79166666666667,4,1,0,25,1,0
256,0.3,1,1,0,37,1,0
258,60000000,4,1,0,25,1,0
263,3.05325443786982,4,1,0,25,1,0
264,0.3,1,1,0,37,1,0
266,60000000,4,1,0,25,1,0
271,0.791411042944785,4,1,0,25,1,0
272,0.3,1,1,0,37,1,0
274,60000000,4,1,0,25,1,0
279,0.808777429467085,4,1,0,25,1,0
280,0.3,1,1,0,37,1,0
282,60000000,4,1,0,25,1,0
287,0.694481830417227,4,1,0,25,1,0
288,0.3,1,1,0,37,1,0
290,60000000,4,1,0,25,1,0
295,1.05091649694501,4,1,0,25,1,0
296,0.3,1,1,0,37,1,0
298,60000000,4,1,0,25,1,0
303,0.728813559322034,4,1,0,25,1,0
304,0.3,1,1,0,37,1,0
306,60000000,4,1,0,25,1,0
311,0.694481830417227,4,1,0,25,1,0
312,0.3,1,1,0,37,1,0
314,60000000,4,1,0,25,1,0
319,0.694481830417227,4,1,0,25,1,0
320,0.3,1,1,0,37,1,0
322,60000000,4,1,0,25,1,0
327,0.758823529411765,4,1,0,25,1,0
328,0.3,1,1,0,37,1,0
330,60000000,4,1,0,25,1,0
335,0.980988593155894,4,1,0,25,1,0
336,0.3,1,1,0,37,1,0
338,60000000,4,1,0,25,1,0
343,5.60869565217391,4,1,0,25,1,0
344,0.3,1,1,0,37,1,0
346,60000000,4,1,0,25,1,0
351,0.694481830417227,4,1,0,25,1,0
352,0.3,1,1,0,37,1,0
354,60000000,4,1,0,25,1,0
359,1.13157894736842,4,1,0,25,1,0
360,0.3,1,1,0,37,1,0
362,60000000,4,1,0,25,1,0
367,0.8,4,1,0,25,1,0
368,0.3,1,1,0,37,1,0
370,60000000,4,1,0,25,1,0
375,0.694481830417227,4,1,0,25,1,0
376,0.3,1,1,0,37,1,0
378,60000000,4,1,0,25,1,0
383,0.694481830417227,4,1,0,25,1,0
384,0.3,1,1,0,37,1,0
386,60000000,4,1,0,25,1,0
391,0.88659793814433,4,1,0,25,1,0
392,0.3,1,1,0,37,1,0
394,60000000,4,1,0,25,1,0
399,1.53115727002967,4,1,0,25,1,0
400,0.3,1,1,0,37,1,0
402,60000000,4,1,0,25,1,0
407,0.694481830417227,4,1,0,25,1,0
408,0.3,1,1,0,37,1,0
410,60000000,4,1,0,25,1,0
415,0.694481830417227,4,1,0,25,1,0
416,0.3,1,1,0,37,1,0
418,60000000,4,1,0,25,1,0
423,2.09756097560976,4,1,0,25,1,0
424,0.3,1,1,0,37,1,0
426,60000000,4,1,0,25,1,0
431,0.955555555555556,4,1,0,25,1,0
432,0.3,1,1,0,37,1,0
434,60000000,4,1,0,25,1,0
439,0.694481830417227,4,1,0,25,1,0
440,0.3,1,1,0,37,1,0
442,60000000,4,1,0,25,1,0
447,0.855721393034826,4,1,0,25,1,0
448,0.3,1,1,0,37,1,0
450,60000000,4,1,0,25,1,0
455,2.52941176470588,4,1,0,25,1,0
456,0.3,1,1,0,37,1,0
458,60000000,4,1,0,25,1,0
463,0.701086956521739,4,1,0,25,1,0
464,0.3,1,1,0,37,1,0
466,60000000,4,1,0,25,1,0
471,1.98461538461538,4,1,0,25,1,0
472,0.3,1,1,0,37,1,0
474,60000000,4,1,0,25,1,0
479,2.81967213114754,4,1,0,25,1,0
480,0.3,1,1,0,37,1,0
482,60000000,4,1,0,25,1,0
487,1.47008547008547,4,1,0,25,1,0
488,0.3,1,1,0,37,1,0
490,60000000,4,1,0,25,1,0
495,0.955555555555556,4,1,0,25,1,0
496,0.3,1,1,0,37,1,0
498,60000000,4,1,0,25,1,0
503,0.721678321678322,4,1,0,25,1,0
504,0.3,1,1,0,37,1,0
506,60000000,4,1,0,25,1,0
511,0.694481830417227,4,1,0,25,1,0
512,0.3,1,1,0,37,1,0
514,60000000,4,1,0,25,1,0
519,1.26781326781327,4,1,0,25,1,0
520,0.3,1,1,0,37,1,0
522,60000000,4,1,0,25,1,0
527,1.08176100628931,4,1,0,25,1,0
528,0.3,1,1,0,37,1,0
530,60000000,4,1,0,25,1,0
535,1.74915254237288,4,1,0,25,1,0
536,0.3,1,1,0,37,1,0
538,60000000,4,1,0,25,1,0
543,1.93258426966292,4,1,0,25,1,0
544,0.3,1,1,0,37,1,0
546,60000000,4,1,0,25,1,0
551,1.20560747663551,4,1,0,25,1,0
552,0.3,1,1,0,37,1,0
554,60000000,4,1,0,25,1,0
559,0.694481830417227,4,1,0,25,1,0
560,0.3,1,1,0,37,1,0
562,60000000,4,1,0,25,1,0
567,2.61928934010152,4,1,0,25,1,0
568,0.3,1,1,0,37,1,0
570,60000000,4,1,0,25,1,0
575,2.61928934010152,4,1,0,25,1,0
576,0.3,1,1,0,37,1,0
578,60000000,4,1,0,25,1,0
583,0.694481830417227,4,1,0,25,1,0
584,0.3,1,1,0,37,1,0
586,60000000,4,1,0,25,1,0
591,3.85074626865672,4,1,0,25,1,0
592,0.3,1,1,0,37,1,0
594,60000000,4,1,0,25,1,0
599,3.48648648648649,4,1,0,25,1,0
600,0.3,1,1,0,37,1,0
602,60000000,4,1,0,25,1,0
607,4.86792452830189,4,1,0,25,1,0
608,0.3,1,1,0,37,1,0
610,60000000,4,1,0,25,1,0
615,1.79166666666667,4,1,0,25,1,0
616,0.6,4,1,0,25,1,0
618,60000000,4,1,0,25,1,0
623,6.61538461538462,4,1,0,25,1,0
624,0.3,1,1,0,37,1,0
626,60000000,4,1,0,25,1,0
631,0.721678321678322,4,1,0,25,1,0
632,0.3,1,1,0,37,1,0
634,60000000,4,1,0,25,1,0
639,4.56637168141593,4,1,0,25,1,0
640,0.3,1,1,0,37,1,0
642,60000000,4,1,0,25,1,0
647,2.09756097560976,4,1,0,25,1,0
648,0.3,1,1,0,37,1,0
650,60000000,4,1,0,25,1,0
655,0.736091298145506,4,1,0,25,1,0
656,0.3,1,1,0,37,1,0
658,60000000,4,1,0,25,1,0
663,1.88321167883212,4,1,0,25,1,0
664,0.3,1,1,0,37,1,0
666,60000000,4,1,0,25,1,0
671,0.694481830417227,4,1,0,25,1,0
672,0.3,1,1,0,37,1,0
674,60000000,4,1,0,25,1,0
679,3.05325443786982,4,1,0,25,1,0
680,0.3,1,1,0,37,1,0
682,60000000,4,1,0,25,1,0
687,1.29,4,1,0,25,1,0
688,0.3,1,1,0,37,1,0
690,60000000,4,1,0,25,1,0
695,1.63291139240506,4,1,0,25,1,0
696,0.3,1,1,0,37,1,0
698,60000000,4,1,0,25,1,0
703,0.694481830417227,4,1,0,25,1,0
704,0.3,1,1,0,37,1,0
706,60000000,4,1,0,25,1,0
711,1.02178217821782,4,1,0,25,1,0
712,0.3,1,1,0,37,1,0
714,60000000,4,1,0,25,1,0
719,0.931407942238267,4,1,0,25,1,0
720,0.3,1,1,0,37,1,0
722,60000000,4,1,0,25,1,0
727,0.701086956521739,4,1,0,25,1,0
728,0.3,1,1,0,37,1,0
730,60000000,4,1,0,25,1,0
735,0.968105065666041,4,1,0,25,1,0
736,0.3,1,1,0,37,1,0
738,60000000,4,1,0,25,1,0
743,1.20560747663551,4,1,0,25,1,0
744,0.3,1,1,0,37,1,0
746,60000000,4,1,0,25,1,0
751,0.694481830417227,4,1,0,25,1,0
752,0.3,1,1,0,37,1,0
754,60000000,4,1,0,25,1,0
759,1.66990291262136,4,1,0,25,1,0
760,0.3,1,1,0,37,1,0
762,60000000,4,1,0,25,1,0
767,2.44549763033175,4,1,0,25,1,0
768,0.3,1,1,0,37,1,0
770,60000000,4,1,0,25,1,0
775,2.93181818181818,4,1,0,25,1,0
776,0.3,1,1,0,37,1,0
778,60000000,4,1,0,25,1,0
783,0.701086956521739,4,1,0,25,1,0
784,0.3,1,1,0,37,1,0
786,60000000,4,1,0,25,1,0
791,1.08176100628931,4,1,0,25,1,0
792,0.3,1,1,0,37,1,0
794,60000000,4,1,0,25,1,0
799,2.52941176470588,4,1,0,25,1,0
800,0.3,1,1,0,37,1,0
802,60000000,4,1,0,25,1,0
807,1.2463768115942,4,1,0,25,1,0
808,0.3,1,1,0,37,1,0
810,60000000,4,1,0,25,1,0
815,2.22413793103448,4,1,0,25,1,0
816,0.3,1,1,0,37,1,0
818,60000000,4,1,0,25,1,0
823,2.15899581589958,4,1,0,25,1,0
824,0.3,1,1,0,37,1,0
826,60000000,4,1,0,25,1,0
831,2.03952569169961,4,1,0,25,1,0
832,0.3,1,1,0,37,1,0
834,60000000,4,1,0,25,1,0
839,0.694481830417227,4,1,0,25,1,0
840,0.3,1,1,0,37,1,0
842,60000000,4,1,0,25,1,0
847,0.694481830417227,4,1,0,25,1,0
848,0.3,1,1,0,37,1,0
850,60000000,4,1,0,25,1,0
855,0.919786096256685,4,1,0,25,1,0
856,0.3,1,1,0,37,1,0
858,60000000,4,1,0,25,1,0
863,0.694481830417227,4,1,0,25,1,0
864,0.3,1,1,0,37,1,0
866,60000000,4,1,0,25,1,0
871,0.766716196136701,4,1,0,25,1,0
872,0.3,1,1,0,37,1,0
874,60000000,4,1,0,25,1,0
879,4.86792452830189,4,1,0,25,1,0
880,0.3,1,1,0,37,1,0
882,60000000,4,1,0,25,1,0
887,0.865771812080537,4,1,0,25,1,0
888,0.3,1,1,0,37,1,0
890,60000000,4,1,0,25,1,0
895,0.694481830417227,4,1,0,25,1,0
896,0.3,1,1,0,37,1,0
898,60000000,4,1,0,25,1,0
903,1.5,4,1,0,25,1,0
904,0.3,1,1,0,37,1,0
906,60000000,4,1,0,25,1,0
911,1.74915254237288,4,1,0,25,1,0
912,0.3,1,1,0,37,1,0
914,60000000,4,1,0,25,1,0
919,0.694481830417227,4,1,0,25,1,0
920,0.3,1,1,0,37,1,0
922,60000000,4,1,0,25,1,0
927,12,4,1,0,25,1,0
928,0.3,1,1,0,37,1,0
930,60000000,4,1,0,25,1,0
935,1.08176100628931,4,1,0,25,1,0
936,0.3,1,1,0,37,1,0
938,60000000,4,1,0,25,1,0
943,0.694481830417227,4,1,0,25,1,0
944,0.3,1,1,0,37,1,0
946,60000000,4,1,0,25,1,0
951,2.61928934010152,4,1,0,25,1,0
952,0.3,1,1,0,37,1,0
954,60000000,4,1,0,25,1,0
959,0.743515850144092,4,1,0,25,1,0
960,0.3,1,1,0,37,1,0
962,60000000,4,1,0,25,1,0
967,3.65957446808511,4,1,0,25,1,0
968,0.3,1,1,0,37,1,0
970,60000000,4,1,0,25,1,0
975,0.694481830417227,4,1,0,25,1,0
976,0.3,1,1,0,37,1,0
978,60000000,4,1,0,25,1,0
983,0.751091703056769,4,1,0,25,1,0
984,0.3,1,1,0,37,1,0
986,60000000,4,1,0,25,1,0
991,0.955555555555556,4,1,0,25,1,0
992,0.3,1,1,0,37,1,0
994,60000000,4,1,0,25,1,0
999,0.694481830417227,4,1,0,25,1,0
1000,0.3,1,1,0,37,1,0
1002,60000000,4,1,0,25,1,0
1007,3.85074626865672,4,1,0,25,1,0
1008,0.3,1,1,0,37,1,0
1010,60000000,4,1,0,25,1,0
1015,0.736091298145506,4,1,0,25,1,0
1016,0.3,1,1,0,37,1,0
1018,60000000,4,1,0,25,1,0
1023,4.06299212598425,4,1,0,25,1,0
1024,0.3,1,1,0,37,1,0
1026,60000000,4,1,0,25,1,0
1031,1.0078125,4,1,0,25,1,0
1032,0.3,1,1,0,37,1,0
1034,60000000,4,1,0,25,1,0
1039,5.21212121212121,4,1,0,25,1,0
1040,0.3,1,1,0,37,1,0
1042,60000000,4,1,0,25,1,0
1126,2.58620689655172,4,1,0,25,1,0
1127,0.6,4,1,0,25,1,0
1129,60000000,4,1,0,25,1,0
1212,1.37994480220791,4,1,0,25,1,0
1213,0.6,4,1,0,25,1,0
1215,60000000,4,1,0,25,1,0
1299,2.19298245614035,4,1,0,25,1,0
1300,0.6,4,1,0,25,1,0
1302,60000000,4,1,0,25,1,0
1386,2.84090909090909,4,1,0,25,1,0
1387,0.6,4,1,0,25,1,0
1389,60000000,4,1,0,25,1,0
1472,3.23974082073434,4,1,0,25,1,0
1474,0.6,4,1,0,25,1,0
1476,60000000,4,1,0,25,1,0
1559,1.28755364806867,4,1,0,25,1,0
1560,0.6,4,1,0,25,1,0
1562,60000000,4,1,0,25,1,0
1646,1.12443778110945,4,1,0,25,1,0
1647,0.6,4,1,0,25,1,0
1649,60000000,4,1,0,25,1,0
1754,346.820809248555,4,1,0,25,1,0
1754,-400,4,1,0,25,0,0
2014,-57.1428571428571,4,1,0,25,0,0
2100,346.820809248555,3,1,0,37,1,0
2100,-33.3333333333333,4,1,0,37,0,0
2143,-333.333333333333,4,1,0,37,0,0
2273,-100,4,1,0,37,0,0
10076,0.6,4,1,0,37,1,0
10077,1000000,4,1,0,37,1,0
10078,1000000,4,1,0,37,1,0
10079,1000000,4,1,0,37,1,0
10080,1000000,4,1,0,37,1,0
10081,1.27995817889105,1,1,0,37,1,0
10082,0.6,4,1,0,37,1,0
10084,0.6,4,1,0,37,1,0
10085,1000000,4,1,0,37,1,0
10086,1000000,4,1,0,37,1,0
10087,1000000,4,1,0,37,1,0
10088,1000000,4,1,0,37,1,0
10089,1.27604352172381,1,1,0,37,1,0
10090,0.6,4,1,0,37,1,0
10092,0.6,4,1,0,37,1,0
10093,1000000,4,1,0,37,1,0
10094,1000000,4,1,0,37,1,0
10095,1000000,4,1,0,37,1,0
10096,1000000,4,1,0,37,1,0
10097,1.2722034452518,1,1,0,37,1,0
10098,0.6,4,1,0,37,1,0
10100,0.6,4,1,0,37,1,0
10101,1000000,4,1,0,37,1,0
10102,1000000,4,1,0,37,1,0
10103,1000000,4,1,0,37,1,0
10104,1000000,4,1,0,37,1,0
10105,1.26843551933783,1,1,0,37,1,0
10106,0.6,4,1,0,37,1,0
10108,0.6,4,1,0,37,1,0
10109,1000000,4,1,0,37,1,0
10110,1000000,4,1,0,37,1,0
10111,1000000,4,1,0,37,1,0
10112,1000000,4,1,0,37,1,0
10113,1.26473742444725,1,1,0,37,1,0
10114,0.6,4,1,0,37,1,0
10116,0.6,4,1,0,37,1,0
10117,1000000,4,1,0,37,1,0
10118,1000000,4,1,0,37,1,0
10119,1000000,4,1,0,37,1,0
10120,1000000,4,1,0,37,1,0
10121,1.26110694523357,1,1,0,37,1,0
10122,0.6,4,1,0,37,1,0
10124,0.6,4,1,0,37,1,0
10125,1000000,4,1,0,37,1,0
10126,1000000,4,1,0,37,1,0
10127,1000000,4,1,0,37,1,0
10128,1000000,4,1,0,37,1,0
10129,1.25754196457363,1,1,0,37,1,0
10130,0.6,4,1,0,37,1,0
10132,0.6,4,1,0,37,1,0
10133,1000000,4,1,0,37,1,0
10134,1000000,4,1,0,37,1,0
10135,1000000,4,1,0,37,1,0
10136,1000000,4,1,0,37,1,0
10137,1.25404045801566,1,1,0,37,1,0
10138,0.6,4,1,0,37,1,0
10140,0.6,4,1,0,37,1,0
10141,1000000,4,1,0,37,1,0
10142,1000000,4,1,0,37,1,0
10143,1000000,4,1,0,37,1,0
10144,1000000,4,1,0,37,1,0
10145,1.25060048860674,1,1,0,37,1,0
10146,0.6,4,1,0,37,1,0
10148,0.6,4,1,0,37,1,0
10149,1000000,4,1,0,37,1,0
10150,1000000,4,1,0,37,1,0
10151,1000000,4,1,0,37,1,0
10152,1000000,4,1,0,37,1,0
10153,1.24722020206937,1,1,0,37,1,0
10154,0.6,4,1,0,37,1,0
10156,0.6,4,1,0,37,1,0
10157,1000000,4,1,0,37,1,0
10158,1000000,4,1,0,37,1,0
10159,1000000,4,1,0,37,1,0
10160,1000000,4,1,0,37,1,0
10161,1.24389782229979,1,1,0,37,1,0
10162,0.6,4,1,0,37,1,0
10164,0.6,4,1,0,37,1,0
10165,1000000,4,1,0,37,1,0
10166,1000000,4,1,0,37,1,0
10167,1000000,4,1,0,37,1,0
10168,1000000,4,1,0,37,1,0
10169,1.2406316471627,1,1,0,37,1,0
10170,0.6,4,1,0,37,1,0
10172,0.6,4,1,0,37,1,0
10173,1000000,4,1,0,37,1,0
10174,1000000,4,1,0,37,1,0
10175,1000000,4,1,0,37,1,0
10176,1000000,4,1,0,37,1,0
10177,1.23742004455984,1,1,0,37,1,0
10178,0.6,4,1,0,37,1,0
10180,0.6,4,1,0,37,1,0
10181,1000000,4,1,0,37,1,0
10182,1000000,4,1,0,37,1,0
10183,1000000,4,1,0,37,1,0
10184,1000000,4,1,0,37,1,0
10185,1.23426144875137,1,1,0,37,1,0
10186,0.6,4,1,0,37,1,0
10188,0.6,4,1,0,37,1,0
10189,1000000,4,1,0,37,1,0
10190,1000000,4,1,0,37,1,0
10191,1000000,4,1,0,37,1,0
10192,1000000,4,1,0,37,1,0
10193,1.23115435691118,1,1,0,37,1,0
10194,0.6,4,1,0,37,1,0
10196,0.6,4,1,0,37,1,0
10197,1000000,4,1,0,37,1,0
10198,1000000,4,1,0,37,1,0
10199,1000000,4,1,0,37,1,0
10200,1000000,4,1,0,37,1,0
10201,1.2280973258987,1,1,0,37,1,0
10202,0.6,4,1,0,37,1,0
10204,0.6,4,1,0,37,1,0
10205,1000000,4,1,0,37,1,0
10206,1000000,4,1,0,37,1,0
10207,1000000,4,1,0,37,1,0
10208,1000000,4,1,0,37,1,0
10209,1.22508896923125,1,1,0,37,1,0
10210,0.6,4,1,0,37,1,0
10212,0.6,4,1,0,37,1,0
10213,1000000,4,1,0,37,1,0
10214,1000000,4,1,0,37,1,0
10215,1000000,4,1,0,37,1,0
10216,1000000,4,1,0,37,1,0
10217,1.22212795424243,1,1,0,37,1,0
10218,0.6,4,1,0,37,1,0
10220,0.6,4,1,0,37,1,0
10221,1000000,4,1,0,37,1,0
10222,1000000,4,1,0,37,1,0
10223,1000000,4,1,0,37,1,0
10224,1000000,4,1,0,37,1,0
10225,1.21921299941311,1,1,0,37,1,0
10226,0.6,4,1,0,37,1,0
10228,0.6,4,1,0,37,1,0
10229,1000000,4,1,0,37,1,0
10230,1000000,4,1,0,37,1,0
10231,1000000,4,1,0,37,1,0
10232,1000000,4,1,0,37,1,0
10233,1.21634287186283,1,1,0,37,1,0
10234,0.6,4,1,0,37,1,0
10236,0.6,4,1,0,37,1,0
10237,1000000,4,1,0,37,1,0
10238,1000000,4,1,0,37,1,0
10239,1000000,4,1,0,37,1,0
10240,1000000,4,1,0,37,1,0
10241,1.21351638499025,1,1,0,37,1,0
10242,0.6,4,1,0,37,1,0
10244,0.6,4,1,0,37,1,0
10245,1000000,4,1,0,37,1,0
10246,1000000,4,1,0,37,1,0
10247,1000000,4,1,0,37,1,0
10248,1000000,4,1,0,37,1,0
10249,1.2107323962523,1,1,0,37,1,0
10250,0.6,4,1,0,37,1,0
10252,0.6,4,1,0,37,1,0
10253,1000000,4,1,0,37,1,0
10254,1000000,4,1,0,37,1,0
10255,1000000,4,1,0,37,1,0
10256,1000000,4,1,0,37,1,0
10257,1.20798980507258,1,1,0,37,1,0
10258,0.6,4,1,0,37,1,0
10260,0.6,4,1,0,37,1,0
10261,1000000,4,1,0,37,1,0
10262,1000000,4,1,0,37,1,0
10263,1000000,4,1,0,37,1,0
10264,1000000,4,1,0,37,1,0
10265,1.20528755087006,1,1,0,37,1,0
10266,0.6,4,1,0,37,1,0
10268,0.6,4,1,0,37,1,0
10269,1000000,4,1,0,37,1,0
10270,1000000,4,1,0,37,1,0
10271,1000000,4,1,0,37,1,0
10272,1000000,4,1,0,37,1,0
10273,1.20262461120004,1,1,0,37,1,0
10274,0.6,4,1,0,37,1,0
10276,0.6,4,1,0,37,1,0
10277,1000000,4,1,0,37,1,0
10278,1000000,4,1,0,37,1,0
10279,1000000,4,1,0,37,1,0
10280,1000000,4,1,0,37,1,0
10281,1.2,1,1,0,37,1,0
10282,0.6,4,1,0,37,1,0
10284,0.6,4,1,0,37,1,0
10285,1000000,4,1,0,37,1,0
10286,1000000,4,1,0,37,1,0
10287,1000000,4,1,0,37,1,0
10288,1000000,4,1,0,37,1,0
10289,1.19741276593315,1,1,0,37,1,0
10290,0.6,4,1,0,37,1,0
10292,0.6,4,1,0,37,1,0
10293,1000000,4,1,0,37,1,0
10294,1000000,4,1,0,37,1,0
10295,1000000,4,1,0,37,1,0
10296,1000000,4,1,0,37,1,0
10297,1.19486199082357,1,1,0,37,1,0
10298,0.6,4,1,0,37,1,0
10300,0.6,4,1,0,37,1,0
10301,1000000,4,1,0,37,1,0
10302,1000000,4,1,0,37,1,0
10303,1000000,4,1,0,37,1,0
10304,1000000,4,1,0,37,1,0
10305,1.19234678817684,1,1,0,37,1,0
10306,0.6,4,1,0,37,1,0
10308,0.6,4,1,0,37,1,0
10309,1000000,4,1,0,37,1,0
10310,1000000,4,1,0,37,1,0
10311,1000000,4,1,0,37,1,0
10312,1000000,4,1,0,37,1,0
10313,1.18986630178079,1,1,0,37,1,0
10314,0.6,4,1,0,37,1,0
10316,0.6,4,1,0,37,1,0
10317,1000000,4,1,0,37,1,0
10318,1000000,4,1,0,37,1,0
10319,1000000,4,1,0,37,1,0
10320,1000000,4,1,0,37,1,0
10321,1.18741970438117,1,1,0,37,1,0
10322,0.6,4,1,0,37,1,0
10324,0.6,4,1,0,37,1,0
10325,1000000,4,1,0,37,1,0
10326,1000000,4,1,0,37,1,0
10327,1000000,4,1,0,37,1,0
10328,1000000,4,1,0,37,1,0
10329,1.18500619642764,1,1,0,37,1,0
10330,0.6,4,1,0,37,1,0
10332,0.6,4,1,0,37,1,0
10333,1000000,4,1,0,37,1,0
10334,1000000,4,1,0,37,1,0
10335,1000000,4,1,0,37,1,0
10336,1000000,4,1,0,37,1,0
10337,1.18262500488573,1,1,0,37,1,0
10338,0.6,4,1,0,37,1,0
10340,0.6,4,1,0,37,1,0
10341,1000000,4,1,0,37,1,0
10342,1000000,4,1,0,37,1,0
10343,1000000,4,1,0,37,1,0
10344,1000000,4,1,0,37,1,0
10345,1000000,4,1,0,37,1,0
10346,1.18262500488573,1,1,0,37,1,0
10347,0.6,4,1,0,37,1,0
10349,0.6,4,1,0,37,1,0
10350,1000000,4,1,0,37,1,0
10351,1000000,4,1,0,37,1,0
10352,1000000,4,1,0,37,1,0
10353,1000000,4,1,0,37,1,0
10354,1.18819280301649,1,1,0,37,1,0
10355,0.6,4,1,0,37,1,0
10357,0.6,4,1,0,37,1,0
10358,1000000,4,1,0,37,1,0
10359,1000000,4,1,0,37,1,0
10360,1000000,4,1,0,37,1,0
10361,1000000,4,1,0,37,1,0
10362,1.19392085468493,1,1,0,37,1,0
10363,0.6,4,1,0,37,1,0
10365,0.6,4,1,0,37,1,0
10366,1000000,4,1,0,37,1,0
10367,1000000,4,1,0,37,1,0
10368,1000000,4,1,0,37,1,0
10369,1000000,4,1,0,37,1,0
10370,1.19981726511318,1,1,0,37,1,0
10371,0.6,4,1,0,37,1,0
10373,0.6,4,1,0,37,1,0
10374,1000000,4,1,0,37,1,0
10375,1000000,4,1,0,37,1,0
10376,1000000,4,1,0,37,1,0
10377,1000000,4,1,0,37,1,0
10378,1.20589072993984,1,1,0,37,1,0
10379,0.6,4,1,0,37,1,0
10381,0.6,4,1,0,37,1,0
10382,1000000,4,1,0,37,1,0
10383,1000000,4,1,0,37,1,0
10384,1000000,4,1,0,37,1,0
10385,1000000,4,1,0,37,1,0
10386,1.21215059180595,1,1,0,37,1,0
10387,0.6,4,1,0,37,1,0
10389,0.6,4,1,0,37,1,0
10390,1000000,4,1,0,37,1,0
10391,1000000,4,1,0,37,1,0
10392,1000000,4,1,0,37,1,0
10393,1000000,4,1,0,37,1,0
10394,1.21860690371406,1,1,0,37,1,0
10395,0.6,4,1,0,37,1,0
10397,0.6,4,1,0,37,1,0
10398,1000000,4,1,0,37,1,0
10399,1000000,4,1,0,37,1,0
10400,1000000,4,1,0,37,1,0
10401,1000000,4,1,0,37,1,0
10402,1.22527050013924,1,1,0,37,1,0
10403,0.6,4,1,0,37,1,0
10405,0.6,4,1,0,37,1,0
10406,1000000,4,1,0,37,1,0
10407,1000000,4,1,0,37,1,0
10408,1000000,4,1,0,37,1,0
10409,1000000,4,1,0,37,1,0
10410,1.2321530770375,1,1,0,37,1,0
10411,0.6,4,1,0,37,1,0
10413,0.6,4,1,0,37,1,0
10414,1000000,4,1,0,37,1,0
10415,1000000,4,1,0,37,1,0
10416,1000000,4,1,0,37,1,0
10417,1000000,4,1,0,37,1,0
10418,1.23926728209672,1,1,0,37,1,0
10419,0.6,4,1,0,37,1,0
10420,1000000,4,1,0,37,1,0
10421,1000000,4,1,0,37,1,0
10423,346.820809248555,4,1,0,37,1,0
10423,-33.3333333333333,4,1,0,37,0,0
10445,-333.333333333333,4,1,0,37,0,0
10510,-100,4,1,0,37,0,0
11464,-33.3333333333333,4,1,0,37,0,0
11507,-333.333333333333,4,1,0,37,0,0
11637,-100,4,1,0,37,0,0
12504,-33.3333333333333,4,1,0,37,0,0
12526,-333.333333333333,4,1,0,37,0,0
12591,-100,4,1,0,37,0,0
13545,-33.3333333333333,4,1,0,37,0,0
13891,-333.333333333333,4,1,0,37,0,0
14238,-100,4,1,0,37,0,0
15626,-33.3333333333333,4,1,0,37,0,0
15669,-333.333333333333,4,1,0,37,0,0
15799,-100,4,1,0,37,0,0
16666,-33.3333333333333,4,1,0,37,0,0
16688,-333.333333333333,4,1,0,37,0,0
16753,-100,4,1,0,37,0,0
17706,-33.3333333333333,4,1,0,37,0,0
17750,-333.333333333333,4,1,0,37,0,0
17880,-100,4,1,0,37,0,0
18747,-33.3333333333333,4,1,0,37,0,0
18790,-333.333333333333,4,1,0,37,0,0
18920,-100,4,1,0,37,0,0
19094,-133.333333333333,4,1,0,37,0,0
26377,0.6,4,1,0,37,1,0
26378,1000000,4,1,0,37,1,0
26379,1000000,4,1,0,37,1,0
26380,1000000,4,1,0,37,1,0
26381,1000000,4,1,0,37,1,0
26382,1.27995817889105,1,1,0,37,1,0
26383,0.6,4,1,0,37,1,0
26385,0.6,4,1,0,37,1,0
26386,1000000,4,1,0,37,1,0
26387,1000000,4,1,0,37,1,0
26388,1000000,4,1,0,37,1,0
26389,1000000,4,1,0,37,1,0
26390,1.27604352172381,1,1,0,37,1,0
26391,0.6,4,1,0,37,1,0
26393,0.6,4,1,0,37,1,0
26394,1000000,4,1,0,37,1,0
26395,1000000,4,1,0,37,1,0
26396,1000000,4,1,0,37,1,0
26397,1000000,4,1,0,37,1,0
26398,1.2722034452518,1,1,0,37,1,0
26399,0.6,4,1,0,37,1,0
26401,0.6,4,1,0,37,1,0
26402,1000000,4,1,0,37,1,0
26403,1000000,4,1,0,37,1,0
26404,1000000,4,1,0,37,1,0
26405,1000000,4,1,0,37,1,0
26406,1.26843551933783,1,1,0,37,1,0
26407,0.6,4,1,0,37,1,0
26409,0.6,4,1,0,37,1,0
26410,1000000,4,1,0,37,1,0
26411,1000000,4,1,0,37,1,0
26412,1000000,4,1,0,37,1,0
26413,1000000,4,1,0,37,1,0
26414,1.26473742444725,1,1,0,37,1,0
26415,0.6,4,1,0,37,1,0
26417,0.6,4,1,0,37,1,0
26418,1000000,4,1,0,37,1,0
26419,1000000,4,1,0,37,1,0
26420,1000000,4,1,0,37,1,0
26421,1000000,4,1,0,37,1,0
26422,1.26110694523357,1,1,0,37,1,0
26423,0.6,4,1,0,37,1,0
26425,0.6,4,1,0,37,1,0
26426,1000000,4,1,0,37,1,0
26427,1000000,4,1,0,37,1,0
26428,1000000,4,1,0,37,1,0
26429,1000000,4,1,0,37,1,0
26430,1.25754196457363,1,1,0,37,1,0
26431,0.6,4,1,0,37,1,0
26433,0.6,4,1,0,37,1,0
26434,1000000,4,1,0,37,1,0
26435,1000000,4,1,0,37,1,0
26436,1000000,4,1,0,37,1,0
26437,1000000,4,1,0,37,1,0
26438,1.25404045801566,1,1,0,37,1,0
26439,0.6,4,1,0,37,1,0
26441,0.6,4,1,0,37,1,0
26442,1000000,4,1,0,37,1,0
26443,1000000,4,1,0,37,1,0
26444,1000000,4,1,0,37,1,0
26445,1000000,4,1,0,37,1,0
26446,1.25060048860674,1,1,0,37,1,0
26447,0.6,4,1,0,37,1,0
26449,0.6,4,1,0,37,1,0
26450,1000000,4,1,0,37,1,0
26451,1000000,4,1,0,37,1,0
26452,1000000,4,1,0,37,1,0
26453,1000000,4,1,0,37,1,0
26454,1.24722020206937,1,1,0,37,1,0
26455,0.6,4,1,0,37,1,0
26457,0.6,4,1,0,37,1,0
26458,1000000,4,1,0,37,1,0
26459,1000000,4,1,0,37,1,0
26460,1000000,4,1,0,37,1,0
26461,1000000,4,1,0,37,1,0
26462,1.24389782229979,1,1,0,37,1,0
26463,0.6,4,1,0,37,1,0
26465,0.6,4,1,0,37,1,0
26466,1000000,4,1,0,37,1,0
26467,1000000,4,1,0,37,1,0
26468,1000000,4,1,0,37,1,0
26469,1000000,4,1,0,37,1,0
26470,1.2406316471627,1,1,0,37,1,0
26471,0.6,4,1,0,37,1,0
26473,0.6,4,1,0,37,1,0
26474,1000000,4,1,0,37,1,0
26475,1000000,4,1,0,37,1,0
26476,1000000,4,1,0,37,1,0
26477,1000000,4,1,0,37,1,0
26478,1.23742004455984,1,1,0,37,1,0
26479,0.6,4,1,0,37,1,0
26481,0.6,4,1,0,37,1,0
26482,1000000,4,1,0,37,1,0
26483,1000000,4,1,0,37,1,0
26484,1000000,4,1,0,37,1,0
26485,1000000,4,1,0,37,1,0
26486,1.23426144875137,1,1,0,37,1,0
26487,0.6,4,1,0,37,1,0
26489,0.6,4,1,0,37,1,0
26490,1000000,4,1,0,37,1,0
26491,1000000,4,1,0,37,1,0
26492,1000000,4,1,0,37,1,0
26493,1000000,4,1,0,37,1,0
26494,1.23115435691118,1,1,0,37,1,0
26495,0.6,4,1,0,37,1,0
26497,0.6,4,1,0,37,1,0
26498,1000000,4,1,0,37,1,0
26499,1000000,4,1,0,37,1,0
26500,1000000,4,1,0,37,1,0
26501,1000000,4,1,0,37,1,0
26502,1.2280973258987,1,1,0,37,1,0
26503,0.6,4,1,0,37,1,0
26505,0.6,4,1,0,37,1,0
26506,1000000,4,1,0,37,1,0
26507,1000000,4,1,0,37,1,0
26508,1000000,4,1,0,37,1,0
26509,1000000,4,1,0,37,1,0
26510,1.22508896923125,1,1,0,37,1,0
26511,0.6,4,1,0,37,1,0
26513,0.6,4,1,0,37,1,0
26514,1000000,4,1,0,37,1,0
26515,1000000,4,1,0,37,1,0
26516,1000000,4,1,0,37,1,0
26517,1000000,4,1,0,37,1,0
26518,1.22212795424243,1,1,0,37,1,0
26519,0.6,4,1,0,37,1,0
26521,0.6,4,1,0,37,1,0
26522,1000000,4,1,0,37,1,0
26523,1000000,4,1,0,37,1,0
26524,1000000,4,1,0,37,1,0
26525,1000000,4,1,0,37,1,0
26526,1.21921299941311,1,1,0,37,1,0
26527,0.6,4,1,0,37,1,0
26529,0.6,4,1,0,37,1,0
26530,1000000,4,1,0,37,1,0
26531,1000000,4,1,0,37,1,0
26532,1000000,4,1,0,37,1,0
26533,1000000,4,1,0,37,1,0
26534,1.21634287186283,1,1,0,37,1,0
26535,0.6,4,1,0,37,1,0
26537,0.6,4,1,0,37,1,0
26538,1000000,4,1,0,37,1,0
26539,1000000,4,1,0,37,1,0
26540,1000000,4,1,0,37,1,0
26541,1000000,4,1,0,37,1,0
26542,1.21351638499025,1,1,0,37,1,0
26543,0.6,4,1,0,37,1,0
26545,0.6,4,1,0,37,1,0
26546,1000000,4,1,0,37,1,0
26547,1000000,4,1,0,37,1,0
26548,1000000,4,1,0,37,1,0
26549,1000000,4,1,0,37,1,0
26550,1.2107323962523,1,1,0,37,1,0
26551,0.6,4,1,0,37,1,0
26553,0.6,4,1,0,37,1,0
26554,1000000,4,1,0,37,1,0
26555,1000000,4,1,0,37,1,0
26556,1000000,4,1,0,37,1,0
26557,1000000,4,1,0,37,1,0
26558,1.20798980507258,1,1,0,37,1,0
26559,0.6,4,1,0,37,1,0
26561,0.6,4,1,0,37,1,0
26562,1000000,4,1,0,37,1,0
26563,1000000,4,1,0,37,1,0
26564,1000000,4,1,0,37,1,0
26565,1000000,4,1,0,37,1,0
26566,1.20528755087006,1,1,0,37,1,0
26567,0.6,4,1,0,37,1,0
26569,0.6,4,1,0,37,1,0
26570,1000000,4,1,0,37,1,0
26571,1000000,4,1,0,37,1,0
26572,1000000,4,1,0,37,1,0
26573,1000000,4,1,0,37,1,0
26574,1.20262461120004,1,1,0,37,1,0
26575,0.6,4,1,0,37,1,0
26577,0.6,4,1,0,37,1,0
26578,1000000,4,1,0,37,1,0
26579,1000000,4,1,0,37,1,0
26580,1000000,4,1,0,37,1,0
26581,1000000,4,1,0,37,1,0
26582,1.2,1,1,0,37,1,0
26583,0.6,4,1,0,37,1,0
26585,0.6,4,1,0,37,1,0
26586,1000000,4,1,0,37,1,0
26587,1000000,4,1,0,37,1,0
26588,1000000,4,1,0,37,1,0
26589,1000000,4,1,0,37,1,0
26590,1.19741276593315,1,1,0,37,1,0
26591,0.6,4,1,0,37,1,0
26593,0.6,4,1,0,37,1,0
26594,1000000,4,1,0,37,1,0
26595,1000000,4,1,0,37,1,0
26596,1000000,4,1,0,37,1,0
26597,1000000,4,1,0,37,1,0
26598,1.19486199082357,1,1,0,37,1,0
26599,0.6,4,1,0,37,1,0
26601,0.6,4,1,0,37,1,0
26602,1000000,4,1,0,37,1,0
26603,1000000,4,1,0,37,1,0
26604,1000000,4,1,0,37,1,0
26605,1000000,4,1,0,37,1,0
26606,1.19234678817684,1,1,0,37,1,0
26607,0.6,4,1,0,37,1,0
26609,0.6,4,1,0,37,1,0
26610,1000000,4,1,0,37,1,0
26611,1000000,4,1,0,37,1,0
26612,1000000,4,1,0,37,1,0
26613,1000000,4,1,0,37,1,0
26614,1.18986630178079,1,1,0,37,1,0
26615,0.6,4,1,0,37,1,0
26617,0.6,4,1,0,37,1,0
26618,1000000,4,1,0,37,1,0
26619,1000000,4,1,0,37,1,0
26620,1000000,4,1,0,37,1,0
26621,1000000,4,1,0,37,1,0
26622,1.18741970438117,1,1,0,37,1,0
26623,0.6,4,1,0,37,1,0
26625,0.6,4,1,0,37,1,0
26626,1000000,4,1,0,37,1,0
26627,1000000,4,1,0,37,1,0
26628,1000000,4,1,0,37,1,0
26629,1000000,4,1,0,37,1,0
26630,1.18500619642764,1,1,0,37,1,0
26631,0.6,4,1,0,37,1,0
26633,0.6,4,1,0,37,1,0
26634,1000000,4,1,0,37,1,0
26635,1000000,4,1,0,37,1,0
26636,1000000,4,1,0,37,1,0
26637,1000000,4,1,0,37,1,0
26638,1.18262500488573,1,1,0,37,1,0
26639,0.6,4,1,0,37,1,0
26641,0.6,4,1,0,37,1,0
26642,1000000,4,1,0,37,1,0
26643,1000000,4,1,0,37,1,0
26644,1000000,4,1,0,37,1,0
26645,1000000,4,1,0,37,1,0
26646,1000000,4,1,0,37,1,0
26647,1.18262500488573,1,1,0,37,1,0
26648,0.6,4,1,0,37,1,0
26650,0.6,4,1,0,37,1,0
26651,1000000,4,1,0,37,1,0
26652,1000000,4,1,0,37,1,0
26653,1000000,4,1,0,37,1,0
26654,1000000,4,1,0,37,1,0
26655,1.18819280301649,1,1,0,37,1,0
26656,0.6,4,1,0,37,1,0
26658,0.6,4,1,0,37,1,0
26659,1000000,4,1,0,37,1,0
26660,1000000,4,1,0,37,1,0
26661,1000000,4,1,0,37,1,0
26662,1000000,4,1,0,37,1,0
26663,1.19392085468493,1,1,0,37,1,0
26664,0.6,4,1,0,37,1,0
26666,0.6,4,1,0,37,1,0
26667,1000000,4,1,0,37,1,0
26668,1000000,4,1,0,37,1,0
26669,1000000,4,1,0,37,1,0
26670,1000000,4,1,0,37,1,0
26671,1.19981726511318,1,1,0,37,1,0
26672,0.6,4,1,0,37,1,0
26674,0.6,4,1,0,37,1,0
26675,1000000,4,1,0,37,1,0
26676,1000000,4,1,0,37,1,0
26677,1000000,4,1,0,37,1,0
26678,1000000,4,1,0,37,1,0
26679,1.20589072993984,1,1,0,37,1,0
26680,0.6,4,1,0,37,1,0
26682,0.6,4,1,0,37,1,0
26683,1000000,4,1,0,37,1,0
26684,1000000,4,1,0,37,1,0
26685,1000000,4,1,0,37,1,0
26686,1000000,4,1,0,37,1,0
26687,1.21215059180595,1,1,0,37,1,0
26688,0.6,4,1,0,37,1,0
26690,0.6,4,1,0,37,1,0
26691,1000000,4,1,0,37,1,0
26692,1000000,4,1,0,37,1,0
26693,1000000,4,1,0,37,1,0
26694,1000000,4,1,0,37,1,0
26695,1.21860690371406,1,1,0,37,1,0
26696,0.6,4,1,0,37,1,0
26698,0.6,4,1,0,37,1,0
26699,1000000,4,1,0,37,1,0
26700,1000000,4,1,0,37,1,0
26701,1000000,4,1,0,37,1,0
26702,1000000,4,1,0,37,1,0
26703,1.22527050013924,1,1,0,37,1,0
26704,0.6,4,1,0,37,1,0
26706,0.6,4,1,0,37,1,0
26707,1000000,4,1,0,37,1,0
26708,1000000,4,1,0,37,1,0
26709,1000000,4,1,0,37,1,0
26710,1000000,4,1,0,37,1,0
26711,1.2321530770375,1,1,0,37,1,0
26712,0.6,4,1,0,37,1,0
26714,0.6,4,1,0,37,1,0
26715,1000000,4,1,0,37,1,0
26716,1000000,4,1,0,37,1,0
26717,1000000,4,1,0,37,1,0
26718,1000000,4,1,0,37,1,0
26719,1.23926728209672,1,1,0,37,1,0
26720,0.6,4,1,0,37,1,0
26722,0.6,4,1,0,37,1,0
26723,1000000,4,1,0,37,1,0
26724,1000000,4,1,0,37,1,0
26725,1000000,4,1,0,37,1,0
26726,1000000,4,1,0,37,1,0
26727,1.24662681681536,1,1,0,37,1,0
26728,0.6,4,1,0,37,1,0
26730,0.6,4,1,0,37,1,0
26731,1000000,4,1,0,37,1,0
26732,1000000,4,1,0,37,1,0
26733,1000000,4,1,0,37,1,0
26734,1000000,4,1,0,37,1,0
26735,1.25424655228356,1,1,0,37,1,0
26736,0.6,4,1,0,37,1,0
26738,0.6,4,1,0,37,1,0
26739,1000000,4,1,0,37,1,0
26740,1000000,4,1,0,37,1,0
26741,1000000,4,1,0,37,1,0
26742,1000000,4,1,0,37,1,0
26743,1.26214266089249,1,1,0,37,1,0
26744,0.6,4,1,0,37,1,0
26746,0.6,4,1,0,37,1,0
26747,1000000,4,1,0,37,1,0
26748,1000000,4,1,0,37,1,0
26749,1000000,4,1,0,37,1,0
26750,1000000,4,1,0,37,1,0
26751,1.27033276662484,1,1,0,37,1,0
26752,0.6,4,1,0,37,1,0
26754,0.6,4,1,0,37,1,0
26755,1000000,4,1,0,37,1,0
26756,1000000,4,1,0,37,1,0
26757,1000000,4,1,0,37,1,0
26758,1000000,4,1,0,37,1,0
26759,1.27883611710221,1,1,0,37,1,0
26760,0.6,4,1,0,37,1,0
26762,0.6,4,1,0,37,1,0
26763,1000000,4,1,0,37,1,0
26764,1000000,4,1,0,37,1,0
26765,1000000,4,1,0,37,1,0
26766,1000000,4,1,0,37,1,0
26767,1.28767378120713,1,1,0,37,1,0
26768,0.6,4,1,0,37,1,0
26770,0.6,4,1,0,37,1,0
26771,1000000,4,1,0,37,1,0
26772,1000000,4,1,0,37,1,0
26773,1000000,4,1,0,37,1,0
26774,1000000,4,1,0,37,1,0
26775,1.29686887689061,1,1,0,37,1,0
26776,0.6,4,1,0,37,1,0
26778,0.6,4,1,0,37,1,0
26779,1000000,4,1,0,37,1,0
26780,1000000,4,1,0,37,1,0
26781,1000000,4,1,0,37,1,0
26782,1000000,4,1,0,37,1,0
26783,1.30644683476137,1,1,0,37,1,0
26784,0.6,4,1,0,37,1,0
26786,0.6,4,1,0,37,1,0
26787,1000000,4,1,0,37,1,0
26788,1000000,4,1,0,37,1,0
26789,1000000,4,1,0,37,1,0
26790,1000000,4,1,0,37,1,0
26791,1.31643570428279,1,1,0,37,1,0
26792,0.6,4,1,0,37,1,0
26794,0.6,4,1,0,37,1,0
26795,1000000,4,1,0,37,1,0
26796,1000000,4,1,0,37,1,0
26797,1000000,4,1,0,37,1,0
26798,1000000,4,1,0,37,1,0
26799,1.32686651094884,1,1,0,37,1,0
26800,0.6,4,1,0,37,1,0
26802,0.6,4,1,0,37,1,0
26803,1000000,4,1,0,37,1,0
26804,1000000,4,1,0,37,1,0
26805,1000000,4,1,0,37,1,0
26806,1000000,4,1,0,37,1,0
26807,1.33777367476364,1,1,0,37,1,0
26808,0.6,4,1,0,37,1,0
26810,0.6,4,1,0,37,1,0
26811,1000000,4,1,0,37,1,0
26812,1000000,4,1,0,37,1,0
26813,1000000,4,1,0,37,1,0
26814,1000000,4,1,0,37,1,0
26815,1.34919550283444,1,1,0,37,1,0
26816,0.6,4,1,0,37,1,0
26818,0.6,4,1,0,37,1,0
26819,1000000,4,1,0,37,1,0
26820,1000000,4,1,0,37,1,0
26821,1000000,4,1,0,37,1,0
26822,1000000,4,1,0,37,1,0
26823,1.36117477207259,1,1,0,37,1,0
26824,0.6,4,1,0,37,1,0
26826,0.6,4,1,0,37,1,0
26827,1000000,4,1,0,37,1,0
26828,1000000,4,1,0,37,1,0
26829,1000000,4,1,0,37,1,0
26830,1000000,4,1,0,37,1,0
26831,1.37375942210725,1,1,0,37,1,0
26832,0.6,4,1,0,37,1,0
26834,0.6,4,1,0,37,1,0
26835,1000000,4,1,0,37,1,0
26836,1000000,4,1,0,37,1,0
26837,1000000,4,1,0,37,1,0
26838,1000000,4,1,0,37,1,0
26839,1.38700338386471,1,1,0,37,1,0
26840,0.6,4,1,0,37,1,0
26842,0.6,4,1,0,37,1,0
26843,1000000,4,1,0,37,1,0
26844,1000000,4,1,0,37,1,0
26845,1000000,4,1,0,37,1,0
26846,1000000,4,1,0,37,1,0
26847,1.40096757628098,1,1,0,37,1,0
26848,0.6,4,1,0,37,1,0
26850,0.6,4,1,0,37,1,0
26851,1000000,4,1,0,37,1,0
26852,1000000,4,1,0,37,1,0
26853,1000000,4,1,0,37,1,0
26854,1000000,4,1,0,37,1,0
26855,1.41572111290047,1,1,0,37,1,0
26856,0.6,4,1,0,37,1,0
26858,0.6,4,1,0,37,1,0
26859,1000000,4,1,0,37,1,0
26860,1000000,4,1,0,37,1,0
26861,1000000,4,1,0,37,1,0
26862,1000000,4,1,0,37,1,0
26863,1.43134277251907,1,1,0,37,1,0
26864,0.6,4,1,0,37,1,0
26866,0.6,4,1,0,37,1,0
26867,1000000,4,1,0,37,1,0
26868,1000000,4,1,0,37,1,0
26869,1000000,4,1,0,37,1,0
26870,1000000,4,1,0,37,1,0
26871,1.44792280477421,1,1,0,37,1,0
26872,0.6,4,1,0,37,1,0
26874,0.6,4,1,0,37,1,0
26875,1000000,4,1,0,37,1,0
26876,1000000,4,1,0,37,1,0
26877,1000000,4,1,0,37,1,0
26878,1000000,4,1,0,37,1,0
26879,1.46556516443139,1,1,0,37,1,0
26880,0.6,4,1,0,37,1,0
26882,0.6,4,1,0,37,1,0
26883,1000000,4,1,0,37,1,0
26884,1000000,4,1,0,37,1,0
26885,1000000,4,1,0,37,1,0
26886,1000000,4,1,0,37,1,0
26887,1.48439029965729,1,1,0,37,1,0
26888,0.6,4,1,0,37,1,0
26890,0.6,4,1,0,37,1,0
26891,1000000,4,1,0,37,1,0
26892,1000000,4,1,0,37,1,0
26893,1000000,4,1,0,37,1,0
26894,1000000,4,1,0,37,1,0
26895,1.50453866366303,1,1,0,37,1,0
26896,0.6,4,1,0,37,1,0
26898,0.6,4,1,0,37,1,0
26899,1000000,4,1,0,37,1,0
26900,1000000,4,1,0,37,1,0
26901,1000000,4,1,0,37,1,0
26902,1000000,4,1,0,37,1,0
26903,1.52617518159022,1,1,0,37,1,0
26904,0.6,4,1,0,37,1,0
26906,0.6,4,1,0,37,1,0
26907,1000000,4,1,0,37,1,0
26908,1000000,4,1,0,37,1,0
26909,1000000,4,1,0,37,1,0
26910,1000000,4,1,0,37,1,0
26911,1.54949499438892,1,1,0,37,1,0
26912,0.6,4,1,0,37,1,0
26914,0.6,4,1,0,37,1,0
26915,1000000,4,1,0,37,1,0
26916,1000000,4,1,0,37,1,0
26917,1000000,4,1,0,37,1,0
26918,1000000,4,1,0,37,1,0
26919,1.57473093280149,1,1,0,37,1,0
26920,0.6,4,1,0,37,1,0
26922,0.6,4,1,0,37,1,0
26923,1000000,4,1,0,37,1,0
26924,1000000,4,1,0,37,1,0
26925,1000000,4,1,0,37,1,0
26926,1000000,4,1,0,37,1,0
26927,1.60216336997844,1,1,0,37,1,0
26928,0.6,4,1,0,37,1,0
26930,0.6,4,1,0,37,1,0
26931,1000000,4,1,0,37,1,0
26932,1000000,4,1,0,37,1,0
26933,1000000,4,1,0,37,1,0
26934,1000000,4,1,0,37,1,0
26935,1.6321333976052,1,1,0,37,1,0
26936,0.6,4,1,0,37,1,0
26938,0.6,4,1,0,37,1,0
26939,1000000,4,1,0,37,1,0
26940,1000000,4,1,0,37,1,0
26941,1000000,4,1,0,37,1,0
26942,1000000,4,1,0,37,1,0
26943,1.66506072952605,1,1,0,37,1,0
26944,0.6,4,1,0,37,1,0
26946,0.6,4,1,0,37,1,0
26947,1000000,4,1,0,37,1,0
26948,1000000,4,1,0,37,1,0
26949,1000000,4,1,0,37,1,0
26950,1000000,4,1,0,37,1,0
26951,1.70146846509073,1,1,0,37,1,0
26952,0.6,4,1,0,37,1,0
26954,0.6,4,1,0,37,1,0
26955,1000000,4,1,0,37,1,0
26956,1000000,4,1,0,37,1,0
26957,1000000,4,1,0,37,1,0
26958,1000000,4,1,0,37,1,0
26959,1.74201803040325,1,1,0,37,1,0
26960,0.6,4,1,0,37,1,0
26962,0.6,4,1,0,37,1,0
26963,1000000,4,1,0,37,1,0
26964,1000000,4,1,0,37,1,0
26965,1000000,4,1,0,37,1,0
26966,1000000,4,1,0,37,1,0
26967,1.78755960494611,1,1,0,37,1,0
26968,0.6,4,1,0,37,1,0
26970,0.6,4,1,0,37,1,0
26971,1000000,4,1,0,37,1,0
26972,1000000,4,1,0,37,1,0
26973,1000000,4,1,0,37,1,0
26974,1000000,4,1,0,37,1,0
26975,1.83920679128962,1,1,0,37,1,0
26976,0.6,4,1,0,37,1,0
26978,0.6,4,1,0,37,1,0
26979,1000000,4,1,0,37,1,0
26980,1000000,4,1,0,37,1,0
26981,1000000,4,1,0,37,1,0
26982,1000000,4,1,0,37,1,0
26983,1.89845050233966,1,1,0,37,1,0
26984,0.6,4,1,0,37,1,0
26986,0.6,4,1,0,37,1,0
26987,1000000,4,1,0,37,1,0
26988,1000000,4,1,0,37,1,0
26989,1000000,4,1,0,37,1,0
26990,1000000,4,1,0,37,1,0
26991,1.96733874538726,1,1,0,37,1,0
26992,0.6,4,1,0,37,1,0
26994,0.6,4,1,0,37,1,0
26995,1000000,4,1,0,37,1,0
26996,1000000,4,1,0,37,1,0
26997,1000000,4,1,0,37,1,0
26998,1000000,4,1,0,37,1,0
26999,2.04877217867465,1,1,0,37,1,0
27000,0.6,4,1,0,37,1,0
27002,0.6,4,1,0,37,1,0
27003,1000000,4,1,0,37,1,0
27004,1000000,4,1,0,37,1,0
27005,1000000,4,1,0,37,1,0
27006,1000000,4,1,0,37,1,0
27007,2.1470141587786,1,1,0,37,1,0
27008,0.6,4,1,0,37,1,0
27010,0.6,4,1,0,37,1,0
27011,1000000,4,1,0,37,1,0
27012,1000000,4,1,0,37,1,0
27013,1000000,4,1,0,37,1,0
27014,1000000,4,1,0,37,1,0
27015,2.26862462012098,1,1,0,37,1,0
27016,0.6,4,1,0,37,1,0
27018,0.6,4,1,0,37,1,0
27019,1000000,4,1,0,37,1,0
27020,1000000,4,1,0,37,1,0
27021,1000000,4,1,0,37,1,0
27022,1000000,4,1,0,37,1,0
27023,2.42430118361189,1,1,0,37,1,0
27024,0.6,4,1,0,37,1,0
27026,0.6,4,1,0,37,1,0
27027,1000000,4,1,0,37,1,0
27028,1000000,4,1,0,37,1,0
27029,1000000,4,1,0,37,1,0
27030,1000000,4,1,0,37,1,0
27031,2.63287140856558,1,1,0,37,1,0
27032,0.6,4,1,0,37,1,0
27034,0.6,4,1,0,37,1,0
27035,1000000,4,1,0,37,1,0
27036,1000000,4,1,0,37,1,0
27037,1000000,4,1,0,37,1,0
27038,1000000,4,1,0,37,1,0
27039,2.93113032886278,1,1,0,37,1,0
27040,0.6,4,1,0,37,1,0
27042,0.6,4,1,0,37,1,0
27043,1000000,4,1,0,37,1,0
27044,1000000,4,1,0,37,1,0
27045,1000000,4,1,0,37,1,0
27046,1000000,4,1,0,37,1,0
27047,3.40293693018146,1,1,0,37,1,0
27048,0.6,4,1,0,37,1,0
27050,0.6,4,1,0,37,1,0
27051,1000000,4,1,0,37,1,0
27052,1000000,4,1,0,37,1,0
27053,1000000,4,1,0,37,1,0
27054,1000000,4,1,0,37,1,0
27055,4.2940283175572,1,1,0,37,1,0
27056,0.6,4,1,0,37,1,0
27058,0.6,4,1,0,37,1,0
27059,1000000,4,1,0,37,1,0
27060,1000000,4,1,0,37,1,0
27061,1000000,4,1,0,37,1,0
27062,1000000,4,1,0,37,1,0
27063,6.80587386036293,1,1,0,37,1,0
27064,0.6,4,1,0,37,1,0
27066,0.6,4,1,0,37,1,0
27067,1000000,4,1,0,37,1,0
27068,1000000,4,1,0,37,1,0
27069,1000000,4,1,0,37,1,0
27070,4000,5,1,0,37,1,0
27071,346.820809248555,3,1,0,37,1,0
27071,-33.3333333333333,4,1,0,37,0,0
27092,-333.333333333333,4,1,0,37,0,0
27157,-100,4,1,0,37,0,0
28111,-33.3333333333333,4,1,0,37,0,0
28133,-333.333333333333,4,1,0,37,0,0
28198,-100,4,1,0,37,0,0
29152,-33.3333333333333,4,1,0,37,0,0
29173,-333.333333333333,4,1,0,37,0,0
29238,-100,4,1,0,37,0,0
30192,-33.3333333333333,4,1,0,37,0,0
30214,-333.333333333333,4,1,0,37,0,0
30279,-100,4,1,0,37,0,0
31232,-33.3333333333333,4,1,0,37,0,0
31254,-333.333333333333,4,1,0,37,0,0
31319,-100,4,1,0,37,0,0
32273,-33.3333333333333,4,1,0,37,0,0
32295,-333.333333333333,4,1,0,37,0,0
32360,-100,4,1,0,37,0,0
33313,-33.3333333333333,4,1,0,37,0,0
33335,-333.333333333333,4,1,0,37,0,0
33400,-100,4,1,0,37,0,0
34354,-33.3333333333333,4,1,0,37,0,0
34376,-333.333333333333,4,1,0,37,0,0
34441,-100,4,1,0,37,0,0
35393,1000000.3,1,1,0,37,1,0
35394,0.3,1,1,0,37,1,0
35741,346.820809248555,1,1,0,37,1,0
36087,1000000.3,1,1,0,37,1,0
36088,0.3,1,1,0,37,1,0
36435,346.820809248555,1,1,0,37,1,0
36781,1000000,3,1,0,37,1,0
36782,0.3,1,1,0,37,1,0
37128,346.820809248555,1,1,0,37,1,0
37301,1000000,3,1,0,37,1,0
37302,0.3,1,1,0,37,1,0
37389,346.820809248555,1,1,0,37,1,0
37474,1000000.3,1,1,0,37,1,0
37475,0.3,1,1,0,37,1,0
37822,346.820809248555,1,1,0,37,1,0
38168,1000000.3,1,1,0,37,1,0
38169,0.3,1,1,0,37,1,0
38516,346.820809248555,1,1,0,37,1,0
38862,1000000.3,1,1,0,37,1,0
38863,0.3,1,1,0,37,1,0
39209,346.820809248555,1,1,0,37,1,0
39555,1000000.3,1,1,0,37,1,0
39556,0.3,1,1,0,37,1,0
39903,346.820809248555,1,1,0,37,1,0
40249,1000000.3,1,1,0,37,1,0
40250,0.3,1,1,0,37,1,0
40597,346.820809248555,1,1,0,37,1,0
40943,1000000,3,1,0,37,1,0
40944,0.3,1,1,0,37,1,0
41290,346.820809248555,1,1,0,37,1,0
41463,1000000,3,1,0,37,1,0
41464,0.3,1,1,0,37,1,0
41551,346.820809248555,1,1,0,37,1,0
41636,1000000.3,1,1,0,37,1,0
41637,0.3,1,1,0,37,1,0
41984,346.820809248555,3,1,0,37,1,0
42330,0.6,4,1,0,37,1,0
42331,1000000,4,1,0,37,1,0
42332,1000000,4,1,0,37,1,0
42333,1000000,4,1,0,37,1,0
42334,1000000,4,1,0,37,1,0
42335,1.27995817889105,1,1,0,37,1,0
42336,0.6,4,1,0,37,1,0
42338,0.6,4,1,0,37,1,0
42339,1000000,4,1,0,37,1,0
42340,1000000,4,1,0,37,1,0
42341,1000000,4,1,0,37,1,0
42342,1000000,4,1,0,37,1,0
42343,1.27604352172381,1,1,0,37,1,0
42344,0.6,4,1,0,37,1,0
42346,0.6,4,1,0,37,1,0
42347,1000000,4,1,0,37,1,0
42348,1000000,4,1,0,37,1,0
42349,1000000,4,1,0,37,1,0
42350,1000000,4,1,0,37,1,0
42351,1.2722034452518,1,1,0,37,1,0
42352,0.6,4,1,0,37,1,0
42354,0.6,4,1,0,37,1,0
42355,1000000,4,1,0,37,1,0
42356,1000000,4,1,0,37,1,0
42357,1000000,4,1,0,37,1,0
42358,1000000,4,1,0,37,1,0
42359,1.26843551933783,1,1,0,37,1,0
42360,0.6,4,1,0,37,1,0
42362,0.6,4,1,0,37,1,0
42363,1000000,4,1,0,37,1,0
42364,1000000,4,1,0,37,1,0
42365,1000000,4,1,0,37,1,0
42366,1000000,4,1,0,37,1,0
42367,1.26473742444725,1,1,0,37,1,0
42368,0.6,4,1,0,37,1,0
42370,0.6,4,1,0,37,1,0
42371,1000000,4,1,0,37,1,0
42372,1000000,4,1,0,37,1,0
42373,1000000,4,1,0,37,1,0
42374,1000000,4,1,0,37,1,0
42375,1.26110694523357,1,1,0,37,1,0
42376,0.6,4,1,0,37,1,0
42378,0.6,4,1,0,37,1,0
42379,1000000,4,1,0,37,1,0
42380,1000000,4,1,0,37,1,0
42381,1000000,4,1,0,37,1,0
42382,1000000,4,1,0,37,1,0
42383,1.25754196457363,1,1,0,37,1,0
42384,0.6,4,1,0,37,1,0
42386,0.6,4,1,0,37,1,0
42387,1000000,4,1,0,37,1,0
42388,1000000,4,1,0,37,1,0
42389,1000000,4,1,0,37,1,0
42390,1000000,4,1,0,37,1,0
42391,1.25404045801566,1,1,0,37,1,0
42392,0.6,4,1,0,37,1,0
42394,0.6,4,1,0,37,1,0
42395,1000000,4,1,0,37,1,0
42396,1000000,4,1,0,37,1,0
42397,1000000,4,1,0,37,1,0
42398,1000000,4,1,0,37,1,0
42399,1.25060048860674,1,1,0,37,1,0
42400,0.6,4,1,0,37,1,0
42402,0.6,4,1,0,37,1,0
42403,1000000,4,1,0,37,1,0
42404,1000000,4,1,0,37,1,0
42405,1000000,4,1,0,37,1,0
42406,1000000,4,1,0,37,1,0
42407,1.24722020206937,1,1,0,37,1,0
42408,0.6,4,1,0,37,1,0
42410,0.6,4,1,0,37,1,0
42411,1000000,4,1,0,37,1,0
42412,1000000,4,1,0,37,1,0
42413,1000000,4,1,0,37,1,0
42414,1000000,4,1,0,37,1,0
42415,1.24389782229979,1,1,0,37,1,0
42416,0.6,4,1,0,37,1,0
42418,0.6,4,1,0,37,1,0
42419,1000000,4,1,0,37,1,0
42420,1000000,4,1,0,37,1,0
42421,1000000,4,1,0,37,1,0
42422,1000000,4,1,0,37,1,0
42423,1.2406316471627,1,1,0,37,1,0
42424,0.6,4,1,0,37,1,0
42426,0.6,4,1,0,37,1,0
42427,1000000,4,1,0,37,1,0
42428,1000000,4,1,0,37,1,0
42429,1000000,4,1,0,37,1,0
42430,1000000,4,1,0,37,1,0
42431,1.23742004455984,1,1,0,37,1,0
42432,0.6,4,1,0,37,1,0
42434,0.6,4,1,0,37,1,0
42435,1000000,4,1,0,37,1,0
42436,1000000,4,1,0,37,1,0
42437,1000000,4,1,0,37,1,0
42438,1000000,4,1,0,37,1,0
42439,1.23426144875137,1,1,0,37,1,0
42440,0.6,4,1,0,37,1,0
42442,0.6,4,1,0,37,1,0
42443,1000000,4,1,0,37,1,0
42444,1000000,4,1,0,37,1,0
42445,1000000,4,1,0,37,1,0
42446,1000000,4,1,0,37,1,0
42447,1.23115435691118,1,1,0,37,1,0
42448,0.6,4,1,0,37,1,0
42450,0.6,4,1,0,37,1,0
42451,1000000,4,1,0,37,1,0
42452,1000000,4,1,0,37,1,0
42453,1000000,4,1,0,37,1,0
42454,1000000,4,1,0,37,1,0
42455,1.2280973258987,1,1,0,37,1,0
42456,0.6,4,1,0,37,1,0
42458,0.6,4,1,0,37,1,0
42459,1000000,4,1,0,37,1,0
42460,1000000,4,1,0,37,1,0
42461,1000000,4,1,0,37,1,0
42462,1000000,4,1,0,37,1,0
42463,1.22508896923125,1,1,0,37,1,0
42464,0.6,4,1,0,37,1,0
42466,0.6,4,1,0,37,1,0
42467,1000000,4,1,0,37,1,0
42468,1000000,4,1,0,37,1,0
42469,1000000,4,1,0,37,1,0
42470,1000000,4,1,0,37,1,0
42471,1.22212795424243,1,1,0,37,1,0
42472,0.6,4,1,0,37,1,0
42474,0.6,4,1,0,37,1,0
42475,1000000,4,1,0,37,1,0
42476,1000000,4,1,0,37,1,0
42477,1000000,4,1,0,37,1,0
42478,1000000,4,1,0,37,1,0
42479,1.21921299941311,1,1,0,37,1,0
42480,0.6,4,1,0,37,1,0
42482,0.6,4,1,0,37,1,0
42483,1000000,4,1,0,37,1,0
42484,1000000,4,1,0,37,1,0
42485,1000000,4,1,0,37,1,0
42486,1000000,4,1,0,37,1,0
42487,1.21634287186283,1,1,0,37,1,0
42488,0.6,4,1,0,37,1,0
42490,0.6,4,1,0,37,1,0
42491,1000000,4,1,0,37,1,0
42492,1000000,4,1,0,37,1,0
42493,1000000,4,1,0,37,1,0
42494,1000000,4,1,0,37,1,0
42495,1.21351638499025,1,1,0,37,1,0
42496,0.6,4,1,0,37,1,0
42498,0.6,4,1,0,37,1,0
42499,1000000,4,1,0,37,1,0
42500,1000000,4,1,0,37,1,0
42501,1000000,4,1,0,37,1,0
42502,1000000,4,1,0,37,1,0
42503,1.2107323962523,1,1,0,37,1,0
42504,0.6,4,1,0,37,1,0
42506,0.6,4,1,0,37,1,0
42507,1000000,4,1,0,37,1,0
42508,1000000,4,1,0,37,1,0
42509,1000000,4,1,0,37,1,0
42510,1000000,4,1,0,37,1,0
42511,1.20798980507258,1,1,0,37,1,0
42512,0.6,4,1,0,37,1,0
42514,0.6,4,1,0,37,1,0
42515,1000000,4,1,0,37,1,0
42516,1000000,4,1,0,37,1,0
42517,1000000,4,1,0,37,1,0
42518,1000000,4,1,0,37,1,0
42519,1.20528755087006,1,1,0,37,1,0
42520,0.6,4,1,0,37,1,0
42522,0.6,4,1,0,37,1,0
42523,1000000,4,1,0,37,1,0
42524,1000000,4,1,0,37,1,0
42525,1000000,4,1,0,37,1,0
42526,1000000,4,1,0,37,1,0
42527,1.20262461120004,1,1,0,37,1,0
42528,0.6,4,1,0,37,1,0
42530,0.6,4,1,0,37,1,0
42531,1000000,4,1,0,37,1,0
42532,1000000,4,1,0,37,1,0
42533,1000000,4,1,0,37,1,0
42534,1000000,4,1,0,37,1,0
42535,1.2,1,1,0,37,1,0
42536,0.6,4,1,0,37,1,0
42538,0.6,4,1,0,37,1,0
42539,1000000,4,1,0,37,1,0
42540,1000000,4,1,0,37,1,0
42541,1000000,4,1,0,37,1,0
42542,1000000,4,1,0,37,1,0
42543,1.19741276593315,1,1,0,37,1,0
42544,0.6,4,1,0,37,1,0
42546,0.6,4,1,0,37,1,0
42547,1000000,4,1,0,37,1,0
42548,1000000,4,1,0,37,1,0
42549,1000000,4,1,0,37,1,0
42550,1000000,4,1,0,37,1,0
42551,1.19486199082357,1,1,0,37,1,0
42552,0.6,4,1,0,37,1,0
42554,0.6,4,1,0,37,1,0
42555,1000000,4,1,0,37,1,0
42556,1000000,4,1,0,37,1,0
42557,1000000,4,1,0,37,1,0
42558,1000000,4,1,0,37,1,0
42559,1.19234678817684,1,1,0,37,1,0
42560,0.6,4,1,0,37,1,0
42562,0.6,4,1,0,37,1,0
42563,1000000,4,1,0,37,1,0
42564,1000000,4,1,0,37,1,0
42565,1000000,4,1,0,37,1,0
42566,1000000,4,1,0,37,1,0
42567,1.18986630178079,1,1,0,37,1,0
42568,0.6,4,1,0,37,1,0
42570,0.6,4,1,0,37,1,0
42571,1000000,4,1,0,37,1,0
42572,1000000,4,1,0,37,1,0
42573,1000000,4,1,0,37,1,0
42574,1000000,4,1,0,37,1,0
42575,1.18741970438117,1,1,0,37,1,0
42576,0.6,4,1,0,37,1,0
42578,0.6,4,1,0,37,1,0
42579,1000000,4,1,0,37,1,0
42580,1000000,4,1,0,37,1,0
42581,1000000,4,1,0,37,1,0
42582,1000000,4,1,0,37,1,0
42583,1.18500619642764,1,1,0,37,1,0
42584,0.6,4,1,0,37,1,0
42586,0.6,4,1,0,37,1,0
42587,1000000,4,1,0,37,1,0
42588,1000000,4,1,0,37,1,0
42589,1000000,4,1,0,37,1,0
42590,1000000,4,1,0,37,1,0
42591,1.18262500488573,1,1,0,37,1,0
42592,0.6,4,1,0,37,1,0
42594,0.6,4,1,0,37,1,0
42595,1000000,4,1,0,37,1,0
42596,1000000,4,1,0,37,1,0
42597,1000000,4,1,0,37,1,0
42598,1000000,4,1,0,37,1,0
42599,1000000,4,1,0,37,1,0
42600,1.18262500488573,1,1,0,37,1,0
42601,0.6,4,1,0,37,1,0
42603,0.6,4,1,0,37,1,0
42604,1000000,4,1,0,37,1,0
42605,1000000,4,1,0,37,1,0
42606,1000000,4,1,0,37,1,0
42607,1000000,4,1,0,37,1,0
42608,1.18819280301649,1,1,0,37,1,0
42609,0.6,4,1,0,37,1,0
42611,0.6,4,1,0,37,1,0
42612,1000000,4,1,0,37,1,0
42613,1000000,4,1,0,37,1,0
42614,1000000,4,1,0,37,1,0
42615,1000000,4,1,0,37,1,0
42616,1.19392085468493,1,1,0,37,1,0
42617,0.6,4,1,0,37,1,0
42619,0.6,4,1,0,37,1,0
42620,1000000,4,1,0,37,1,0
42621,1000000,4,1,0,37,1,0
42622,1000000,4,1,0,37,1,0
42623,1000000,4,1,0,37,1,0
42624,1.19981726511318,1,1,0,37,1,0
42625,0.6,4,1,0,37,1,0
42627,0.6,4,1,0,37,1,0
42628,1000000,4,1,0,37,1,0
42629,1000000,4,1,0,37,1,0
42630,1000000,4,1,0,37,1,0
42631,1000000,4,1,0,37,1,0
42632,1.20589072993984,1,1,0,37,1,0
42633,0.6,4,1,0,37,1,0
42635,0.6,4,1,0,37,1,0
42636,1000000,4,1,0,37,1,0
42637,1000000,4,1,0,37,1,0
42638,1000000,4,1,0,37,1,0
42639,1000000,4,1,0,37,1,0
42640,1.21215059180595,1,1,0,37,1,0
42641,0.6,4,1,0,37,1,0
42643,0.6,4,1,0,37,1,0
42644,1000000,4,1,0,37,1,0
42645,1000000,4,1,0,37,1,0
42646,1000000,4,1,0,37,1,0
42647,1000000,4,1,0,37,1,0
42648,1.21860690371406,1,1,0,37,1,0
42649,0.6,4,1,0,37,1,0
42651,0.6,4,1,0,37,1,0
42652,1000000,4,1,0,37,1,0
42653,1000000,4,1,0,37,1,0
42654,1000000,4,1,0,37,1,0
42655,1000000,4,1,0,37,1,0
42656,1.22527050013924,1,1,0,37,1,0
42657,0.6,4,1,0,37,1,0
42659,0.6,4,1,0,37,1,0
42660,1000000,4,1,0,37,1,0
42661,1000000,4,1,0,37,1,0
42662,1000000,4,1,0,37,1,0
42663,1000000,4,1,0,37,1,0
42664,1.2321530770375,1,1,0,37,1,0
42665,0.6,4,1,0,37,1,0
42667,0.6,4,1,0,37,1,0
42668,1000000,4,1,0,37,1,0
42669,1000000,4,1,0,37,1,0
42670,1000000,4,1,0,37,1,0
42671,1000000,4,1,0,37,1,0
42672,1.23926728209672,1,1,0,37,1,0
42673,0.6,4,1,0,37,1,0
42675,0.6,4,1,0,37,1,0
42676,1000000,4,1,0,37,1,0
42677,1000000,4,1,0,37,1,0
42678,1000000,4,1,0,37,1,0
42679,1000000,4,1,0,37,1,0
42680,1.24662681681536,1,1,0,37,1,0
42681,0.6,4,1,0,37,1,0
42683,0.6,4,1,0,37,1,0
42684,1000000,4,1,0,37,1,0
42685,1000000,4,1,0,37,1,0
42686,1000000,4,1,0,37,1,0
42687,1000000,4,1,0,37,1,0
42688,1.25424655228356,1,1,0,37,1,0
42689,0.6,4,1,0,37,1,0
42691,0.6,4,1,0,37,1,0
42692,1000000,4,1,0,37,1,0
42693,1000000,4,1,0,37,1,0
42694,1000000,4,1,0,37,1,0
42695,1000000,4,1,0,37,1,0
42696,1.26214266089249,1,1,0,37,1,0
42697,0.6,4,1,0,37,1,0
42699,0.6,4,1,0,37,1,0
42700,1000000,4,1,0,37,1,0
42701,1000000,4,1,0,37,1,0
42702,1000000,4,1,0,37,1,0
42703,1000000,4,1,0,37,1,0
42704,1.27033276662484,1,1,0,37,1,0
42705,0.6,4,1,0,37,1,0
42707,0.6,4,1,0,37,1,0
42708,1000000,4,1,0,37,1,0
42709,1000000,4,1,0,37,1,0
42710,1000000,4,1,0,37,1,0
42711,1000000,4,1,0,37,1,0
42712,1.27883611710221,1,1,0,37,1,0
42713,0.6,4,1,0,37,1,0
42715,0.6,4,1,0,37,1,0
42716,1000000,4,1,0,37,1,0
42717,1000000,4,1,0,37,1,0
42718,1000000,4,1,0,37,1,0
42719,1000000,4,1,0,37,1,0
42720,1.28767378120713,1,1,0,37,1,0
42721,0.6,4,1,0,37,1,0
42723,0.6,4,1,0,37,1,0
42724,1000000,4,1,0,37,1,0
42725,1000000,4,1,0,37,1,0
42726,1000000,4,1,0,37,1,0
42727,1000000,4,1,0,37,1,0
42728,1.29686887689061,1,1,0,37,1,0
42729,0.6,4,1,0,37,1,0
42731,0.6,4,1,0,37,1,0
42732,1000000,4,1,0,37,1,0
42733,1000000,4,1,0,37,1,0
42734,1000000,4,1,0,37,1,0
42735,1000000,4,1,0,37,1,0
42736,1.30644683476137,1,1,0,37,1,0
42737,0.6,4,1,0,37,1,0
42739,0.6,4,1,0,37,1,0
42740,1000000,4,1,0,37,1,0
42741,1000000,4,1,0,37,1,0
42742,1000000,4,1,0,37,1,0
42743,1000000,4,1,0,37,1,0
42744,1.31643570428279,1,1,0,37,1,0
42745,0.6,4,1,0,37,1,0
42747,0.6,4,1,0,37,1,0
42748,1000000,4,1,0,37,1,0
42749,1000000,4,1,0,37,1,0
42750,1000000,4,1,0,37,1,0
42751,1000000,4,1,0,37,1,0
42752,1.32686651094884,1,1,0,37,1,0
42753,0.6,4,1,0,37,1,0
42755,0.6,4,1,0,37,1,0
42756,1000000,4,1,0,37,1,0
42757,1000000,4,1,0,37,1,0
42758,1000000,4,1,0,37,1,0
42759,1000000,4,1,0,37,1,0
42760,1.33777367476364,1,1,0,37,1,0
42761,0.6,4,1,0,37,1,0
42763,0.6,4,1,0,37,1,0
42764,1000000,4,1,0,37,1,0
42765,1000000,4,1,0,37,1,0
42766,1000000,4,1,0,37,1,0
42767,1000000,4,1,0,37,1,0
42768,1.34919550283444,1,1,0,37,1,0
42769,0.6,4,1,0,37,1,0
42771,0.6,4,1,0,37,1,0
42772,1000000,4,1,0,37,1,0
42773,1000000,4,1,0,37,1,0
42774,1000000,4,1,0,37,1,0
42775,1000000,4,1,0,37,1,0
42776,1.36117477207259,1,1,0,37,1,0
42777,0.6,4,1,0,37,1,0
42779,0.6,4,1,0,37,1,0
42780,1000000,4,1,0,37,1,0
42781,1000000,4,1,0,37,1,0
42782,1000000,4,1,0,37,1,0
42783,1000000,4,1,0,37,1,0
42784,1.37375942210725,1,1,0,37,1,0
42785,0.6,4,1,0,37,1,0
42787,0.6,4,1,0,37,1,0
42788,1000000,4,1,0,37,1,0
42789,1000000,4,1,0,37,1,0
42790,1000000,4,1,0,37,1,0
42791,1000000,4,1,0,37,1,0
42792,1.38700338386471,1,1,0,37,1,0
42793,0.6,4,1,0,37,1,0
42795,0.6,4,1,0,37,1,0
42796,1000000,4,1,0,37,1,0
42797,1000000,4,1,0,37,1,0
42798,1000000,4,1,0,37,1,0
42799,1000000,4,1,0,37,1,0
42800,1.40096757628098,1,1,0,37,1,0
42801,0.6,4,1,0,37,1,0
42803,0.6,4,1,0,37,1,0
42804,1000000,4,1,0,37,1,0
42805,1000000,4,1,0,37,1,0
42806,1000000,4,1,0,37,1,0
42807,1000000,4,1,0,37,1,0
42808,1.41572111290047,1,1,0,37,1,0
42809,0.6,4,1,0,37,1,0
42811,0.6,4,1,0,37,1,0
42812,1000000,4,1,0,37,1,0
42813,1000000,4,1,0,37,1,0
42814,1000000,4,1,0,37,1,0
42815,1000000,4,1,0,37,1,0
42816,1.43134277251907,1,1,0,37,1,0
42817,0.6,4,1,0,37,1,0
42819,0.6,4,1,0,37,1,0
42820,1000000,4,1,0,37,1,0
42821,1000000,4,1,0,37,1,0
42822,1000000,4,1,0,37,1,0
42823,1000000,4,1,0,37,1,0
42824,1.44792280477421,1,1,0,37,1,0
42825,0.6,4,1,0,37,1,0
42827,0.6,4,1,0,37,1,0
42828,1000000,4,1,0,37,1,0
42829,1000000,4,1,0,37,1,0
42830,1000000,4,1,0,37,1,0
42831,1000000,4,1,0,37,1,0
42832,1.46556516443139,1,1,0,37,1,0
42833,0.6,4,1,0,37,1,0
42835,0.6,4,1,0,37,1,0
42836,1000000,4,1,0,37,1,0
42837,1000000,4,1,0,37,1,0
42838,1000000,4,1,0,37,1,0
42839,1000000,4,1,0,37,1,0
42840,1.48439029965729,1,1,0,37,1,0
42841,0.6,4,1,0,37,1,0
42843,0.6,4,1,0,37,1,0
42844,1000000,4,1,0,37,1,0
42845,1000000,4,1,0,37,1,0
42846,1000000,4,1,0,37,1,0
42847,1000000,4,1,0,37,1,0
42848,1.50453866366303,1,1,0,37,1,0
42849,0.6,4,1,0,37,1,0
42851,0.6,4,1,0,37,1,0
42852,1000000,4,1,0,37,1,0
42853,1000000,4,1,0,37,1,0
42854,1000000,4,1,0,37,1,0
42855,1000000,4,1,0,37,1,0
42856,1.52617518159022,1,1,0,37,1,0
42857,0.6,4,1,0,37,1,0
42859,0.6,4,1,0,37,1,0
42860,1000000,4,1,0,37,1,0
42861,1000000,4,1,0,37,1,0
42862,1000000,4,1,0,37,1,0
42863,1000000,4,1,0,37,1,0
42864,1.54949499438892,1,1,0,37,1,0
42865,0.6,4,1,0,37,1,0
42867,0.6,4,1,0,37,1,0
42868,1000000,4,1,0,37,1,0
42869,1000000,4,1,0,37,1,0
42870,1000000,4,1,0,37,1,0
42871,1000000,4,1,0,37,1,0
42872,1.57473093280149,1,1,0,37,1,0
42873,0.6,4,1,0,37,1,0
42875,0.6,4,1,0,37,1,0
42876,1000000,4,1,0,37,1,0
42877,1000000,4,1,0,37,1,0
42878,1000000,4,1,0,37,1,0
42879,1000000,4,1,0,37,1,0
42880,1.60216336997844,1,1,0,37,1,0
42881,0.6,4,1,0,37,1,0
42883,0.6,4,1,0,37,1,0
42884,1000000,4,1,0,37,1,0
42885,1000000,4,1,0,37,1,0
42886,1000000,4,1,0,37,1,0
42887,1000000,4,1,0,37,1,0
42888,1.6321333976052,1,1,0,37,1,0
42889,0.6,4,1,0,37,1,0
42891,0.6,4,1,0,37,1,0
42892,1000000,4,1,0,37,1,0
42893,1000000,4,1,0,37,1,0
42894,1000000,4,1,0,37,1,0
42895,1000000,4,1,0,37,1,0
42896,1.66506072952605,1,1,0,37,1,0
42897,0.6,4,1,0,37,1,0
42899,0.6,4,1,0,37,1,0
42900,1000000,4,1,0,37,1,0
42901,1000000,4,1,0,37,1,0
42902,1000000,4,1,0,37,1,0
42903,1000000,4,1,0,37,1,0
42904,1.70146846509073,1,1,0,37,1,0
42905,0.6,4,1,0,37,1,0
42907,0.6,4,1,0,37,1,0
42908,1000000,4,1,0,37,1,0
42909,1000000,4,1,0,37,1,0
42910,1000000,4,1,0,37,1,0
42911,1000000,4,1,0,37,1,0
42912,1.74201803040325,1,1,0,37,1,0
42913,0.6,4,1,0,37,1,0
42915,0.6,4,1,0,37,1,0
42916,1000000,4,1,0,37,1,0
42917,1000000,4,1,0,37,1,0
42918,1000000,4,1,0,37,1,0
42919,1000000,4,1,0,37,1,0
42920,1.78755960494611,1,1,0,37,1,0
42921,0.6,4,1,0,37,1,0
42923,0.6,4,1,0,37,1,0
42924,1000000,4,1,0,37,1,0
42925,1000000,4,1,0,37,1,0
42926,1000000,4,1,0,37,1,0
42927,1000000,4,1,0,37,1,0
42928,1.83920679128962,1,1,0,37,1,0
42929,0.6,4,1,0,37,1,0
42931,0.6,4,1,0,37,1,0
42932,1000000,4,1,0,37,1,0
42933,1000000,4,1,0,37,1,0
42934,1000000,4,1,0,37,1,0
42935,1000000,4,1,0,37,1,0
42936,1.89845050233966,1,1,0,37,1,0
42937,0.6,4,1,0,37,1,0
42939,0.6,4,1,0,37,1,0
42940,1000000,4,1,0,37,1,0
42941,1000000,4,1,0,37,1,0
42942,1000000,4,1,0,37,1,0
42943,1000000,4,1,0,37,1,0
42944,1.96733874538726,1,1,0,37,1,0
42945,0.6,4,1,0,37,1,0
42947,0.6,4,1,0,37,1,0
42948,1000000,4,1,0,37,1,0
42949,1000000,4,1,0,37,1,0
42950,1000000,4,1,0,37,1,0
42951,1000000,4,1,0,37,1,0
42952,2.04877217867465,1,1,0,37,1,0
42953,0.6,4,1,0,37,1,0
42955,0.6,4,1,0,37,1,0
42956,1000000,4,1,0,37,1,0
42957,1000000,4,1,0,37,1,0
42958,1000000,4,1,0,37,1,0
42959,1000000,4,1,0,37,1,0
42960,2.1470141587786,1,1,0,37,1,0
42961,0.6,4,1,0,37,1,0
42963,0.6,4,1,0,37,1,0
42964,1000000,4,1,0,37,1,0
42965,1000000,4,1,0,37,1,0
42966,1000000,4,1,0,37,1,0
42967,1000000,4,1,0,37,1,0
42968,2.26862462012098,1,1,0,37,1,0
42969,0.6,4,1,0,37,1,0
42971,0.6,4,1,0,37,1,0
42972,1000000,4,1,0,37,1,0
42973,1000000,4,1,0,37,1,0
42974,1000000,4,1,0,37,1,0
42975,1000000,4,1,0,37,1,0
42976,2.42430118361189,1,1,0,37,1,0
42977,0.6,4,1,0,37,1,0
42979,0.6,4,1,0,37,1,0
42980,1000000,4,1,0,37,1,0
42981,1000000,4,1,0,37,1,0
42982,1000000,4,1,0,37,1,0
42983,1000000,4,1,0,37,1,0
42984,2.63287140856558,1,1,0,37,1,0
42985,0.6,4,1,0,37,1,0
42987,0.6,4,1,0,37,1,0
42988,1000000,4,1,0,37,1,0
42989,1000000,4,1,0,37,1,0
42990,1000000,4,1,0,37,1,0
42991,1000000,4,1,0,37,1,0
42992,2.93113032886278,1,1,0,37,1,0
42993,0.6,4,1,0,37,1,0
42995,0.6,4,1,0,37,1,0
42996,1000000,4,1,0,37,1,0
42997,1000000,4,1,0,37,1,0
42998,1000000,4,1,0,37,1,0
42999,1000000,4,1,0,37,1,0
43000,3.40293693018146,1,1,0,37,1,0
43001,0.6,4,1,0,37,1,0
43003,0.6,4,1,0,37,1,0
43004,1000000,4,1,0,37,1,0
43005,1000000,4,1,0,37,1,0
43006,1000000,4,1,0,37,1,0
43007,1000000,4,1,0,37,1,0
43008,4.2940283175572,1,1,0,37,1,0
43009,0.6,4,1,0,37,1,0
43011,0.6,4,1,0,37,1,0
43012,1000000,4,1,0,37,1,0
43013,1000000,4,1,0,37,1,0
43014,1000000,4,1,0,37,1,0
43015,1000000,4,1,0,37,1,0
43016,6.80587386036293,1,1,0,37,1,0
43017,0.6,4,1,0,37,1,0
43019,0.6,4,1,0,37,1,0
43020,1000000,4,1,0,37,1,0
43021,1000000,4,1,0,37,1,0
43022,1000000,4,1,0,37,1,0
43023,4000,5,1,0,37,1,0
43024,346.820809248555,4,1,0,37,1,0
44065,346.820809248555,3,1,0,37,1,0
44065,-33.3333333333333,4,1,0,37,0,0
44086,-333.333333333333,4,1,0,37,0,0
44151,-100,4,1,0,37,0,0
45105,-33.3333333333333,4,1,0,37,0,0
45148,-333.333333333333,4,1,0,37,0,0
45278,-100,4,1,0,37,0,0
46145,-33.3333333333333,4,1,0,37,0,0
46189,-333.333333333333,4,1,0,37,0,0
46319,-100,4,1,0,37,0,0
47186,-33.3333333333333,4,1,0,37,0,0
47229,-333.333333333333,4,1,0,37,0,0
47359,-100,4,1,0,37,0,0
47533,-50,4,1,0,37,0,0
47619,-400,4,1,0,37,0,0
47793,-100,4,1,0,37,0,0
47880,-50,4,1,0,37,0,0
47966,-400,4,1,0,37,0,0
48140,-100,4,1,0,37,0,0
48226,-50,4,1,0,37,0,0
48313,-400,4,1,0,37,0,0
48486,-100,4,1,0,37,0,0
48572,346.820809248555,3,1,0,37,1,0
48572,-33.3333333333333,4,1,0,37,0,0
48615,-333.333333333333,4,1,0,37,0,0
48745,-100,4,1,0,37,0,0
49612,-33.3333333333333,4,1,0,37,0,0
49655,-333.333333333333,4,1,0,37,0,0
49785,-100,4,1,0,37,0,0
50652,-33.3333333333333,4,1,0,37,0,0
50696,-333.333333333333,4,1,0,37,0,0
50826,-100,4,1,0,37,0,0
51693,-33.3333333333333,4,1,0,37,0,0
51736,-333.333333333333,4,1,0,37,0,0
51866,-100,4,1,0,37,0,0
52040,-66.6666666666667,4,1,0,37,0,0
52126,-200,4,1,0,37,0,0
52387,-50,4,1,0,37,0,0
52473,-400,4,1,0,37,0,0
52647,-100,4,1,0,37,0,0
52733,-50,4,1,0,37,0,0
52820,-400,4,1,0,37,0,0
52993,-100,4,1,0,37,0,0
53080,0.1,2,1,0,37,1,0
53080,-1000000,4,1,0,37,0,0
53081,999999999,4,1,0,37,1,0
53081,-1000000,4,1,0,37,0,0
53110,999999999,4,1,0,37,1,0
53110,-1000000,4,1,0,37,0,0
53140,0.1,3,1,0,37,1,0
53140,-1000000,4,1,0,37,0,0
53141,999999999,4,1,0,37,1,0
53141,-1000000,4,1,0,37,0,0
53170,999999999,4,1,0,37,1,0
53170,-1000000,4,1,0,37,0,0
53200,0.1,4,1,0,37,1,0
53200,-1000000,4,1,0,37,0,0
53201,999999999,4,1,0,37,1,0
53201,-1000000,4,1,0,37,0,0
53230,999999999,4,1,0,37,1,0
53230,-1000000,4,1,0,37,0,0
53260,0.1,1,1,0,37,1,0
53260,-1000000,4,1,0,37,0,0
53261,999999999,4,1,0,37,1,0
53261,-1000000,4,1,0,37,0,0
53290,999999999,4,1,0,37,1,0
53290,-1000000,4,1,0,37,0,0
53320,6,4,1,0,37,1,0
53320,-1000000,4,1,0,37,0,0
53350,999999999,4,1,0,37,1,0
53350,-1000000,4,1,0,37,0,0
53380,60,3,1,0,37,1,0
53380,-1000000,4,1,0,37,0,0
53410,999999999,4,1,0,37,1,0
53410,-1000000,4,1,0,37,0,0
53427,346.820809248555,3,1,0,37,1,0
54467,-33.3333333333333,4,1,0,37,0,0
54510,-333.333333333333,4,1,0,37,0,0
54640,-100,4,1,0,37,0,0
56548,-50,3,1,0,37,0,0
56635,-400,4,1,0,37,0,0
56808,-100,4,1,0,37,0,0
56895,-50,3,1,0,37,0,0
56981,-400,4,1,0,37,0,0
57155,-100,4,1,0,37,0,0
57242,-50,3,1,0,37,0,0
57328,-400,4,1,0,37,0,0
57502,-100,4,1,0,37,0,0
57588,-66.6666666666667,3,1,0,37,0,0
57675,-200,4,1,0,37,0,0
57848,-100,4,1,0,37,0,0
57935,-66.6666666666667,3,1,0,37,0,0
58022,-200,4,1,0,37,0,0
58195,-100,4,1,0,37,0,0
58282,-66.6666666666667,3,1,0,37,0,0
58369,-200,4,1,0,37,0,0
58542,-100,4,1,0,37,0,0
58629,-66.6666666666667,4,1,0,37,0,0
58716,-200,4,1,0,37,0,0
58889,-100,4,1,0,37,0,0
58976,-66.6666666666667,4,1,0,37,0,0
59062,-200,4,1,0,37,0,0
59236,-100,4,1,0,37,0,0
59322,-66.6666666666667,4,1,0,37,0,0
59409,-200,4,1,0,37,0,0
59583,-100,4,1,0,37,0,0
59669,-66.6666666666667,4,1,0,37,0,0
59756,-200,4,1,0,37,0,0
59929,-100,4,1,0,37,0,0
60016,-66.6666666666667,4,1,0,37,0,0
60103,-200,4,1,0,37,0,0
60276,-100,4,1,0,37,0,0
60363,-50,3,1,0,37,0,0
60450,-400,4,1,0,37,0,0
60623,-100,4,1,0,37,0,0
60710,-50,3,1,0,37,0,0
60796,-400,4,1,0,37,0,0
60970,-100,4,1,0,37,0,0
61057,-8.1E-297,1,1,0,37,1,0
61316,1000000.3,1,1,0,37,1,0
61360,346.820809248555,3,1,0,37,1,0
61360,-50,3,1,0,37,0,0
61403,346.820809248555,3,1,0,37,1,0
61403,-33.3333333333333,3,1,0,37,0,0
61446,-333.333333333333,4,1,0,37,0,0
61576,-100,4,1,0,37,0,0
62443,-33.3333333333333,3,1,0,37,0,0
62465,-333.333333333333,4,1,0,37,0,0
62530,-100,4,1,0,37,0,0
63483,-33.3333333333333,3,1,0,37,0,0
63505,-333.333333333333,4,1,0,37,0,0
63570,-100,4,1,0,37,0,0
64524,-33.3333333333333,3,1,0,37,0,0
64546,-333.333333333333,4,1,0,37,0,0
64611,-100,4,1,0,37,0,0
65218,-50,3,1,0,37,0,0
65304,-400,4,1,0,37,0,0
65478,-100,4,1,0,37,0,0
65564,-50,3,1,0,37,0,0
65651,-400,4,1,0,37,0,0
65824,-100,4,1,0,37,0,0
65911,346.820809248555,3,1,0,37,1,0
65911,-33.3333333333333,3,1,0,37,0,0
65932,-333.333333333333,4,1,0,37,0,0
65997,-100,4,1,0,37,0,0
66951,-33.3333333333333,3,1,0,37,0,0
66973,-333.333333333333,4,1,0,37,0,0
67038,-100,4,1,0,37,0,0
67991,-33.3333333333333,3,1,0,37,0,0
68013,-333.333333333333,4,1,0,37,0,0
68078,-100,4,1,0,37,0,0
69032,-33.3333333333333,3,1,0,37,0,0
69054,-333.333333333333,4,1,0,37,0,0
69119,-100,4,1,0,37,0,0
69726,-50,3,1,0,37,0,0
69812,-400,4,1,0,37,0,0
69986,-100,4,1,0,37,0,0
70072,-50,3,1,0,37,0,0
70159,-400,4,1,0,37,0,0
70332,-100,4,1,0,37,0,0
70417,346.820809248555,3,1,0,37,1,0
70417,-50,3,1,0,37,0,0
70503,-400,4,1,0,37,0,0
70677,-100,4,1,0,37,0,0
71457,-33.3333333333333,4,1,0,37,0,0
71500,-333.333333333333,4,1,0,37,0,0
71630,-100,4,1,0,37,0,0
72497,-33.3333333333333,4,1,0,37,0,0
72541,-333.333333333333,4,1,0,37,0,0
72671,-100,4,1,0,37,0,0
73538,-50,3,1,0,37,0,0
73625,-400,4,1,0,37,0,0
73798,-100,4,1,0,37,0,0
73885,-50,3,1,0,37,0,0
73971,-400,4,1,0,37,0,0
74145,-100,4,1,0,37,0,0
74230,346.820809248555,3,1,0,37,1,0
74230,-50,3,1,0,37,0,0
74316,-400,4,1,0,37,0,0
74490,-100,4,1,0,37,0,0
75270,-33.3333333333333,3,1,0,37,0,0
75313,-333.333333333333,4,1,0,37,0,0
75443,-100,4,1,0,37,0,0
76310,-33.3333333333333,3,1,0,37,0,0
76354,-333.333333333333,4,1,0,37,0,0
76484,-100,4,1,0,37,0,0
78045,-8.1E-297,1,1,0,37,1,0
78304,1000000,3,1,0,37,1,0
78347,346.820809248555,3,1,0,37,1,0
78347,-50,4,1,0,37,0,0
78391,346.820809248555,3,1,0,37,1,1
95038,0.3,1,1,0,37,1,0
95039,-1000000,4,1,0,20,0,0
95045,999999999,4,1,0,20,1,0
95046,999999999,4,1,0,20,1,0
95047,999999999,4,1,0,20,1,0
95048,999999999,4,1,0,20,1,0
95049,999999999,4,1,0,20,1,0
95050,999999999,4,1,0,20,1,0
95051,999999999,4,1,0,20,1,0
95052,999999999,4,1,0,20,1,0
95053,999999999,4,1,0,20,1,0
95054,999999999,4,1,0,20,1,0
95055,999999999,4,1,0,20,1,0
95056,999999999,4,1,0,20,1,0
95057,999999999,4,1,0,20,1,0
95058,999999999,4,1,0,20,1,0
95059,999999999,4,1,0,20,1,0
95060,999999999,4,1,0,20,1,0
95061,999999999,4,1,0,20,1,0
95062,999999999,4,1,0,20,1,0
95063,999999999,4,1,0,20,1,0
95064,999999999,4,1,0,20,1,0
95065,7200,4,1,0,20,1,0
95066,0.1,4,1,0,20,1,0
95069,999999999,4,1,0,20,1,0
95070,999999999,4,1,0,20,1,0
95071,999999999,4,1,0,20,1,0
95072,999999999,4,1,0,20,1,0
95073,999999999,4,1,0,20,1,0
95074,999999999,4,1,0,20,1,0
95075,999999999,4,1,0,20,1,0
95076,999999999,4,1,0,20,1,0
95077,999999999,4,1,0,20,1,0
95078,999999999,4,1,0,20,1,0
95079,999999999,4,1,0,20,1,0
95080,999999999,4,1,0,20,1,0
95081,999999999,4,1,0,20,1,0
95082,999999999,4,1,0,20,1,0
95083,999999999,4,1,0,20,1,0
95084,999999999,4,1,0,20,1,0
95085,999999999,4,1,0,20,1,0
95086,999999999,4,1,0,20,1,0
95087,1800.01800018,4,1,0,20,1,0
95088,0.1,4,1,0,20,1,0
95091,999999999,4,1,0,20,1,0
95092,999999999,4,1,0,20,1,0
95093,999999999,4,1,0,20,1,0
95094,999999999,4,1,0,20,1,0
95095,999999999,4,1,0,20,1,0
95096,999999999,4,1,0,20,1,0
95097,999999999,4,1,0,20,1,0
95098,999999999,4,1,0,20,1,0
95099,999999999,4,1,0,20,1,0
95100,999999999,4,1,0,20,1,0
95101,999999999,4,1,0,20,1,0
95102,999999999,4,1,0,20,1,0
95103,999999999,4,1,0,20,1,0
95104,999999999,4,1,0,20,1,0
95105,999999999,4,1,0,20,1,0
95106,999999999,4,1,0,20,1,0
95107,999999999,4,1,0,20,1,0
95108,999999999,4,1,0,20,1,0
95109,1200,4,1,0,20,1,0
95110,0.1,4,1,0,20,1,0
95113,999999999,4,1,0,20,1,0
95114,999999999,4,1,0,20,1,0
95115,999999999,4,1,0,20,1,0
95116,999999999,4,1,0,20,1,0
95117,999999999,4,1,0,20,1,0
95118,999999999,4,1,0,20,1,0
95119,999999999,4,1,0,20,1,0
95120,999999999,4,1,0,20,1,0
95121,999999999,4,1,0,20,1,0
95122,999999999,4,1,0,20,1,0
95123,999999999,4,1,0,20,1,0
95124,999999999,4,1,0,20,1,0
95125,999999999,4,1,0,20,1,0
95126,999999999,4,1,0,20,1,0
95127,999999999,4,1,0,20,1,0
95128,999999999,4,1,0,20,1,0
95129,999999999,4,1,0,20,1,0
95130,999999999,4,1,0,20,1,0
95131,891.093520264952,4,1,0,20,1,0
95132,0.1,4,1,0,20,1,0
95135,999999999,4,1,0,20,1,0
95136,999999999,4,1,0,20,1,0
95137,999999999,4,1,0,20,1,0
95138,999999999,4,1,0,20,1,0
95139,999999999,4,1,0,20,1,0
95140,999999999,4,1,0,20,1,0
95141,999999999,4,1,0,20,1,0
95142,999999999,4,1,0,20,1,0
95143,999999999,4,1,0,20,1,0
95144,999999999,4,1,0,20,1,0
95145,999999999,4,1,0,20,1,0
95146,999999999,4,1,0,20,1,0
95147,999999999,4,1,0,20,1,0
95148,999999999,4,1,0,20,1,0
95149,999999999,4,1,0,20,1,0
95150,999999999,4,1,0,20,1,0
95151,999999999,4,1,0,20,1,0
95152,999999999,4,1,0,20,1,0
95153,746.891065938033,4,1,0,20,1,0
95154,0.1,4,1,0,20,1,0
95157,999999999,4,1,0,20,1,0
95158,999999999,4,1,0,20,1,0
95159,999999999,4,1,0,20,1,0
95160,999999999,4,1,0,20,1,0
95161,999999999,4,1,0,20,1,0
95162,999999999,4,1,0,20,1,0
95163,999999999,4,1,0,20,1,0
95164,999999999,4,1,0,20,1,0
95165,999999999,4,1,0,20,1,0
95166,999999999,4,1,0,20,1,0
95167,999999999,4,1,0,20,1,0
95168,999999999,4,1,0,20,1,0
95169,999999999,4,1,0,20,1,0
95170,999999999,4,1,0,20,1,0
95171,999999999,4,1,0,20,1,0
95172,999999999,4,1,0,20,1,0
95173,999999999,4,1,0,20,1,0
95174,999999999,4,1,0,20,1,0
95175,600,4,1,0,20,1,0
95176,0.1,4,1,0,20,1,0
95179,999999999,4,1,0,20,1,0
95180,999999999,4,1,0,20,1,0
95181,999999999,4,1,0,20,1,0
95182,999999999,4,1,0,20,1,0
95183,999999999,4,1,0,20,1,0
95184,999999999,4,1,0,20,1,0
95185,999999999,4,1,0,20,1,0
95186,999999999,4,1,0,20,1,0
95187,999999999,4,1,0,20,1,0
95188,999999999,4,1,0,20,1,0
95189,999999999,4,1,0,20,1,0
95190,999999999,4,1,0,20,1,0
95191,999999999,4,1,0,20,1,0
95192,999999999,4,1,0,20,1,0
95193,999999999,4,1,0,20,1,0
95194,999999999,4,1,0,20,1,0
95195,999999999,4,1,0,20,1,0
95196,999999999,4,1,0,20,1,0
95197,529.413321803888,4,1,0,20,1,0
95198,0.1,4,1,0,20,1,0
95201,999999999,4,1,0,20,1,0
95202,999999999,4,1,0,20,1,0
95203,999999999,4,1,0,20,1,0
95204,999999999,4,1,0,20,1,0
95205,999999999,4,1,0,20,1,0
95206,999999999,4,1,0,20,1,0
95207,999999999,4,1,0,20,1,0
95208,999999999,4,1,0,20,1,0
95209,999999999,4,1,0,20,1,0
95210,999999999,4,1,0,20,1,0
95211,999999999,4,1,0,20,1,0
95212,999999999,4,1,0,20,1,0
95213,999999999,4,1,0,20,1,0
95214,999999999,4,1,0,20,1,0
95215,999999999,4,1,0,20,1,0
95216,999999999,4,1,0,20,1,0
95217,999999999,4,1,0,20,1,0
95218,999999999,4,1,0,20,1,0
95219,478.724677459249,4,1,0,20,1,0
95220,0.1,4,1,0,20,1,0
95223,999999999,4,1,0,20,1,0
95224,999999999,4,1,0,20,1,0
95225,999999999,4,1,0,20,1,0
95226,999999999,4,1,0,20,1,0
95227,999999999,4,1,0,20,1,0
95228,999999999,4,1,0,20,1,0
95229,999999999,4,1,0,20,1,0
95230,999999999,4,1,0,20,1,0
95231,999999999,4,1,0,20,1,0
95232,999999999,4,1,0,20,1,0
95233,999999999,4,1,0,20,1,0
95234,999999999,4,1,0,20,1,0
95235,999999999,4,1,0,20,1,0
95236,999999999,4,1,0,20,1,0
95237,999999999,4,1,0,20,1,0
95238,999999999,4,1,0,20,1,0
95239,999999999,4,1,0,20,1,0
95240,999999999,4,1,0,20,1,0
95241,436.894264306467,4,1,0,20,1,0
95242,0.1,4,1,0,20,1,0
95245,999999999,4,1,0,20,1,0
95246,999999999,4,1,0,20,1,0
95247,999999999,4,1,0,20,1,0
95248,999999999,4,1,0,20,1,0
95249,999999999,4,1,0,20,1,0
95250,999999999,4,1,0,20,1,0
95251,999999999,4,1,0,20,1,0
95252,999999999,4,1,0,20,1,0
95253,999999999,4,1,0,20,1,0
95254,999999999,4,1,0,20,1,0
95255,999999999,4,1,0,20,1,0
95256,999999999,4,1,0,20,1,0
95257,999999999,4,1,0,20,1,0
95258,999999999,4,1,0,20,1,0
95259,999999999,4,1,0,20,1,0
95260,999999999,4,1,0,20,1,0
95261,999999999,4,1,0,20,1,0
95262,999999999,4,1,0,20,1,0
95263,400,4,1,0,20,1,0
95264,0.1,4,1,0,20,1,0
95267,999999999,4,1,0,20,1,0
95268,999999999,4,1,0,20,1,0
95269,999999999,4,1,0,20,1,0
95270,999999999,4,1,0,20,1,0
95271,999999999,4,1,0,20,1,0
95272,999999999,4,1,0,20,1,0
95273,999999999,4,1,0,20,1,0
95274,999999999,4,1,0,20,1,0
95275,999999999,4,1,0,20,1,0
95276,999999999,4,1,0,20,1,0
95277,999999999,4,1,0,20,1,0
95278,999999999,4,1,0,20,1,0
95279,999999999,4,1,0,20,1,0
95280,999999999,4,1,0,20,1,0
95281,999999999,4,1,0,20,1,0
95282,999999999,4,1,0,20,1,0
95283,999999999,4,1,0,20,1,0
95284,999999999,4,1,0,20,1,0
95285,327.273322315132,4,1,0,20,1,0
95286,0.1,4,1,0,20,1,0
95289,999999999,4,1,0,20,1,0
95290,999999999,4,1,0,20,1,0
95291,999999999,4,1,0,20,1,0
95292,999999999,4,1,0,20,1,0
95293,999999999,4,1,0,20,1,0
95294,999999999,4,1,0,20,1,0
95295,999999999,4,1,0,20,1,0
95296,999999999,4,1,0,20,1,0
95297,999999999,4,1,0,20,1,0
95298,999999999,4,1,0,20,1,0
95299,999999999,4,1,0,20,1,0
95300,999999999,4,1,0,20,1,0
95301,999999999,4,1,0,20,1,0
95302,999999999,4,1,0,20,1,0
95303,999999999,4,1,0,20,1,0
95304,999999999,4,1,0,20,1,0
95305,999999999,4,1,0,20,1,0
95306,999999999,4,1,0,20,1,0
95307,281.250439453812,4,1,0,20,1,0
95308,0.1,4,1,0,20,1,0
95311,999999999,4,1,0,20,1,0
95312,999999999,4,1,0,20,1,0
95313,999999999,4,1,0,20,1,0
95314,999999999,4,1,0,20,1,0
95315,999999999,4,1,0,20,1,0
95316,999999999,4,1,0,20,1,0
95317,999999999,4,1,0,20,1,0
95318,999999999,4,1,0,20,1,0
95319,999999999,4,1,0,20,1,0
95320,999999999,4,1,0,20,1,0
95321,999999999,4,1,0,20,1,0
95322,999999999,4,1,0,20,1,0
95323,999999999,4,1,0,20,1,0
95324,999999999,4,1,0,20,1,0
95325,999999999,4,1,0,20,1,0
95326,999999999,4,1,0,20,1,0
95327,999999999,4,1,0,20,1,0
95328,999999999,4,1,0,20,1,0
95329,263.930005762472,4,1,0,20,1,0
95330,0.1,4,1,0,20,1,0
95333,999999999,4,1,0,20,1,0
95334,999999999,4,1,0,20,1,0
95335,999999999,4,1,0,20,1,0
95336,999999999,4,1,0,20,1,0
95337,999999999,4,1,0,20,1,0
95338,999999999,4,1,0,20,1,0
95339,999999999,4,1,0,20,1,0
95340,999999999,4,1,0,20,1,0
95341,999999999,4,1,0,20,1,0
95342,999999999,4,1,0,20,1,0
95343,999999999,4,1,0,20,1,0
95344,999999999,4,1,0,20,1,0
95345,999999999,4,1,0,20,1,0
95346,999999999,4,1,0,20,1,0
95347,999999999,4,1,0,20,1,0
95348,999999999,4,1,0,20,1,0
95349,999999999,4,1,0,20,1,0
95350,999999999,4,1,0,20,1,0
95351,232.258364204341,4,1,0,20,1,0
95352,0.1,4,1,0,20,1,0
95355,999999999,4,1,0,20,1,0
95356,999999999,4,1,0,20,1,0
95357,999999999,4,1,0,20,1,0
95358,999999999,4,1,0,20,1,0
95359,999999999,4,1,0,20,1,0
95360,999999999,4,1,0,20,1,0
95361,999999999,4,1,0,20,1,0
95362,999999999,4,1,0,20,1,0
95363,999999999,4,1,0,20,1,0
95364,999999999,4,1,0,20,1,0
95365,999999999,4,1,0,20,1,0
95366,999999999,4,1,0,20,1,0
95367,999999999,4,1,0,20,1,0
95368,999999999,4,1,0,20,1,0
95369,999999999,4,1,0,20,1,0
95370,999999999,4,1,0,20,1,0
95371,999999999,4,1,0,20,1,0
95372,999999999,4,1,0,20,1,0
95373,218.181818181818,4,1,0,20,1,0
95374,0.1,4,1,0,20,1,0
95377,999999999,4,1,0,20,1,0
95378,999999999,4,1,0,20,1,0
95379,999999999,4,1,0,20,1,0
95380,999999999,4,1,0,20,1,0
95381,999999999,4,1,0,20,1,0
95382,999999999,4,1,0,20,1,0
95383,999999999,4,1,0,20,1,0
95384,999999999,4,1,0,20,1,0
95385,999999999,4,1,0,20,1,0
95386,999999999,4,1,0,20,1,0
95387,999999999,4,1,0,20,1,0
95388,999999999,4,1,0,20,1,0
95389,999999999,4,1,0,20,1,0
95390,999999999,4,1,0,20,1,0
95391,999999999,4,1,0,20,1,0
95392,999999999,4,1,0,20,1,0
95393,999999999,4,1,0,20,1,0
95394,999999999,4,1,0,20,1,0
95395,211.764955017594,4,1,0,20,1,0
95396,0.1,4,1,0,20,1,0
95399,999999999,4,1,0,20,1,0
95400,999999999,4,1,0,20,1,0
95401,999999999,4,1,0,20,1,0
95402,999999999,4,1,0,20,1,0
95403,999999999,4,1,0,20,1,0
95404,999999999,4,1,0,20,1,0
95405,999999999,4,1,0,20,1,0
95406,999999999,4,1,0,20,1,0
95407,999999999,4,1,0,20,1,0
95408,999999999,4,1,0,20,1,0
95409,999999999,4,1,0,20,1,0
95410,999999999,4,1,0,20,1,0
95411,999999999,4,1,0,20,1,0
95412,999999999,4,1,0,20,1,0
95413,999999999,4,1,0,20,1,0
95414,999999999,4,1,0,20,1,0
95415,999999999,4,1,0,20,1,0
95416,999999999,4,1,0,20,1,0
95417,200,4,1,0,20,1,0
95418,0.1,4,1,0,20,1,0
95421,999999999,4,1,0,20,1,0
95422,999999999,4,1,0,20,1,0
95423,999999999,4,1,0,20,1,0
95424,999999999,4,1,0,20,1,0
95425,999999999,4,1,0,20,1,0
95426,999999999,4,1,0,20,1,0
95427,999999999,4,1,0,20,1,0
95428,999999999,4,1,0,20,1,0
95429,999999999,4,1,0,20,1,0
95430,999999999,4,1,0,20,1,0
95431,999999999,4,1,0,20,1,0
95432,999999999,4,1,0,20,1,0
95433,999999999,4,1,0,20,1,0
95434,999999999,4,1,0,20,1,0
95435,999999999,4,1,0,20,1,0
95436,999999999,4,1,0,20,1,0
95437,999999999,4,1,0,20,1,0
95438,999999999,4,1,0,20,1,0
95439,189.075828861165,4,1,0,20,1,0
95440,0.1,4,1,0,20,1,0
95443,999999999,4,1,0,20,1,0
95444,999999999,4,1,0,20,1,0
95445,999999999,4,1,0,20,1,0
95446,999999999,4,1,0,20,1,0
95447,999999999,4,1,0,20,1,0
95448,999999999,4,1,0,20,1,0
95449,999999999,4,1,0,20,1,0
95450,999999999,4,1,0,20,1,0
95451,999999999,4,1,0,20,1,0
95452,999999999,4,1,0,20,1,0
95453,999999999,4,1,0,20,1,0
95454,999999999,4,1,0,20,1,0
95455,999999999,4,1,0,20,1,0
95456,999999999,4,1,0,20,1,0
95457,999999999,4,1,0,20,1,0
95458,999999999,4,1,0,20,1,0
95459,999999999,4,1,0,20,1,0
95460,999999999,4,1,0,20,1,0
95461,177.865788404929,4,1,0,20,1,0
95462,0.1,4,1,0,20,1,0
95465,999999999,4,1,0,20,1,0
95466,999999999,4,1,0,20,1,0
95467,999999999,4,1,0,20,1,0
95468,999999999,4,1,0,20,1,0
95469,999999999,4,1,0,20,1,0
95470,999999999,4,1,0,20,1,0
95471,999999999,4,1,0,20,1,0
95472,999999999,4,1,0,20,1,0
95473,999999999,4,1,0,20,1,0
95474,999999999,4,1,0,20,1,0
95475,999999999,4,1,0,20,1,0
95476,999999999,4,1,0,20,1,0
95477,999999999,4,1,0,20,1,0
95478,999999999,4,1,0,20,1,0
95479,999999999,4,1,0,20,1,0
95480,999999999,4,1,0,20,1,0
95481,999999999,4,1,0,20,1,0
95482,999999999,4,1,0,20,1,0
95483,167.442016225131,4,1,0,20,1,0
95484,0.1,4,1,0,20,1,0
95487,999999999,4,1,0,20,1,0
95488,999999999,4,1,0,20,1,0
95489,999999999,4,1,0,20,1,0
95490,999999999,4,1,0,20,1,0
95491,999999999,4,1,0,20,1,0
95492,999999999,4,1,0,20,1,0
95493,999999999,4,1,0,20,1,0
95494,999999999,4,1,0,20,1,0
95495,999999999,4,1,0,20,1,0
95496,999999999,4,1,0,20,1,0
95497,999999999,4,1,0,20,1,0
95498,999999999,4,1,0,20,1,0
95499,999999999,4,1,0,20,1,0
95500,999999999,4,1,0,20,1,0
95501,999999999,4,1,0,20,1,0
95502,999999999,4,1,0,20,1,0
95503,999999999,4,1,0,20,1,0
95504,999999999,4,1,0,20,1,0
95505,160,4,1,0,20,1,0
95506,0.1,4,1,0,20,1,0
95509,999999999,4,1,0,20,1,0
95510,999999999,4,1,0,20,1,0
95511,999999999,4,1,0,20,1,0
95512,999999999,4,1,0,20,1,0
95513,999999999,4,1,0,20,1,0
95514,999999999,4,1,0,20,1,0
95515,999999999,4,1,0,20,1,0
95516,999999999,4,1,0,20,1,0
95517,999999999,4,1,0,20,1,0
95518,999999999,4,1,0,20,1,0
95519,999999999,4,1,0,20,1,0
95520,999999999,4,1,0,20,1,0
95521,999999999,4,1,0,20,1,0
95522,999999999,4,1,0,20,1,0
95523,999999999,4,1,0,20,1,0
95524,999999999,4,1,0,20,1,0
95525,999999999,4,1,0,20,1,0
95526,999999999,4,1,0,20,1,0
95527,156.521875236413,4,1,0,20,1,0
95528,0.1,4,1,0,20,1,0
95531,999999999,4,1,0,20,1,0
95532,999999999,4,1,0,20,1,0
95533,999999999,4,1,0,20,1,0
95534,999999999,4,1,0,20,1,0
95535,999999999,4,1,0,20,1,0
95536,999999999,4,1,0,20,1,0
95537,999999999,4,1,0,20,1,0
95538,999999999,4,1,0,20,1,0
95539,999999999,4,1,0,20,1,0
95540,999999999,4,1,0,20,1,0
95541,999999999,4,1,0,20,1,0
95542,999999999,4,1,0,20,1,0
95543,999999999,4,1,0,20,1,0
95544,999999999,4,1,0,20,1,0
95545,999999999,4,1,0,20,1,0
95546,999999999,4,1,0,20,1,0
95547,999999999,4,1,0,20,1,0
95548,999999999,4,1,0,20,1,0
95549,149.875228871964,4,1,0,20,1,0
95550,0.1,4,1,0,20,1,0
95553,999999999,4,1,0,20,1,0
95554,999999999,4,1,0,20,1,0
95555,999999999,4,1,0,20,1,0
95556,999999999,4,1,0,20,1,0
95557,999999999,4,1,0,20,1,0
95558,999999999,4,1,0,20,1,0
95559,999999999,4,1,0,20,1,0
95560,999999999,4,1,0,20,1,0
95561,999999999,4,1,0,20,1,0
95562,999999999,4,1,0,20,1,0
95563,999999999,4,1,0,20,1,0
95564,999999999,4,1,0,20,1,0
95565,999999999,4,1,0,20,1,0
95566,999999999,4,1,0,20,1,0
95567,999999999,4,1,0,20,1,0
95568,999999999,4,1,0,20,1,0
95569,999999999,4,1,0,20,1,0
95570,999999999,4,1,0,20,1,0
95571,145.161407388232,4,1,0,20,1,0
95572,0.1,4,1,0,20,1,0
95575,999999999,4,1,0,20,1,0
95576,999999999,4,1,0,20,1,0
95577,999999999,4,1,0,20,1,0
95578,999999999,4,1,0,20,1,0
95579,999999999,4,1,0,20,1,0
95580,999999999,4,1,0,20,1,0
95581,999999999,4,1,0,20,1,0
95582,999999999,4,1,0,20,1,0
95583,999999999,4,1,0,20,1,0
95584,999999999,4,1,0,20,1,0
95585,999999999,4,1,0,20,1,0
95586,999999999,4,1,0,20,1,0
95587,999999999,4,1,0,20,1,0
95588,999999999,4,1,0,20,1,0
95589,999999999,4,1,0,20,1,0
95590,999999999,4,1,0,20,1,0
95591,999999999,4,1,0,20,1,0
95592,999999999,4,1,0,20,1,0
95593,140.18691588785,4,1,0,20,1,0
95594,0.1,4,1,0,20,1,0
95597,999999999,4,1,0,20,1,0
95598,999999999,4,1,0,20,1,0
95599,999999999,4,1,0,20,1,0
95600,999999999,4,1,0,20,1,0
95601,999999999,4,1,0,20,1,0
95602,999999999,4,1,0,20,1,0
95603,999999999,4,1,0,20,1,0
95604,999999999,4,1,0,20,1,0
95605,999999999,4,1,0,20,1,0
95606,999999999,4,1,0,20,1,0
95607,999999999,4,1,0,20,1,0
95608,999999999,4,1,0,20,1,0
95609,999999999,4,1,0,20,1,0
95610,999999999,4,1,0,20,1,0
95611,999999999,4,1,0,20,1,0
95612,999999999,4,1,0,20,1,0
95613,999999999,4,1,0,20,1,0
95614,999999999,4,1,0,20,1,0
95615,133.333333333333,4,1,0,20,1,0
95616,0.1,4,1,0,20,1,0
95619,999999999,4,1,0,20,1,0
95620,999999999,4,1,0,20,1,0
95621,999999999,4,1,0,20,1,0
95622,999999999,4,1,0,20,1,0
95623,999999999,4,1,0,20,1,0
95624,999999999,4,1,0,20,1,0
95625,999999999,4,1,0,20,1,0
95626,999999999,4,1,0,20,1,0
95627,999999999,4,1,0,20,1,0
95628,999999999,4,1,0,20,1,0
95629,999999999,4,1,0,20,1,0
95630,999999999,4,1,0,20,1,0
95631,999999999,4,1,0,20,1,0
95632,999999999,4,1,0,20,1,0
95633,999999999,4,1,0,20,1,0
95634,999999999,4,1,0,20,1,0
95635,999999999,4,1,0,20,1,0
95636,999999999,4,1,0,20,1,0
95637,128.388108693373,4,1,0,20,1,0
95638,0.1,4,1,0,20,1,0
95641,999999999,4,1,0,20,1,0
95642,999999999,4,1,0,20,1,0
95643,999999999,4,1,0,20,1,0
95644,999999999,4,1,0,20,1,0
95645,999999999,4,1,0,20,1,0
95646,999999999,4,1,0,20,1,0
95647,999999999,4,1,0,20,1,0
95648,999999999,4,1,0,20,1,0
95649,999999999,4,1,0,20,1,0
95650,999999999,4,1,0,20,1,0
95651,999999999,4,1,0,20,1,0
95652,999999999,4,1,0,20,1,0
95653,999999999,4,1,0,20,1,0
95654,999999999,4,1,0,20,1,0
95655,999999999,4,1,0,20,1,0
95656,999999999,4,1,0,20,1,0
95657,999999999,4,1,0,20,1,0
95658,999999999,4,1,0,20,1,0
95659,126.315789473684,4,1,0,20,1,0
95660,0.1,4,1,0,20,1,0
95663,999999999,4,1,0,20,1,0
95664,999999999,4,1,0,20,1,0
95665,999999999,4,1,0,20,1,0
95666,999999999,4,1,0,20,1,0
95667,999999999,4,1,0,20,1,0
95668,999999999,4,1,0,20,1,0
95669,999999999,4,1,0,20,1,0
95670,999999999,4,1,0,20,1,0
95671,999999999,4,1,0,20,1,0
95672,999999999,4,1,0,20,1,0
95673,999999999,4,1,0,20,1,0
95674,999999999,4,1,0,20,1,0
95675,999999999,4,1,0,20,1,0
95676,999999999,4,1,0,20,1,0
95677,999999999,4,1,0,20,1,0
95678,999999999,4,1,0,20,1,0
95679,999999999,4,1,0,20,1,0
95680,999999999,4,1,0,20,1,0
95681,124.138016646908,4,1,0,20,1,0
95682,0.1,4,1,0,20,1,0
95685,999999999,4,1,0,20,1,0
95686,999999999,4,1,0,20,1,0
95687,999999999,4,1,0,20,1,0
95688,999999999,4,1,0,20,1,0
95689,999999999,4,1,0,20,1,0
95690,999999999,4,1,0,20,1,0
95691,999999999,4,1,0,20,1,0
95692,999999999,4,1,0,20,1,0
95693,999999999,4,1,0,20,1,0
95694,999999999,4,1,0,20,1,0
95695,999999999,4,1,0,20,1,0
95696,999999999,4,1,0,20,1,0
95697,999999999,4,1,0,20,1,0
95698,999999999,4,1,0,20,1,0
95699,999999999,4,1,0,20,1,0
95700,999999999,4,1,0,20,1,0
95701,999999999,4,1,0,20,1,0
95702,999999999,4,1,0,20,1,0
95703,120,4,1,0,20,1,0
95704,0.1,4,1,0,20,1,0
95707,999999999,4,1,0,20,1,0
95708,999999999,4,1,0,20,1,0
95709,999999999,4,1,0,20,1,0
95710,999999999,4,1,0,20,1,0
95711,999999999,4,1,0,20,1,0
95712,999999999,4,1,0,20,1,0
95713,999999999,4,1,0,20,1,0
95714,999999999,4,1,0,20,1,0
95715,999999999,4,1,0,20,1,0
95716,999999999,4,1,0,20,1,0
95717,999999999,4,1,0,20,1,0
95718,999999999,4,1,0,20,1,0
95719,999999999,4,1,0,20,1,0
95720,999999999,4,1,0,20,1,0
95721,999999999,4,1,0,20,1,0
95722,999999999,4,1,0,20,1,0
95723,999999999,4,1,0,20,1,0
95724,999999999,4,1,0,20,1,0
95725,112.500070312544,4,1,0,20,1,0
95726,0.1,4,1,0,20,1,0
95729,999999999,4,1,0,20,1,0
95730,999999999,4,1,0,20,1,0
95731,999999999,4,1,0,20,1,0
95732,999999999,4,1,0,20,1,0
95733,999999999,4,1,0,20,1,0
95734,999999999,4,1,0,20,1,0
95735,999999999,4,1,0,20,1,0
95736,999999999,4,1,0,20,1,0
95737,999999999,4,1,0,20,1,0
95738,999999999,4,1,0,20,1,0
95739,999999999,4,1,0,20,1,0
95740,999999999,4,1,0,20,1,0
95741,999999999,4,1,0,20,1,0
95742,999999999,4,1,0,20,1,0
95743,999999999,4,1,0,20,1,0
95744,999999999,4,1,0,20,1,0
95745,999999999,4,1,0,20,1,0
95746,999999999,4,1,0,20,1,0
95747,109.090909090909,4,1,0,20,1,0
95748,0.1,4,1,0,20,1,0
95751,999999999,4,1,0,20,1,0
95752,999999999,4,1,0,20,1,0
95753,999999999,4,1,0,20,1,0
95754,999999999,4,1,0,20,1,0
95755,999999999,4,1,0,20,1,0
95756,999999999,4,1,0,20,1,0
95757,999999999,4,1,0,20,1,0
95758,999999999,4,1,0,20,1,0
95759,999999999,4,1,0,20,1,0
95760,999999999,4,1,0,20,1,0
95761,999999999,4,1,0,20,1,0
95762,999999999,4,1,0,20,1,0
95763,999999999,4,1,0,20,1,0
95764,999999999,4,1,0,20,1,0
95765,999999999,4,1,0,20,1,0
95766,999999999,4,1,0,20,1,0
95767,999999999,4,1,0,20,1,0
95768,999999999,4,1,0,20,1,0
95769,104.347826086957,4,1,0,20,1,0
95770,0.1,4,1,0,20,1,0
95772,999999999,4,1,0,20,1,0
95773,999999999,4,1,0,20,1,0
95774,999999999,4,1,0,20,1,0
95775,999999999,4,1,0,20,1,0
95776,999999999,4,1,0,20,1,0
95777,999999999,4,1,0,20,1,0
95778,999999999,4,1,0,20,1,0
95779,999999999,4,1,0,20,1,0
95780,999999999,4,1,0,20,1,0
95781,999999999,4,1,0,20,1,0
95782,999999999,4,1,0,20,1,0
95783,999999999,4,1,0,20,1,0
95784,999999999,4,1,0,20,1,0
95785,999999999,4,1,0,20,1,0
95786,999999999,4,1,0,20,1,0
95787,999999999,4,1,0,20,1,0
95788,999999999,4,1,0,20,1,0
95789,999999999,4,1,0,20,1,0
95790,999999999,4,1,0,20,1,0
95791,102.857201632687,4,1,0,20,1,0
95792,0.1,4,1,0,20,1,0
95795,999999999,4,1,0,20,1,0
95796,999999999,4,1,0,20,1,0
95797,999999999,4,1,0,20,1,0
95798,999999999,4,1,0,20,1,0
95799,999999999,4,1,0,20,1,0
95800,999999999,4,1,0,20,1,0
95801,999999999,4,1,0,20,1,0
95802,999999999,4,1,0,20,1,0
95803,999999999,4,1,0,20,1,0
95804,999999999,4,1,0,20,1,0
95805,999999999,4,1,0,20,1,0
95806,999999999,4,1,0,20,1,0
95807,999999999,4,1,0,20,1,0
95808,999999999,4,1,0,20,1,0
95809,999999999,4,1,0,20,1,0
95810,999999999,4,1,0,20,1,0
95811,999999999,4,1,0,20,1,0
95812,999999999,4,1,0,20,1,0
95813,100,1,1,0,37,1,0
95814,999999999,4,1,0,20,1,0
95815,999999999,4,1,0,20,1,0
95816,999999999,4,1,0,20,1,0
95817,999999999,4,1,0,20,1,0
95818,999999999,4,1,0,20,1,0
95819,999999999,4,1,0,20,1,0
95820,999999999,4,1,0,20,1,0
95821,999999999,4,1,0,20,1,0
95822,999999999,4,1,0,20,1,0
95823,999999999,4,1,0,20,1,0
95824,999999999,4,1,0,20,1,0
95825,999999999,4,1,0,20,1,0
95826,999999999,4,1,0,20,1,0
95827,999999999,4,1,0,20,1,0
95828,999999999,4,1,0,20,1,0
95829,999999999,4,1,0,20,1,0
95830,999999999,4,1,0,20,1,0
95831,999999999,4,1,0,20,1,0
95832,999999999,4,1,0,20,1,0
95833,999999999,4,1,0,20,1,0
95834,97.2447325769854,4,1,0,20,1,0
95835,0.1,4,1,0,20,1,0
95838,999999999,4,1,0,20,1,0
95839,999999999,4,1,0,20,1,0
95840,999999999,4,1,0,20,1,0
95841,999999999,4,1,0,20,1,0
95842,999999999,4,1,0,20,1,0
95843,999999999,4,1,0,20,1,0
95844,999999999,4,1,0,20,1,0
95845,999999999,4,1,0,20,1,0
95846,999999999,4,1,0,20,1,0
95847,999999999,4,1,0,20,1,0
95848,999999999,4,1,0,20,1,0
95849,999999999,4,1,0,20,1,0
95850,999999999,4,1,0,20,1,0
95851,999999999,4,1,0,20,1,0
95852,999999999,4,1,0,20,1,0
95853,999999999,4,1,0,20,1,0
95854,999999999,4,1,0,20,1,0
95855,999999999,4,1,0,20,1,0
95856,94.7368919667853,4,1,0,20,1,0
95857,0.1,4,1,0,20,1,0
95860,999999999,4,1,0,20,1,0
95861,999999999,4,1,0,20,1,0
95862,999999999,4,1,0,20,1,0
95863,999999999,4,1,0,20,1,0
95864,999999999,4,1,0,20,1,0
95865,999999999,4,1,0,20,1,0
95866,999999999,4,1,0,20,1,0
95867,999999999,4,1,0,20,1,0
95868,999999999,4,1,0,20,1,0
95869,999999999,4,1,0,20,1,0
95870,999999999,4,1,0,20,1,0
95871,999999999,4,1,0,20,1,0
95872,999999999,4,1,0,20,1,0
95873,999999999,4,1,0,20,1,0
95874,999999999,4,1,0,20,1,0
95875,999999999,4,1,0,20,1,0
95876,999999999,4,1,0,20,1,0
95877,999999999,4,1,0,20,1,0
95878,92.3076923076923,4,1,0,20,1,0
95879,0.1,4,1,0,20,1,0
95882,999999999,4,1,0,20,1,0
95883,999999999,4,1,0,20,1,0
95884,999999999,4,1,0,20,1,0
95885,999999999,4,1,0,20,1,0
95886,999999999,4,1,0,20,1,0
95887,999999999,4,1,0,20,1,0
95888,999999999,4,1,0,20,1,0
95889,999999999,4,1,0,20,1,0
95890,999999999,4,1,0,20,1,0
95891,999999999,4,1,0,20,1,0
95892,999999999,4,1,0,20,1,0
95893,999999999,4,1,0,20,1,0
95894,999999999,4,1,0,20,1,0
95895,999999999,4,1,0,20,1,0
95896,999999999,4,1,0,20,1,0
95897,999999999,4,1,0,20,1,0
95898,999999999,4,1,0,20,1,0
95899,999999999,4,1,0,20,1,0
95900,87.8049208804492,4,1,0,20,1,0
95901,0.1,4,1,0,20,1,0
95904,999999999,4,1,0,20,1,0
95905,999999999,4,1,0,20,1,0
95906,999999999,4,1,0,20,1,0
95907,999999999,4,1,0,20,1,0
95908,999999999,4,1,0,20,1,0
95909,999999999,4,1,0,20,1,0
95910,999999999,4,1,0,20,1,0
95911,999999999,4,1,0,20,1,0
95912,999999999,4,1,0,20,1,0
95913,999999999,4,1,0,20,1,0
95914,999999999,4,1,0,20,1,0
95915,999999999,4,1,0,20,1,0
95916,999999999,4,1,0,20,1,0
95917,999999999,4,1,0,20,1,0
95918,999999999,4,1,0,20,1,0
95919,999999999,4,1,0,20,1,0
95920,999999999,4,1,0,20,1,0
95921,999999999,4,1,0,20,1,0
95922,85.7142857142857,4,1,0,20,1,0
95923,0.1,4,1,0,20,1,0
95926,999999999,4,1,0,20,1,0
95927,999999999,4,1,0,20,1,0
95928,999999999,4,1,0,20,1,0
95929,999999999,4,1,0,20,1,0
95930,999999999,4,1,0,20,1,0
95931,999999999,4,1,0,20,1,0
95932,999999999,4,1,0,20,1,0
95933,999999999,4,1,0,20,1,0
95934,999999999,4,1,0,20,1,0
95935,999999999,4,1,0,20,1,0
95936,999999999,4,1,0,20,1,0
95937,999999999,4,1,0,20,1,0
95938,999999999,4,1,0,20,1,0
95939,999999999,4,1,0,20,1,0
95940,999999999,4,1,0,20,1,0
95941,999999999,4,1,0,20,1,0
95942,999999999,4,1,0,20,1,0
95943,999999999,4,1,0,20,1,0
95944,83.6431615442201,4,1,0,20,1,0
95945,0.1,4,1,0,20,1,0
95948,999999999,4,1,0,20,1,0
95949,999999999,4,1,0,20,1,0
95950,999999999,4,1,0,20,1,0
95951,999999999,4,1,0,20,1,0
95952,999999999,4,1,0,20,1,0
95953,999999999,4,1,0,20,1,0
95954,999999999,4,1,0,20,1,0
95955,999999999,4,1,0,20,1,0
95956,999999999,4,1,0,20,1,0
95957,999999999,4,1,0,20,1,0
95958,999999999,4,1,0,20,1,0
95959,999999999,4,1,0,20,1,0
95960,999999999,4,1,0,20,1,0
95961,999999999,4,1,0,20,1,0
95962,999999999,4,1,0,20,1,0
95963,999999999,4,1,0,20,1,0
95964,999999999,4,1,0,20,1,0
95965,999999999,4,1,0,20,1,0
95966,82.2669480196289,4,1,0,20,1,0
95967,0.1,4,1,0,20,1,0
95970,999999999,4,1,0,20,1,0
95971,999999999,4,1,0,20,1,0
95972,999999999,4,1,0,20,1,0
95973,999999999,4,1,0,20,1,0
95974,999999999,4,1,0,20,1,0
95975,999999999,4,1,0,20,1,0
95976,999999999,4,1,0,20,1,0
95977,999999999,4,1,0,20,1,0
95978,999999999,4,1,0,20,1,0
95979,999999999,4,1,0,20,1,0
95980,999999999,4,1,0,20,1,0
95981,999999999,4,1,0,20,1,0
95982,999999999,4,1,0,20,1,0
95983,999999999,4,1,0,20,1,0
95984,999999999,4,1,0,20,1,0
95985,999999999,4,1,0,20,1,0
95986,999999999,4,1,0,20,1,0
95987,999999999,4,1,0,20,1,0
95988,79.2253869830048,4,1,0,20,1,0
95989,0.1,4,1,0,20,1,0
95992,999999999,4,1,0,20,1,0
95993,999999999,4,1,0,20,1,0
95994,999999999,4,1,0,20,1,0
95995,999999999,4,1,0,20,1,0
95996,999999999,4,1,0,20,1,0
95997,999999999,4,1,0,20,1,0
95998,999999999,4,1,0,20,1,0
95999,999999999,4,1,0,20,1,0
96000,999999999,4,1,0,20,1,0
96001,999999999,4,1,0,20,1,0
96002,999999999,4,1,0,20,1,0
96003,999999999,4,1,0,20,1,0
96004,999999999,4,1,0,20,1,0
96005,999999999,4,1,0,20,1,0
96006,999999999,4,1,0,20,1,0
96007,999999999,4,1,0,20,1,0
96008,999999999,4,1,0,20,1,0
96009,999999999,4,1,0,20,1,0
96010,76.1099687568578,4,1,0,20,1,0
96011,0.1,4,1,0,20,1,0
96014,999999999,4,1,0,20,1,0
96015,999999999,4,1,0,20,1,0
96016,999999999,4,1,0,20,1,0
96017,999999999,4,1,0,20,1,0
96018,999999999,4,1,0,20,1,0
96019,999999999,4,1,0,20,1,0
96020,999999999,4,1,0,20,1,0
96021,999999999,4,1,0,20,1,0
96022,999999999,4,1,0,20,1,0
96023,999999999,4,1,0,20,1,0
96024,999999999,4,1,0,20,1,0
96025,999999999,4,1,0,20,1,0
96026,999999999,4,1,0,20,1,0
96027,999999999,4,1,0,20,1,0
96028,999999999,4,1,0,20,1,0
96029,999999999,4,1,0,20,1,0
96030,999999999,4,1,0,20,1,0
96031,999999999,4,1,0,20,1,0
96032,73.3197854663077,4,1,0,20,1,0
96033,0.1,4,1,0,20,1,0
96036,999999999,4,1,0,20,1,0
96037,999999999,4,1,0,20,1,0
96038,999999999,4,1,0,20,1,0
96039,999999999,4,1,0,20,1,0
96040,999999999,4,1,0,20,1,0
96041,999999999,4,1,0,20,1,0
96042,999999999,4,1,0,20,1,0
96043,999999999,4,1,0,20,1,0
96044,999999999,4,1,0,20,1,0
96045,999999999,4,1,0,20,1,0
96046,999999999,4,1,0,20,1,0
96047,999999999,4,1,0,20,1,0
96048,999999999,4,1,0,20,1,0
96049,999999999,4,1,0,20,1,0
96050,999999999,4,1,0,20,1,0
96051,999999999,4,1,0,20,1,0
96052,999999999,4,1,0,20,1,0
96053,999999999,4,1,0,20,1,0
96054,69.0979152007352,4,1,0,20,1,0
96055,0.1,4,1,0,20,1,0
96058,999999999,4,1,0,20,1,0
96059,999999999,4,1,0,20,1,0
96060,999999999,4,1,0,20,1,0
96061,999999999,4,1,0,20,1,0
96062,999999999,4,1,0,20,1,0
96063,999999999,4,1,0,20,1,0
96064,999999999,4,1,0,20,1,0
96065,999999999,4,1,0,20,1,0
96066,999999999,4,1,0,20,1,0
96067,999999999,4,1,0,20,1,0
96068,999999999,4,1,0,20,1,0
96069,999999999,4,1,0,20,1,0
96070,999999999,4,1,0,20,1,0
96071,999999999,4,1,0,20,1,0
96072,999999999,4,1,0,20,1,0
96073,999999999,4,1,0,20,1,0
96074,999999999,4,1,0,20,1,0
96075,999999999,4,1,0,20,1,0
96076,66.6666666666667,4,1,0,20,1,0
96077,0.1,4,1,0,20,1,0
96080,999999999,4,1,0,20,1,0
96081,999999999,4,1,0,20,1,0
96082,999999999,4,1,0,20,1,0
96083,999999999,4,1,0,20,1,0
96084,999999999,4,1,0,20,1,0
96085,999999999,4,1,0,20,1,0
96086,999999999,4,1,0,20,1,0
96087,999999999,4,1,0,20,1,0
96088,999999999,4,1,0,20,1,0
96089,999999999,4,1,0,20,1,0
96090,999999999,4,1,0,20,1,0
96091,999999999,4,1,0,20,1,0
96092,999999999,4,1,0,20,1,0
96093,999999999,4,1,0,20,1,0
96094,999999999,4,1,0,20,1,0
96095,999999999,4,1,0,20,1,0
96096,999999999,4,1,0,20,1,0
96097,999999999,4,1,0,20,1,0
96098,63.1357639900961,4,1,0,20,1,0
96099,0.1,4,1,0,20,1,0
96102,999999999,4,1,0,20,1,0
96103,999999999,4,1,0,20,1,0
96104,999999999,4,1,0,20,1,0
96105,999999999,4,1,0,20,1,0
96106,999999999,4,1,0,20,1,0
96107,999999999,4,1,0,20,1,0
96108,999999999,4,1,0,20,1,0
96109,999999999,4,1,0,20,1,0
96110,999999999,4,1,0,20,1,0
96111,999999999,4,1,0,20,1,0
96112,999999999,4,1,0,20,1,0
96113,999999999,4,1,0,20,1,0
96114,999999999,4,1,0,20,1,0
96115,999999999,4,1,0,20,1,0
96116,999999999,4,1,0,20,1,0
96117,999999999,4,1,0,20,1,0
96118,999999999,4,1,0,20,1,0
96119,999999999,4,1,0,20,1,0
96120,58.0645348595274,4,1,0,20,1,0
96121,0.1,4,1,0,20,1,0
96124,999999999,4,1,0,20,1,0
96125,999999999,4,1,0,20,1,0
96126,999999999,4,1,0,20,1,0
96127,999999999,4,1,0,20,1,0
96128,999999999,4,1,0,20,1,0
96129,999999999,4,1,0,20,1,0
96130,999999999,4,1,0,20,1,0
96131,999999999,4,1,0,20,1,0
96132,999999999,4,1,0,20,1,0
96133,999999999,4,1,0,20,1,0
96134,999999999,4,1,0,20,1,0
96135,999999999,4,1,0,20,1,0
96136,999999999,4,1,0,20,1,0
96137,999999999,4,1,0,20,1,0
96138,999999999,4,1,0,20,1,0
96139,999999999,4,1,0,20,1,0
96140,999999999,4,1,0,20,1,0
96141,999999999,4,1,0,20,1,0
96142,52.1739130434783,4,1,0,20,1,0
96143,0.1,4,1,0,20,1,0
96146,999999999,4,1,0,20,1,0
96147,999999999,4,1,0,20,1,0
96148,999999999,4,1,0,20,1,0
96149,999999999,4,1,0,20,1,0
96150,999999999,4,1,0,20,1,0
96151,999999999,4,1,0,20,1,0
96152,999999999,4,1,0,20,1,0
96153,999999999,4,1,0,20,1,0
96154,999999999,4,1,0,20,1,0
96155,999999999,4,1,0,20,1,0
96156,999999999,4,1,0,20,1,0
96157,999999999,4,1,0,20,1,0
96158,999999999,4,1,0,20,1,0
96159,999999999,4,1,0,20,1,0
96160,999999999,4,1,0,20,1,0
96161,999999999,4,1,0,20,1,0
96162,999999999,4,1,0,20,1,0
96163,999999999,4,1,0,20,1,0
96164,47.0588235294118,4,1,0,20,1,0
96165,0.1,4,1,0,20,1,0
96168,999999999,4,1,0,20,1,0
96169,999999999,4,1,0,20,1,0
96170,999999999,4,1,0,20,1,0
96171,999999999,4,1,0,20,1,0
96172,999999999,4,1,0,20,1,0
96173,999999999,4,1,0,20,1,0
96174,999999999,4,1,0,20,1,0
96175,999999999,4,1,0,20,1,0
96176,999999999,4,1,0,20,1,0
96177,999999999,4,1,0,20,1,0
96178,999999999,4,1,0,20,1,0
96179,999999999,4,1,0,20,1,0
96180,999999999,4,1,0,20,1,0
96181,999999999,4,1,0,20,1,0
96182,999999999,4,1,0,20,1,0
96183,999999999,4,1,0,20,1,0
96184,999999999,4,1,0,20,1,0
96185,999999999,4,1,0,20,1,0
96186,28.1250043945319,4,1,0,20,1,0
96187,0.1,4,1,0,20,1,0
96190,999999999,4,1,0,20,1,0
96191,999999999,4,1,0,20,1,0
96192,999999999,4,1,0,20,1,0
96193,999999999,4,1,0,20,1,0
96194,999999999,4,1,0,20,1,0
96195,999999999,4,1,0,20,1,0
96196,999999999,4,1,0,20,1,0
96197,999999999,4,1,0,20,1,0
96198,999999999,4,1,0,20,1,0
96199,999999999,4,1,0,20,1,0
96200,999999999,4,1,0,20,1,0
96201,999999999,4,1,0,20,1,0
96202,999999999,4,1,0,20,1,0
96203,999999999,4,1,0,20,1,0
96204,999999999,4,1,0,20,1,0
96205,999999999,4,1,0,20,1,0
96206,999999999,4,1,0,20,1,0
96207,999999999,4,1,0,20,1,0
96208,25.2596162306506,4,1,0,20,1,0
96209,0.1,4,1,0,20,1,0
96212,999999999,4,1,0,20,1,0
96213,999999999,4,1,0,20,1,0
96214,999999999,4,1,0,20,1,0
96215,999999999,4,1,0,20,1,0
96216,999999999,4,1,0,20,1,0
96217,999999999,4,1,0,20,1,0
96218,999999999,4,1,0,20,1,0
96219,999999999,4,1,0,20,1,0
96220,999999999,4,1,0,20,1,0
96221,999999999,4,1,0,20,1,0
96222,999999999,4,1,0,20,1,0
96223,999999999,4,1,0,20,1,0
96224,999999999,4,1,0,20,1,0
96225,999999999,4,1,0,20,1,0
96226,999999999,4,1,0,20,1,0
96227,999999999,4,1,0,20,1,0
96228,999999999,4,1,0,20,1,0
96229,999999999,4,1,0,20,1,0
96230,22.1538488804737,4,1,0,20,1,0
96231,0.1,4,1,0,20,1,0
96234,999999999,4,1,0,20,1,0
96235,999999999,4,1,0,20,1,0
96236,999999999,4,1,0,20,1,0
96237,999999999,4,1,0,20,1,0
96238,999999999,4,1,0,20,1,0
96239,999999999,4,1,0,20,1,0
96240,999999999,4,1,0,20,1,0
96241,999999999,4,1,0,20,1,0
96242,999999999,4,1,0,20,1,0
96243,999999999,4,1,0,20,1,0
96244,999999999,4,1,0,20,1,0
96245,999999999,4,1,0,20,1,0
96246,999999999,4,1,0,20,1,0
96247,999999999,4,1,0,20,1,0
96248,999999999,4,1,0,20,1,0
96249,999999999,4,1,0,20,1,0
96250,999999999,4,1,0,20,1,0
96251,999999999,4,1,0,20,1,0
96252,18,4,1,0,20,1,0
96253,0.1,4,1,0,20,1,0
96256,999999999,4,1,0,20,1,0
96257,999999999,4,1,0,20,1,0
96258,999999999,4,1,0,20,1,0
96259,999999999,4,1,0,20,1,0
96260,999999999,4,1,0,20,1,0
96261,999999999,4,1,0,20,1,0
96262,999999999,4,1,0,20,1,0
96263,999999999,4,1,0,20,1,0
96264,999999999,4,1,0,20,1,0
96265,999999999,4,1,0,20,1,0
96266,999999999,4,1,0,20,1,0
96267,999999999,4,1,0,20,1,0
96268,999999999,4,1,0,20,1,0
96269,999999999,4,1,0,20,1,0
96270,999999999,4,1,0,20,1,0
96271,999999999,4,1,0,20,1,0
96272,999999999,4,1,0,20,1,0
96273,999999999,4,1,0,20,1,0
96274,16.32653061,4,1,0,20,1,0
96275,0.1,4,1,0,20,1,0
96278,999999999,4,1,0,20,1,0
96279,999999999,4,1,0,20,1,0
96280,999999999,4,1,0,20,1,0
96281,999999999,4,1,0,20,1,0
96282,999999999,4,1,0,20,1,0
96283,999999999,4,1,0,20,1,0
96284,999999999,4,1,0,20,1,0
96285,999999999,4,1,0,20,1,0
96286,999999999,4,1,0,20,1,0
96287,999999999,4,1,0,20,1,0
96288,999999999,4,1,0,20,1,0
96289,999999999,4,1,0,20,1,0
96290,999999999,4,1,0,20,1,0
96291,999999999,4,1,0,20,1,0
96292,999999999,4,1,0,20,1,0
96293,999999999,4,1,0,20,1,0
96294,999999999,4,1,0,20,1,0
96295,999999999,4,1,0,20,1,0
96296,14.87603306,4,1,0,20,1,0
96297,0.1,4,1,0,20,1,0
96300,999999999,4,1,0,20,1,0
96301,999999999,4,1,0,20,1,0
96302,999999999,4,1,0,20,1,0
96303,999999999,4,1,0,20,1,0
96304,999999999,4,1,0,20,1,0
96305,999999999,4,1,0,20,1,0
96306,999999999,4,1,0,20,1,0
96307,999999999,4,1,0,20,1,0
96308,999999999,4,1,0,20,1,0
96309,999999999,4,1,0,20,1,0
96310,999999999,4,1,0,20,1,0
96311,999999999,4,1,0,20,1,0
96312,999999999,4,1,0,20,1,0
96313,999999999,4,1,0,20,1,0
96314,999999999,4,1,0,20,1,0
96315,999999999,4,1,0,20,1,0
96316,999999999,4,1,0,20,1,0
96317,999999999,4,1,0,20,1,0
96318,13.61058601,4,1,0,20,1,0
96319,0.1,4,1,0,20,1,0
96322,999999999,4,1,0,20,1,0
96323,999999999,4,1,0,20,1,0
96324,999999999,4,1,0,20,1,0
96325,999999999,4,1,0,20,1,0
96326,999999999,4,1,0,20,1,0
96327,999999999,4,1,0,20,1,0
96328,999999999,4,1,0,20,1,0
96329,999999999,4,1,0,20,1,0
96330,999999999,4,1,0,20,1,0
96331,999999999,4,1,0,20,1,0
96332,999999999,4,1,0,20,1,0
96333,999999999,4,1,0,20,1,0
96334,999999999,4,1,0,20,1,0
96335,999999999,4,1,0,20,1,0
96336,999999999,4,1,0,20,1,0
96337,999999999,4,1,0,20,1,0
96338,999999999,4,1,0,20,1,0
96339,999999999,4,1,0,20,1,0
96340,12.5,4,1,0,20,1,0
96341,0.1,4,1,0,20,1,0
96344,999999999,4,1,0,20,1,0
96345,999999999,4,1,0,20,1,0
96346,999999999,4,1,0,20,1,0
96347,999999999,4,1,0,20,1,0
96348,999999999,4,1,0,20,1,0
96349,999999999,4,1,0,20,1,0
96350,999999999,4,1,0,20,1,0
96351,999999999,4,1,0,20,1,0
96352,999999999,4,1,0,20,1,0
96353,999999999,4,1,0,20,1,0
96354,999999999,4,1,0,20,1,0
96355,999999999,4,1,0,20,1,0
96356,999999999,4,1,0,20,1,0
96357,999999999,4,1,0,20,1,0
96358,999999999,4,1,0,20,1,0
96359,999999999,4,1,0,20,1,0
96360,999999999,4,1,0,20,1,0
96361,999999999,4,1,0,20,1,0
96362,11.52,4,1,0,20,1,0
96363,0.1,4,1,0,20,1,0
96366,999999999,4,1,0,20,1,0
96367,999999999,4,1,0,20,1,0
96368,999999999,4,1,0,20,1,0
96369,999999999,4,1,0,20,1,0
96370,999999999,4,1,0,20,1,0
96371,999999999,4,1,0,20,1,0
96372,999999999,4,1,0,20,1,0
96373,999999999,4,1,0,20,1,0
96374,999999999,4,1,0,20,1,0
96375,999999999,4,1,0,20,1,0
96376,999999999,4,1,0,20,1,0
96377,999999999,4,1,0,20,1,0
96378,999999999,4,1,0,20,1,0
96379,999999999,4,1,0,20,1,0
96380,999999999,4,1,0,20,1,0
96381,999999999,4,1,0,20,1,0
96382,999999999,4,1,0,20,1,0
96383,999999999,4,1,0,20,1,0
96384,10.65088757,4,1,0,20,1,0
96385,0.1,4,1,0,20,1,0
96388,999999999,4,1,0,20,1,0
96389,999999999,4,1,0,20,1,0
96390,999999999,4,1,0,20,1,0
96391,999999999,4,1,0,20,1,0
96392,999999999,4,1,0,20,1,0
96393,999999999,4,1,0,20,1,0
96394,999999999,4,1,0,20,1,0
96395,999999999,4,1,0,20,1,0
96396,999999999,4,1,0,20,1,0
96397,999999999,4,1,0,20,1,0
96398,999999999,4,1,0,20,1,0
96399,999999999,4,1,0,20,1,0
96400,999999999,4,1,0,20,1,0
96401,999999999,4,1,0,20,1,0
96402,999999999,4,1,0,20,1,0
96403,999999999,4,1,0,20,1,0
96404,999999999,4,1,0,20,1,0
96405,999999999,4,1,0,20,1,0
96406,9.87654321,4,1,0,20,1,0
96407,0.1,4,1,0,20,1,0
96410,999999999,4,1,0,20,1,0
96411,999999999,4,1,0,20,1,0
96412,999999999,4,1,0,20,1,0
96413,999999999,4,1,0,20,1,0
96414,999999999,4,1,0,20,1,0
96415,999999999,4,1,0,20,1,0
96416,999999999,4,1,0,20,1,0
96417,999999999,4,1,0,20,1,0
96418,999999999,4,1,0,20,1,0
96419,999999999,4,1,0,20,1,0
96420,999999999,4,1,0,20,1,0
96421,999999999,4,1,0,20,1,0
96422,999999999,4,1,0,20,1,0
96423,999999999,4,1,0,20,1,0
96424,999999999,4,1,0,20,1,0
96425,999999999,4,1,0,20,1,0
96426,999999999,4,1,0,20,1,0
96427,999999999,4,1,0,20,1,0
96428,9.183673469,4,1,0,20,1,0
96429,0.1,4,1,0,20,1,0
96432,999999999,4,1,0,20,1,0
96433,999999999,4,1,0,20,1,0
96434,999999999,4,1,0,20,1,0
96435,999999999,4,1,0,20,1,0
96436,999999999,4,1,0,20,1,0
96437,999999999,4,1,0,20,1,0
96438,999999999,4,1,0,20,1,0
96439,999999999,4,1,0,20,1,0
96440,999999999,4,1,0,20,1,0
96441,999999999,4,1,0,20,1,0
96442,999999999,4,1,0,20,1,0
96443,999999999,4,1,0,20,1,0
96444,999999999,4,1,0,20,1,0
96445,999999999,4,1,0,20,1,0
96446,999999999,4,1,0,20,1,0
96447,999999999,4,1,0,20,1,0
96448,999999999,4,1,0,20,1,0
96449,999999999,4,1,0,20,1,0
96450,8.561236623,4,1,0,20,1,0
96451,0.1,4,1,0,20,1,0
96454,999999999,4,1,0,20,1,0
96455,999999999,4,1,0,20,1,0
96456,999999999,4,1,0,20,1,0
96457,999999999,4,1,0,20,1,0
96458,999999999,4,1,0,20,1,0
96459,999999999,4,1,0,20,1,0
96460,999999999,4,1,0,20,1,0
96461,999999999,4,1,0,20,1,0
96462,999999999,4,1,0,20,1,0
96463,999999999,4,1,0,20,1,0
96464,999999999,4,1,0,20,1,0
96465,999999999,4,1,0,20,1,0
96466,999999999,4,1,0,20,1,0
96467,999999999,4,1,0,20,1,0
96468,999999999,4,1,0,20,1,0
96469,999999999,4,1,0,20,1,0
96470,999999999,4,1,0,20,1,0
96471,999999999,4,1,0,20,1,0
96472,8,4,1,0,20,1,0
96473,0.1,4,1,0,20,1,0
96476,999999999,4,1,0,20,1,0
96477,999999999,4,1,0,20,1,0
96478,999999999,4,1,0,20,1,0
96479,999999999,4,1,0,20,1,0
96480,999999999,4,1,0,20,1,0
96481,999999999,4,1,0,20,1,0
96482,999999999,4,1,0,20,1,0
96483,999999999,4,1,0,20,1,0
96484,999999999,4,1,0,20,1,0
96485,999999999,4,1,0,20,1,0
96486,999999999,4,1,0,20,1,0
96487,999999999,4,1,0,20,1,0
96488,999999999,4,1,0,20,1,0
96489,999999999,4,1,0,20,1,0
96490,999999999,4,1,0,20,1,0
96491,999999999,4,1,0,20,1,0
96492,999999999,4,1,0,20,1,0
96493,999999999,4,1,0,20,1,0
96494,7.49219563,4,1,0,20,1,0
96495,0.1,4,1,0,20,1,0
96498,999999999,4,1,0,20,1,0
96499,999999999,4,1,0,20,1,0
96500,999999999,4,1,0,20,1,0
96501,999999999,4,1,0,20,1,0
96502,999999999,4,1,0,20,1,0
96503,999999999,4,1,0,20,1,0
96504,999999999,4,1,0,20,1,0
96505,999999999,4,1,0,20,1,0
96506,999999999,4,1,0,20,1,0
96507,999999999,4,1,0,20,1,0
96508,999999999,4,1,0,20,1,0
96509,999999999,4,1,0,20,1,0
96510,999999999,4,1,0,20,1,0
96511,999999999,4,1,0,20,1,0
96512,999999999,4,1,0,20,1,0
96513,999999999,4,1,0,20,1,0
96514,999999999,4,1,0,20,1,0
96515,999999999,4,1,0,20,1,0
96516,7.03125,4,1,0,20,1,0
96517,0.1,4,1,0,20,1,0
96520,999999999,4,1,0,20,1,0
96521,999999999,4,1,0,20,1,0
96522,999999999,4,1,0,20,1,0
96523,999999999,4,1,0,20,1,0
96524,999999999,4,1,0,20,1,0
96525,999999999,4,1,0,20,1,0
96526,999999999,4,1,0,20,1,0
96527,999999999,4,1,0,20,1,0
96528,999999999,4,1,0,20,1,0
96529,999999999,4,1,0,20,1,0
96530,999999999,4,1,0,20,1,0
96531,999999999,4,1,0,20,1,0
96532,999999999,4,1,0,20,1,0
96533,999999999,4,1,0,20,1,0
96534,999999999,4,1,0,20,1,0
96535,999999999,4,1,0,20,1,0
96536,999999999,4,1,0,20,1,0
96537,999999999,4,1,0,20,1,0
96538,6.611570248,4,1,0,20,1,0
96539,0.1,4,1,0,20,1,0
96542,999999999,4,1,0,20,1,0
96542,-1000000,4,1,0,20,0,0
96543,999999999,4,1,0,20,1,0
96544,999999999,4,1,0,20,1,0
96545,999999999,4,1,0,20,1,0
96546,999999999,4,1,0,20,1,0
96547,999999999,4,1,0,20,1,0
96548,999999999,4,1,0,20,1,0
96549,999999999,4,1,0,20,1,0
96550,999999999,4,1,0,20,1,0
96551,999999999,4,1,0,20,1,0
96552,999999999,4,1,0,20,1,0
96553,999999999,4,1,0,20,1,0
96554,999999999,4,1,0,20,1,0
96555,999999999,4,1,0,20,1,0
96556,999999999,4,1,0,20,1,0
96557,999999999,4,1,0,20,1,0
96558,999999999,4,1,0,20,1,0
96559,999999999,4,1,0,20,1,0
96560,6.228373702,4,1,0,20,1,0
96561,0.1,4,1,0,20,1,0
96564,999999999,4,1,0,20,1,0
96565,999999999,4,1,0,20,1,0
96566,6,4,1,0,20,1,0
96567,0.1,4,1,0,20,1,0
96570,999999999,4,1,0,20,1,0
96571,999999999,4,1,0,20,1,0
96572,999999999,4,1,0,20,1,0
96573,999999999,4,1,0,20,1,0
96574,999999999,4,1,0,20,1,0
96575,999999999,4,1,0,20,1,0
96576,999999999,4,1,0,20,1,0
96577,999999999,4,1,0,20,1,0
96578,999999999,4,1,0,20,1,0
96579,999999999,4,1,0,20,1,0
96580,999999999,4,1,0,20,1,0
96581,999999999,4,1,0,20,1,0
96582,999999999,4,1,0,20,1,0
96583,999999999,4,1,0,20,1,0
96584,999999999,4,1,0,20,1,0
96585,999999999,4,1,0,20,1,0
96586,999999999,4,1,0,20,1,0
96587,999999999,4,1,0,20,1,0
96589,5.87755102,4,1,0,20,1,0
96590,0.1,4,1,0,20,1,0
96593,999999999,4,1,0,20,1,0
96594,999999999,4,1,0,20,1,0
96595,999999999,4,1,0,20,1,0
96596,999999999,4,1,0,20,1,0
96597,999999999,4,1,0,20,1,0
96598,999999999,4,1,0,20,1,0
96599,999999999,4,1,0,20,1,0
96600,999999999,4,1,0,20,1,0
96601,999999999,4,1,0,20,1,0
96602,999999999,4,1,0,20,1,0
96603,999999999,4,1,0,20,1,0
96604,999999999,4,1,0,20,1,0
96605,999999999,4,1,0,20,1,0
96606,999999999,4,1,0,20,1,0
96607,999999999,4,1,0,20,1,0
96608,999999999,4,1,0,20,1,0
96609,999999999,4,1,0,20,1,0
96610,999999999,4,1,0,20,1,0
96611,5.555555556,4,1,0,20,1,0
96612,0.1,4,1,0,20,1,0
96615,999999999,4,1,0,20,1,0
96616,999999999,4,1,0,20,1,0
96617,999999999,4,1,0,20,1,0
96618,999999999,4,1,0,20,1,0
96619,999999999,4,1,0,20,1,0
96620,999999999,4,1,0,20,1,0
96621,999999999,4,1,0,20,1,0
96622,999999999,4,1,0,20,1,0
96623,999999999,4,1,0,20,1,0
96624,999999999,4,1,0,20,1,0
96625,999999999,4,1,0,20,1,0
96626,999999999,4,1,0,20,1,0
96627,999999999,4,1,0,20,1,0
96628,999999999,4,1,0,20,1,0
96629,999999999,4,1,0,20,1,0
96630,999999999,4,1,0,20,1,0
96631,999999999,4,1,0,20,1,0
96632,999999999,4,1,0,20,1,0
96633,5.259313367,4,1,0,20,1,0
96634,0.1,4,1,0,20,1,0
96637,999999999,4,1,0,20,1,0
96638,999999999,4,1,0,20,1,0
96639,999999999,4,1,0,20,1,0
96640,999999999,4,1,0,20,1,0
96641,999999999,4,1,0,20,1,0
96642,999999999,4,1,0,20,1,0
96643,999999999,4,1,0,20,1,0
96644,999999999,4,1,0,20,1,0
96645,999999999,4,1,0,20,1,0
96646,999999999,4,1,0,20,1,0
96647,999999999,4,1,0,20,1,0
96648,999999999,4,1,0,20,1,0
96649,999999999,4,1,0,20,1,0
96650,999999999,4,1,0,20,1,0
96651,999999999,4,1,0,20,1,0
96652,999999999,4,1,0,20,1,0
96653,999999999,4,1,0,20,1,0
96654,999999999,4,1,0,20,1,0
96655,4.986149584,4,1,0,20,1,0
96656,0.1,4,1,0,20,1,0
96659,999999999,4,1,0,20,1,0
96660,999999999,4,1,0,20,1,0
96661,999999999,4,1,0,20,1,0
96662,999999999,4,1,0,20,1,0
96663,999999999,4,1,0,20,1,0
96664,999999999,4,1,0,20,1,0
96665,999999999,4,1,0,20,1,0
96666,999999999,4,1,0,20,1,0
96667,999999999,4,1,0,20,1,0
96668,999999999,4,1,0,20,1,0
96669,999999999,4,1,0,20,1,0
96670,999999999,4,1,0,20,1,0
96671,999999999,4,1,0,20,1,0
96672,999999999,4,1,0,20,1,0
96673,999999999,4,1,0,20,1,0
96674,999999999,4,1,0,20,1,0
96675,999999999,4,1,0,20,1,0
96676,999999999,4,1,0,20,1,0
96677,4.733727811,4,1,0,20,1,0
96678,0.1,4,1,0,20,1,0
96681,999999999,4,1,0,20,1,0
96682,999999999,4,1,0,20,1,0
96683,999999999,4,1,0,20,1,0
96684,999999999,4,1,0,20,1,0
96685,999999999,4,1,0,20,1,0
96686,999999999,4,1,0,20,1,0
96687,999999999,4,1,0,20,1,0
96688,999999999,4,1,0,20,1,0
96689,999999999,4,1,0,20,1,0
96690,999999999,4,1,0,20,1,0
96691,999999999,4,1,0,20,1,0
96692,999999999,4,1,0,20,1,0
96693,999999999,4,1,0,20,1,0
96694,999999999,4,1,0,20,1,0
96695,999999999,4,1,0,20,1,0
96696,999999999,4,1,0,20,1,0
96697,999999999,4,1,0,20,1,0
96698,999999999,4,1,0,20,1,0
96699,4.5,4,1,0,20,1,0
96700,0.1,4,1,0,20,1,0
96703,999999999,4,1,0,20,1,0
96704,999999999,4,1,0,20,1,0
96705,999999999,4,1,0,20,1,0
96706,999999999,4,1,0,20,1,0
96707,999999999,4,1,0,20,1,0
96708,999999999,4,1,0,20,1,0
96709,999999999,4,1,0,20,1,0
96710,999999999,4,1,0,20,1,0
96711,999999999,4,1,0,20,1,0
96712,999999999,4,1,0,20,1,0
96713,999999999,4,1,0,20,1,0
96714,999999999,4,1,0,20,1,0
96715,999999999,4,1,0,20,1,0
96716,999999999,4,1,0,20,1,0
96717,999999999,4,1,0,20,1,0
96718,999999999,4,1,0,20,1,0
96719,999999999,4,1,0,20,1,0
96720,999999999,4,1,0,20,1,0
96721,4.283164783,4,1,0,20,1,0
96722,0.1,4,1,0,20,1,0
96725,999999999,4,1,0,20,1,0
96726,999999999,4,1,0,20,1,0
96727,999999999,4,1,0,20,1,0
96728,999999999,4,1,0,20,1,0
96729,999999999,4,1,0,20,1,0
96730,999999999,4,1,0,20,1,0
96731,999999999,4,1,0,20,1,0
96732,999999999,4,1,0,20,1,0
96733,999999999,4,1,0,20,1,0
96734,999999999,4,1,0,20,1,0
96735,999999999,4,1,0,20,1,0
96736,999999999,4,1,0,20,1,0
96737,999999999,4,1,0,20,1,0
96738,999999999,4,1,0,20,1,0
96739,999999999,4,1,0,20,1,0
96740,999999999,4,1,0,20,1,0
96741,999999999,4,1,0,20,1,0
96742,999999999,4,1,0,20,1,0
96743,4.081632653,4,1,0,20,1,0
96744,0.1,4,1,0,20,1,0
96747,999999999,4,1,0,20,1,0
96748,999999999,4,1,0,20,1,0
96749,999999999,4,1,0,20,1,0
96750,999999999,4,1,0,20,1,0
96751,999999999,4,1,0,20,1,0
96752,999999999,4,1,0,20,1,0
96753,999999999,4,1,0,20,1,0
96754,999999999,4,1,0,20,1,0
96755,999999999,4,1,0,20,1,0
96756,999999999,4,1,0,20,1,0
96757,999999999,4,1,0,20,1,0
96758,999999999,4,1,0,20,1,0
96759,999999999,4,1,0,20,1,0
96760,999999999,4,1,0,20,1,0
96761,999999999,4,1,0,20,1,0
96762,999999999,4,1,0,20,1,0
96763,999999999,4,1,0,20,1,0
96764,999999999,4,1,0,20,1,0
96765,3.893996755,4,1,0,20,1,0
96766,0.1,4,1,0,20,1,0
96769,999999999,4,1,0,20,1,0
96770,999999999,4,1,0,20,1,0
96771,999999999,4,1,0,20,1,0
96772,999999999,4,1,0,20,1,0
96773,999999999,4,1,0,20,1,0
96774,999999999,4,1,0,20,1,0
96775,999999999,4,1,0,20,1,0
96776,999999999,4,1,0,20,1,0
96777,999999999,4,1,0,20,1,0
96778,999999999,4,1,0,20,1,0
96779,999999999,4,1,0,20,1,0
96780,999999999,4,1,0,20,1,0
96781,999999999,4,1,0,20,1,0
96782,999999999,4,1,0,20,1,0
96783,999999999,4,1,0,20,1,0
96784,999999999,4,1,0,20,1,0
96785,999999999,4,1,0,20,1,0
96786,999999999,4,1,0,20,1,0
96787,3.719008264,4,1,0,20,1,0
96788,0.1,4,1,0,20,1,0
96791,999999999,4,1,0,20,1,0
96792,999999999,4,1,0,20,1,0
96793,999999999,4,1,0,20,1,0
96794,999999999,4,1,0,20,1,0
96795,999999999,4,1,0,20,1,0
96796,999999999,4,1,0,20,1,0
96797,999999999,4,1,0,20,1,0
96798,999999999,4,1,0,20,1,0
96799,999999999,4,1,0,20,1,0
96800,999999999,4,1,0,20,1,0
96801,999999999,4,1,0,20,1,0
96802,999999999,4,1,0,20,1,0
96803,999999999,4,1,0,20,1,0
96804,999999999,4,1,0,20,1,0
96805,999999999,4,1,0,20,1,0
96806,999999999,4,1,0,20,1,0
96807,999999999,4,1,0,20,1,0
96808,999999999,4,1,0,20,1,0
96809,3.555555556,4,1,0,20,1,0
96810,0.1,4,1,0,20,1,0
96813,999999999,4,1,0,20,1,0
96814,999999999,4,1,0,20,1,0
96815,999999999,4,1,0,20,1,0
96816,999999999,4,1,0,20,1,0
96817,999999999,4,1,0,20,1,0
96818,999999999,4,1,0,20,1,0
96819,999999999,4,1,0,20,1,0
96820,999999999,4,1,0,20,1,0
96821,999999999,4,1,0,20,1,0
96822,999999999,4,1,0,20,1,0
96823,999999999,4,1,0,20,1,0
96824,999999999,4,1,0,20,1,0
96825,999999999,4,1,0,20,1,0
96826,999999999,4,1,0,20,1,0
96827,999999999,4,1,0,20,1,0
96828,999999999,4,1,0,20,1,0
96829,999999999,4,1,0,20,1,0
96830,999999999,4,1,0,20,1,0
96831,3.402646503,4,1,0,20,1,0
96832,0.1,4,1,0,20,1,0
96835,999999999,4,1,0,20,1,0
96836,999999999,4,1,0,20,1,0
96837,999999999,4,1,0,20,1,0
96838,999999999,4,1,0,20,1,0
96839,999999999,4,1,0,20,1,0
96840,999999999,4,1,0,20,1,0
96841,999999999,4,1,0,20,1,0
96842,999999999,4,1,0,20,1,0
96843,999999999,4,1,0,20,1,0
96844,999999999,4,1,0,20,1,0
96845,999999999,4,1,0,20,1,0
96846,999999999,4,1,0,20,1,0
96847,999999999,4,1,0,20,1,0
96848,999999999,4,1,0,20,1,0
96849,999999999,4,1,0,20,1,0
96850,999999999,4,1,0,20,1,0
96851,999999999,4,1,0,20,1,0
96852,999999999,4,1,0,20,1,0
96853,3.259393391,4,1,0,20,1,0
96854,0.1,4,1,0,20,1,0
96857,999999999,4,1,0,20,1,0
96858,999999999,4,1,0,20,1,0
96859,999999999,4,1,0,20,1,0
96860,999999999,4,1,0,20,1,0
96861,999999999,4,1,0,20,1,0
96862,999999999,4,1,0,20,1,0
96863,999999999,4,1,0,20,1,0
96864,999999999,4,1,0,20,1,0
96865,999999999,4,1,0,20,1,0
96866,999999999,4,1,0,20,1,0
96867,999999999,4,1,0,20,1,0
96868,999999999,4,1,0,20,1,0
96869,999999999,4,1,0,20,1,0
96870,999999999,4,1,0,20,1,0
96871,999999999,4,1,0,20,1,0
96872,999999999,4,1,0,20,1,0
96873,999999999,4,1,0,20,1,0
96874,999999999,4,1,0,20,1,0
96875,3.125,4,1,0,20,1,0
96876,0.1,4,1,0,20,1,0
96879,999999999,4,1,0,20,1,0
96880,999999999,4,1,0,20,1,0
96881,999999999,4,1,0,20,1,0
96882,999999999,4,1,0,20,1,0
96883,999999999,4,1,0,20,1,0
96884,999999999,4,1,0,20,1,0
96885,999999999,4,1,0,20,1,0
96886,999999999,4,1,0,20,1,0
96887,999999999,4,1,0,20,1,0
96888,999999999,4,1,0,20,1,0
96889,999999999,4,1,0,20,1,0
96890,999999999,4,1,0,20,1,0
96891,999999999,4,1,0,20,1,0
96892,999999999,4,1,0,20,1,0
96893,999999999,4,1,0,20,1,0
96894,999999999,4,1,0,20,1,0
96895,999999999,4,1,0,20,1,0
96896,999999999,4,1,0,20,1,0
96897,2.998750521,4,1,0,20,1,0
96898,0.1,4,1,0,20,1,0
96901,999999999,4,1,0,20,1,0
96902,999999999,4,1,0,20,1,0
96903,999999999,4,1,0,20,1,0
96904,999999999,4,1,0,20,1,0
96905,999999999,4,1,0,20,1,0
96906,999999999,4,1,0,20,1,0
96907,999999999,4,1,0,20,1,0
96908,999999999,4,1,0,20,1,0
96909,999999999,4,1,0,20,1,0
96910,999999999,4,1,0,20,1,0
96911,999999999,4,1,0,20,1,0
96912,999999999,4,1,0,20,1,0
96913,999999999,4,1,0,20,1,0
96914,999999999,4,1,0,20,1,0
96915,999999999,4,1,0,20,1,0
96916,999999999,4,1,0,20,1,0
96917,999999999,4,1,0,20,1,0
96918,999999999,4,1,0,20,1,0
96919,2.88,4,1,0,20,1,0
96920,0.1,4,1,0,20,1,0
96923,999999999,4,1,0,20,1,0
96924,999999999,4,1,0,20,1,0
96925,999999999,4,1,0,20,1,0
96926,999999999,4,1,0,20,1,0
96927,999999999,4,1,0,20,1,0
96928,999999999,4,1,0,20,1,0
96929,999999999,4,1,0,20,1,0
96930,999999999,4,1,0,20,1,0
96931,999999999,4,1,0,20,1,0
96932,999999999,4,1,0,20,1,0
96933,999999999,4,1,0,20,1,0
96934,999999999,4,1,0,20,1,0
96935,999999999,4,1,0,20,1,0
96936,999999999,4,1,0,20,1,0
96937,999999999,4,1,0,20,1,0
96938,999999999,4,1,0,20,1,0
96939,999999999,4,1,0,20,1,0
96940,999999999,4,1,0,20,1,0
96941,2.76816609,4,1,0,20,1,0
96942,0.1,4,1,0,20,1,0
96945,999999999,4,1,0,20,1,0
96946,999999999,4,1,0,20,1,0
96947,999999999,4,1,0,20,1,0
96948,999999999,4,1,0,20,1,0
96949,999999999,4,1,0,20,1,0
96950,999999999,4,1,0,20,1,0
96951,999999999,4,1,0,20,1,0
96952,999999999,4,1,0,20,1,0
96953,999999999,4,1,0,20,1,0
96954,999999999,4,1,0,20,1,0
96955,999999999,4,1,0,20,1,0
96956,999999999,4,1,0,20,1,0
96957,999999999,4,1,0,20,1,0
96958,999999999,4,1,0,20,1,0
96959,999999999,4,1,0,20,1,0
96960,999999999,4,1,0,20,1,0
96961,999999999,4,1,0,20,1,0
96962,999999999,4,1,0,20,1,0
96963,2.662721893,4,1,0,20,1,0
96964,0.1,4,1,0,20,1,0
96967,999999999,4,1,0,20,1,0
96968,999999999,4,1,0,20,1,0
96969,999999999,4,1,0,20,1,0
96970,999999999,4,1,0,20,1,0
96971,999999999,4,1,0,20,1,0
96972,999999999,4,1,0,20,1,0
96973,999999999,4,1,0,20,1,0
96974,999999999,4,1,0,20,1,0
96975,999999999,4,1,0,20,1,0
96976,999999999,4,1,0,20,1,0
96977,999999999,4,1,0,20,1,0
96978,999999999,4,1,0,20,1,0
96979,999999999,4,1,0,20,1,0
96980,999999999,4,1,0,20,1,0
96981,999999999,4,1,0,20,1,0
96982,999999999,4,1,0,20,1,0
96983,999999999,4,1,0,20,1,0
96984,999999999,4,1,0,20,1,0
96985,2.563189747,4,1,0,20,1,0
96986,0.1,4,1,0,20,1,0
96989,999999999,4,1,0,20,1,0
96990,999999999,4,1,0,20,1,0
96991,999999999,4,1,0,20,1,0
96992,999999999,4,1,0,20,1,0
96993,999999999,4,1,0,20,1,0
96994,999999999,4,1,0,20,1,0
96995,999999999,4,1,0,20,1,0
96996,999999999,4,1,0,20,1,0
96997,999999999,4,1,0,20,1,0
96998,999999999,4,1,0,20,1,0
96999,999999999,4,1,0,20,1,0
97000,999999999,4,1,0,20,1,0
97001,999999999,4,1,0,20,1,0
97002,999999999,4,1,0,20,1,0
97003,999999999,4,1,0,20,1,0
97004,999999999,4,1,0,20,1,0
97005,999999999,4,1,0,20,1,0
97006,999999999,4,1,0,20,1,0
97007,2.469135802,4,1,0,20,1,0
97008,0.1,4,1,0,20,1,0
97011,999999999,4,1,0,20,1,0
97012,999999999,4,1,0,20,1,0
97013,999999999,4,1,0,20,1,0
97014,999999999,4,1,0,20,1,0
97015,999999999,4,1,0,20,1,0
97016,999999999,4,1,0,20,1,0
97017,999999999,4,1,0,20,1,0
97018,999999999,4,1,0,20,1,0
97019,999999999,4,1,0,20,1,0
97020,999999999,4,1,0,20,1,0
97021,999999999,4,1,0,20,1,0
97022,999999999,4,1,0,20,1,0
97023,999999999,4,1,0,20,1,0
97024,999999999,4,1,0,20,1,0
97025,999999999,4,1,0,20,1,0
97026,999999999,4,1,0,20,1,0
97027,999999999,4,1,0,20,1,0
97028,999999999,4,1,0,20,1,0
97029,2.380165289,4,1,0,20,1,0
97030,0.1,4,1,0,20,1,0
97033,999999999,4,1,0,20,1,0
97034,999999999,4,1,0,20,1,0
97035,999999999,4,1,0,20,1,0
97036,999999999,4,1,0,20,1,0
97037,999999999,4,1,0,20,1,0
97038,999999999,4,1,0,20,1,0
97039,999999999,4,1,0,20,1,0
97040,999999999,4,1,0,20,1,0
97041,999999999,4,1,0,20,1,0
97042,999999999,4,1,0,20,1,0
97043,999999999,4,1,0,20,1,0
97044,999999999,4,1,0,20,1,0
97045,999999999,4,1,0,20,1,0
97046,999999999,4,1,0,20,1,0
97047,999999999,4,1,0,20,1,0
97048,999999999,4,1,0,20,1,0
97049,999999999,4,1,0,20,1,0
97050,999999999,4,1,0,20,1,0
97051,2.295918367,4,1,0,20,1,0
97052,0.1,4,1,0,20,1,0
97055,999999999,4,1,0,20,1,0
97056,999999999,4,1,0,20,1,0
97057,999999999,4,1,0,20,1,0
97058,999999999,4,1,0,20,1,0
97059,999999999,4,1,0,20,1,0
97060,999999999,4,1,0,20,1,0
97061,999999999,4,1,0,20,1,0
97062,999999999,4,1,0,20,1,0
97063,999999999,4,1,0,20,1,0
97064,999999999,4,1,0,20,1,0
97065,999999999,4,1,0,20,1,0
97066,999999999,4,1,0,20,1,0
97067,999999999,4,1,0,20,1,0
97068,999999999,4,1,0,20,1,0
97069,999999999,4,1,0,20,1,0
97070,999999999,4,1,0,20,1,0
97071,999999999,4,1,0,20,1,0
97072,999999999,4,1,0,20,1,0
97073,2.216066482,4,1,0,20,1,0
97074,0.1,4,1,0,20,1,0
97077,999999999,4,1,0,20,1,0
97078,999999999,4,1,0,20,1,0
97079,999999999,4,1,0,20,1,0
97080,999999999,4,1,0,20,1,0
97081,999999999,4,1,0,20,1,0
97082,999999999,4,1,0,20,1,0
97083,999999999,4,1,0,20,1,0
97084,999999999,4,1,0,20,1,0
97085,999999999,4,1,0,20,1,0
97086,999999999,4,1,0,20,1,0
97087,999999999,4,1,0,20,1,0
97088,999999999,4,1,0,20,1,0
97089,999999999,4,1,0,20,1,0
97090,999999999,4,1,0,20,1,0
97091,999999999,4,1,0,20,1,0
97092,999999999,4,1,0,20,1,0
97093,999999999,4,1,0,20,1,0
97094,999999999,4,1,0,20,1,0
97095,2.140309156,4,1,0,20,1,0
97096,0.1,4,1,0,20,1,0
97099,999999999,4,1,0,20,1,0
97100,999999999,4,1,0,20,1,0
97101,999999999,4,1,0,20,1,0
97102,999999999,4,1,0,20,1,0
97103,999999999,4,1,0,20,1,0
97104,999999999,4,1,0,20,1,0
97105,999999999,4,1,0,20,1,0
97106,999999999,4,1,0,20,1,0
97107,999999999,4,1,0,20,1,0
97108,999999999,4,1,0,20,1,0
97109,999999999,4,1,0,20,1,0
97110,999999999,4,1,0,20,1,0
97111,999999999,4,1,0,20,1,0
97112,999999999,4,1,0,20,1,0
97113,999999999,4,1,0,20,1,0
97114,999999999,4,1,0,20,1,0
97115,999999999,4,1,0,20,1,0
97116,999999999,4,1,0,20,1,0
97117,2.068371158,4,1,0,20,1,0
97118,0.1,4,1,0,20,1,0
97121,999999999,4,1,0,20,1,0
97122,999999999,4,1,0,20,1,0
97123,999999999,4,1,0,20,1,0
97124,999999999,4,1,0,20,1,0
97125,999999999,4,1,0,20,1,0
97126,999999999,4,1,0,20,1,0
97127,999999999,4,1,0,20,1,0
97128,999999999,4,1,0,20,1,0
97129,999999999,4,1,0,20,1,0
97130,999999999,4,1,0,20,1,0
97131,999999999,4,1,0,20,1,0
97132,999999999,4,1,0,20,1,0
97133,999999999,4,1,0,20,1,0
97134,999999999,4,1,0,20,1,0
97135,999999999,4,1,0,20,1,0
97136,999999999,4,1,0,20,1,0
97137,999999999,4,1,0,20,1,0
97138,999999999,4,1,0,20,1,0
97139,2,4,1,0,20,1,0
97140,0.1,4,1,0,20,1,0
97143,999999999,4,1,0,20,1,0
97144,999999999,4,1,0,20,1,0
97145,999999999,4,1,0,20,1,0
97146,999999999,4,1,0,20,1,0
97147,999999999,4,1,0,20,1,0
97148,999999999,4,1,0,20,1,0
97149,999999999,4,1,0,20,1,0
97150,999999999,4,1,0,20,1,0
97151,999999999,4,1,0,20,1,0
97152,999999999,4,1,0,20,1,0
97153,999999999,4,1,0,20,1,0
97154,999999999,4,1,0,20,1,0
97155,999999999,4,1,0,20,1,0
97156,999999999,4,1,0,20,1,0
97157,999999999,4,1,0,20,1,0
97158,999999999,4,1,0,20,1,0
97159,999999999,4,1,0,20,1,0
97160,999999999,4,1,0,20,1,0
97161,1.934963719,4,1,0,20,1,0
97162,0.1,4,1,0,20,1,0
97165,999999999,4,1,0,20,1,0
97166,999999999,4,1,0,20,1,0
97167,999999999,4,1,0,20,1,0
97168,999999999,4,1,0,20,1,0
97169,999999999,4,1,0,20,1,0
97170,999999999,4,1,0,20,1,0
97171,999999999,4,1,0,20,1,0
97172,999999999,4,1,0,20,1,0
97173,999999999,4,1,0,20,1,0
97174,999999999,4,1,0,20,1,0
97175,999999999,4,1,0,20,1,0
97176,999999999,4,1,0,20,1,0
97177,999999999,4,1,0,20,1,0
97178,999999999,4,1,0,20,1,0
97179,999999999,4,1,0,20,1,0
97180,999999999,4,1,0,20,1,0
97181,999999999,4,1,0,20,1,0
97182,999999999,4,1,0,20,1,0
97183,1.873048907,4,1,0,20,1,0
97184,0.1,4,1,0,20,1,0
97187,999999999,4,1,0,20,1,0
97188,999999999,4,1,0,20,1,0
97189,999999999,4,1,0,20,1,0
97190,999999999,4,1,0,20,1,0
97191,999999999,4,1,0,20,1,0
97192,999999999,4,1,0,20,1,0
97193,999999999,4,1,0,20,1,0
97194,999999999,4,1,0,20,1,0
97195,999999999,4,1,0,20,1,0
97196,999999999,4,1,0,20,1,0
97197,999999999,4,1,0,20,1,0
97198,999999999,4,1,0,20,1,0
97199,999999999,4,1,0,20,1,0
97200,999999999,4,1,0,20,1,0
97201,999999999,4,1,0,20,1,0
97202,999999999,4,1,0,20,1,0
97203,999999999,4,1,0,20,1,0
97204,999999999,4,1,0,20,1,0
97205,1.814058957,4,1,0,20,1,0
97206,0.1,4,1,0,20,1,0
97209,999999999,4,1,0,20,1,0
97210,999999999,4,1,0,20,1,0
97211,999999999,4,1,0,20,1,0
97212,999999999,4,1,0,20,1,0
97213,999999999,4,1,0,20,1,0
97214,999999999,4,1,0,20,1,0
97215,999999999,4,1,0,20,1,0
97216,999999999,4,1,0,20,1,0
97217,999999999,4,1,0,20,1,0
97218,999999999,4,1,0,20,1,0
97219,999999999,4,1,0,20,1,0
97220,999999999,4,1,0,20,1,0
97221,999999999,4,1,0,20,1,0
97222,999999999,4,1,0,20,1,0
97223,999999999,4,1,0,20,1,0
97224,999999999,4,1,0,20,1,0
97225,999999999,4,1,0,20,1,0
97226,999999999,4,1,0,20,1,0
97227,1.7578125,4,1,0,20,1,0
97228,0.1,4,1,0,20,1,0
97231,999999999,4,1,0,20,1,0
97232,999999999,4,1,0,20,1,0
97233,999999999,4,1,0,20,1,0
97234,999999999,4,1,0,20,1,0
97235,999999999,4,1,0,20,1,0
97236,999999999,4,1,0,20,1,0
97237,999999999,4,1,0,20,1,0
97238,999999999,4,1,0,20,1,0
97239,999999999,4,1,0,20,1,0
97240,999999999,4,1,0,20,1,0
97241,999999999,4,1,0,20,1,0
97242,999999999,4,1,0,20,1,0
97243,999999999,4,1,0,20,1,0
97244,999999999,4,1,0,20,1,0
97245,999999999,4,1,0,20,1,0
97246,999999999,4,1,0,20,1,0
97247,999999999,4,1,0,20,1,0
97248,999999999,4,1,0,20,1,0
97249,1.704142012,4,1,0,20,1,0
97250,0.1,4,1,0,20,1,0
97253,999999999,4,1,0,20,1,0
97254,999999999,4,1,0,20,1,0
97255,999999999,4,1,0,20,1,0
97256,999999999,4,1,0,20,1,0
97257,999999999,4,1,0,20,1,0
97258,999999999,4,1,0,20,1,0
97259,999999999,4,1,0,20,1,0
97260,999999999,4,1,0,20,1,0
97261,999999999,4,1,0,20,1,0
97262,999999999,4,1,0,20,1,0
97263,999999999,4,1,0,20,1,0
97264,999999999,4,1,0,20,1,0
97265,999999999,4,1,0,20,1,0
97266,999999999,4,1,0,20,1,0
97267,999999999,4,1,0,20,1,0
97268,999999999,4,1,0,20,1,0
97269,999999999,4,1,0,20,1,0
97270,999999999,4,1,0,20,1,0
97271,1.652892562,4,1,0,20,1,0
97272,0.1,4,1,0,20,1,0
97275,999999999,4,1,0,20,1,0
97276,999999999,4,1,0,20,1,0
97277,999999999,4,1,0,20,1,0
97278,999999999,4,1,0,20,1,0
97279,999999999,4,1,0,20,1,0
97280,999999999,4,1,0,20,1,0
97281,999999999,4,1,0,20,1,0
97282,999999999,4,1,0,20,1,0
97283,999999999,4,1,0,20,1,0
97284,999999999,4,1,0,20,1,0
97285,999999999,4,1,0,20,1,0
97286,999999999,4,1,0,20,1,0
97287,999999999,4,1,0,20,1,0
97288,999999999,4,1,0,20,1,0
97289,999999999,4,1,0,20,1,0
97290,999999999,4,1,0,20,1,0
97291,999999999,4,1,0,20,1,0
97292,999999999,4,1,0,20,1,0
97293,1.603920695,4,1,0,20,1,0
97294,0.1,4,1,0,20,1,0
97297,999999999,4,1,0,20,1,0
97298,999999999,4,1,0,20,1,0
97299,999999999,4,1,0,20,1,0
97300,999999999,4,1,0,20,1,0
97301,999999999,4,1,0,20,1,0
97302,999999999,4,1,0,20,1,0
97303,999999999,4,1,0,20,1,0
97304,999999999,4,1,0,20,1,0
97305,999999999,4,1,0,20,1,0
97306,999999999,4,1,0,20,1,0
97307,999999999,4,1,0,20,1,0
97308,999999999,4,1,0,20,1,0
97309,999999999,4,1,0,20,1,0
97310,999999999,4,1,0,20,1,0
97311,999999999,4,1,0,20,1,0
97312,999999999,4,1,0,20,1,0
97313,999999999,4,1,0,20,1,0
97314,999999999,4,1,0,20,1,0
97315,1.557093426,4,1,0,20,1,0
97316,0.1,4,1,0,20,1,0
97319,999999999,4,1,0,20,1,0
97320,999999999,4,1,0,20,1,0
97321,999999999,4,1,0,20,1,0
97322,999999999,4,1,0,20,1,0
97323,999999999,4,1,0,20,1,0
97324,999999999,4,1,0,20,1,0
97325,999999999,4,1,0,20,1,0
97326,999999999,4,1,0,20,1,0
97327,999999999,4,1,0,20,1,0
97328,999999999,4,1,0,20,1,0
97329,999999999,4,1,0,20,1,0
97330,999999999,4,1,0,20,1,0
97331,999999999,4,1,0,20,1,0
97332,999999999,4,1,0,20,1,0
97333,999999999,4,1,0,20,1,0
97334,999999999,4,1,0,20,1,0
97335,999999999,4,1,0,20,1,0
97336,999999999,4,1,0,20,1,0
97337,1.512287335,4,1,0,20,1,0
97338,0.1,4,1,0,20,1,0
97341,999999999,4,1,0,20,1,0
97342,999999999,4,1,0,20,1,0
97343,999999999,4,1,0,20,1,0
97344,999999999,4,1,0,20,1,0
97345,999999999,4,1,0,20,1,0
97346,999999999,4,1,0,20,1,0
97347,999999999,4,1,0,20,1,0
97348,999999999,4,1,0,20,1,0
97349,999999999,4,1,0,20,1,0
97350,999999999,4,1,0,20,1,0
97351,999999999,4,1,0,20,1,0
97352,999999999,4,1,0,20,1,0
97353,999999999,4,1,0,20,1,0
97354,999999999,4,1,0,20,1,0
97355,999999999,4,1,0,20,1,0
97356,999999999,4,1,0,20,1,0
97357,999999999,4,1,0,20,1,0
97358,999999999,4,1,0,20,1,0
97359,1.469387755,4,1,0,20,1,0
97360,0.1,4,1,0,20,1,0
97363,999999999,4,1,0,20,1,0
97364,999999999,4,1,0,20,1,0
97365,999999999,4,1,0,20,1,0
97366,999999999,4,1,0,20,1,0
97367,999999999,4,1,0,20,1,0
97368,999999999,4,1,0,20,1,0
97369,999999999,4,1,0,20,1,0
97370,999999999,4,1,0,20,1,0
97371,999999999,4,1,0,20,1,0
97372,999999999,4,1,0,20,1,0
97373,999999999,4,1,0,20,1,0
97374,999999999,4,1,0,20,1,0
97375,999999999,4,1,0,20,1,0
97376,999999999,4,1,0,20,1,0
97377,999999999,4,1,0,20,1,0
97378,999999999,4,1,0,20,1,0
97379,999999999,4,1,0,20,1,0
97380,999999999,4,1,0,20,1,0
97381,1.428288038,4,1,0,20,1,0
97382,0.1,4,1,0,20,1,0
97385,999999999,4,1,0,20,1,0
97386,999999999,4,1,0,20,1,0
97387,999999999,4,1,0,20,1,0
97388,999999999,4,1,0,20,1,0
97389,999999999,4,1,0,20,1,0
97390,999999999,4,1,0,20,1,0
97391,999999999,4,1,0,20,1,0
97392,999999999,4,1,0,20,1,0
97393,999999999,4,1,0,20,1,0
97394,999999999,4,1,0,20,1,0
97395,999999999,4,1,0,20,1,0
97396,999999999,4,1,0,20,1,0
97397,999999999,4,1,0,20,1,0
97398,999999999,4,1,0,20,1,0
97399,999999999,4,1,0,20,1,0
97400,999999999,4,1,0,20,1,0
97401,999999999,4,1,0,20,1,0
97402,999999999,4,1,0,20,1,0
97403,1.388888889,4,1,0,20,1,0
97404,0.1,4,1,0,20,1,0
97407,999999999,4,1,0,20,1,0
97408,999999999,4,1,0,20,1,0
97409,999999999,4,1,0,20,1,0
97410,999999999,4,1,0,20,1,0
97411,999999999,4,1,0,20,1,0
97412,999999999,4,1,0,20,1,0
97413,999999999,4,1,0,20,1,0
97414,999999999,4,1,0,20,1,0
97415,999999999,4,1,0,20,1,0
97416,999999999,4,1,0,20,1,0
97417,999999999,4,1,0,20,1,0
97418,999999999,4,1,0,20,1,0
97419,999999999,4,1,0,20,1,0
97420,999999999,4,1,0,20,1,0
97421,999999999,4,1,0,20,1,0
97422,999999999,4,1,0,20,1,0
97423,999999999,4,1,0,20,1,0
97424,999999999,4,1,0,20,1,0
97425,1.351097767,4,1,0,20,1,0
97426,0.1,4,1,0,20,1,0
97429,999999999,4,1,0,20,1,0
97430,999999999,4,1,0,20,1,0
97431,999999999,4,1,0,20,1,0
97432,999999999,4,1,0,20,1,0
97433,999999999,4,1,0,20,1,0
97434,999999999,4,1,0,20,1,0
97435,999999999,4,1,0,20,1,0
97436,999999999,4,1,0,20,1,0
97437,999999999,4,1,0,20,1,0
97438,999999999,4,1,0,20,1,0
97439,999999999,4,1,0,20,1,0
97440,999999999,4,1,0,20,1,0
97441,999999999,4,1,0,20,1,0
97442,999999999,4,1,0,20,1,0
97443,999999999,4,1,0,20,1,0
97444,999999999,4,1,0,20,1,0
97445,999999999,4,1,0,20,1,0
97446,999999999,4,1,0,20,1,0
97447,1.314828342,4,1,0,20,1,0
97448,0.1,4,1,0,20,1,0
97451,999999999,4,1,0,20,1,0
97452,999999999,4,1,0,20,1,0
97453,999999999,4,1,0,20,1,0
97454,999999999,4,1,0,20,1,0
97455,999999999,4,1,0,20,1,0
97456,999999999,4,1,0,20,1,0
97457,999999999,4,1,0,20,1,0
97458,999999999,4,1,0,20,1,0
97459,999999999,4,1,0,20,1,0
97460,999999999,4,1,0,20,1,0
97461,999999999,4,1,0,20,1,0
97462,999999999,4,1,0,20,1,0
97463,999999999,4,1,0,20,1,0
97464,999999999,4,1,0,20,1,0
97465,999999999,4,1,0,20,1,0
97466,999999999,4,1,0,20,1,0
97467,999999999,4,1,0,20,1,0
97468,999999999,4,1,0,20,1,0
97469,1.28,4,1,0,20,1,0
97470,0.1,4,1,0,20,1,0
97473,999999999,4,1,0,20,1,0
97474,999999999,4,1,0,20,1,0
97475,999999999,4,1,0,20,1,0
97476,999999999,4,1,0,20,1,0
97477,999999999,4,1,0,20,1,0
97478,999999999,4,1,0,20,1,0
97479,999999999,4,1,0,20,1,0
97480,999999999,4,1,0,20,1,0
97481,999999999,4,1,0,20,1,0
97482,999999999,4,1,0,20,1,0
97483,999999999,4,1,0,20,1,0
97484,999999999,4,1,0,20,1,0
97485,999999999,4,1,0,20,1,0
97486,999999999,4,1,0,20,1,0
97487,999999999,4,1,0,20,1,0
97488,999999999,4,1,0,20,1,0
97489,999999999,4,1,0,20,1,0
97490,999999999,4,1,0,20,1,0
97491,1.246537396,4,1,0,20,1,0
97492,0.1,4,1,0,20,1,0
97495,999999999,4,1,0,20,1,0
97496,999999999,4,1,0,20,1,0
97497,999999999,4,1,0,20,1,0
97498,999999999,4,1,0,20,1,0
97499,999999999,4,1,0,20,1,0
97500,999999999,4,1,0,20,1,0
97501,999999999,4,1,0,20,1,0
97502,999999999,4,1,0,20,1,0
97503,999999999,4,1,0,20,1,0
97504,999999999,4,1,0,20,1,0
97505,999999999,4,1,0,20,1,0
97506,999999999,4,1,0,20,1,0
97507,999999999,4,1,0,20,1,0
97508,999999999,4,1,0,20,1,0
97509,999999999,4,1,0,20,1,0
97510,999999999,4,1,0,20,1,0
97511,999999999,4,1,0,20,1,0
97512,999999999,4,1,0,20,1,0
97513,1.214370046,4,1,0,20,1,0
97514,0.1,4,1,0,20,1,0
97517,999999999,4,1,0,20,1,0
97518,999999999,4,1,0,20,1,0
97519,999999999,4,1,0,20,1,0
97520,999999999,4,1,0,20,1,0
97521,999999999,4,1,0,20,1,0
97522,999999999,4,1,0,20,1,0
97523,999999999,4,1,0,20,1,0
97524,999999999,4,1,0,20,1,0
97525,999999999,4,1,0,20,1,0
97526,999999999,4,1,0,20,1,0
97527,999999999,4,1,0,20,1,0
97528,999999999,4,1,0,20,1,0
97529,999999999,4,1,0,20,1,0
97530,999999999,4,1,0,20,1,0
97531,999999999,4,1,0,20,1,0
97532,999999999,4,1,0,20,1,0
97533,999999999,4,1,0,20,1,0
97534,999999999,4,1,0,20,1,0
97535,1.183431953,4,1,0,20,1,0
97536,0.1,4,1,0,20,1,0
97539,999999999,4,1,0,20,1,0
97540,999999999,4,1,0,20,1,0
97541,999999999,4,1,0,20,1,0
97542,999999999,4,1,0,20,1,0
97543,999999999,4,1,0,20,1,0
97544,999999999,4,1,0,20,1,0
97545,999999999,4,1,0,20,1,0
97546,999999999,4,1,0,20,1,0
97547,999999999,4,1,0,20,1,0
97548,999999999,4,1,0,20,1,0
97549,999999999,4,1,0,20,1,0
97550,999999999,4,1,0,20,1,0
97551,999999999,4,1,0,20,1,0
97552,999999999,4,1,0,20,1,0
97553,999999999,4,1,0,20,1,0
97554,999999999,4,1,0,20,1,0
97555,999999999,4,1,0,20,1,0
97556,999999999,4,1,0,20,1,0
97557,1.153661272,4,1,0,20,1,0
97558,0.1,4,1,0,20,1,0
97561,999999999,4,1,0,20,1,0
97562,999999999,4,1,0,20,1,0
97563,999999999,4,1,0,20,1,0
97564,999999999,4,1,0,20,1,0
97565,999999999,4,1,0,20,1,0
97566,999999999,4,1,0,20,1,0
97567,999999999,4,1,0,20,1,0
97568,999999999,4,1,0,20,1,0
97569,999999999,4,1,0,20,1,0
97570,999999999,4,1,0,20,1,0
97571,999999999,4,1,0,20,1,0
97572,999999999,4,1,0,20,1,0
97573,999999999,4,1,0,20,1,0
97574,999999999,4,1,0,20,1,0
97575,999999999,4,1,0,20,1,0
97576,999999999,4,1,0,20,1,0
97577,999999999,4,1,0,20,1,0
97578,999999999,4,1,0,20,1,0
97579,1.125,4,1,0,20,1,0
97580,0.1,4,1,0,20,1,0
97583,999999999,4,1,0,20,1,0
97584,999999999,4,1,0,20,1,0
97585,999999999,4,1,0,20,1,0
97586,999999999,4,1,0,20,1,0
97587,999999999,4,1,0,20,1,0
97588,999999999,4,1,0,20,1,0
97589,999999999,4,1,0,20,1,0
97590,999999999,4,1,0,20,1,0
97591,999999999,4,1,0,20,1,0
97592,999999999,4,1,0,20,1,0
97593,999999999,4,1,0,20,1,0
97594,999999999,4,1,0,20,1,0
97595,999999999,4,1,0,20,1,0
97596,999999999,4,1,0,20,1,0
97597,999999999,4,1,0,20,1,0
97598,999999999,4,1,0,20,1,0
97599,999999999,4,1,0,20,1,0
97600,999999999,4,1,0,20,1,0
97601,1.09739369,4,1,0,20,1,0
97602,0.1,4,1,0,20,1,0
97605,999999999,4,1,0,20,1,0
97606,999999999,4,1,0,20,1,0
97607,999999999,4,1,0,20,1,0
97608,999999999,4,1,0,20,1,0
97609,999999999,4,1,0,20,1,0
97610,999999999,4,1,0,20,1,0
97611,999999999,4,1,0,20,1,0
97612,999999999,4,1,0,20,1,0
97613,999999999,4,1,0,20,1,0
97614,999999999,4,1,0,20,1,0
97615,999999999,4,1,0,20,1,0
97616,999999999,4,1,0,20,1,0
97617,999999999,4,1,0,20,1,0
97618,999999999,4,1,0,20,1,0
97619,999999999,4,1,0,20,1,0
97620,999999999,4,1,0,20,1,0
97621,999999999,4,1,0,20,1,0
97622,999999999,4,1,0,20,1,0
97623,1.070791196,4,1,0,20,1,0
97624,0.1,4,1,0,20,1,0
97627,999999999,4,1,0,20,1,0
97628,999999999,4,1,0,20,1,0
97629,999999999,4,1,0,20,1,0
97630,999999999,4,1,0,20,1,0
97631,999999999,4,1,0,20,1,0
97632,999999999,4,1,0,20,1,0
97633,999999999,4,1,0,20,1,0
97634,999999999,4,1,0,20,1,0
97635,999999999,4,1,0,20,1,0
97636,999999999,4,1,0,20,1,0
97637,999999999,4,1,0,20,1,0
97638,999999999,4,1,0,20,1,0
97639,999999999,4,1,0,20,1,0
97640,999999999,4,1,0,20,1,0
97641,999999999,4,1,0,20,1,0
97642,999999999,4,1,0,20,1,0
97643,999999999,4,1,0,20,1,0
97644,999999999,4,1,0,20,1,0
97645,1.045144433,4,1,0,20,1,0
97646,0.1,4,1,0,20,1,0
97649,999999999,4,1,0,20,1,0
97650,999999999,4,1,0,20,1,0
97651,999999999,4,1,0,20,1,0
97652,999999999,4,1,0,20,1,0
97653,999999999,4,1,0,20,1,0
97654,999999999,4,1,0,20,1,0
97655,999999999,4,1,0,20,1,0
97656,999999999,4,1,0,20,1,0
97657,999999999,4,1,0,20,1,0
97658,999999999,4,1,0,20,1,0
97659,999999999,4,1,0,20,1,0
97660,999999999,4,1,0,20,1,0
97661,999999999,4,1,0,20,1,0
97662,999999999,4,1,0,20,1,0
97663,999999999,4,1,0,20,1,0
97664,999999999,4,1,0,20,1,0
97665,999999999,4,1,0,20,1,0
97666,999999999,4,1,0,20,1,0
97667,1.020408163,4,1,0,20,1,0
97668,0.1,4,1,0,20,1,0
97671,999999999,4,1,0,20,1,0
97672,999999999,4,1,0,20,1,0
97673,999999999,4,1,0,20,1,0
97674,999999999,4,1,0,20,1,0
97675,999999999,4,1,0,20,1,0
97676,999999999,4,1,0,20,1,0
97677,999999999,4,1,0,20,1,0
97678,999999999,4,1,0,20,1,0
97679,999999999,4,1,0,20,1,0
97680,999999999,4,1,0,20,1,0
97681,999999999,4,1,0,20,1,0
97682,999999999,4,1,0,20,1,0
97683,999999999,4,1,0,20,1,0
97684,999999999,4,1,0,20,1,0
97685,999999999,4,1,0,20,1,0
97686,999999999,4,1,0,20,1,0
97687,999999999,4,1,0,20,1,0
97688,999999999,4,1,0,20,1,0
97689,0.9965397924,4,1,0,20,1,0
97690,0.1,4,1,0,20,1,0
97693,999999999,4,1,0,20,1,0
97694,999999999,4,1,0,20,1,0
97695,999999999,4,1,0,20,1,0
97696,999999999,4,1,0,20,1,0
97697,999999999,4,1,0,20,1,0
97698,999999999,4,1,0,20,1,0
97699,999999999,4,1,0,20,1,0
97700,999999999,4,1,0,20,1,0
97701,999999999,4,1,0,20,1,0
97702,999999999,4,1,0,20,1,0
97703,999999999,4,1,0,20,1,0
97704,999999999,4,1,0,20,1,0
97705,999999999,4,1,0,20,1,0
97706,999999999,4,1,0,20,1,0
97707,999999999,4,1,0,20,1,0
97708,999999999,4,1,0,20,1,0
97709,999999999,4,1,0,20,1,0
97710,999999999,4,1,0,20,1,0
97711,0.9734991888,4,1,0,20,1,0
97712,0.1,4,1,0,20,1,0
97715,999999999,4,1,0,20,1,0
97716,999999999,4,1,0,20,1,0
97717,999999999,4,1,0,20,1,0
97718,999999999,4,1,0,20,1,0
97719,999999999,4,1,0,20,1,0
97720,999999999,4,1,0,20,1,0
97721,999999999,4,1,0,20,1,0
97722,999999999,4,1,0,20,1,0
97723,999999999,4,1,0,20,1,0
97724,999999999,4,1,0,20,1,0
97725,999999999,4,1,0,20,1,0
97726,999999999,4,1,0,20,1,0
97727,999999999,4,1,0,20,1,0
97728,999999999,4,1,0,20,1,0
97729,999999999,4,1,0,20,1,0
97730,999999999,4,1,0,20,1,0
97731,999999999,4,1,0,20,1,0
97732,999999999,4,1,0,20,1,0
97733,0.9512485137,4,1,0,20,1,0
97734,0.1,4,1,0,20,1,0
97737,999999999,4,1,0,20,1,0
97738,999999999,4,1,0,20,1,0
97739,999999999,4,1,0,20,1,0
97740,999999999,4,1,0,20,1,0
97741,999999999,4,1,0,20,1,0
97742,999999999,4,1,0,20,1,0
97743,999999999,4,1,0,20,1,0
97744,999999999,4,1,0,20,1,0
97745,999999999,4,1,0,20,1,0
97746,999999999,4,1,0,20,1,0
97747,999999999,4,1,0,20,1,0
97748,999999999,4,1,0,20,1,0
97749,999999999,4,1,0,20,1,0
97750,999999999,4,1,0,20,1,0
97751,999999999,4,1,0,20,1,0
97752,999999999,4,1,0,20,1,0
97753,999999999,4,1,0,20,1,0
97754,999999999,4,1,0,20,1,0
97755,0.9297520661,4,1,0,20,1,0
97756,0.1,4,1,0,20,1,0
97759,999999999,4,1,0,20,1,0
97760,999999999,4,1,0,20,1,0
97761,999999999,4,1,0,20,1,0
97762,999999999,4,1,0,20,1,0
97763,999999999,4,1,0,20,1,0
97764,999999999,4,1,0,20,1,0
97765,999999999,4,1,0,20,1,0
97766,999999999,4,1,0,20,1,0
97767,999999999,4,1,0,20,1,0
97768,999999999,4,1,0,20,1,0
97769,999999999,4,1,0,20,1,0
97770,999999999,4,1,0,20,1,0
97771,999999999,4,1,0,20,1,0
97772,999999999,4,1,0,20,1,0
97773,999999999,4,1,0,20,1,0
97774,999999999,4,1,0,20,1,0
97775,999999999,4,1,0,20,1,0
97776,999999999,4,1,0,20,1,0
97777,0.9089761394,4,1,0,20,1,0
97778,0.1,4,1,0,20,1,0
97781,999999999,4,1,0,20,1,0
97782,999999999,4,1,0,20,1,0
97783,999999999,4,1,0,20,1,0
97784,999999999,4,1,0,20,1,0
97785,999999999,4,1,0,20,1,0
97786,999999999,4,1,0,20,1,0
97787,999999999,4,1,0,20,1,0
97788,999999999,4,1,0,20,1,0
97789,999999999,4,1,0,20,1,0
97790,999999999,4,1,0,20,1,0
97791,999999999,4,1,0,20,1,0
97792,999999999,4,1,0,20,1,0
97793,999999999,4,1,0,20,1,0
97794,999999999,4,1,0,20,1,0
97795,999999999,4,1,0,20,1,0
97796,999999999,4,1,0,20,1,0
97797,999999999,4,1,0,20,1,0
97798,999999999,4,1,0,20,1,0
97799,0.8888888889,4,1,0,20,1,0
97800,0.1,4,1,0,20,1,0
97803,999999999,4,1,0,20,1,0
97804,999999999,4,1,0,20,1,0
97805,999999999,4,1,0,20,1,0
97806,999999999,4,1,0,20,1,0
97807,999999999,4,1,0,20,1,0
97808,999999999,4,1,0,20,1,0
97809,999999999,4,1,0,20,1,0
97810,999999999,4,1,0,20,1,0
97811,999999999,4,1,0,20,1,0
97812,999999999,4,1,0,20,1,0
97813,999999999,4,1,0,20,1,0
97814,999999999,4,1,0,20,1,0
97815,999999999,4,1,0,20,1,0
97816,999999999,4,1,0,20,1,0
97817,999999999,4,1,0,20,1,0
97818,999999999,4,1,0,20,1,0
97819,999999999,4,1,0,20,1,0
97820,999999999,4,1,0,20,1,0
97821,0.8694602101,4,1,0,20,1,0
97822,0.1,4,1,0,20,1,0
97825,999999999,4,1,0,20,1,0
97826,999999999,4,1,0,20,1,0
97827,999999999,4,1,0,20,1,0
97828,999999999,4,1,0,20,1,0
97829,999999999,4,1,0,20,1,0
97830,999999999,4,1,0,20,1,0
97831,999999999,4,1,0,20,1,0
97832,999999999,4,1,0,20,1,0
97833,999999999,4,1,0,20,1,0
97834,999999999,4,1,0,20,1,0
97835,999999999,4,1,0,20,1,0
97836,999999999,4,1,0,20,1,0
97837,999999999,4,1,0,20,1,0
97838,999999999,4,1,0,20,1,0
97839,999999999,4,1,0,20,1,0
97840,999999999,4,1,0,20,1,0
97841,999999999,4,1,0,20,1,0
97842,999999999,4,1,0,20,1,0
97843,0.8506616257,4,1,0,20,1,0
97844,0.1,4,1,0,20,1,0
97847,999999999,4,1,0,20,1,0
97848,999999999,4,1,0,20,1,0
97849,999999999,4,1,0,20,1,0
97850,999999999,4,1,0,20,1,0
97851,999999999,4,1,0,20,1,0
97852,999999999,4,1,0,20,1,0
97853,999999999,4,1,0,20,1,0
97854,999999999,4,1,0,20,1,0
97855,999999999,4,1,0,20,1,0
97856,999999999,4,1,0,20,1,0
97857,999999999,4,1,0,20,1,0
97858,999999999,4,1,0,20,1,0
97859,999999999,4,1,0,20,1,0
97860,999999999,4,1,0,20,1,0
97861,999999999,4,1,0,20,1,0
97862,999999999,4,1,0,20,1,0
97863,999999999,4,1,0,20,1,0
97864,999999999,4,1,0,20,1,0
97865,0.8324661811,4,1,0,20,1,0
97866,0.1,4,1,0,20,1,0
97869,999999999,4,1,0,20,1,0
97870,999999999,4,1,0,20,1,0
97871,999999999,4,1,0,20,1,0
97872,999999999,4,1,0,20,1,0
97873,999999999,4,1,0,20,1,0
97874,999999999,4,1,0,20,1,0
97875,999999999,4,1,0,20,1,0
97876,999999999,4,1,0,20,1,0
97877,999999999,4,1,0,20,1,0
97878,999999999,4,1,0,20,1,0
97879,999999999,4,1,0,20,1,0
97880,999999999,4,1,0,20,1,0
97881,999999999,4,1,0,20,1,0
97882,999999999,4,1,0,20,1,0
97883,999999999,4,1,0,20,1,0
97884,999999999,4,1,0,20,1,0
97885,999999999,4,1,0,20,1,0
97886,999999999,4,1,0,20,1,0
97887,0.8148483477,4,1,0,20,1,0
97888,0.1,4,1,0,20,1,0
97891,999999999,4,1,0,20,1,0
97892,999999999,4,1,0,20,1,0
97893,999999999,4,1,0,20,1,0
97894,999999999,4,1,0,20,1,0
97895,999999999,4,1,0,20,1,0
97896,999999999,4,1,0,20,1,0
97897,999999999,4,1,0,20,1,0
97898,999999999,4,1,0,20,1,0
97899,999999999,4,1,0,20,1,0
97900,999999999,4,1,0,20,1,0
97901,999999999,4,1,0,20,1,0
97902,999999999,4,1,0,20,1,0
97903,999999999,4,1,0,20,1,0
97904,999999999,4,1,0,20,1,0
97905,999999999,4,1,0,20,1,0
97906,999999999,4,1,0,20,1,0
97907,999999999,4,1,0,20,1,0
97908,999999999,4,1,0,20,1,0
97909,0.7977839335,4,1,0,20,1,0
97910,0.1,4,1,0,20,1,0
97913,999999999,4,1,0,20,1,0
97914,999999999,4,1,0,20,1,0
97915,999999999,4,1,0,20,1,0
97916,999999999,4,1,0,20,1,0
97917,999999999,4,1,0,20,1,0
97918,999999999,4,1,0,20,1,0
97919,999999999,4,1,0,20,1,0
97920,999999999,4,1,0,20,1,0
97921,999999999,4,1,0,20,1,0
97922,999999999,4,1,0,20,1,0
97923,999999999,4,1,0,20,1,0
97924,999999999,4,1,0,20,1,0
97925,999999999,4,1,0,20,1,0
97926,999999999,4,1,0,20,1,0
97927,999999999,4,1,0,20,1,0
97928,999999999,4,1,0,20,1,0
97929,999999999,4,1,0,20,1,0
97930,999999999,4,1,0,20,1,0
97931,0.78125,4,1,0,20,1,0
97932,0.1,4,1,0,20,1,0
97935,999999999,4,1,0,20,1,0
97936,999999999,4,1,0,20,1,0
97937,999999999,4,1,0,20,1,0
97938,999999999,4,1,0,20,1,0
97939,999999999,4,1,0,20,1,0
97940,999999999,4,1,0,20,1,0
97941,999999999,4,1,0,20,1,0
97942,999999999,4,1,0,20,1,0
97943,999999999,4,1,0,20,1,0
97944,999999999,4,1,0,20,1,0
97945,999999999,4,1,0,20,1,0
97946,999999999,4,1,0,20,1,0
97947,999999999,4,1,0,20,1,0
97948,999999999,4,1,0,20,1,0
97949,999999999,4,1,0,20,1,0
97950,999999999,4,1,0,20,1,0
97951,999999999,4,1,0,20,1,0
97952,999999999,4,1,0,20,1,0
97953,0.7652247848,4,1,0,20,1,0
97954,0.1,4,1,0,20,1,0
97957,999999999,4,1,0,20,1,0
97958,999999999,4,1,0,20,1,0
97959,999999999,4,1,0,20,1,0
97960,999999999,4,1,0,20,1,0
97961,999999999,4,1,0,20,1,0
97962,999999999,4,1,0,20,1,0
97963,999999999,4,1,0,20,1,0
97964,999999999,4,1,0,20,1,0
97965,999999999,4,1,0,20,1,0
97966,999999999,4,1,0,20,1,0
97967,999999999,4,1,0,20,1,0
97968,999999999,4,1,0,20,1,0
97969,999999999,4,1,0,20,1,0
97970,999999999,4,1,0,20,1,0
97971,999999999,4,1,0,20,1,0
97972,999999999,4,1,0,20,1,0
97973,999999999,4,1,0,20,1,0
97974,999999999,4,1,0,20,1,0
97975,0.7496876302,4,1,0,20,1,0
97976,0.1,4,1,0,20,1,0
97979,999999999,4,1,0,20,1,0
97980,999999999,4,1,0,20,1,0
97981,999999999,4,1,0,20,1,0
97982,999999999,4,1,0,20,1,0
97983,999999999,4,1,0,20,1,0
97984,999999999,4,1,0,20,1,0
97985,999999999,4,1,0,20,1,0
97986,999999999,4,1,0,20,1,0
97987,999999999,4,1,0,20,1,0
97988,999999999,4,1,0,20,1,0
97989,999999999,4,1,0,20,1,0
97990,999999999,4,1,0,20,1,0
97991,999999999,4,1,0,20,1,0
97992,999999999,4,1,0,20,1,0
97993,999999999,4,1,0,20,1,0
97994,999999999,4,1,0,20,1,0
97995,999999999,4,1,0,20,1,0
97996,999999999,4,1,0,20,1,0
97997,0.7346189164,4,1,0,20,1,0
97998,0.1,4,1,0,20,1,0
98001,999999999,4,1,0,20,1,0
98002,999999999,4,1,0,20,1,0
98003,999999999,4,1,0,20,1,0
98004,999999999,4,1,0,20,1,0
98005,999999999,4,1,0,20,1,0
98006,999999999,4,1,0,20,1,0
98007,999999999,4,1,0,20,1,0
98008,999999999,4,1,0,20,1,0
98009,999999999,4,1,0,20,1,0
98010,999999999,4,1,0,20,1,0
98011,999999999,4,1,0,20,1,0
98012,999999999,4,1,0,20,1,0
98013,999999999,4,1,0,20,1,0
98014,999999999,4,1,0,20,1,0
98015,999999999,4,1,0,20,1,0
98016,999999999,4,1,0,20,1,0
98017,999999999,4,1,0,20,1,0
98018,999999999,4,1,0,20,1,0
98019,0.72,4,1,0,20,1,0
98020,0.1,4,1,0,20,1,0
98023,999999999,4,1,0,20,1,0
98024,999999999,4,1,0,20,1,0
98025,999999999,4,1,0,20,1,0
98026,999999999,4,1,0,20,1,0
98027,999999999,4,1,0,20,1,0
98028,999999999,4,1,0,20,1,0
98029,999999999,4,1,0,20,1,0
98030,999999999,4,1,0,20,1,0
98031,999999999,4,1,0,20,1,0
98032,999999999,4,1,0,20,1,0
98033,999999999,4,1,0,20,1,0
98034,999999999,4,1,0,20,1,0
98035,999999999,4,1,0,20,1,0
98036,999999999,4,1,0,20,1,0
98037,999999999,4,1,0,20,1,0
98038,999999999,4,1,0,20,1,0
98039,999999999,4,1,0,20,1,0
98040,999999999,4,1,0,20,1,0
98041,0.7058131556,4,1,0,20,1,0
98042,0.1,4,1,0,20,1,0
98045,999999999,4,1,0,20,1,0
98046,999999999,4,1,0,20,1,0
98047,999999999,4,1,0,20,1,0
98048,999999999,4,1,0,20,1,0
98049,999999999,4,1,0,20,1,0
98050,999999999,4,1,0,20,1,0
98051,999999999,4,1,0,20,1,0
98052,999999999,4,1,0,20,1,0
98053,999999999,4,1,0,20,1,0
98054,999999999,4,1,0,20,1,0
98055,999999999,4,1,0,20,1,0
98056,999999999,4,1,0,20,1,0
98057,999999999,4,1,0,20,1,0
98058,999999999,4,1,0,20,1,0
98059,999999999,4,1,0,20,1,0
98060,999999999,4,1,0,20,1,0
98061,999999999,4,1,0,20,1,0
98062,999999999,4,1,0,20,1,0
98063,0.6920415225,4,1,0,20,1,0
98064,0.1,4,1,0,20,1,0
98067,999999999,4,1,0,20,1,0
98068,999999999,4,1,0,20,1,0
98069,999999999,4,1,0,20,1,0
98070,999999999,4,1,0,20,1,0
98071,999999999,4,1,0,20,1,0
98072,999999999,4,1,0,20,1,0
98073,999999999,4,1,0,20,1,0
98074,999999999,4,1,0,20,1,0
98075,999999999,4,1,0,20,1,0
98076,999999999,4,1,0,20,1,0
98077,999999999,4,1,0,20,1,0
98078,999999999,4,1,0,20,1,0
98079,999999999,4,1,0,20,1,0
98080,999999999,4,1,0,20,1,0
98081,999999999,4,1,0,20,1,0
98082,999999999,4,1,0,20,1,0
98083,999999999,4,1,0,20,1,0
98084,999999999,4,1,0,20,1,0
98085,0.6786690546,4,1,0,20,1,0
98086,0.1,4,1,0,20,1,0
98089,999999999,4,1,0,20,1,0
98090,999999999,4,1,0,20,1,0
98091,999999999,4,1,0,20,1,0
98092,999999999,4,1,0,20,1,0
98093,999999999,4,1,0,20,1,0
98094,999999999,4,1,0,20,1,0
98095,999999999,4,1,0,20,1,0
98096,999999999,4,1,0,20,1,0
98097,999999999,4,1,0,20,1,0
98098,999999999,4,1,0,20,1,0
98099,999999999,4,1,0,20,1,0
98100,999999999,4,1,0,20,1,0
98101,999999999,4,1,0,20,1,0
98102,999999999,4,1,0,20,1,0
98103,999999999,4,1,0,20,1,0
98104,999999999,4,1,0,20,1,0
98105,999999999,4,1,0,20,1,0
98106,999999999,4,1,0,20,1,0
98107,0.6656804734,4,1,0,20,1,0
98108,0.1,4,1,0,20,1,0
98111,999999999,4,1,0,20,1,0
98112,999999999,4,1,0,20,1,0
98113,999999999,4,1,0,20,1,0
98114,999999999,4,1,0,20,1,0
98115,999999999,4,1,0,20,1,0
98116,999999999,4,1,0,20,1,0
98117,999999999,4,1,0,20,1,0
98118,999999999,4,1,0,20,1,0
98119,999999999,4,1,0,20,1,0
98120,999999999,4,1,0,20,1,0
98121,999999999,4,1,0,20,1,0
98122,999999999,4,1,0,20,1,0
98123,999999999,4,1,0,20,1,0
98124,999999999,4,1,0,20,1,0
98125,999999999,4,1,0,20,1,0
98126,999999999,4,1,0,20,1,0
98127,999999999,4,1,0,20,1,0
98128,999999999,4,1,0,20,1,0
98129,0.6530612245,4,1,0,20,1,0
98130,0.1,4,1,0,20,1,0
98133,999999999,4,1,0,20,1,0
98134,999999999,4,1,0,20,1,0
98135,999999999,4,1,0,20,1,0
98136,999999999,4,1,0,20,1,0
98137,999999999,4,1,0,20,1,0
98138,999999999,4,1,0,20,1,0
98139,999999999,4,1,0,20,1,0
98140,999999999,4,1,0,20,1,0
98141,999999999,4,1,0,20,1,0
98142,999999999,4,1,0,20,1,0
98143,999999999,4,1,0,20,1,0
98144,999999999,4,1,0,20,1,0
98145,999999999,4,1,0,20,1,0
98146,999999999,4,1,0,20,1,0
98147,999999999,4,1,0,20,1,0
98148,999999999,4,1,0,20,1,0
98149,999999999,4,1,0,20,1,0
98150,999999999,4,1,0,20,1,0
98151,0.6407974368,4,1,0,20,1,0
98152,0.1,4,1,0,20,1,0
98155,999999999,4,1,0,20,1,0
98156,999999999,4,1,0,20,1,0
98157,999999999,4,1,0,20,1,0
98158,999999999,4,1,0,20,1,0
98159,999999999,4,1,0,20,1,0
98160,999999999,4,1,0,20,1,0
98161,999999999,4,1,0,20,1,0
98162,999999999,4,1,0,20,1,0
98163,999999999,4,1,0,20,1,0
98164,999999999,4,1,0,20,1,0
98165,999999999,4,1,0,20,1,0
98166,999999999,4,1,0,20,1,0
98167,999999999,4,1,0,20,1,0
98168,999999999,4,1,0,20,1,0
98169,999999999,4,1,0,20,1,0
98170,999999999,4,1,0,20,1,0
98171,999999999,4,1,0,20,1,0
98172,999999999,4,1,0,20,1,0
98173,0.6288758844,4,1,0,20,1,0
98174,0.1,4,1,0,20,1,0
98177,999999999,4,1,0,20,1,0
98178,999999999,4,1,0,20,1,0
98179,999999999,4,1,0,20,1,0
98180,999999999,4,1,0,20,1,0
98181,999999999,4,1,0,20,1,0
98182,999999999,4,1,0,20,1,0
98183,999999999,4,1,0,20,1,0
98184,999999999,4,1,0,20,1,0
98185,999999999,4,1,0,20,1,0
98186,999999999,4,1,0,20,1,0
98187,999999999,4,1,0,20,1,0
98188,999999999,4,1,0,20,1,0
98189,999999999,4,1,0,20,1,0
98190,999999999,4,1,0,20,1,0
98191,999999999,4,1,0,20,1,0
98192,999999999,4,1,0,20,1,0
98193,999999999,4,1,0,20,1,0
98194,999999999,4,1,0,20,1,0
98195,0.6172839506,4,1,0,20,1,0
98196,0.1,4,1,0,20,1,0
98199,999999999,4,1,0,20,1,0
98200,999999999,4,1,0,20,1,0
98201,999999999,4,1,0,20,1,0
98202,999999999,4,1,0,20,1,0
98203,999999999,4,1,0,20,1,0
98204,999999999,4,1,0,20,1,0
98205,999999999,4,1,0,20,1,0
98206,999999999,4,1,0,20,1,0
98207,999999999,4,1,0,20,1,0
98208,999999999,4,1,0,20,1,0
98209,999999999,4,1,0,20,1,0
98210,999999999,4,1,0,20,1,0
98211,999999999,4,1,0,20,1,0
98212,999999999,4,1,0,20,1,0
98213,999999999,4,1,0,20,1,0
98214,999999999,4,1,0,20,1,0
98215,999999999,4,1,0,20,1,0
98216,999999999,4,1,0,20,1,0
98217,0.6060095952,4,1,0,20,1,0
98218,0.1,4,1,0,20,1,0
98221,999999999,4,1,0,20,1,0
98222,999999999,4,1,0,20,1,0
98223,999999999,4,1,0,20,1,0
98224,999999999,4,1,0,20,1,0
98225,999999999,4,1,0,20,1,0
98226,999999999,4,1,0,20,1,0
98227,999999999,4,1,0,20,1,0
98228,999999999,4,1,0,20,1,0
98229,999999999,4,1,0,20,1,0
98230,999999999,4,1,0,20,1,0
98231,999999999,4,1,0,20,1,0
98232,999999999,4,1,0,20,1,0
98233,999999999,4,1,0,20,1,0
98234,999999999,4,1,0,20,1,0
98235,999999999,4,1,0,20,1,0
98236,999999999,4,1,0,20,1,0
98237,999999999,4,1,0,20,1,0
98238,999999999,4,1,0,20,1,0
98239,0.5950413223,4,1,0,20,1,0
98240,0.1,4,1,0,20,1,0
98243,999999999,4,1,0,20,1,0
98244,999999999,4,1,0,20,1,0
98245,999999999,4,1,0,20,1,0
98246,999999999,4,1,0,20,1,0
98247,999999999,4,1,0,20,1,0
98248,999999999,4,1,0,20,1,0
98249,999999999,4,1,0,20,1,0
98250,999999999,4,1,0,20,1,0
98251,999999999,4,1,0,20,1,0
98252,999999999,4,1,0,20,1,0
98253,999999999,4,1,0,20,1,0
98254,999999999,4,1,0,20,1,0
98255,999999999,4,1,0,20,1,0
98256,999999999,4,1,0,20,1,0
98257,999999999,4,1,0,20,1,0
98258,999999999,4,1,0,20,1,0
98259,999999999,4,1,0,20,1,0
98260,999999999,4,1,0,20,1,0
98261,0.5843681519,4,1,0,20,1,0
98262,0.1,4,1,0,20,1,0
98265,999999999,4,1,0,20,1,0
98266,999999999,4,1,0,20,1,0
98267,999999999,4,1,0,20,1,0
98268,999999999,4,1,0,20,1,0
98269,999999999,4,1,0,20,1,0
98270,999999999,4,1,0,20,1,0
98271,999999999,4,1,0,20,1,0
98272,999999999,4,1,0,20,1,0
98273,999999999,4,1,0,20,1,0
98274,999999999,4,1,0,20,1,0
98275,999999999,4,1,0,20,1,0
98276,999999999,4,1,0,20,1,0
98277,999999999,4,1,0,20,1,0
98278,999999999,4,1,0,20,1,0
98279,999999999,4,1,0,20,1,0
98280,999999999,4,1,0,20,1,0
98281,999999999,4,1,0,20,1,0
98282,999999999,4,1,0,20,1,0
98283,0.5739795918,4,1,0,20,1,0
98284,0.1,4,1,0,20,1,0
98287,999999999,4,1,0,20,1,0
98288,999999999,4,1,0,20,1,0
98289,999999999,4,1,0,20,1,0
98290,999999999,4,1,0,20,1,0
98291,999999999,4,1,0,20,1,0
98292,999999999,4,1,0,20,1,0
98293,999999999,4,1,0,20,1,0
98294,999999999,4,1,0,20,1,0
98295,999999999,4,1,0,20,1,0
98296,999999999,4,1,0,20,1,0
98297,999999999,4,1,0,20,1,0
98298,999999999,4,1,0,20,1,0
98299,999999999,4,1,0,20,1,0
98300,999999999,4,1,0,20,1,0
98301,999999999,4,1,0,20,1,0
98302,999999999,4,1,0,20,1,0
98303,999999999,4,1,0,20,1,0
98304,999999999,4,1,0,20,1,0
98305,0.563865612,4,1,0,20,1,0
98306,0.1,4,1,0,20,1,0
98309,999999999,4,1,0,20,1,0
98310,999999999,4,1,0,20,1,0
98311,999999999,4,1,0,20,1,0
98312,999999999,4,1,0,20,1,0
98313,999999999,4,1,0,20,1,0
98314,999999999,4,1,0,20,1,0
98315,999999999,4,1,0,20,1,0
98316,999999999,4,1,0,20,1,0
98317,999999999,4,1,0,20,1,0
98318,999999999,4,1,0,20,1,0
98319,999999999,4,1,0,20,1,0
98320,999999999,4,1,0,20,1,0
98321,999999999,4,1,0,20,1,0
98322,999999999,4,1,0,20,1,0
98323,999999999,4,1,0,20,1,0
98324,999999999,4,1,0,20,1,0
98325,999999999,4,1,0,20,1,0
98326,999999999,4,1,0,20,1,0
98327,0.5540166205,4,1,0,20,1,0
98328,0.1,4,1,0,20,1,0
98331,999999999,4,1,0,20,1,0
98332,999999999,4,1,0,20,1,0
98333,999999999,4,1,0,20,1,0
98334,999999999,4,1,0,20,1,0
98335,999999999,4,1,0,20,1,0
98336,999999999,4,1,0,20,1,0
98337,999999999,4,1,0,20,1,0
98338,999999999,4,1,0,20,1,0
98339,999999999,4,1,0,20,1,0
98340,999999999,4,1,0,20,1,0
98341,999999999,4,1,0,20,1,0
98342,999999999,4,1,0,20,1,0
98343,999999999,4,1,0,20,1,0
98344,999999999,4,1,0,20,1,0
98345,999999999,4,1,0,20,1,0
98346,999999999,4,1,0,20,1,0
98347,999999999,4,1,0,20,1,0
98348,999999999,4,1,0,20,1,0
98349,0.5444234405,4,1,0,20,1,0
98350,0.1,4,1,0,20,1,0
98353,999999999,4,1,0,20,1,0
98354,999999999,4,1,0,20,1,0
98355,999999999,4,1,0,20,1,0
98356,999999999,4,1,0,20,1,0
98357,999999999,4,1,0,20,1,0
98358,999999999,4,1,0,20,1,0
98359,999999999,4,1,0,20,1,0
98360,999999999,4,1,0,20,1,0
98361,999999999,4,1,0,20,1,0
98362,999999999,4,1,0,20,1,0
98363,999999999,4,1,0,20,1,0
98364,999999999,4,1,0,20,1,0
98365,999999999,4,1,0,20,1,0
98366,999999999,4,1,0,20,1,0
98367,999999999,4,1,0,20,1,0
98368,999999999,4,1,0,20,1,0
98369,999999999,4,1,0,20,1,0
98370,999999999,4,1,0,20,1,0
98371,0.5350772889,4,1,0,20,1,0
98372,0.1,4,1,0,20,1,0
98375,999999999,4,1,0,20,1,0
98376,999999999,4,1,0,20,1,0
98377,999999999,4,1,0,20,1,0
98378,999999999,4,1,0,20,1,0
98379,999999999,4,1,0,20,1,0
98380,999999999,4,1,0,20,1,0
98381,999999999,4,1,0,20,1,0
98382,999999999,4,1,0,20,1,0
98383,999999999,4,1,0,20,1,0
98384,999999999,4,1,0,20,1,0
98385,999999999,4,1,0,20,1,0
98386,999999999,4,1,0,20,1,0
98387,999999999,4,1,0,20,1,0
98388,999999999,4,1,0,20,1,0
98389,999999999,4,1,0,20,1,0
98390,999999999,4,1,0,20,1,0
98391,999999999,4,1,0,20,1,0
98392,999999999,4,1,0,20,1,0
98393,0.5259697567,4,1,0,20,1,0
98394,0.1,4,1,0,20,1,0
98397,999999999,4,1,0,20,1,0
98398,999999999,4,1,0,20,1,0
98399,999999999,4,1,0,20,1,0
98400,999999999,4,1,0,20,1,0
98401,999999999,4,1,0,20,1,0
98402,999999999,4,1,0,20,1,0
98403,999999999,4,1,0,20,1,0
98404,999999999,4,1,0,20,1,0
98405,999999999,4,1,0,20,1,0
98406,999999999,4,1,0,20,1,0
98407,999999999,4,1,0,20,1,0
98408,999999999,4,1,0,20,1,0
98409,999999999,4,1,0,20,1,0
98410,999999999,4,1,0,20,1,0
98411,999999999,4,1,0,20,1,0
98412,999999999,4,1,0,20,1,0
98413,999999999,4,1,0,20,1,0
98414,999999999,4,1,0,20,1,0
98415,0.5170927894,4,1,0,20,1,0
98416,0.1,4,1,0,20,1,0
98419,999999999,4,1,0,20,1,0
98420,999999999,4,1,0,20,1,0
98421,999999999,4,1,0,20,1,0
98422,999999999,4,1,0,20,1,0
98423,999999999,4,1,0,20,1,0
98424,999999999,4,1,0,20,1,0
98425,999999999,4,1,0,20,1,0
98426,999999999,4,1,0,20,1,0
98427,999999999,4,1,0,20,1,0
98428,999999999,4,1,0,20,1,0
98429,999999999,4,1,0,20,1,0
98430,999999999,4,1,0,20,1,0
98431,999999999,4,1,0,20,1,0
98432,999999999,4,1,0,20,1,0
98433,999999999,4,1,0,20,1,0
98434,999999999,4,1,0,20,1,0
98435,999999999,4,1,0,20,1,0
98436,999999999,4,1,0,20,1,0
98437,0.5084386696,4,1,0,20,1,0
98438,0.1,4,1,0,20,1,0
98441,999999999,4,1,0,20,1,0
98442,999999999,4,1,0,20,1,0
98443,999999999,4,1,0,20,1,0
98444,999999999,4,1,0,20,1,0
98445,999999999,4,1,0,20,1,0
98446,999999999,4,1,0,20,1,0
98447,999999999,4,1,0,20,1,0
98448,999999999,4,1,0,20,1,0
98449,999999999,4,1,0,20,1,0
98450,999999999,4,1,0,20,1,0
98451,999999999,4,1,0,20,1,0
98452,999999999,4,1,0,20,1,0
98453,999999999,4,1,0,20,1,0
98454,999999999,4,1,0,20,1,0
98455,999999999,4,1,0,20,1,0
98456,999999999,4,1,0,20,1,0
98457,999999999,4,1,0,20,1,0
98458,999999999,4,1,0,20,1,0
98459,0.5,4,1,0,20,1,0
98460,0.1,4,1,0,20,1,0
98461,0.6060095952,4,1,0,20,1,0
98462,0.1,4,1,0,20,1,0
98463,999999999,4,1,0,20,1,0
98464,999999999,4,1,0,20,1,0
98465,999999999,4,1,0,20,1,0
98466,999999999,4,1,0,20,1,0
98467,999999999,4,1,0,20,1,0
98468,999999999,4,1,0,20,1,0
98469,999999999,4,1,0,20,1,0
98470,999999999,4,1,0,20,1,0
98471,999999999,4,1,0,20,1,0
98472,999999999,4,1,0,20,1,0
98473,999999999,4,1,0,20,1,0
98474,999999999,4,1,0,20,1,0
98475,999999999,4,1,0,20,1,0
98476,999999999,4,1,0,20,1,0
98477,999999999,4,1,0,20,1,0
98478,999999999,4,1,0,20,1,0
98479,999999999,4,1,0,20,1,0
98480,999999999,4,1,0,20,1,0
98481,0.6786690546,4,1,0,20,1,0
98482,0.1,4,1,0,20,1,0
98483,999999999,4,1,0,20,1,0
98484,999999999,4,1,0,20,1,0
98485,999999999,4,1,0,20,1,0
98486,999999999,4,1,0,20,1,0
98487,999999999,4,1,0,20,1,0
98488,999999999,4,1,0,20,1,0
98489,999999999,4,1,0,20,1,0
98490,999999999,4,1,0,20,1,0
98491,999999999,4,1,0,20,1,0
98492,999999999,4,1,0,20,1,0
98493,999999999,4,1,0,20,1,0
98494,999999999,4,1,0,20,1,0
98495,999999999,4,1,0,20,1,0
98496,999999999,4,1,0,20,1,0
98497,999999999,4,1,0,20,1,0
98498,999999999,4,1,0,20,1,0
98499,999999999,4,1,0,20,1,0
98500,999999999,4,1,0,20,1,0
98501,0.7977839335,4,1,0,20,1,0
98502,0.1,4,1,0,20,1,0
98503,999999999,4,1,0,20,1,0
98504,999999999,4,1,0,20,1,0
98505,999999999,4,1,0,20,1,0
98506,999999999,4,1,0,20,1,0
98507,999999999,4,1,0,20,1,0
98508,999999999,4,1,0,20,1,0
98509,999999999,4,1,0,20,1,0
98510,999999999,4,1,0,20,1,0
98511,999999999,4,1,0,20,1,0
98512,999999999,4,1,0,20,1,0
98513,999999999,4,1,0,20,1,0
98514,999999999,4,1,0,20,1,0
98515,999999999,4,1,0,20,1,0
98516,999999999,4,1,0,20,1,0
98517,999999999,4,1,0,20,1,0
98518,999999999,4,1,0,20,1,0
98519,999999999,4,1,0,20,1,0
98520,999999999,4,1,0,20,1,0
98521,0.8148483477,4,1,0,20,1,0
98522,0.1,4,1,0,20,1,0
98523,999999999,4,1,0,20,1,0
98524,999999999,4,1,0,20,1,0
98525,999999999,4,1,0,20,1,0
98526,999999999,4,1,0,20,1,0
98527,999999999,4,1,0,20,1,0
98528,999999999,4,1,0,20,1,0
98529,999999999,4,1,0,20,1,0
98530,999999999,4,1,0,20,1,0
98531,999999999,4,1,0,20,1,0
98532,999999999,4,1,0,20,1,0
98533,999999999,4,1,0,20,1,0
98534,999999999,4,1,0,20,1,0
98535,999999999,4,1,0,20,1,0
98536,999999999,4,1,0,20,1,0
98537,999999999,4,1,0,20,1,0
98538,999999999,4,1,0,20,1,0
98539,999999999,4,1,0,20,1,0
98540,999999999,4,1,0,20,1,0
98541,0.8506616257,4,1,0,20,1,0
98542,0.1,4,1,0,20,1,0
98543,999999999,4,1,0,20,1,0
98544,999999999,4,1,0,20,1,0
98545,999999999,4,1,0,20,1,0
98546,999999999,4,1,0,20,1,0
98547,999999999,4,1,0,20,1,0
98548,999999999,4,1,0,20,1,0
98549,999999999,4,1,0,20,1,0
98550,999999999,4,1,0,20,1,0
98551,999999999,4,1,0,20,1,0
98552,999999999,4,1,0,20,1,0
98553,999999999,4,1,0,20,1,0
98554,999999999,4,1,0,20,1,0
98555,999999999,4,1,0,20,1,0
98556,999999999,4,1,0,20,1,0
98557,999999999,4,1,0,20,1,0
98558,999999999,4,1,0,20,1,0
98559,999999999,4,1,0,20,1,0
98560,999999999,4,1,0,20,1,0
98561,0.8694602101,4,1,0,20,1,0
98562,0.1,4,1,0,20,1,0
98563,999999999,4,1,0,20,1,0
98564,999999999,4,1,0,20,1,0
98565,999999999,4,1,0,20,1,0
98566,999999999,4,1,0,20,1,0
98567,999999999,4,1,0,20,1,0
98568,999999999,4,1,0,20,1,0
98569,999999999,4,1,0,20,1,0
98570,999999999,4,1,0,20,1,0
98571,999999999,4,1,0,20,1,0
98572,999999999,4,1,0,20,1,0
98573,999999999,4,1,0,20,1,0
98574,999999999,4,1,0,20,1,0
98575,999999999,4,1,0,20,1,0
98576,999999999,4,1,0,20,1,0
98577,999999999,4,1,0,20,1,0
98578,999999999,4,1,0,20,1,0
98579,999999999,4,1,0,20,1,0
98580,999999999,4,1,0,20,1,0
98581,0.8888888889,4,1,0,20,1,0
98582,0.1,4,1,0,20,1,0
98583,999999999,4,1,0,20,1,0
98584,999999999,4,1,0,20,1,0
98585,999999999,4,1,0,20,1,0
98586,999999999,4,1,0,20,1,0
98587,999999999,4,1,0,20,1,0
98588,999999999,4,1,0,20,1,0
98589,999999999,4,1,0,20,1,0
98590,999999999,4,1,0,20,1,0
98591,999999999,4,1,0,20,1,0
98592,999999999,4,1,0,20,1,0
98593,999999999,4,1,0,20,1,0
98594,999999999,4,1,0,20,1,0
98595,999999999,4,1,0,20,1,0
98596,999999999,4,1,0,20,1,0
98597,999999999,4,1,0,20,1,0
98598,999999999,4,1,0,20,1,0
98599,999999999,4,1,0,20,1,0
98600,999999999,4,1,0,20,1,0
98601,0.9965397924,4,1,0,20,1,0
98602,0.1,4,1,0,20,1,0
98603,999999999,4,1,0,20,1,0
98604,999999999,4,1,0,20,1,0
98605,999999999,4,1,0,20,1,0
98606,999999999,4,1,0,20,1,0
98607,999999999,4,1,0,20,1,0
98608,999999999,4,1,0,20,1,0
98609,999999999,4,1,0,20,1,0
98610,999999999,4,1,0,20,1,0
98611,999999999,4,1,0,20,1,0
98612,999999999,4,1,0,20,1,0
98613,999999999,4,1,0,20,1,0
98614,999999999,4,1,0,20,1,0
98615,999999999,4,1,0,20,1,0
98616,999999999,4,1,0,20,1,0
98617,999999999,4,1,0,20,1,0
98618,999999999,4,1,0,20,1,0
98619,999999999,4,1,0,20,1,0
98620,999999999,4,1,0,20,1,0
98621,1.045144433,4,1,0,20,1,0
98622,0.1,4,1,0,20,1,0
98623,999999999,4,1,0,20,1,0
98624,999999999,4,1,0,20,1,0
98625,999999999,4,1,0,20,1,0
98626,999999999,4,1,0,20,1,0
98627,999999999,4,1,0,20,1,0
98628,999999999,4,1,0,20,1,0
98629,999999999,4,1,0,20,1,0
98630,999999999,4,1,0,20,1,0
98631,999999999,4,1,0,20,1,0
98632,999999999,4,1,0,20,1,0
98633,999999999,4,1,0,20,1,0
98634,999999999,4,1,0,20,1,0
98635,999999999,4,1,0,20,1,0
98636,999999999,4,1,0,20,1,0
98637,999999999,4,1,0,20,1,0
98638,999999999,4,1,0,20,1,0
98639,999999999,4,1,0,20,1,0
98640,999999999,4,1,0,20,1,0
98641,1.214370046,4,1,0,20,1,0
98642,0.1,4,1,0,20,1,0
98643,999999999,4,1,0,20,1,0
98644,999999999,4,1,0,20,1,0
98645,999999999,4,1,0,20,1,0
98646,999999999,4,1,0,20,1,0
98647,999999999,4,1,0,20,1,0
98648,999999999,4,1,0,20,1,0
98649,999999999,4,1,0,20,1,0
98650,999999999,4,1,0,20,1,0
98651,999999999,4,1,0,20,1,0
98652,999999999,4,1,0,20,1,0
98653,999999999,4,1,0,20,1,0
98654,999999999,4,1,0,20,1,0
98655,999999999,4,1,0,20,1,0
98656,999999999,4,1,0,20,1,0
98657,999999999,4,1,0,20,1,0
98658,999999999,4,1,0,20,1,0
98659,999999999,4,1,0,20,1,0
98660,999999999,4,1,0,20,1,0
98661,1.28,4,1,0,20,1,0
98662,0.1,4,1,0,20,1,0
98663,999999999,4,1,0,20,1,0
98664,999999999,4,1,0,20,1,0
98665,999999999,4,1,0,20,1,0
98666,999999999,4,1,0,20,1,0
98667,999999999,4,1,0,20,1,0
98668,999999999,4,1,0,20,1,0
98669,999999999,4,1,0,20,1,0
98670,999999999,4,1,0,20,1,0
98671,999999999,4,1,0,20,1,0
98672,999999999,4,1,0,20,1,0
98673,999999999,4,1,0,20,1,0
98674,999999999,4,1,0,20,1,0
98675,999999999,4,1,0,20,1,0
98676,999999999,4,1,0,20,1,0
98677,999999999,4,1,0,20,1,0
98678,999999999,4,1,0,20,1,0
98679,999999999,4,1,0,20,1,0
98680,999999999,4,1,0,20,1,0
98681,1.314828342,4,1,0,20,1,0
98682,0.1,4,1,0,20,1,0
98683,999999999,4,1,0,20,1,0
98684,999999999,4,1,0,20,1,0
98685,999999999,4,1,0,20,1,0
98686,999999999,4,1,0,20,1,0
98687,999999999,4,1,0,20,1,0
98688,999999999,4,1,0,20,1,0
98689,999999999,4,1,0,20,1,0
98690,999999999,4,1,0,20,1,0
98691,999999999,4,1,0,20,1,0
98692,999999999,4,1,0,20,1,0
98693,999999999,4,1,0,20,1,0
98694,999999999,4,1,0,20,1,0
98695,999999999,4,1,0,20,1,0
98696,999999999,4,1,0,20,1,0
98697,999999999,4,1,0,20,1,0
98698,999999999,4,1,0,20,1,0
98699,999999999,4,1,0,20,1,0
98700,999999999,4,1,0,20,1,0
98701,1.469387755,4,1,0,20,1,0
98702,0.1,4,1,0,20,1,0
98703,999999999,4,1,0,20,1,0
98704,999999999,4,1,0,20,1,0
98705,999999999,4,1,0,20,1,0
98706,999999999,4,1,0,20,1,0
98707,999999999,4,1,0,20,1,0
98708,999999999,4,1,0,20,1,0
98709,999999999,4,1,0,20,1,0
98710,999999999,4,1,0,20,1,0
98711,999999999,4,1,0,20,1,0
98712,999999999,4,1,0,20,1,0
98713,999999999,4,1,0,20,1,0
98714,999999999,4,1,0,20,1,0
98715,999999999,4,1,0,20,1,0
98716,999999999,4,1,0,20,1,0
98717,999999999,4,1,0,20,1,0
98718,999999999,4,1,0,20,1,0
98719,999999999,4,1,0,20,1,0
98720,999999999,4,1,0,20,1,0
98721,1.652892562,4,1,0,20,1,0
98722,0.1,4,1,0,20,1,0
98723,999999999,4,1,0,20,1,0
98724,999999999,4,1,0,20,1,0
98725,999999999,4,1,0,20,1,0
98726,999999999,4,1,0,20,1,0
98727,999999999,4,1,0,20,1,0
98728,999999999,4,1,0,20,1,0
98729,999999999,4,1,0,20,1,0
98730,999999999,4,1,0,20,1,0
98731,999999999,4,1,0,20,1,0
98732,999999999,4,1,0,20,1,0
98733,999999999,4,1,0,20,1,0
98734,999999999,4,1,0,20,1,0
98735,999999999,4,1,0,20,1,0
98736,999999999,4,1,0,20,1,0
98737,999999999,4,1,0,20,1,0
98738,999999999,4,1,0,20,1,0
98739,999999999,4,1,0,20,1,0
98740,999999999,4,1,0,20,1,0
98741,2,4,1,0,20,1,0
98742,0.1,4,1,0,20,1,0
98743,999999999,4,1,0,20,1,0
98744,999999999,4,1,0,20,1,0
98745,999999999,4,1,0,20,1,0
98746,999999999,4,1,0,20,1,0
98747,999999999,4,1,0,20,1,0
98748,999999999,4,1,0,20,1,0
98749,999999999,4,1,0,20,1,0
98750,999999999,4,1,0,20,1,0
98751,999999999,4,1,0,20,1,0
98752,999999999,4,1,0,20,1,0
98753,999999999,4,1,0,20,1,0
98754,999999999,4,1,0,20,1,0
98755,999999999,4,1,0,20,1,0
98756,999999999,4,1,0,20,1,0
98757,999999999,4,1,0,20,1,0
98758,999999999,4,1,0,20,1,0
98759,999999999,4,1,0,20,1,0
98760,999999999,4,1,0,20,1,0
98761,2.216066482,4,1,0,20,1,0
98762,0.1,4,1,0,20,1,0
98763,999999999,4,1,0,20,1,0
98764,999999999,4,1,0,20,1,0
98765,999999999,4,1,0,20,1,0
98766,999999999,4,1,0,20,1,0
98767,999999999,4,1,0,20,1,0
98768,999999999,4,1,0,20,1,0
98769,999999999,4,1,0,20,1,0
98770,999999999,4,1,0,20,1,0
98771,999999999,4,1,0,20,1,0
98772,999999999,4,1,0,20,1,0
98773,999999999,4,1,0,20,1,0
98774,999999999,4,1,0,20,1,0
98775,999999999,4,1,0,20,1,0
98776,999999999,4,1,0,20,1,0
98777,999999999,4,1,0,20,1,0
98778,999999999,4,1,0,20,1,0
98779,999999999,4,1,0,20,1,0
98780,999999999,4,1,0,20,1,0
98783,999999999,4,1,0,20,1,0
98784,999999999,4,1,0,20,1,0
98785,999999999,4,1,0,20,1,0
98786,999999999,4,1,0,20,1,0
98787,999999999,4,1,0,20,1,0
98788,999999999,4,1,0,20,1,0
98789,999999999,4,1,0,20,1,0
98790,999999999,4,1,0,20,1,0
98791,999999999,4,1,0,20,1,0
98792,999999999,4,1,0,20,1,0
98793,999999999,4,1,0,20,1,0
98794,999999999,4,1,0,20,1,0
98795,999999999,4,1,0,20,1,0
98796,999999999,4,1,0,20,1,0
98797,999999999,4,1,0,20,1,0
98798,999999999,4,1,0,20,1,0
98799,999999999,4,1,0,20,1,0
98800,999999999,4,1,0,20,1,0
98801,2.380165289,4,1,0,20,1,0
98802,0.1,4,1,0,20,1,0
98803,999999999,4,1,0,20,1,0
98804,999999999,4,1,0,20,1,0
98805,999999999,4,1,0,20,1,0
98806,999999999,4,1,0,20,1,0
98807,999999999,4,1,0,20,1,0
98808,999999999,4,1,0,20,1,0
98809,999999999,4,1,0,20,1,0
98810,999999999,4,1,0,20,1,0
98811,999999999,4,1,0,20,1,0
98812,999999999,4,1,0,20,1,0
98813,999999999,4,1,0,20,1,0
98814,999999999,4,1,0,20,1,0
98815,999999999,4,1,0,20,1,0
98816,999999999,4,1,0,20,1,0
98817,999999999,4,1,0,20,1,0
98818,999999999,4,1,0,20,1,0
98819,999999999,4,1,0,20,1,0
98820,999999999,4,1,0,20,1,0
98821,2.998750521,4,1,0,20,1,0
98822,0.1,4,1,0,20,1,0
98823,999999999,4,1,0,20,1,0
98824,999999999,4,1,0,20,1,0
98825,999999999,4,1,0,20,1,0
98826,999999999,4,1,0,20,1,0
98827,999999999,4,1,0,20,1,0
98828,999999999,4,1,0,20,1,0
98829,999999999,4,1,0,20,1,0
98830,999999999,4,1,0,20,1,0
98831,999999999,4,1,0,20,1,0
98832,999999999,4,1,0,20,1,0
98833,999999999,4,1,0,20,1,0
98834,999999999,4,1,0,20,1,0
98835,999999999,4,1,0,20,1,0
98836,999999999,4,1,0,20,1,0
98837,999999999,4,1,0,20,1,0
98838,999999999,4,1,0,20,1,0
98839,999999999,4,1,0,20,1,0
98840,999999999,4,1,0,20,1,0
98841,6,4,1,0,20,1,0
98842,999999999,4,1,0,20,1,0
98843,999999999,4,1,0,20,1,0
98844,999999999,4,1,0,20,1,0
98845,999999999,4,1,0,20,1,0
98846,999999999,4,1,0,20,1,0
98847,999999999,4,1,0,20,1,0
98848,999999999,4,1,0,20,1,0
98849,999999999,4,1,0,20,1,0
98852,999999999,4,1,0,20,1,0
98853,6,4,1,0,20,1,0
98853,-10000,4,1,0,20,0,0
99275,999999999,4,1,0,20,1,0
99574,6,4,1,0,20,1,0
99622,999999999,4,1,0,20,1,0
99623,999999999,4,1,0,20,1,0
99624,999999999,4,1,0,20,1,0
99625,999999999,4,1,0,20,1,0
99626,999999999,4,1,0,20,1,0
99627,999999999,4,1,0,20,1,0
99628,999999999,4,1,0,20,1,0
99629,999999999,4,1,0,20,1,0
99630,999999999,4,1,0,20,1,0
99631,999999999,4,1,0,20,1,0
99632,999999999,4,1,0,20,1,0
99633,999999999,4,1,0,20,1,0
99634,999999999,4,1,0,20,1,0
99635,999999999,4,1,0,20,1,0
99636,999999999,4,1,0,20,1,0
99637,999999999,4,1,0,20,1,0
99638,999999999,4,1,0,20,1,0
99639,999999999,4,1,0,20,1,0
99640,999999999,4,1,0,20,1,0
99641,7200,4,1,0,20,1,0
99642,999999999,4,1,0,20,1,0
99643,999999999,4,1,0,20,1,0
99644,999999999,4,1,0,20,1,0
99645,999999999,4,1,0,20,1,0
99646,999999999,4,1,0,20,1,0
99647,999999999,4,1,0,20,1,0
99648,999999999,4,1,0,20,1,0
99649,999999999,4,1,0,20,1,0
99650,4000,4,2,0,20,1,0
99651,1000000,4,2,0,20,1,0
99652,1000000,4,2,0,20,1,0
99653,1000000,4,2,0,20,1,0
99654,1000000,4,2,0,20,1,0
99655,0.6,4,2,0,20,1,0
99657,0.6,4,2,0,20,1,0
99658,1000000,4,2,0,20,1,0
99659,1000000,4,2,0,20,1,0
99660,1000000,4,2,0,20,1,0
99661,1000000,4,2,0,20,1,0
99662,7.97262742772967,1,2,0,20,1,0
99663,0.6,4,2,0,20,1,0
99665,0.6,4,2,0,20,1,0
99666,1000000,4,2,0,20,1,0
99667,1000000,4,2,0,20,1,0
99668,1000000,4,2,0,20,1,0
99669,1000000,4,2,0,20,1,0
99670,5.03016785829452,1,2,0,20,1,0
99671,0.6,4,2,0,20,1,0
99673,0.6,4,2,0,20,1,0
99674,1000000,4,2,0,20,1,0
99675,1000000,4,2,0,20,1,0
99676,1000000,4,2,0,20,1,0
99677,1000000,4,2,0,20,1,0
99678,3.98631371386484,1,2,0,20,1,0
99679,0.6,4,2,0,20,1,0
99681,0.6,4,2,0,20,1,0
99682,1000000,4,2,0,20,1,0
99683,1000000,4,2,0,20,1,0
99684,1000000,4,2,0,20,1,0
99685,1000000,4,2,0,20,1,0
99686,3.43362373937614,1,2,0,20,1,0
99687,0.6,4,2,0,20,1,0
99689,0.6,4,2,0,20,1,0
99690,1000000,4,2,0,20,1,0
99691,1000000,4,2,0,20,1,0
99692,1000000,4,2,0,20,1,0
99693,1000000,4,2,0,20,1,0
99694,3.08423330145233,1,2,0,20,1,0
99695,0.6,4,2,0,20,1,0
99697,0.6,4,2,0,20,1,0
99698,1000000,4,2,0,20,1,0
99699,1000000,4,2,0,20,1,0
99700,1000000,4,2,0,20,1,0
99701,1000000,4,2,0,20,1,0
99702,2.83990718989185,1,2,0,20,1,0
99703,0.6,4,2,0,20,1,0
99705,0.6,4,2,0,20,1,0
99706,1000000,4,2,0,20,1,0
99707,1000000,4,2,0,20,1,0
99708,1000000,4,2,0,20,1,0
99709,1000000,4,2,0,20,1,0
99710,2.65754247590989,1,2,0,20,1,0
99711,0.6,4,2,0,20,1,0
99713,0.6,4,2,0,20,1,0
99714,1000000,4,2,0,20,1,0
99715,1000000,4,2,0,20,1,0
99716,1000000,4,2,0,20,1,0
99717,1000000,4,2,0,20,1,0
99718,2.51508392914726,1,2,0,20,1,0
99719,0.6,4,2,0,20,1,0
99721,0.6,4,2,0,20,1,0
99722,1000000,4,2,0,20,1,0
99723,1000000,4,2,0,20,1,0
99724,1000000,4,2,0,20,1,0
99725,1000000,4,2,0,20,1,0
99726,2.4,1,2,0,20,1,0
99727,0.6,4,2,0,20,1,0
99729,0.6,4,2,0,20,1,0
99730,1000000,4,2,0,20,1,0
99731,1000000,4,2,0,20,1,0
99732,1000000,4,2,0,20,1,0
99733,1000000,4,2,0,20,1,0
99734,2.30460616269391,1,2,0,20,1,0
99735,0.6,4,2,0,20,1,0
99737,0.6,4,2,0,20,1,0
99738,1000000,4,2,0,20,1,0
99739,1000000,4,2,0,20,1,0
99740,1000000,4,2,0,20,1,0
99741,1000000,4,2,0,20,1,0
99742,2.2239081792699,1,2,0,20,1,0
99743,0.6,4,2,0,20,1,0
99745,0.6,4,2,0,20,1,0
99746,1000000,4,2,0,20,1,0
99747,1000000,4,2,0,20,1,0
99748,1000000,4,2,0,20,1,0
99749,1000000,4,2,0,20,1,0
99750,2.1545081220063,1,2,0,20,1,0
99751,0.6,4,2,0,20,1,0
99753,0.6,4,2,0,20,1,0
99754,1000000,4,2,0,20,1,0
99755,1000000,4,2,0,20,1,0
99756,1000000,4,2,0,20,1,0
99757,1000000,4,2,0,20,1,0
99758,2.09400688691797,1,2,0,20,1,0
99759,0.6,4,2,0,20,1,0
99761,0.6,4,2,0,20,1,0
99762,1000000,4,2,0,20,1,0
99763,1000000,4,2,0,20,1,0
99764,1000000,4,2,0,20,1,0
99765,1000000,4,2,0,20,1,0
99766,2.04065796894625,1,2,0,20,1,0
99767,0.6,4,2,0,20,1,0
99769,0.6,4,2,0,20,1,0
99770,1000000,4,2,0,20,1,0
99771,1000000,4,2,0,20,1,0
99772,1000000,4,2,0,20,1,0
99773,1000000,4,2,0,20,1,0
99774,1.99315685693242,1,2,0,20,1,0
99775,0.6,4,2,0,20,1,0
99777,0.6,4,2,0,20,1,0
99778,1000000,4,2,0,20,1,0
99779,1000000,4,2,0,20,1,0
99780,1000000,4,2,0,20,1,0
99781,1000000,4,2,0,20,1,0
99782,1.9505076223007,1,2,0,20,1,0
99783,0.6,4,2,0,20,1,0
99785,0.6,4,2,0,20,1,0
99786,1000000,4,2,0,20,1,0
99787,1000000,4,2,0,20,1,0
99788,1000000,4,2,0,20,1,0
99789,1000000,4,2,0,20,1,0
99790,1.91193544847259,1,2,0,20,1,0
99791,0.6,4,2,0,20,1,0
99793,0.6,4,2,0,20,1,0
99794,1000000,4,2,0,20,1,0
99795,1000000,4,2,0,20,1,0
99796,1000000,4,2,0,20,1,0
99797,1000000,4,2,0,20,1,0
99798,1.8768275594389,1,2,0,20,1,0
99799,0.6,4,2,0,20,1,0
99801,0.6,4,2,0,20,1,0
99802,1000000,4,2,0,20,1,0
99803,1000000,4,2,0,20,1,0
99804,1000000,4,2,0,20,1,0
99805,1000000,4,2,0,20,1,0
99806,1.84469228841658,1,2,0,20,1,0
99807,0.6,4,2,0,20,1,0
99809,0.6,4,2,0,20,1,0
99810,1000000,4,2,0,20,1,0
99811,1000000,4,2,0,20,1,0
99812,1000000,4,2,0,20,1,0
99813,1000000,4,2,0,20,1,0
99814,1.81513006923936,1,2,0,20,1,0
99815,0.6,4,2,0,20,1,0
99817,0.6,4,2,0,20,1,0
99818,1000000,4,2,0,20,1,0
99819,1000000,4,2,0,20,1,0
99820,1000000,4,2,0,20,1,0
99821,1000000,4,2,0,20,1,0
99822,1.78781246345603,1,2,0,20,1,0
99823,0.6,4,2,0,20,1,0
99825,0.6,4,2,0,20,1,0
99826,1000000,4,2,0,20,1,0
99827,1000000,4,2,0,20,1,0
99828,1000000,4,2,0,20,1,0
99829,1000000,4,2,0,20,1,0
99830,1.76246672537653,1,2,0,20,1,0
99831,0.6,4,2,0,20,1,0
99833,0.6,4,2,0,20,1,0
99834,1000000,4,2,0,20,1,0
99835,1000000,4,2,0,20,1,0
99836,1000000,4,2,0,20,1,0
99837,1000000,4,2,0,20,1,0
99838,1.73886426038941,1,2,0,20,1,0
99839,0.6,4,2,0,20,1,0
99841,0.6,4,2,0,20,1,0
99842,1000000,4,2,0,20,1,0
99843,1000000,4,2,0,20,1,0
99844,1000000,4,2,0,20,1,0
99845,1000000,4,2,0,20,1,0
99846,1.71681186968807,1,2,0,20,1,0
99847,0.6,4,2,0,20,1,0
99849,0.6,4,2,0,20,1,0
99850,1000000,4,2,0,20,1,0
99851,1000000,4,2,0,20,1,0
99852,1000000,4,2,0,20,1,0
99853,1000000,4,2,0,20,1,0
99854,1.69614502170079,1,2,0,20,1,0
99855,0.6,4,2,0,20,1,0
99857,0.6,4,2,0,20,1,0
99858,1000000,4,2,0,20,1,0
99859,1000000,4,2,0,20,1,0
99860,1000000,4,2,0,20,1,0
99861,1000000,4,2,0,20,1,0
99862,1.67672261943151,1,2,0,20,1,0
99863,0.6,4,2,0,20,1,0
99865,0.6,4,2,0,20,1,0
99866,1000000,4,2,0,20,1,0
99867,1000000,4,2,0,20,1,0
99868,1000000,4,2,0,20,1,0
99869,1000000,4,2,0,20,1,0
99870,1.65842288680389,1,2,0,20,1,0
99871,0.6,4,2,0,20,1,0
99873,0.6,4,2,0,20,1,0
99874,1000000,4,2,0,20,1,0
99875,1000000,4,2,0,20,1,0
99876,1000000,4,2,0,20,1,0
99877,1000000,4,2,0,20,1,0
99878,1.64114010238533,1,2,0,20,1,0
99879,0.6,4,2,0,20,1,0
99881,0.6,4,2,0,20,1,0
99882,1000000,4,2,0,20,1,0
99883,1000000,4,2,0,20,1,0
99884,1000000,4,2,0,20,1,0
99885,1000000,4,2,0,20,1,0
99886,1.62478198206923,1,2,0,20,1,0
99887,0.6,4,2,0,20,1,0
99889,0.6,4,2,0,20,1,0
99890,1000000,4,2,0,20,1,0
99891,1000000,4,2,0,20,1,0
99892,1000000,4,2,0,20,1,0
99893,1000000,4,2,0,20,1,0
99894,1.60926756394663,1,2,0,20,1,0
99895,0.6,4,2,0,20,1,0
99897,0.6,4,2,0,20,1,0
99898,1000000,4,2,0,20,1,0
99899,1000000,4,2,0,20,1,0
99900,1000000,4,2,0,20,1,0
99901,1000000,4,2,0,20,1,0
99902,1.59452548554593,1,2,0,20,1,0
99903,0.6,4,2,0,20,1,0
99905,0.6,4,2,0,20,1,0
99906,1000000,4,2,0,20,1,0
99907,1000000,4,2,0,20,1,0
99908,1000000,4,2,0,20,1,0
99909,1000000,4,2,0,20,1,0
99910,1.58049257038299,1,2,0,20,1,0
99911,0.6,4,2,0,20,1,0
99913,0.6,4,2,0,20,1,0
99914,1000000,4,2,0,20,1,0
99915,1000000,4,2,0,20,1,0
99916,1000000,4,2,0,20,1,0
99917,1000000,4,2,0,20,1,0
99918,1.56711266037871,1,2,0,20,1,0
99919,0.6,4,2,0,20,1,0
99921,0.6,4,2,0,20,1,0
99922,1000000,4,2,0,20,1,0
99923,1000000,4,2,0,20,1,0
99924,1000000,4,2,0,20,1,0
99925,1000000,4,2,0,20,1,0
99926,1.55433564523375,1,2,0,20,1,0
99927,0.6,4,2,0,20,1,0
99929,0.6,4,2,0,20,1,0
99930,1000000,4,2,0,20,1,0
99931,1000000,4,2,0,20,1,0
99932,1000000,4,2,0,20,1,0
99933,1000000,4,2,0,20,1,0
99934,1.54211665072616,1,2,0,20,1,0
99935,0.6,4,2,0,20,1,0
99937,0.6,4,2,0,20,1,0
99938,1000000,4,2,0,20,1,0
99939,1000000,4,2,0,20,1,0
99940,1000000,4,2,0,20,1,0
99941,1000000,4,2,0,20,1,0
99942,1.53041535611618,1,2,0,20,1,0
99943,0.6,4,2,0,20,1,0
99945,0.6,4,2,0,20,1,0
99946,1000000,4,2,0,20,1,0
99947,1000000,4,2,0,20,1,0
99948,1000000,4,2,0,20,1,0
99949,1000000,4,2,0,20,1,0
99950,1.51919541710632,1,2,0,20,1,0
99951,0.6,4,2,0,20,1,0
99953,0.6,4,2,0,20,1,0
99954,1000000,4,2,0,20,1,0
99955,1000000,4,2,0,20,1,0
99956,1000000,4,2,0,20,1,0
99957,1000000,4,2,0,20,1,0
99958,1.50842397562051,1,2,0,20,1,0
99959,0.6,4,2,0,20,1,0
99961,0.6,4,2,0,20,1,0
99962,1000000,4,2,0,20,1,0
99963,1000000,4,2,0,20,1,0
99964,1000000,4,2,0,20,1,0
99965,1000000,4,2,0,20,1,0
99966,1.49807124139628,1,2,0,20,1,0
99967,0.6,4,2,0,20,1,0
99969,0.6,4,2,0,20,1,0
99970,1000000,4,2,0,20,1,0
99971,1000000,4,2,0,20,1,0
99972,1000000,4,2,0,20,1,0
99973,1000000,4,2,0,20,1,0
99974,1.48811013329548,1,2,0,20,1,0
99975,0.6,4,2,0,20,1,0
99977,0.6,4,2,0,20,1,0
99978,1000000,4,2,0,20,1,0
99979,1000000,4,2,0,20,1,0
99980,1000000,4,2,0,20,1,0
99981,1000000,4,2,0,20,1,0
99982,1.47851597052705,1,2,0,20,1,0
99983,0.6,4,2,0,20,1,0
99985,0.6,4,2,0,20,1,0
99986,1000000,4,2,0,20,1,0
99987,1000000,4,2,0,20,1,0
99988,1000000,4,2,0,20,1,0
99989,1000000,4,2,0,20,1,0
99990,1.46926620578567,1,2,0,20,1,0
99991,0.6,4,2,0,20,1,0
99993,0.6,4,2,0,20,1,0
99994,1000000,4,2,0,20,1,0
99995,1000000,4,2,0,20,1,0
99996,1000000,4,2,0,20,1,0
99997,1000000,4,2,0,20,1,0
99998,1.46034019375073,1,2,0,20,1,0
99999,0.6,4,2,0,20,1,0
100001,0.6,4,2,0,20,1,0
100002,1000000,4,2,0,20,1,0
100003,1000000,4,2,0,20,1,0
100004,1000000,4,2,0,20,1,0
100005,1000000,4,2,0,20,1,0
100006,1.45171898954434,1,2,0,20,1,0
100007,0.6,4,2,0,20,1,0
100009,0.6,4,2,0,20,1,0
100010,1000000,4,2,0,20,1,0
100011,1000000,4,2,0,20,1,0
100012,1000000,4,2,0,20,1,0
100013,1000000,4,2,0,20,1,0
100014,1.44338517267595,1,2,0,20,1,0
100015,0.6,4,2,0,20,1,0
100017,0.6,4,2,0,20,1,0
100018,1000000,4,2,0,20,1,0
100019,1000000,4,2,0,20,1,0
100020,1000000,4,2,0,20,1,0
100021,1000000,4,2,0,20,1,0
100022,1.43532269275371,1,2,0,20,1,0
100023,0.6,4,2,0,20,1,0
100025,0.6,4,2,0,20,1,0
100026,1000000,4,2,0,20,1,0
100027,1000000,4,2,0,20,1,0
100028,1000000,4,2,0,20,1,0
100029,1000000,4,2,0,20,1,0
100030,1.42751673385456,1,2,0,20,1,0
100031,0.6,4,2,0,20,1,0
100033,0.6,4,2,0,20,1,0
100034,1000000,4,2,0,20,1,0
100035,1000000,4,2,0,20,1,0
100036,1000000,4,2,0,20,1,0
100037,1000000,4,2,0,20,1,0
100038,1.41995359494593,1,2,0,20,1,0
100039,0.6,4,2,0,20,1,0
100041,0.6,4,2,0,20,1,0
100042,1000000,4,2,0,20,1,0
100043,1000000,4,2,0,20,1,0
100044,1000000,4,2,0,20,1,0
100045,1000000,4,2,0,20,1,0
100046,1.41262058416267,1,2,0,20,1,0
100047,0.6,4,2,0,20,1,0
100049,0.6,4,2,0,20,1,0
100050,1000000,4,2,0,20,1,0
100051,1000000,4,2,0,20,1,0
100052,1000000,4,2,0,20,1,0
100053,1000000,4,2,0,20,1,0
100054,1.40550592508261,1,2,0,20,1,0
100055,0.6,4,2,0,20,1,0
100057,0.6,4,2,0,20,1,0
100058,1000000,4,2,0,20,1,0
100059,1000000,4,2,0,20,1,0
100060,1000000,4,2,0,20,1,0
100061,1000000,4,2,0,20,1,0
100062,1.39859867342471,1,2,0,20,1,0
100063,0.6,4,2,0,20,1,0
100065,0.6,4,2,0,20,1,0
100066,1000000,4,2,0,20,1,0
100067,1000000,4,2,0,20,1,0
100068,1000000,4,2,0,20,1,0
100069,1000000,4,2,0,20,1,0
100070,1.39188864282817,1,2,0,20,1,0
100071,0.6,4,2,0,20,1,0
100073,0.6,4,2,0,20,1,0
100074,1000000,4,2,0,20,1,0
100075,1000000,4,2,0,20,1,0
100076,1000000,4,2,0,20,1,0
100077,1000000,4,2,0,20,1,0
100078,1.38536633856569,1,2,0,20,1,0
100079,0.6,4,2,0,20,1,0
100081,0.6,4,2,0,20,1,0
100082,1000000,4,2,0,20,1,0
100083,1000000,4,2,0,20,1,0
100084,1000000,4,2,0,20,1,0
100085,1000000,4,2,0,20,1,0
100086,1.37902289820833,1,2,0,20,1,0
100087,0.6,4,2,0,20,1,0
100089,0.6,4,2,0,20,1,0
100090,1000000,4,2,0,20,1,0
100091,1000000,4,2,0,20,1,0
100092,1000000,4,2,0,20,1,0
100093,1000000,4,2,0,20,1,0
100094,1.37285003839663,1,2,0,20,1,0
100095,0.6,4,2,0,20,1,0
100097,0.6,4,2,0,20,1,0
100098,1000000,4,2,0,20,1,0
100099,1000000,4,2,0,20,1,0
100100,1000000,4,2,0,20,1,0
100101,1000000,4,2,0,20,1,0
100102,1.36684000698946,1,2,0,20,1,0
100103,0.6,4,2,0,20,1,0
100105,0.6,4,2,0,20,1,0
100106,1000000,4,2,0,20,1,0
100107,1000000,4,2,0,20,1,0
100108,1000000,4,2,0,20,1,0
100109,1000000,4,2,0,20,1,0
100110,1.36098553996009,1,2,0,20,1,0
100111,0.6,4,2,0,20,1,0
100113,0.6,4,2,0,20,1,0
100114,1000000,4,2,0,20,1,0
100115,1000000,4,2,0,20,1,0
100116,1000000,4,2,0,20,1,0
100117,1000000,4,2,0,20,1,0
100118,1.35527982249315,1,2,0,20,1,0
100119,0.6,4,2,0,20,1,0
100121,0.6,4,2,0,20,1,0
100122,1000000,4,2,0,20,1,0
100123,1000000,4,2,0,20,1,0
100124,1000000,4,2,0,20,1,0
100125,1000000,4,2,0,20,1,0
100126,1.34971645380683,1,2,0,20,1,0
100127,0.6,4,2,0,20,1,0
100129,0.6,4,2,0,20,1,0
100130,1000000,4,2,0,20,1,0
100131,1000000,4,2,0,20,1,0
100132,1000000,4,2,0,20,1,0
100133,1000000,4,2,0,20,1,0
100134,1.34428941528641,1,2,0,20,1,0
100135,0.6,4,2,0,20,1,0
100137,0.6,4,2,0,20,1,0
100138,1000000,4,2,0,20,1,0
100139,1000000,4,2,0,20,1,0
100140,1000000,4,2,0,20,1,0
100141,1000000,4,2,0,20,1,0
100142,1.33899304156662,1,2,0,20,1,0
100143,0.6,4,2,0,20,1,0
100145,0.6,4,2,0,20,1,0
100146,1000000,4,2,0,20,1,0
100147,1000000,4,2,0,20,1,0
100148,1000000,4,2,0,20,1,0
100149,1000000,4,2,0,20,1,0
100150,1.33382199424607,1,2,0,20,1,0
100151,0.6,4,2,0,20,1,0
100153,0.6,4,2,0,20,1,0
100154,1000000,4,2,0,20,1,0
100155,1000000,4,2,0,20,1,0
100156,1000000,4,2,0,20,1,0
100157,1000000,4,2,0,20,1,0
100158,1.32877123795495,1,2,0,20,1,0
100159,0.6,4,2,0,20,1,0
100161,0.6,4,2,0,20,1,0
100162,1000000,4,2,0,20,1,0
100163,1000000,4,2,0,20,1,0
100164,1000000,4,2,0,20,1,0
100165,1000000,4,2,0,20,1,0
100166,1.32383601853114,1,2,0,20,1,0
100167,0.6,4,2,0,20,1,0
100169,0.6,4,2,0,20,1,0
100170,1000000,4,2,0,20,1,0
100171,1000000,4,2,0,20,1,0
100172,1000000,4,2,0,20,1,0
100173,1000000,4,2,0,20,1,0
100174,1.31901184308873,1,2,0,20,1,0
100175,0.6,4,2,0,20,1,0
100177,0.6,4,2,0,20,1,0
100178,1000000,4,2,0,20,1,0
100179,1000000,4,2,0,20,1,0
100180,1000000,4,2,0,20,1,0
100181,1000000,4,2,0,20,1,0
100182,1.31429446178783,1,2,0,20,1,0
100183,0.6,4,2,0,20,1,0
100185,0.6,4,2,0,20,1,0
100186,1000000,4,2,0,20,1,0
100187,1000000,4,2,0,20,1,0
100188,1000000,4,2,0,20,1,0
100189,1000000,4,2,0,20,1,0
100190,1.30967985113682,1,2,0,20,1,0
100191,0.6,4,2,0,20,1,0
100193,0.6,4,2,0,20,1,0
100194,1000000,4,2,0,20,1,0
100195,1000000,4,2,0,20,1,0
100196,1000000,4,2,0,20,1,0
100197,1000000,4,2,0,20,1,0
100198,1.30516419867699,1,2,0,20,1,0
100199,0.6,4,2,0,20,1,0
100201,0.6,4,2,0,20,1,0
100202,1000000,4,2,0,20,1,0
100203,1000000,4,2,0,20,1,0
100204,1000000,4,2,0,20,1,0
100205,1000000,4,2,0,20,1,0
100206,1.30074388891631,1,2,0,20,1,0
100207,0.6,4,2,0,20,1,0
100209,0.6,4,2,0,20,1,0
100210,1000000,4,2,0,20,1,0
100211,1000000,4,2,0,20,1,0
100212,1000000,4,2,0,20,1,0
100213,1000000,4,2,0,20,1,0
100214,1.29641549039366,1,2,0,20,1,0
100215,0.6,4,2,0,20,1,0
100217,0.6,4,2,0,20,1,0
100218,1000000,4,2,0,20,1,0
100219,1000000,4,2,0,20,1,0
100220,1000000,4,2,0,20,1,0
100221,1000000,4,2,0,20,1,0
100222,1.2921757437677,1,2,0,20,1,0
100223,0.6,4,2,0,20,1,0
100225,0.6,4,2,0,20,1,0
100226,1000000,4,2,0,20,1,0
100227,1000000,4,2,0,20,1,0
100228,1000000,4,2,0,20,1,0
100229,1000000,4,2,0,20,1,0
100230,1.28802155083572,1,2,0,20,1,0
100231,0.6,4,2,0,20,1,0
100233,0.6,4,2,0,20,1,0
100234,1000000,4,2,0,20,1,0
100235,1000000,4,2,0,20,1,0
100236,1000000,4,2,0,20,1,0
100237,1000000,4,2,0,20,1,0
100238,1.28394996439789,1,2,0,20,1,0
100239,0.6,4,2,0,20,1,0
100241,0.6,4,2,0,20,1,0
100242,1000000,4,2,0,20,1,0
100243,1000000,4,2,0,20,1,0
100244,1000000,4,2,0,20,1,0
100245,1000000,4,2,0,20,1,0
100246,1.27995817889105,1,2,0,20,1,0
100247,0.6,4,2,0,20,1,0
100249,0.6,4,2,0,20,1,0
100250,1000000,4,2,0,20,1,0
100251,1000000,4,2,0,20,1,0
100252,1000000,4,2,0,20,1,0
100253,1000000,4,2,0,20,1,0
100254,1.27604352172381,1,2,0,20,1,0
100255,0.6,4,2,0,20,1,0
100257,0.6,4,2,0,20,1,0
100258,1000000,4,2,0,20,1,0
100259,1000000,4,2,0,20,1,0
100260,1000000,4,2,0,20,1,0
100261,1000000,4,2,0,20,1,0
100262,1.2722034452518,1,2,0,20,1,0
100263,0.6,4,2,0,20,1,0
100265,0.6,4,2,0,20,1,0
100266,1000000,4,2,0,20,1,0
100267,1000000,4,2,0,20,1,0
100268,1000000,4,2,0,20,1,0
100269,1000000,4,2,0,20,1,0
100270,1.26843551933783,1,2,0,20,1,0
100271,0.6,4,2,0,20,1,0
100273,0.6,4,2,0,20,1,0
100274,1000000,4,2,0,20,1,0
100275,1000000,4,2,0,20,1,0
100276,1000000,4,2,0,20,1,0
100277,1000000,4,2,0,20,1,0
100278,1.26473742444725,1,2,0,20,1,0
100279,0.6,4,2,0,20,1,0
100281,0.6,4,2,0,20,1,0
100282,1000000,4,2,0,20,1,0
100283,1000000,4,2,0,20,1,0
100284,1000000,4,2,0,20,1,0
100285,1000000,4,2,0,20,1,0
100286,1.26110694523357,1,2,0,20,1,0
100287,0.6,4,2,0,20,1,0
100289,0.6,4,2,0,20,1,0
100290,1000000,4,2,0,20,1,0
100291,1000000,4,2,0,20,1,0
100292,1000000,4,2,0,20,1,0
100293,1000000,4,2,0,20,1,0
100294,1.25754196457363,1,2,0,20,1,0
100295,0.6,4,2,0,20,1,0
100297,0.6,4,2,0,20,1,0
100298,1000000,4,2,0,20,1,0
100299,1000000,4,2,0,20,1,0
100300,1000000,4,2,0,20,1,0
100301,1000000,4,2,0,20,1,0
100302,1.25404045801566,1,2,0,20,1,0
100303,0.6,4,2,0,20,1,0
100305,0.6,4,2,0,20,1,0
100306,1000000,4,2,0,20,1,0
100307,1000000,4,2,0,20,1,0
100308,1000000,4,2,0,20,1,0
100309,1000000,4,2,0,20,1,0
100310,1.25060048860674,1,2,0,20,1,0
100311,0.6,4,2,0,20,1,0
100313,0.6,4,2,0,20,1,0
100314,1000000,4,2,0,20,1,0
100315,1000000,4,2,0,20,1,0
100316,1000000,4,2,0,20,1,0
100317,1000000,4,2,0,20,1,0
100318,1.24722020206937,1,2,0,20,1,0
100319,0.6,4,2,0,20,1,0
100321,0.6,4,2,0,20,1,0
100322,1000000,4,2,0,20,1,0
100323,1000000,4,2,0,20,1,0
100324,1000000,4,2,0,20,1,0
100325,1000000,4,2,0,20,1,0
100326,1.24389782229979,1,2,0,20,1,0
100327,0.6,4,2,0,20,1,0
100329,0.6,4,2,0,20,1,0
100330,1000000,4,2,0,20,1,0
100331,1000000,4,2,0,20,1,0
100332,1000000,4,2,0,20,1,0
100333,1000000,4,2,0,20,1,0
100334,1.2406316471627,1,2,0,20,1,0
100335,0.6,4,2,0,20,1,0
100337,0.6,4,2,0,20,1,0
100338,1000000,4,2,0,20,1,0
100339,1000000,4,2,0,20,1,0
100340,1000000,4,2,0,20,1,0
100341,1000000,4,2,0,20,1,0
100342,1.23742004455984,1,2,0,20,1,0
100343,0.6,4,2,0,20,1,0
100345,0.6,4,2,0,20,1,0
100346,1000000,4,2,0,20,1,0
100347,1000000,4,2,0,20,1,0
100348,1000000,4,2,0,20,1,0
100349,1000000,4,2,0,20,1,0
100350,1.23426144875137,1,2,0,20,1,0
100351,0.6,4,2,0,20,1,0
100353,0.6,4,2,0,20,1,0
100354,1000000,4,2,0,20,1,0
100355,1000000,4,2,0,20,1,0
100356,1000000,4,2,0,20,1,0
100357,1000000,4,2,0,20,1,0
100358,1.23115435691118,1,2,0,20,1,0
100359,0.6,4,2,0,20,1,0
100361,0.6,4,2,0,20,1,0
100362,1000000,4,2,0,20,1,0
100363,1000000,4,2,0,20,1,0
100364,1000000,4,2,0,20,1,0
100365,1000000,4,2,0,20,1,0
100366,1.2280973258987,1,2,0,20,1,0
100367,0.6,4,2,0,20,1,0
100369,0.6,4,2,0,20,1,0
100370,1000000,4,2,0,20,1,0
100371,1000000,4,2,0,20,1,0
100372,1000000,4,2,0,20,1,0
100373,1000000,4,2,0,20,1,0
100374,1.22508896923125,1,2,0,20,1,0
100375,0.6,4,2,0,20,1,0
100377,0.6,4,2,0,20,1,0
100378,1000000,4,2,0,20,1,0
100379,1000000,4,2,0,20,1,0
100380,1000000,4,2,0,20,1,0
100381,1000000,4,2,0,20,1,0
100382,1.22212795424243,1,2,0,20,1,0
100383,0.6,4,2,0,20,1,0
100385,0.6,4,2,0,20,1,0
100386,1000000,4,2,0,20,1,0
100387,1000000,4,2,0,20,1,0
100388,1000000,4,2,0,20,1,0
100389,1000000,4,2,0,20,1,0
100390,1.21921299941311,1,2,0,20,1,0
100391,0.6,4,2,0,20,1,0
100393,0.6,4,2,0,20,1,0
100394,1000000,4,2,0,20,1,0
100395,1000000,4,2,0,20,1,0
100396,1000000,4,2,0,20,1,0
100397,1000000,4,2,0,20,1,0
100398,1.21634287186283,1,2,0,20,1,0
100399,0.6,4,2,0,20,1,0
100401,0.6,4,2,0,20,1,0
100402,1000000,4,2,0,20,1,0
100403,1000000,4,2,0,20,1,0
100404,1000000,4,2,0,20,1,0
100405,1000000,4,2,0,20,1,0
100406,1.21351638499025,1,2,0,20,1,0
100407,0.6,4,2,0,20,1,0
100409,0.6,4,2,0,20,1,0
100410,1000000,4,2,0,20,1,0
100411,1000000,4,2,0,20,1,0
100412,1000000,4,2,0,20,1,0
100413,1000000,4,2,0,20,1,0
100414,1.2107323962523,1,2,0,20,1,0
100415,0.6,4,2,0,20,1,0
100417,0.6,4,2,0,20,1,0
100418,1000000,4,2,0,20,1,0
100419,1000000,4,2,0,20,1,0
100420,1000000,4,2,0,20,1,0
100421,1000000,4,2,0,20,1,0
100422,1.20798980507258,1,2,0,20,1,0
100423,0.6,4,2,0,20,1,0
100425,0.6,4,2,0,20,1,0
100426,1000000,4,2,0,20,1,0
100427,1000000,4,2,0,20,1,0
100428,1000000,4,2,0,20,1,0
100429,1000000,4,2,0,20,1,0
100430,1.20528755087006,1,2,0,20,1,0
100431,0.6,4,2,0,20,1,0
100433,0.6,4,2,0,20,1,0
100434,1000000,4,2,0,20,1,0
100435,1000000,4,2,0,20,1,0
100436,1000000,4,2,0,20,1,0
100437,1000000,4,2,0,20,1,0
100438,1.20262461120004,1,2,0,20,1,0
100439,0.6,4,2,0,20,1,0
100441,0.6,4,2,0,20,1,0
100442,1000000,4,2,0,20,1,0
100443,1000000,4,2,0,20,1,0
100444,1000000,4,2,0,20,1,0
100445,1000000,4,2,0,20,1,0
100446,1.2,1,2,0,20,1,0
100447,0.6,4,2,0,20,1,0
100449,0.6,4,2,0,20,1,0
100450,1000000,4,2,0,20,1,0
100451,1000000,4,2,0,20,1,0
100452,1000000,4,2,0,20,1,0
100453,1000000,4,2,0,20,1,0
100454,1.19741276593315,1,2,0,20,1,0
100455,0.6,4,2,0,20,1,0
100457,0.6,4,2,0,20,1,0
100458,1000000,4,2,0,20,1,0
100459,1000000,4,2,0,20,1,0
100460,1000000,4,2,0,20,1,0
100461,1000000,4,2,0,20,1,0
100462,1.19486199082357,1,2,0,20,1,0
100463,0.6,4,2,0,20,1,0
100465,0.6,4,2,0,20,1,0
100466,1000000,4,2,0,20,1,0
100467,1000000,4,2,0,20,1,0
100468,1000000,4,2,0,20,1,0
100469,1000000,4,2,0,20,1,0
100470,1.19234678817684,1,2,0,20,1,0
100471,0.6,4,2,0,20,1,0
100473,0.6,4,2,0,20,1,0
100474,1000000,4,2,0,20,1,0
100475,1000000,4,2,0,20,1,0
100476,1000000,4,2,0,20,1,0
100477,1000000,4,2,0,20,1,0
100478,1.18986630178079,1,2,0,20,1,0
100479,0.6,4,2,0,20,1,0
100481,0.6,4,2,0,20,1,0
100482,1000000,4,2,0,20,1,0
100483,1000000,4,2,0,20,1,0
100484,1000000,4,2,0,20,1,0
100485,1000000,4,2,0,20,1,0
100486,1.18741970438117,1,2,0,20,1,0
100487,0.6,4,2,0,20,1,0
100489,0.6,4,2,0,20,1,0
100490,1000000,4,2,0,20,1,0
100491,1000000,4,2,0,20,1,0
100492,1000000,4,2,0,20,1,0
100493,1000000,4,2,0,20,1,0
100494,1.18500619642764,1,2,0,20,1,0
100495,0.6,4,2,0,20,1,0
100497,0.6,4,2,0,20,1,0
100498,1000000,4,2,0,20,1,0
100499,1000000,4,2,0,20,1,0
100500,1000000,4,2,0,20,1,0
100501,1000000,4,2,0,20,1,0
100502,1.18262500488573,1,2,0,20,1,0
100503,0.6,4,2,0,20,1,0
100505,0.6,4,2,0,20,1,0
100506,1000000,4,2,0,20,1,0
100507,1000000,4,2,0,20,1,0
100508,1000000,4,2,0,20,1,0
100509,1000000,4,2,0,20,1,0
100510,1000000,4,2,0,20,1,0
100511,1.18262500488573,1,2,0,20,1,0
100512,0.6,4,2,0,20,1,0
100514,0.6,4,2,0,20,1,0
100515,1000000,4,2,0,20,1,0
100516,1000000,4,2,0,20,1,0
100517,1000000,4,2,0,20,1,0
100518,1000000,4,2,0,20,1,0
100519,1.18819280301649,1,2,0,20,1,0
100520,0.6,4,2,0,20,1,0
100522,0.6,4,2,0,20,1,0
100523,1000000,4,2,0,20,1,0
100524,1000000,4,2,0,20,1,0
100525,1000000,4,2,0,20,1,0
100526,1000000,4,2,0,20,1,0
100527,1.19392085468493,1,2,0,20,1,0
100528,0.6,4,2,0,20,1,0
100530,0.6,4,2,0,20,1,0
100531,1000000,4,2,0,20,1,0
100532,1000000,4,2,0,20,1,0
100533,1000000,4,2,0,20,1,0
100534,1000000,4,2,0,20,1,0
100535,1.19981726511318,1,2,0,20,1,0
100536,0.6,4,2,0,20,1,0
100538,0.6,4,2,0,20,1,0
100539,1000000,4,2,0,20,1,0
100540,1000000,4,2,0,20,1,0
100541,1000000,4,2,0,20,1,0
100542,1000000,4,2,0,20,1,0
100543,1.20589072993984,1,2,0,20,1,0
100544,0.6,4,2,0,20,1,0
100546,0.6,4,2,0,20,1,0
100547,1000000,4,2,0,20,1,0
100548,1000000,4,2,0,20,1,0
100549,1000000,4,2,0,20,1,0
100550,1000000,4,2,0,20,1,0
100551,1.21215059180595,1,2,0,20,1,0
100552,0.6,4,2,0,20,1,0
100554,0.6,4,2,0,20,1,0
100555,1000000,4,2,0,20,1,0
100556,1000000,4,2,0,20,1,0
100557,1000000,4,2,0,20,1,0
100558,1000000,4,2,0,20,1,0
100559,1.21860690371406,1,2,0,20,1,0
100560,0.6,4,2,0,20,1,0
100562,0.6,4,2,0,20,1,0
100563,1000000,4,2,0,20,1,0
100564,1000000,4,2,0,20,1,0
100565,1000000,4,2,0,20,1,0
100566,1000000,4,2,0,20,1,0
100567,1.22527050013924,1,2,0,20,1,0
100568,0.6,4,2,0,20,1,0
100570,0.6,4,2,0,20,1,0
100571,1000000,4,2,0,20,1,0
100572,1000000,4,2,0,20,1,0
100573,1000000,4,2,0,20,1,0
100574,1000000,4,2,0,20,1,0
100575,1.2321530770375,1,2,0,20,1,0
100576,0.6,4,2,0,20,1,0
100578,0.6,4,2,0,20,1,0
100579,1000000,4,2,0,20,1,0
100580,1000000,4,2,0,20,1,0
100581,1000000,4,2,0,20,1,0
100582,1000000,4,2,0,20,1,0
100583,1.23926728209672,1,2,0,20,1,0
100584,0.6,4,2,0,20,1,0
100586,0.6,4,2,0,20,1,0
100587,1000000,4,2,0,20,1,0
100588,1000000,4,2,0,20,1,0
100589,1000000,4,2,0,20,1,0
100590,1000000,4,2,0,20,1,0
100591,1.24662681681536,1,2,0,20,1,0
100592,0.6,4,2,0,20,1,0
100594,0.6,4,2,0,20,1,0
100595,1000000,4,2,0,20,1,0
100596,1000000,4,2,0,20,1,0
100597,1000000,4,2,0,20,1,0
100598,1000000,4,2,0,20,1,0
100599,1.25424655228356,1,2,0,20,1,0
100600,0.6,4,2,0,20,1,0
100602,0.6,4,2,0,20,1,0
100603,1000000,4,2,0,20,1,0
100604,1000000,4,2,0,20,1,0
100605,1000000,4,2,0,20,1,0
100606,1000000,4,2,0,20,1,0
100607,1.26214266089249,1,2,0,20,1,0
100608,0.6,4,2,0,20,1,0
100610,0.6,4,2,0,20,1,0
100611,1000000,4,2,0,20,1,0
100612,1000000,4,2,0,20,1,0
100613,1000000,4,2,0,20,1,0
100614,1000000,4,2,0,20,1,0
100615,1.27033276662484,1,2,0,20,1,0
100616,0.6,4,2,0,20,1,0
100618,0.6,4,2,0,20,1,0
100619,1000000,4,2,0,20,1,0
100620,1000000,4,2,0,20,1,0
100621,1000000,4,2,0,20,1,0
100622,1000000,4,2,0,20,1,0
100623,1.27883611710221,1,2,0,20,1,0
100624,0.6,4,2,0,20,1,0
100626,0.6,4,2,0,20,1,0
100627,1000000,4,2,0,20,1,0
100628,1000000,4,2,0,20,1,0
100629,1000000,4,2,0,20,1,0
100630,1000000,4,2,0,20,1,0
100631,1.28767378120713,1,2,0,20,1,0
100632,0.6,4,2,0,20,1,0
100634,0.6,4,2,0,20,1,0
100635,1000000,4,2,0,20,1,0
100636,1000000,4,2,0,20,1,0
100637,1000000,4,2,0,20,1,0
100638,1000000,4,2,0,20,1,0
100639,1.29686887689061,1,2,0,20,1,0
100640,0.6,4,2,0,20,1,0
100642,0.6,4,2,0,20,1,0
100643,1000000,4,2,0,20,1,0
100644,1000000,4,2,0,20,1,0
100645,1000000,4,2,0,20,1,0
100646,1000000,4,2,0,20,1,0
100647,1.30644683476137,1,2,0,20,1,0
100648,0.6,4,2,0,20,1,0
100650,0.6,4,2,0,20,1,0
100651,1000000,4,2,0,20,1,0
100652,1000000,4,2,0,20,1,0
100653,1000000,4,2,0,20,1,0
100654,1000000,4,2,0,20,1,0
100655,1.31643570428279,1,2,0,20,1,0
100656,0.6,4,2,0,20,1,0
100658,0.6,4,2,0,20,1,0
100659,1000000,4,2,0,20,1,0
100660,1000000,4,2,0,20,1,0
100661,1000000,4,2,0,20,1,0
100662,1000000,4,2,0,20,1,0
100663,1.32686651094884,1,2,0,20,1,0
100664,0.6,4,2,0,20,1,0
100666,0.6,4,2,0,20,1,0
100667,1000000,4,2,0,20,1,0
100668,1000000,4,2,0,20,1,0
100669,1000000,4,2,0,20,1,0
100670,1000000,4,2,0,20,1,0
100671,1.33777367476364,1,2,0,20,1,0
100672,0.6,4,2,0,20,1,0
100674,0.6,4,2,0,20,1,0
100675,1000000,4,2,0,20,1,0
100676,1000000,4,2,0,20,1,0
100677,1000000,4,2,0,20,1,0
100678,1000000,4,2,0,20,1,0
100679,1.34919550283444,1,2,0,20,1,0
100680,0.6,4,2,0,20,1,0
100682,0.6,4,2,0,20,1,0
100683,1000000,4,2,0,20,1,0
100684,1000000,4,2,0,20,1,0
100685,1000000,4,2,0,20,1,0
100686,1000000,4,2,0,20,1,0
100687,1.36117477207259,1,2,0,20,1,0
100688,0.6,4,2,0,20,1,0
100690,0.6,4,2,0,20,1,0
100691,1000000,4,2,0,20,1,0
100692,1000000,4,2,0,20,1,0
100693,1000000,4,2,0,20,1,0
100694,1000000,4,2,0,20,1,0
100695,1.37375942210725,1,2,0,20,1,0
100696,0.6,4,2,0,20,1,0
100698,0.6,4,2,0,20,1,0
100699,1000000,4,2,0,20,1,0
100700,1000000,4,2,0,20,1,0
100701,1000000,4,2,0,20,1,0
100702,1000000,4,2,0,20,1,0
100703,1.38700338386471,1,2,0,20,1,0
100704,0.6,4,2,0,20,1,0
100706,0.6,4,2,0,20,1,0
100707,1000000,4,2,0,20,1,0
100708,1000000,4,2,0,20,1,0
100709,1000000,4,2,0,20,1,0
100710,1000000,4,2,0,20,1,0
100711,1.40096757628098,1,2,0,20,1,0
100712,0.6,4,2,0,20,1,0
100714,0.6,4,2,0,20,1,0
100715,1000000,4,2,0,20,1,0
100716,1000000,4,2,0,20,1,0
100717,1000000,4,2,0,20,1,0
100718,1000000,4,2,0,20,1,0
100719,1.41572111290047,1,2,0,20,1,0
100720,0.6,4,2,0,20,1,0
100722,0.6,4,2,0,20,1,0
100723,1000000,4,2,0,20,1,0
100724,1000000,4,2,0,20,1,0
100725,1000000,4,2,0,20,1,0
100726,1000000,4,2,0,20,1,0
100727,1.43134277251907,1,2,0,20,1,0
100728,0.6,4,2,0,20,1,0
100730,0.6,4,2,0,20,1,0
100731,1000000,4,2,0,20,1,0
100732,1000000,4,2,0,20,1,0
100733,1000000,4,2,0,20,1,0
100734,1000000,4,2,0,20,1,0
100735,1.44792280477421,1,2,0,20,1,0
100736,0.6,4,2,0,20,1,0
100738,0.6,4,2,0,20,1,0
100739,1000000,4,2,0,20,1,0
100740,1000000,4,2,0,20,1,0
100741,1000000,4,2,0,20,1,0
100742,1000000,4,2,0,20,1,0
100743,1.46556516443139,1,2,0,20,1,0
100744,0.6,4,2,0,20,1,0
100746,0.6,4,2,0,20,1,0
100747,1000000,4,2,0,20,1,0
100748,1000000,4,2,0,20,1,0
100749,1000000,4,2,0,20,1,0
100750,1000000,4,2,0,20,1,0
100751,1.48439029965729,1,2,0,20,1,0
100752,0.6,4,2,0,20,1,0
100754,0.6,4,2,0,20,1,0
100755,1000000,4,2,0,20,1,0
100756,1000000,4,2,0,20,1,0
100757,1000000,4,2,0,20,1,0
100758,1000000,4,2,0,20,1,0
100759,1.50453866366303,1,2,0,20,1,0
100760,0.6,4,2,0,20,1,0
100762,0.6,4,2,0,20,1,0
100763,1000000,4,2,0,20,1,0
100764,1000000,4,2,0,20,1,0
100765,1000000,4,2,0,20,1,0
100766,1000000,4,2,0,20,1,0
100767,1.52617518159022,1,2,0,20,1,0
100768,0.6,4,2,0,20,1,0
100770,0.6,4,2,0,20,1,0
100771,1000000,4,2,0,20,1,0
100772,1000000,4,2,0,20,1,0
100773,1000000,4,2,0,20,1,0
100774,1000000,4,2,0,20,1,0
100775,1.54949499438892,1,2,0,20,1,0
100776,0.6,4,2,0,20,1,0
100778,0.6,4,2,0,20,1,0
100779,1000000,4,2,0,20,1,0
100780,1000000,4,2,0,20,1,0
100781,1000000,4,2,0,20,1,0
100782,1000000,4,2,0,20,1,0
100783,1.57473093280149,1,2,0,20,1,0
100784,0.6,4,2,0,20,1,0
100786,0.6,4,2,0,20,1,0
100787,1000000,4,2,0,20,1,0
100788,1000000,4,2,0,20,1,0
100789,1000000,4,2,0,20,1,0
100790,1000000,4,2,0,20,1,0
100791,1.60216336997844,1,2,0,20,1,0
100792,0.6,4,2,0,20,1,0
100794,0.6,4,2,0,20,1,0
100795,1000000,4,2,0,20,1,0
100796,1000000,4,2,0,20,1,0
100797,1000000,4,2,0,20,1,0
100798,1000000,4,2,0,20,1,0
100799,1.6321333976052,1,2,0,20,1,0
100800,0.6,4,2,0,20,1,0
100802,0.6,4,2,0,20,1,0
100803,1000000,4,2,0,20,1,0
100804,1000000,4,2,0,20,1,0
100805,1000000,4,2,0,20,1,0
100806,1000000,4,2,0,20,1,0
100807,1.66506072952605,1,2,0,20,1,0
100808,0.6,4,2,0,20,1,0
100810,0.6,4,2,0,20,1,0
100811,1000000,4,2,0,20,1,0
100812,1000000,4,2,0,20,1,0
100813,1000000,4,2,0,20,1,0
100814,1000000,4,2,0,20,1,0
100815,1.70146846509073,1,2,0,20,1,0
100816,0.6,4,2,0,20,1,0
100818,0.6,4,2,0,20,1,0
100819,1000000,4,2,0,20,1,0
100820,1000000,4,2,0,20,1,0
100821,1000000,4,2,0,20,1,0
100822,1000000,4,2,0,20,1,0
100823,1.74201803040325,1,2,0,20,1,0
100824,0.6,4,2,0,20,1,0
100826,0.6,4,2,0,20,1,0
100827,1000000,4,2,0,20,1,0
100828,1000000,4,2,0,20,1,0
100829,1000000,4,2,0,20,1,0
100830,1000000,4,2,0,20,1,0
100831,1.78755960494611,1,2,0,20,1,0
100832,0.6,4,2,0,20,1,0
100834,0.6,4,2,0,20,1,0
100835,1000000,4,2,0,20,1,0
100836,1000000,4,2,0,20,1,0
100837,1000000,4,2,0,20,1,0
100838,1000000,4,2,0,20,1,0
100839,1.83920679128962,1,2,0,20,1,0
100840,0.6,4,2,0,20,1,0
100842,0.6,4,2,0,20,1,0
100843,1000000,4,2,0,20,1,0
100844,1000000,4,2,0,20,1,0
100845,1000000,4,2,0,20,1,0
100846,1000000,4,2,0,20,1,0
100847,1.89845050233966,1,2,0,20,1,0
100848,0.6,4,2,0,20,1,0
100850,0.6,4,2,0,20,1,0
100851,1000000,4,2,0,20,1,0
100852,1000000,4,2,0,20,1,0
100853,1000000,4,2,0,20,1,0
100854,1000000,4,2,0,20,1,0
100855,1.96733874538726,1,2,0,20,1,0
100856,0.6,4,2,0,20,1,0
100858,0.6,4,2,0,20,1,0
100859,1000000,4,2,0,20,1,0
100860,1000000,4,2,0,20,1,0
100861,1000000,4,2,0,20,1,0
100862,1000000,4,2,0,20,1,0
100863,2.04877217867465,1,2,0,20,1,0
100864,0.6,4,2,0,20,1,0
100866,0.6,4,2,0,20,1,0
100867,1000000,4,2,0,20,1,0
100868,1000000,4,2,0,20,1,0
100869,1000000,4,2,0,20,1,0
100870,1000000,4,2,0,20,1,0
100871,2.1470141587786,1,2,0,20,1,0
100872,0.6,4,2,0,20,1,0
100874,0.6,4,2,0,20,1,0
100875,1000000,4,2,0,20,1,0
100876,1000000,4,2,0,20,1,0
100877,1000000,4,2,0,20,1,0
100878,1000000,4,2,0,20,1,0
100879,2.26862462012098,1,2,0,20,1,0
100880,0.6,4,2,0,20,1,0
100882,0.6,4,2,0,20,1,0
100883,1000000,4,2,0,20,1,0
100884,1000000,4,2,0,20,1,0
100885,1000000,4,2,0,20,1,0
100886,1000000,4,2,0,20,1,0
100887,2.42430118361189,1,2,0,20,1,0
100888,0.6,4,2,0,20,1,0
100890,0.6,4,2,0,20,1,0
100891,1000000,4,2,0,20,1,0
100892,1000000,4,2,0,20,1,0
100893,1000000,4,2,0,20,1,0
100894,1000000,4,2,0,20,1,0
100895,2.63287140856558,1,2,0,20,1,0
100896,0.6,4,2,0,20,1,0
100898,0.6,4,2,0,20,1,0
100899,1000000,4,2,0,20,1,0
100900,1000000,4,2,0,20,1,0
100901,1000000,4,2,0,20,1,0
100902,1000000,4,2,0,20,1,0
100903,2.93113032886278,1,2,0,20,1,0
100904,0.6,4,2,0,20,1,0
100906,0.6,4,2,0,20,1,0
100907,1000000,4,2,0,20,1,0
100908,1000000,4,2,0,20,1,0
100909,1000000,4,2,0,20,1,0
100910,1000000,4,2,0,20,1,0
100911,3.40293693018146,1,2,0,20,1,0
100912,0.6,4,2,0,20,1,0
100914,0.6,4,2,0,20,1,0
100915,1000000,4,2,0,20,1,0
100916,1000000,4,2,0,20,1,0
100917,1000000,4,2,0,20,1,0
100918,1000000,4,2,0,20,1,0
100919,4.2940283175572,1,2,0,20,1,0
100920,0.6,4,2,0,20,1,0
100922,0.6,4,2,0,20,1,0
100923,1000000,4,2,0,20,1,0
100924,1000000,4,2,0,20,1,0
100925,1000000,4,2,0,20,1,0
100926,1000000,4,2,0,20,1,0
100927,6.80587386036293,1,2,0,20,1,0
100928,0.6,4,2,0,20,1,0
100930,0.6,4,2,0,20,1,0
100931,1000000,4,2,0,20,1,0
100932,1000000,4,2,0,20,1,0
100933,1000000,4,2,0,20,1,0
100934,4000,5,2,0,20,1,0
100935,346.820809248555,4,1,0,20,1,0
100935,-400,4,1,0,20,0,0
101195,-57.1428571428571,4,1,0,20,0,0
101281,346.820809248555,3,1,0,37,1,1
101281,-100,3,1,0,37,0,1
117581,-100,3,1,0,37,0,0
117928,346.820809248555,3,1,0,37,1,1
132494,-133.333333333333,4,1,0,37,0,0
133534,34.6820809248555,1,1,0,37,1,0
133534,-1250,4,1,0,37,0,0
134228,0.6,4,1,0,37,1,0
134229,1000000,4,1,0,37,1,0
134230,1000000,4,1,0,37,1,0
134231,1000000,4,1,0,37,1,0
134232,1000000,4,1,0,37,1,0
134233,1.27995817889105,1,1,0,37,1,0
134234,0.6,4,1,0,37,1,0
134236,0.6,4,1,0,37,1,0
134237,1000000,4,1,0,37,1,0
134238,1000000,4,1,0,37,1,0
134239,1000000,4,1,0,37,1,0
134240,1000000,4,1,0,37,1,0
134241,1.27604352172381,1,1,0,37,1,0
134242,0.6,4,1,0,37,1,0
134244,0.6,4,1,0,37,1,0
134245,1000000,4,1,0,37,1,0
134246,1000000,4,1,0,37,1,0
134247,1000000,4,1,0,37,1,0
134248,1000000,4,1,0,37,1,0
134249,1.2722034452518,1,1,0,37,1,0
134250,0.6,4,1,0,37,1,0
134252,0.6,4,1,0,37,1,0
134253,1000000,4,1,0,37,1,0
134254,1000000,4,1,0,37,1,0
134255,1000000,4,1,0,37,1,0
134256,1000000,4,1,0,37,1,0
134257,1.26843551933783,1,1,0,37,1,0
134258,0.6,4,1,0,37,1,0
134260,0.6,4,1,0,37,1,0
134261,1000000,4,1,0,37,1,0
134262,1000000,4,1,0,37,1,0
134263,1000000,4,1,0,37,1,0
134264,1000000,4,1,0,37,1,0
134265,1.26473742444725,1,1,0,37,1,0
134266,0.6,4,1,0,37,1,0
134268,0.6,4,1,0,37,1,0
134269,1000000,4,1,0,37,1,0
134270,1000000,4,1,0,37,1,0
134271,1000000,4,1,0,37,1,0
134272,1000000,4,1,0,37,1,0
134273,1.26110694523357,1,1,0,37,1,0
134274,0.6,4,1,0,37,1,0
134276,0.6,4,1,0,37,1,0
134277,1000000,4,1,0,37,1,0
134278,1000000,4,1,0,37,1,0
134279,1000000,4,1,0,37,1,0
134280,1000000,4,1,0,37,1,0
134281,1.25754196457363,1,1,0,37,1,0
134282,0.6,4,1,0,37,1,0
134284,0.6,4,1,0,37,1,0
134285,1000000,4,1,0,37,1,0
134286,1000000,4,1,0,37,1,0
134287,1000000,4,1,0,37,1,0
134288,1000000,4,1,0,37,1,0
134289,1.25404045801566,1,1,0,37,1,0
134290,0.6,4,1,0,37,1,0
134292,0.6,4,1,0,37,1,0
134293,1000000,4,1,0,37,1,0
134294,1000000,4,1,0,37,1,0
134295,1000000,4,1,0,37,1,0
134296,1000000,4,1,0,37,1,0
134297,1.25060048860674,1,1,0,37,1,0
134298,0.6,4,1,0,37,1,0
134300,0.6,4,1,0,37,1,0
134301,1000000,4,1,0,37,1,0
134302,1000000,4,1,0,37,1,0
134303,1000000,4,1,0,37,1,0
134304,1000000,4,1,0,37,1,0
134305,1.24722020206937,1,1,0,37,1,0
134306,0.6,4,1,0,37,1,0
134308,0.6,4,1,0,37,1,0
134309,1000000,4,1,0,37,1,0
134310,1000000,4,1,0,37,1,0
134311,1000000,4,1,0,37,1,0
134312,1000000,4,1,0,37,1,0
134313,1.24389782229979,1,1,0,37,1,0
134314,0.6,4,1,0,37,1,0
134316,0.6,4,1,0,37,1,0
134317,1000000,4,1,0,37,1,0
134318,1000000,4,1,0,37,1,0
134319,1000000,4,1,0,37,1,0
134320,1000000,4,1,0,37,1,0
134321,1.2406316471627,1,1,0,37,1,0
134322,0.6,4,1,0,37,1,0
134324,0.6,4,1,0,37,1,0
134325,1000000,4,1,0,37,1,0
134326,1000000,4,1,0,37,1,0
134327,1000000,4,1,0,37,1,0
134328,1000000,4,1,0,37,1,0
134329,1.23742004455984,1,1,0,37,1,0
134330,0.6,4,1,0,37,1,0
134332,0.6,4,1,0,37,1,0
134333,1000000,4,1,0,37,1,0
134334,1000000,4,1,0,37,1,0
134335,1000000,4,1,0,37,1,0
134336,1000000,4,1,0,37,1,0
134337,1.23426144875137,1,1,0,37,1,0
134338,0.6,4,1,0,37,1,0
134340,0.6,4,1,0,37,1,0
134341,1000000,4,1,0,37,1,0
134342,1000000,4,1,0,37,1,0
134343,1000000,4,1,0,37,1,0
134344,1000000,4,1,0,37,1,0
134345,1.23115435691118,1,1,0,37,1,0
134346,0.6,4,1,0,37,1,0
134348,0.6,4,1,0,37,1,0
134349,1000000,4,1,0,37,1,0
134350,1000000,4,1,0,37,1,0
134351,1000000,4,1,0,37,1,0
134352,1000000,4,1,0,37,1,0
134353,1.2280973258987,1,1,0,37,1,0
134354,0.6,4,1,0,37,1,0
134356,0.6,4,1,0,37,1,0
134357,1000000,4,1,0,37,1,0
134358,1000000,4,1,0,37,1,0
134359,1000000,4,1,0,37,1,0
134360,1000000,4,1,0,37,1,0
134361,1.22508896923125,1,1,0,37,1,0
134362,0.6,4,1,0,37,1,0
134364,0.6,4,1,0,37,1,0
134365,1000000,4,1,0,37,1,0
134366,1000000,4,1,0,37,1,0
134367,1000000,4,1,0,37,1,0
134368,1000000,4,1,0,37,1,0
134369,1.22212795424243,1,1,0,37,1,0
134370,0.6,4,1,0,37,1,0
134372,0.6,4,1,0,37,1,0
134373,1000000,4,1,0,37,1,0
134374,1000000,4,1,0,37,1,0
134375,1000000,4,1,0,37,1,0
134376,1000000,4,1,0,37,1,0
134377,1.21921299941311,1,1,0,37,1,0
134378,0.6,4,1,0,37,1,0
134380,0.6,4,1,0,37,1,0
134381,1000000,4,1,0,37,1,0
134382,1000000,4,1,0,37,1,0
134383,1000000,4,1,0,37,1,0
134384,1000000,4,1,0,37,1,0
134385,1.21634287186283,1,1,0,37,1,0
134386,0.6,4,1,0,37,1,0
134388,0.6,4,1,0,37,1,0
134389,1000000,4,1,0,37,1,0
134390,1000000,4,1,0,37,1,0
134391,1000000,4,1,0,37,1,0
134392,1000000,4,1,0,37,1,0
134393,1.21351638499025,1,1,0,37,1,0
134394,0.6,4,1,0,37,1,0
134396,0.6,4,1,0,37,1,0
134397,1000000,4,1,0,37,1,0
134398,1000000,4,1,0,37,1,0
134399,1000000,4,1,0,37,1,0
134400,1000000,4,1,0,37,1,0
134401,1.2107323962523,1,1,0,37,1,0
134402,0.6,4,1,0,37,1,0
134404,0.6,4,1,0,37,1,0
134405,1000000,4,1,0,37,1,0
134406,1000000,4,1,0,37,1,0
134407,1000000,4,1,0,37,1,0
134408,1000000,4,1,0,37,1,0
134409,1.20798980507258,1,1,0,37,1,0
134410,0.6,4,1,0,37,1,0
134412,0.6,4,1,0,37,1,0
134413,1000000,4,1,0,37,1,0
134414,1000000,4,1,0,37,1,0
134415,1000000,4,1,0,37,1,0
134416,1000000,4,1,0,37,1,0
134417,1.20528755087006,1,1,0,37,1,0
134418,0.6,4,1,0,37,1,0
134420,0.6,4,1,0,37,1,0
134421,1000000,4,1,0,37,1,0
134422,1000000,4,1,0,37,1,0
134423,1000000,4,1,0,37,1,0
134424,1000000,4,1,0,37,1,0
134425,1.20262461120004,1,1,0,37,1,0
134426,0.6,4,1,0,37,1,0
134428,0.6,4,1,0,37,1,0
134429,1000000,4,1,0,37,1,0
134430,1000000,4,1,0,37,1,0
134431,1000000,4,1,0,37,1,0
134432,1000000,4,1,0,37,1,0
134433,1.2,1,1,0,37,1,0
134434,0.6,4,1,0,37,1,0
134436,0.6,4,1,0,37,1,0
134437,1000000,4,1,0,37,1,0
134438,1000000,4,1,0,37,1,0
134439,1000000,4,1,0,37,1,0
134440,1000000,4,1,0,37,1,0
134441,1.19741276593315,1,1,0,37,1,0
134442,0.6,4,1,0,37,1,0
134444,0.6,4,1,0,37,1,0
134445,1000000,4,1,0,37,1,0
134446,1000000,4,1,0,37,1,0
134447,1000000,4,1,0,37,1,0
134448,1000000,4,1,0,37,1,0
134449,1.19486199082357,1,1,0,37,1,0
134450,0.6,4,1,0,37,1,0
134452,0.6,4,1,0,37,1,0
134453,1000000,4,1,0,37,1,0
134454,1000000,4,1,0,37,1,0
134455,1000000,4,1,0,37,1,0
134456,1000000,4,1,0,37,1,0
134457,1.19234678817684,1,1,0,37,1,0
134458,0.6,4,1,0,37,1,0
134460,0.6,4,1,0,37,1,0
134461,1000000,4,1,0,37,1,0
134462,1000000,4,1,0,37,1,0
134463,1000000,4,1,0,37,1,0
134464,1000000,4,1,0,37,1,0
134465,1.18986630178079,1,1,0,37,1,0
134466,0.6,4,1,0,37,1,0
134468,0.6,4,1,0,37,1,0
134469,1000000,4,1,0,37,1,0
134470,1000000,4,1,0,37,1,0
134471,1000000,4,1,0,37,1,0
134472,1000000,4,1,0,37,1,0
134473,1.18741970438117,1,1,0,37,1,0
134474,0.6,4,1,0,37,1,0
134476,0.6,4,1,0,37,1,0
134477,1000000,4,1,0,37,1,0
134478,1000000,4,1,0,37,1,0
134479,1000000,4,1,0,37,1,0
134480,1000000,4,1,0,37,1,0
134481,1.18500619642764,1,1,0,37,1,0
134482,0.6,4,1,0,37,1,0
134484,0.6,4,1,0,37,1,0
134485,1000000,4,1,0,37,1,0
134486,1000000,4,1,0,37,1,0
134487,1000000,4,1,0,37,1,0
134488,1000000,4,1,0,37,1,0
134489,1.18262500488573,1,1,0,37,1,0
134490,0.6,4,1,0,37,1,0
134492,0.6,4,1,0,37,1,0
134493,1000000,4,1,0,37,1,0
134494,1000000,4,1,0,37,1,0
134495,1000000,4,1,0,37,1,0
134496,1000000,4,1,0,37,1,0
134497,1000000,4,1,0,37,1,0
134498,1.18262500488573,1,1,0,37,1,0
134499,0.6,4,1,0,37,1,0
134501,0.6,4,1,0,37,1,0
134502,1000000,4,1,0,37,1,0
134503,1000000,4,1,0,37,1,0
134504,1000000,4,1,0,37,1,0
134505,1000000,4,1,0,37,1,0
134506,1.18819280301649,1,1,0,37,1,0
134507,0.6,4,1,0,37,1,0
134509,0.6,4,1,0,37,1,0
134510,1000000,4,1,0,37,1,0
134511,1000000,4,1,0,37,1,0
134512,1000000,4,1,0,37,1,0
134513,1000000,4,1,0,37,1,0
134514,1.19392085468493,1,1,0,37,1,0
134515,0.6,4,1,0,37,1,0
134517,0.6,4,1,0,37,1,0
134518,1000000,4,1,0,37,1,0
134519,1000000,4,1,0,37,1,0
134520,1000000,4,1,0,37,1,0
134521,1000000,4,1,0,37,1,0
134522,1.19981726511318,1,1,0,37,1,0
134523,0.6,4,1,0,37,1,0
134525,0.6,4,1,0,37,1,0
134526,1000000,4,1,0,37,1,0
134527,1000000,4,1,0,37,1,0
134528,1000000,4,1,0,37,1,0
134529,1000000,4,1,0,37,1,0
134530,1.20589072993984,1,1,0,37,1,0
134531,0.6,4,1,0,37,1,0
134533,0.6,4,1,0,37,1,0
134534,1000000,4,1,0,37,1,0
134535,1000000,4,1,0,37,1,0
134536,1000000,4,1,0,37,1,0
134537,1000000,4,1,0,37,1,0
134538,1.21215059180595,1,1,0,37,1,0
134539,0.6,4,1,0,37,1,0
134541,0.6,4,1,0,37,1,0
134542,1000000,4,1,0,37,1,0
134543,1000000,4,1,0,37,1,0
134544,1000000,4,1,0,37,1,0
134545,1000000,4,1,0,37,1,0
134546,1.21860690371406,1,1,0,37,1,0
134547,0.6,4,1,0,37,1,0
134549,0.6,4,1,0,37,1,0
134550,1000000,4,1,0,37,1,0
134551,1000000,4,1,0,37,1,0
134552,1000000,4,1,0,37,1,0
134553,1000000,4,1,0,37,1,0
134554,1.22527050013924,1,1,0,37,1,0
134555,0.6,4,1,0,37,1,0
134557,0.6,4,1,0,37,1,0
134558,1000000,4,1,0,37,1,0
134559,1000000,4,1,0,37,1,0
134560,1000000,4,1,0,37,1,0
134561,1000000,4,1,0,37,1,0
134562,1.2321530770375,1,1,0,37,1,0
134563,0.6,4,1,0,37,1,0
134565,0.6,4,1,0,37,1,0
134566,1000000,4,1,0,37,1,0
134567,1000000,4,1,0,37,1,0
134568,1000000,4,1,0,37,1,0
134569,1000000,4,1,0,37,1,0
134570,1.23926728209672,1,1,0,37,1,0
134571,0.6,4,1,0,37,1,0
134573,0.6,4,1,0,37,1,0
134574,1000000,4,1,0,37,1,0
134575,346.820809248555,3,1,0,37,1,0
134575,-100,4,1,0,37,0,0
138736,0.6,4,1,0,37,1,0
138737,1000000,4,1,0,37,1,0
138738,1000000,4,1,0,37,1,0
138739,1000000,4,1,0,37,1,0
138740,1000000,4,1,0,37,1,0
138741,1.27995817889105,1,1,0,37,1,0
138742,0.6,4,1,0,37,1,0
138744,0.6,4,1,0,37,1,0
138745,1000000,4,1,0,37,1,0
138746,1000000,4,1,0,37,1,0
138747,1000000,4,1,0,37,1,0
138748,1000000,4,1,0,37,1,0
138749,1.27604352172381,1,1,0,37,1,0
138750,0.6,4,1,0,37,1,0
138752,0.6,4,1,0,37,1,0
138753,1000000,4,1,0,37,1,0
138754,1000000,4,1,0,37,1,0
138755,1000000,4,1,0,37,1,0
138756,1000000,4,1,0,37,1,0
138757,1.2722034452518,1,1,0,37,1,0
138758,0.6,4,1,0,37,1,0
138760,0.6,4,1,0,37,1,0
138761,1000000,4,1,0,37,1,0
138762,1000000,4,1,0,37,1,0
138763,1000000,4,1,0,37,1,0
138764,1000000,4,1,0,37,1,0
138765,1.26843551933783,1,1,0,37,1,0
138766,0.6,4,1,0,37,1,0
138768,0.6,4,1,0,37,1,0
138769,1000000,4,1,0,37,1,0
138770,1000000,4,1,0,37,1,0
138771,1000000,4,1,0,37,1,0
138772,1000000,4,1,0,37,1,0
138773,1.26473742444725,1,1,0,37,1,0
138774,0.6,4,1,0,37,1,0
138776,0.6,4,1,0,37,1,0
138777,1000000,4,1,0,37,1,0
138778,1000000,4,1,0,37,1,0
138779,1000000,4,1,0,37,1,0
138780,1000000,4,1,0,37,1,0
138781,1.26110694523357,1,1,0,37,1,0
138782,0.6,4,1,0,37,1,0
138784,0.6,4,1,0,37,1,0
138785,1000000,4,1,0,37,1,0
138786,1000000,4,1,0,37,1,0
138787,1000000,4,1,0,37,1,0
138788,1000000,4,1,0,37,1,0
138789,1.25754196457363,1,1,0,37,1,0
138790,0.6,4,1,0,37,1,0
138792,0.6,4,1,0,37,1,0
138793,1000000,4,1,0,37,1,0
138794,1000000,4,1,0,37,1,0
138795,1000000,4,1,0,37,1,0
138796,1000000,4,1,0,37,1,0
138797,1.25404045801566,1,1,0,37,1,0
138798,0.6,4,1,0,37,1,0
138800,0.6,4,1,0,37,1,0
138801,1000000,4,1,0,37,1,0
138802,1000000,4,1,0,37,1,0
138803,1000000,4,1,0,37,1,0
138804,1000000,4,1,0,37,1,0
138805,1.25060048860674,1,1,0,37,1,0
138806,0.6,4,1,0,37,1,0
138808,0.6,4,1,0,37,1,0
138809,1000000,4,1,0,37,1,0
138810,1000000,4,1,0,37,1,0
138811,1000000,4,1,0,37,1,0
138812,1000000,4,1,0,37,1,0
138813,1.24722020206937,1,1,0,37,1,0
138814,0.6,4,1,0,37,1,0
138816,0.6,4,1,0,37,1,0
138817,1000000,4,1,0,37,1,0
138818,1000000,4,1,0,37,1,0
138819,1000000,4,1,0,37,1,0
138820,1000000,4,1,0,37,1,0
138821,1.24389782229979,1,1,0,37,1,0
138822,0.6,4,1,0,37,1,0
138824,0.6,4,1,0,37,1,0
138825,1000000,4,1,0,37,1,0
138826,1000000,4,1,0,37,1,0
138827,1000000,4,1,0,37,1,0
138828,1000000,4,1,0,37,1,0
138829,1.2406316471627,1,1,0,37,1,0
138830,0.6,4,1,0,37,1,0
138832,0.6,4,1,0,37,1,0
138833,1000000,4,1,0,37,1,0
138834,1000000,4,1,0,37,1,0
138835,1000000,4,1,0,37,1,0
138836,1000000,4,1,0,37,1,0
138837,1.23742004455984,1,1,0,37,1,0
138838,0.6,4,1,0,37,1,0
138840,0.6,4,1,0,37,1,0
138841,1000000,4,1,0,37,1,0
138842,1000000,4,1,0,37,1,0
138843,1000000,4,1,0,37,1,0
138844,1000000,4,1,0,37,1,0
138845,1.23426144875137,1,1,0,37,1,0
138846,0.6,4,1,0,37,1,0
138848,0.6,4,1,0,37,1,0
138849,1000000,4,1,0,37,1,0
138850,1000000,4,1,0,37,1,0
138851,1000000,4,1,0,37,1,0
138852,1000000,4,1,0,37,1,0
138853,1.23115435691118,1,1,0,37,1,0
138854,0.6,4,1,0,37,1,0
138856,0.6,4,1,0,37,1,0
138857,1000000,4,1,0,37,1,0
138858,1000000,4,1,0,37,1,0
138859,1000000,4,1,0,37,1,0
138860,1000000,4,1,0,37,1,0
138861,1.2280973258987,1,1,0,37,1,0
138862,0.6,4,1,0,37,1,0
138864,0.6,4,1,0,37,1,0
138865,1000000,4,1,0,37,1,0
138866,1000000,4,1,0,37,1,0
138867,1000000,4,1,0,37,1,0
138868,1000000,4,1,0,37,1,0
138869,1.22508896923125,1,1,0,37,1,0
138870,0.6,4,1,0,37,1,0
138872,0.6,4,1,0,37,1,0
138873,1000000,4,1,0,37,1,0
138874,1000000,4,1,0,37,1,0
138875,1000000,4,1,0,37,1,0
138876,1000000,4,1,0,37,1,0
138877,1.22212795424243,1,1,0,37,1,0
138878,0.6,4,1,0,37,1,0
138880,0.6,4,1,0,37,1,0
138881,1000000,4,1,0,37,1,0
138882,1000000,4,1,0,37,1,0
138883,1000000,4,1,0,37,1,0
138884,1000000,4,1,0,37,1,0
138885,1.21921299941311,1,1,0,37,1,0
138886,0.6,4,1,0,37,1,0
138888,0.6,4,1,0,37,1,0
138889,1000000,4,1,0,37,1,0
138890,1000000,4,1,0,37,1,0
138891,1000000,4,1,0,37,1,0
138892,1000000,4,1,0,37,1,0
138893,1.21634287186283,1,1,0,37,1,0
138894,0.6,4,1,0,37,1,0
138896,0.6,4,1,0,37,1,0
138897,1000000,4,1,0,37,1,0
138898,1000000,4,1,0,37,1,0
138899,1000000,4,1,0,37,1,0
138900,1000000,4,1,0,37,1,0
138901,1.21351638499025,1,1,0,37,1,0
138902,0.6,4,1,0,37,1,0
138904,0.6,4,1,0,37,1,0
138905,1000000,4,1,0,37,1,0
138906,1000000,4,1,0,37,1,0
138907,1000000,4,1,0,37,1,0
138908,1000000,4,1,0,37,1,0
138909,1.2107323962523,1,1,0,37,1,0
138910,0.6,4,1,0,37,1,0
138912,0.6,4,1,0,37,1,0
138913,1000000,4,1,0,37,1,0
138914,1000000,4,1,0,37,1,0
138915,1000000,4,1,0,37,1,0
138916,1000000,4,1,0,37,1,0
138917,1.20798980507258,1,1,0,37,1,0
138918,0.6,4,1,0,37,1,0
138920,0.6,4,1,0,37,1,0
138921,1000000,4,1,0,37,1,0
138922,1000000,4,1,0,37,1,0
138923,1000000,4,1,0,37,1,0
138924,1000000,4,1,0,37,1,0
138925,1.20528755087006,1,1,0,37,1,0
138926,0.6,4,1,0,37,1,0
138928,0.6,4,1,0,37,1,0
138929,1000000,4,1,0,37,1,0
138930,1000000,4,1,0,37,1,0
138931,1000000,4,1,0,37,1,0
138932,1000000,4,1,0,37,1,0
138933,1.20262461120004,1,1,0,37,1,0
138934,0.6,4,1,0,37,1,0
138936,0.6,4,1,0,37,1,0
138937,1000000,4,1,0,37,1,0
138938,1000000,4,1,0,37,1,0
138939,1000000,4,1,0,37,1,0
138940,1000000,4,1,0,37,1,0
138941,1.2,1,1,0,37,1,0
138942,0.6,4,1,0,37,1,0
138944,0.6,4,1,0,37,1,0
138945,1000000,4,1,0,37,1,0
138946,1000000,4,1,0,37,1,0
138947,1000000,4,1,0,37,1,0
138948,1000000,4,1,0,37,1,0
138949,1.19741276593315,1,1,0,37,1,0
138950,0.6,4,1,0,37,1,0
138952,0.6,4,1,0,37,1,0
138953,1000000,4,1,0,37,1,0
138954,1000000,4,1,0,37,1,0
138955,1000000,4,1,0,37,1,0
138956,1000000,4,1,0,37,1,0
138957,1.19486199082357,1,1,0,37,1,0
138958,0.6,4,1,0,37,1,0
138960,0.6,4,1,0,37,1,0
138961,1000000,4,1,0,37,1,0
138962,1000000,4,1,0,37,1,0
138963,1000000,4,1,0,37,1,0
138964,1000000,4,1,0,37,1,0
138965,1.19234678817684,1,1,0,37,1,0
138966,0.6,4,1,0,37,1,0
138968,0.6,4,1,0,37,1,0
138969,1000000,4,1,0,37,1,0
138970,1000000,4,1,0,37,1,0
138971,1000000,4,1,0,37,1,0
138972,1000000,4,1,0,37,1,0
138973,1.18986630178079,1,1,0,37,1,0
138974,0.6,4,1,0,37,1,0
138976,0.6,4,1,0,37,1,0
138977,1000000,4,1,0,37,1,0
138978,1000000,4,1,0,37,1,0
138979,1000000,4,1,0,37,1,0
138980,1000000,4,1,0,37,1,0
138981,1.18741970438117,1,1,0,37,1,0
138982,0.6,4,1,0,37,1,0
138984,0.6,4,1,0,37,1,0
138985,1000000,4,1,0,37,1,0
138986,1000000,4,1,0,37,1,0
138987,1000000,4,1,0,37,1,0
138988,1000000,4,1,0,37,1,0
138989,1.18500619642764,1,1,0,37,1,0
138990,0.6,4,1,0,37,1,0
138992,0.6,4,1,0,37,1,0
138993,1000000,4,1,0,37,1,0
138994,1000000,4,1,0,37,1,0
138995,1000000,4,1,0,37,1,0
138996,1000000,4,1,0,37,1,0
138997,1.18262500488573,1,1,0,37,1,0
138998,0.6,4,1,0,37,1,0
139000,0.6,4,1,0,37,1,0
139001,1000000,4,1,0,37,1,0
139002,1000000,4,1,0,37,1,0
139003,1000000,4,1,0,37,1,0
139004,1000000,4,1,0,37,1,0
139005,1000000,4,1,0,37,1,0
139006,1.18262500488573,1,1,0,37,1,0
139007,0.6,4,1,0,37,1,0
139009,0.6,4,1,0,37,1,0
139010,1000000,4,1,0,37,1,0
139011,1000000,4,1,0,37,1,0
139012,1000000,4,1,0,37,1,0
139013,1000000,4,1,0,37,1,0
139014,1.18819280301649,1,1,0,37,1,0
139015,0.6,4,1,0,37,1,0
139017,0.6,4,1,0,37,1,0
139018,1000000,4,1,0,37,1,0
139019,1000000,4,1,0,37,1,0
139020,1000000,4,1,0,37,1,0
139021,1000000,4,1,0,37,1,0
139022,1.19392085468493,1,1,0,37,1,0
139023,0.6,4,1,0,37,1,0
139025,0.6,4,1,0,37,1,0
139026,1000000,4,1,0,37,1,0
139027,1000000,4,1,0,37,1,0
139028,1000000,4,1,0,37,1,0
139029,1000000,4,1,0,37,1,0
139030,1.19981726511318,1,1,0,37,1,0
139031,0.6,4,1,0,37,1,0
139033,0.6,4,1,0,37,1,0
139034,1000000,4,1,0,37,1,0
139035,1000000,4,1,0,37,1,0
139036,1000000,4,1,0,37,1,0
139037,1000000,4,1,0,37,1,0
139038,1.20589072993984,1,1,0,37,1,0
139039,0.6,4,1,0,37,1,0
139041,0.6,4,1,0,37,1,0
139042,1000000,4,1,0,37,1,0
139043,1000000,4,1,0,37,1,0
139044,1000000,4,1,0,37,1,0
139045,1000000,4,1,0,37,1,0
139046,1.21215059180595,1,1,0,37,1,0
139047,0.6,4,1,0,37,1,0
139049,0.6,4,1,0,37,1,0
139050,1000000,4,1,0,37,1,0
139051,1000000,4,1,0,37,1,0
139052,1000000,4,1,0,37,1,0
139053,1000000,4,1,0,37,1,0
139054,1.21860690371406,1,1,0,37,1,0
139055,0.6,4,1,0,37,1,0
139057,0.6,4,1,0,37,1,0
139058,1000000,4,1,0,37,1,0
139059,1000000,4,1,0,37,1,0
139060,1000000,4,1,0,37,1,0
139061,1000000,4,1,0,37,1,0
139062,1.22527050013924,1,1,0,37,1,0
139063,0.6,4,1,0,37,1,0
139065,0.6,4,1,0,37,1,0
139066,1000000,4,1,0,37,1,0
139067,1000000,4,1,0,37,1,0
139068,1000000,4,1,0,37,1,0
139069,1000000,4,1,0,37,1,0
139070,1.2321530770375,1,1,0,37,1,0
139071,0.6,4,1,0,37,1,0
139073,0.6,4,1,0,37,1,0
139074,1000000,4,1,0,37,1,0
139075,1000000,4,1,0,37,1,0
139076,1000000,4,1,0,37,1,0
139077,1000000,4,1,0,37,1,0
139078,1.23926728209672,1,1,0,37,1,0
139079,0.6,4,1,0,37,1,0
139080,1000000,4,1,0,37,1,0
139081,346.820809248555,3,1,0,37,1,0
143242,0.6,4,1,0,37,1,0
143243,1000000,4,1,0,37,1,0
143244,1000000,4,1,0,37,1,0
143245,1000000,4,1,0,37,1,0
143246,1000000,4,1,0,37,1,0
143247,1.27995817889105,1,1,0,37,1,0
143248,0.6,4,1,0,37,1,0
143250,0.6,4,1,0,37,1,0
143251,1000000,4,1,0,37,1,0
143252,1000000,4,1,0,37,1,0
143253,1000000,4,1,0,37,1,0
143254,1000000,4,1,0,37,1,0
143255,1.27604352172381,1,1,0,37,1,0
143256,0.6,4,1,0,37,1,0
143258,0.6,4,1,0,37,1,0
143259,1000000,4,1,0,37,1,0
143260,1000000,4,1,0,37,1,0
143261,1000000,4,1,0,37,1,0
143262,1000000,4,1,0,37,1,0
143263,1.2722034452518,1,1,0,37,1,0
143264,0.6,4,1,0,37,1,0
143266,0.6,4,1,0,37,1,0
143267,1000000,4,1,0,37,1,0
143268,1000000,4,1,0,37,1,0
143269,1000000,4,1,0,37,1,0
143270,1000000,4,1,0,37,1,0
143271,1.26843551933783,1,1,0,37,1,0
143272,0.6,4,1,0,37,1,0
143274,0.6,4,1,0,37,1,0
143275,1000000,4,1,0,37,1,0
143276,1000000,4,1,0,37,1,0
143277,1000000,4,1,0,37,1,0
143278,1000000,4,1,0,37,1,0
143279,1.26473742444725,1,1,0,37,1,0
143280,0.6,4,1,0,37,1,0
143282,0.6,4,1,0,37,1,0
143283,1000000,4,1,0,37,1,0
143284,1000000,4,1,0,37,1,0
143285,1000000,4,1,0,37,1,0
143286,1000000,4,1,0,37,1,0
143287,1.26110694523357,1,1,0,37,1,0
143288,0.6,4,1,0,37,1,0
143290,0.6,4,1,0,37,1,0
143291,1000000,4,1,0,37,1,0
143292,1000000,4,1,0,37,1,0
143293,1000000,4,1,0,37,1,0
143294,1000000,4,1,0,37,1,0
143295,1.25754196457363,1,1,0,37,1,0
143296,0.6,4,1,0,37,1,0
143298,0.6,4,1,0,37,1,0
143299,1000000,4,1,0,37,1,0
143300,1000000,4,1,0,37,1,0
143301,1000000,4,1,0,37,1,0
143302,1000000,4,1,0,37,1,0
143303,1.25404045801566,1,1,0,37,1,0
143304,0.6,4,1,0,37,1,0
143306,0.6,4,1,0,37,1,0
143307,1000000,4,1,0,37,1,0
143308,1000000,4,1,0,37,1,0
143309,1000000,4,1,0,37,1,0
143310,1000000,4,1,0,37,1,0
143311,1.25060048860674,1,1,0,37,1,0
143312,0.6,4,1,0,37,1,0
143314,0.6,4,1,0,37,1,0
143315,1000000,4,1,0,37,1,0
143316,1000000,4,1,0,37,1,0
143317,1000000,4,1,0,37,1,0
143318,1000000,4,1,0,37,1,0
143319,1.24722020206937,1,1,0,37,1,0
143320,0.6,4,1,0,37,1,0
143322,0.6,4,1,0,37,1,0
143323,1000000,4,1,0,37,1,0
143324,1000000,4,1,0,37,1,0
143325,1000000,4,1,0,37,1,0
143326,1000000,4,1,0,37,1,0
143327,1.24389782229979,1,1,0,37,1,0
143328,0.6,4,1,0,37,1,0
143330,0.6,4,1,0,37,1,0
143331,1000000,4,1,0,37,1,0
143332,1000000,4,1,0,37,1,0
143333,1000000,4,1,0,37,1,0
143334,1000000,4,1,0,37,1,0
143335,1.2406316471627,1,1,0,37,1,0
143336,0.6,4,1,0,37,1,0
143338,0.6,4,1,0,37,1,0
143339,1000000,4,1,0,37,1,0
143340,1000000,4,1,0,37,1,0
143341,1000000,4,1,0,37,1,0
143342,1000000,4,1,0,37,1,0
143343,1.23742004455984,1,1,0,37,1,0
143344,0.6,4,1,0,37,1,0
143346,0.6,4,1,0,37,1,0
143347,1000000,4,1,0,37,1,0
143348,1000000,4,1,0,37,1,0
143349,1000000,4,1,0,37,1,0
143350,1000000,4,1,0,37,1,0
143351,1.23426144875137,1,1,0,37,1,0
143352,0.6,4,1,0,37,1,0
143354,0.6,4,1,0,37,1,0
143355,1000000,4,1,0,37,1,0
143356,1000000,4,1,0,37,1,0
143357,1000000,4,1,0,37,1,0
143358,1000000,4,1,0,37,1,0
143359,1.23115435691118,1,1,0,37,1,0
143360,0.6,4,1,0,37,1,0
143362,0.6,4,1,0,37,1,0
143363,1000000,4,1,0,37,1,0
143364,1000000,4,1,0,37,1,0
143365,1000000,4,1,0,37,1,0
143366,1000000,4,1,0,37,1,0
143367,1.2280973258987,1,1,0,37,1,0
143368,0.6,4,1,0,37,1,0
143370,0.6,4,1,0,37,1,0
143371,1000000,4,1,0,37,1,0
143372,1000000,4,1,0,37,1,0
143373,1000000,4,1,0,37,1,0
143374,1000000,4,1,0,37,1,0
143375,1.22508896923125,1,1,0,37,1,0
143376,0.6,4,1,0,37,1,0
143378,0.6,4,1,0,37,1,0
143379,1000000,4,1,0,37,1,0
143380,1000000,4,1,0,37,1,0
143381,1000000,4,1,0,37,1,0
143382,1000000,4,1,0,37,1,0
143383,1.22212795424243,1,1,0,37,1,0
143384,0.6,4,1,0,37,1,0
143386,0.6,4,1,0,37,1,0
143387,1000000,4,1,0,37,1,0
143388,1000000,4,1,0,37,1,0
143389,1000000,4,1,0,37,1,0
143390,1000000,4,1,0,37,1,0
143391,1.21921299941311,1,1,0,37,1,0
143392,0.6,4,1,0,37,1,0
143394,0.6,4,1,0,37,1,0
143395,1000000,4,1,0,37,1,0
143396,1000000,4,1,0,37,1,0
143397,1000000,4,1,0,37,1,0
143398,1000000,4,1,0,37,1,0
143399,1.21634287186283,1,1,0,37,1,0
143400,0.6,4,1,0,37,1,0
143402,0.6,4,1,0,37,1,0
143403,1000000,4,1,0,37,1,0
143404,1000000,4,1,0,37,1,0
143405,1000000,4,1,0,37,1,0
143406,1000000,4,1,0,37,1,0
143407,1.21351638499025,1,1,0,37,1,0
143408,0.6,4,1,0,37,1,0
143410,0.6,4,1,0,37,1,0
143411,1000000,4,1,0,37,1,0
143412,1000000,4,1,0,37,1,0
143413,1000000,4,1,0,37,1,0
143414,1000000,4,1,0,37,1,0
143415,1.2107323962523,1,1,0,37,1,0
143416,0.6,4,1,0,37,1,0
143418,0.6,4,1,0,37,1,0
143419,1000000,4,1,0,37,1,0
143420,1000000,4,1,0,37,1,0
143421,1000000,4,1,0,37,1,0
143422,1000000,4,1,0,37,1,0
143423,1.20798980507258,1,1,0,37,1,0
143424,0.6,4,1,0,37,1,0
143426,0.6,4,1,0,37,1,0
143427,1000000,4,1,0,37,1,0
143428,1000000,4,1,0,37,1,0
143429,1000000,4,1,0,37,1,0
143430,1000000,4,1,0,37,1,0
143431,1.20528755087006,1,1,0,37,1,0
143432,0.6,4,1,0,37,1,0
143434,0.6,4,1,0,37,1,0
143435,1000000,4,1,0,37,1,0
143436,1000000,4,1,0,37,1,0
143437,1000000,4,1,0,37,1,0
143438,1000000,4,1,0,37,1,0
143439,1.20262461120004,1,1,0,37,1,0
143440,0.6,4,1,0,37,1,0
143442,0.6,4,1,0,37,1,0
143443,1000000,4,1,0,37,1,0
143444,1000000,4,1,0,37,1,0
143445,1000000,4,1,0,37,1,0
143446,1000000,4,1,0,37,1,0
143447,1.2,1,1,0,37,1,0
143448,0.6,4,1,0,37,1,0
143450,0.6,4,1,0,37,1,0
143451,1000000,4,1,0,37,1,0
143452,1000000,4,1,0,37,1,0
143453,1000000,4,1,0,37,1,0
143454,1000000,4,1,0,37,1,0
143455,1.19741276593315,1,1,0,37,1,0
143456,0.6,4,1,0,37,1,0
143458,0.6,4,1,0,37,1,0
143459,1000000,4,1,0,37,1,0
143460,1000000,4,1,0,37,1,0
143461,1000000,4,1,0,37,1,0
143462,1000000,4,1,0,37,1,0
143463,1.19486199082357,1,1,0,37,1,0
143464,0.6,4,1,0,37,1,0
143466,0.6,4,1,0,37,1,0
143467,1000000,4,1,0,37,1,0
143468,1000000,4,1,0,37,1,0
143469,1000000,4,1,0,37,1,0
143470,1000000,4,1,0,37,1,0
143471,1.19234678817684,1,1,0,37,1,0
143472,0.6,4,1,0,37,1,0
143474,0.6,4,1,0,37,1,0
143475,1000000,4,1,0,37,1,0
143476,1000000,4,1,0,37,1,0
143477,1000000,4,1,0,37,1,0
143478,1000000,4,1,0,37,1,0
143479,1.18986630178079,1,1,0,37,1,0
143480,0.6,4,1,0,37,1,0
143482,0.6,4,1,0,37,1,0
143483,1000000,4,1,0,37,1,0
143484,1000000,4,1,0,37,1,0
143485,1000000,4,1,0,37,1,0
143486,1000000,4,1,0,37,1,0
143487,1.18741970438117,1,1,0,37,1,0
143488,0.6,4,1,0,37,1,0
143490,0.6,4,1,0,37,1,0
143491,1000000,4,1,0,37,1,0
143492,1000000,4,1,0,37,1,0
143493,1000000,4,1,0,37,1,0
143494,1000000,4,1,0,37,1,0
143495,1.18500619642764,1,1,0,37,1,0
143496,0.6,4,1,0,37,1,0
143498,0.6,4,1,0,37,1,0
143499,1000000,4,1,0,37,1,0
143500,1000000,4,1,0,37,1,0
143501,1000000,4,1,0,37,1,0
143502,1000000,4,1,0,37,1,0
143503,1.18262500488573,1,1,0,37,1,0
143504,0.6,4,1,0,37,1,0
143506,0.6,4,1,0,37,1,0
143507,1000000,4,1,0,37,1,0
143508,1000000,4,1,0,37,1,0
143509,1000000,4,1,0,37,1,0
143510,1000000,4,1,0,37,1,0
143511,1000000,4,1,0,37,1,0
143512,1.18262500488573,1,1,0,37,1,0
143513,0.6,4,1,0,37,1,0
143515,0.6,4,1,0,37,1,0
143516,1000000,4,1,0,37,1,0
143517,1000000,4,1,0,37,1,0
143518,1000000,4,1,0,37,1,0
143519,1000000,4,1,0,37,1,0
143520,1.18819280301649,1,1,0,37,1,0
143521,0.6,4,1,0,37,1,0
143523,0.6,4,1,0,37,1,0
143524,1000000,4,1,0,37,1,0
143525,1000000,4,1,0,37,1,0
143526,1000000,4,1,0,37,1,0
143527,1000000,4,1,0,37,1,0
143528,1.19392085468493,1,1,0,37,1,0
143529,0.6,4,1,0,37,1,0
143531,0.6,4,1,0,37,1,0
143532,1000000,4,1,0,37,1,0
143533,1000000,4,1,0,37,1,0
143534,1000000,4,1,0,37,1,0
143535,1000000,4,1,0,37,1,0
143536,1.19981726511318,1,1,0,37,1,0
143537,0.6,4,1,0,37,1,0
143539,0.6,4,1,0,37,1,0
143540,1000000,4,1,0,37,1,0
143541,1000000,4,1,0,37,1,0
143542,1000000,4,1,0,37,1,0
143543,1000000,4,1,0,37,1,0
143544,1.20589072993984,1,1,0,37,1,0
143545,0.6,4,1,0,37,1,0
143547,0.6,4,1,0,37,1,0
143548,1000000,4,1,0,37,1,0
143549,1000000,4,1,0,37,1,0
143550,1000000,4,1,0,37,1,0
143551,1000000,4,1,0,37,1,0
143552,1.21215059180595,1,1,0,37,1,0
143553,0.6,4,1,0,37,1,0
143555,0.6,4,1,0,37,1,0
143556,1000000,4,1,0,37,1,0
143557,1000000,4,1,0,37,1,0
143558,1000000,4,1,0,37,1,0
143559,1000000,4,1,0,37,1,0
143560,1.21860690371406,1,1,0,37,1,0
143561,0.6,4,1,0,37,1,0
143563,0.6,4,1,0,37,1,0
143564,1000000,4,1,0,37,1,0
143565,1000000,4,1,0,37,1,0
143566,1000000,4,1,0,37,1,0
143567,1000000,4,1,0,37,1,0
143568,1.22527050013924,1,1,0,37,1,0
143569,0.6,4,1,0,37,1,0
143571,0.6,4,1,0,37,1,0
143572,1000000,4,1,0,37,1,0
143573,1000000,4,1,0,37,1,0
143574,1000000,4,1,0,37,1,0
143575,1000000,4,1,0,37,1,0
143576,1.2321530770375,1,1,0,37,1,0
143577,0.6,4,1,0,37,1,0
143579,0.6,4,1,0,37,1,0
143580,1000000,4,1,0,37,1,0
143581,1000000,4,1,0,37,1,0
143582,1000000,4,1,0,37,1,0
143583,1000000,4,1,0,37,1,0
143584,1.23926728209672,1,1,0,37,1,0
143585,0.6,4,1,0,37,1,0
143586,1000000,4,1,0,37,1,0
143587,1000000,4,1,0,37,1,0
143588,1000000,4,1,0,37,1,0
143589,346.820809248555,3,1,0,37,1,0
147750,0.6,4,1,0,37,1,0
147751,1000000,4,1,0,37,1,0
147752,1000000,4,1,0,37,1,0
147753,1000000,4,1,0,37,1,0
147754,1000000,4,1,0,37,1,0
147755,1.27995817889105,1,1,0,37,1,0
147756,0.6,4,1,0,37,1,0
147758,0.6,4,1,0,37,1,0
147759,1000000,4,1,0,37,1,0
147760,1000000,4,1,0,37,1,0
147761,1000000,4,1,0,37,1,0
147762,1000000,4,1,0,37,1,0
147763,1.27604352172381,1,1,0,37,1,0
147764,0.6,4,1,0,37,1,0
147766,0.6,4,1,0,37,1,0
147767,1000000,4,1,0,37,1,0
147768,1000000,4,1,0,37,1,0
147769,1000000,4,1,0,37,1,0
147770,1000000,4,1,0,37,1,0
147771,1.2722034452518,1,1,0,37,1,0
147772,0.6,4,1,0,37,1,0
147774,0.6,4,1,0,37,1,0
147775,1000000,4,1,0,37,1,0
147776,1000000,4,1,0,37,1,0
147777,1000000,4,1,0,37,1,0
147778,1000000,4,1,0,37,1,0
147779,1.26843551933783,1,1,0,37,1,0
147780,0.6,4,1,0,37,1,0
147782,0.6,4,1,0,37,1,0
147783,1000000,4,1,0,37,1,0
147784,1000000,4,1,0,37,1,0
147785,1000000,4,1,0,37,1,0
147786,1000000,4,1,0,37,1,0
147787,1.26473742444725,1,1,0,37,1,0
147788,0.6,4,1,0,37,1,0
147790,0.6,4,1,0,37,1,0
147791,1000000,4,1,0,37,1,0
147792,1000000,4,1,0,37,1,0
147793,1000000,4,1,0,37,1,0
147794,1000000,4,1,0,37,1,0
147795,1.26110694523357,1,1,0,37,1,0
147796,0.6,4,1,0,37,1,0
147798,0.6,4,1,0,37,1,0
147799,1000000,4,1,0,37,1,0
147800,1000000,4,1,0,37,1,0
147801,1000000,4,1,0,37,1,0
147802,1000000,4,1,0,37,1,0
147803,1.25754196457363,1,1,0,37,1,0
147804,0.6,4,1,0,37,1,0
147806,0.6,4,1,0,37,1,0
147807,1000000,4,1,0,37,1,0
147808,1000000,4,1,0,37,1,0
147809,1000000,4,1,0,37,1,0
147810,1000000,4,1,0,37,1,0
147811,1.25404045801566,1,1,0,37,1,0
147812,0.6,4,1,0,37,1,0
147814,0.6,4,1,0,37,1,0
147815,1000000,4,1,0,37,1,0
147816,1000000,4,1,0,37,1,0
147817,1000000,4,1,0,37,1,0
147818,1000000,4,1,0,37,1,0
147819,1.25060048860674,1,1,0,37,1,0
147820,0.6,4,1,0,37,1,0
147822,0.6,4,1,0,37,1,0
147823,1000000,4,1,0,37,1,0
147824,1000000,4,1,0,37,1,0
147825,1000000,4,1,0,37,1,0
147826,1000000,4,1,0,37,1,0
147827,1.24722020206937,1,1,0,37,1,0
147828,0.6,4,1,0,37,1,0
147830,0.6,4,1,0,37,1,0
147831,1000000,4,1,0,37,1,0
147832,1000000,4,1,0,37,1,0
147833,1000000,4,1,0,37,1,0
147834,1000000,4,1,0,37,1,0
147835,1.24389782229979,1,1,0,37,1,0
147836,0.6,4,1,0,37,1,0
147838,0.6,4,1,0,37,1,0
147839,1000000,4,1,0,37,1,0
147840,1000000,4,1,0,37,1,0
147841,1000000,4,1,0,37,1,0
147842,1000000,4,1,0,37,1,0
147843,1.2406316471627,1,1,0,37,1,0
147844,0.6,4,1,0,37,1,0
147846,0.6,4,1,0,37,1,0
147847,1000000,4,1,0,37,1,0
147848,1000000,4,1,0,37,1,0
147849,1000000,4,1,0,37,1,0
147850,1000000,4,1,0,37,1,0
147851,1.23742004455984,1,1,0,37,1,0
147852,0.6,4,1,0,37,1,0
147854,0.6,4,1,0,37,1,0
147855,1000000,4,1,0,37,1,0
147856,1000000,4,1,0,37,1,0
147857,1000000,4,1,0,37,1,0
147858,1000000,4,1,0,37,1,0
147859,1.23426144875137,1,1,0,37,1,0
147860,0.6,4,1,0,37,1,0
147862,0.6,4,1,0,37,1,0
147863,1000000,4,1,0,37,1,0
147864,1000000,4,1,0,37,1,0
147865,1000000,4,1,0,37,1,0
147866,1000000,4,1,0,37,1,0
147867,1.23115435691118,1,1,0,37,1,0
147868,0.6,4,1,0,37,1,0
147870,0.6,4,1,0,37,1,0
147871,1000000,4,1,0,37,1,0
147872,1000000,4,1,0,37,1,0
147873,1000000,4,1,0,37,1,0
147874,1000000,4,1,0,37,1,0
147875,1.2280973258987,1,1,0,37,1,0
147876,0.6,4,1,0,37,1,0
147878,0.6,4,1,0,37,1,0
147879,1000000,4,1,0,37,1,0
147880,1000000,4,1,0,37,1,0
147881,1000000,4,1,0,37,1,0
147882,1000000,4,1,0,37,1,0
147883,1.22508896923125,1,1,0,37,1,0
147884,0.6,4,1,0,37,1,0
147886,0.6,4,1,0,37,1,0
147887,1000000,4,1,0,37,1,0
147888,1000000,4,1,0,37,1,0
147889,1000000,4,1,0,37,1,0
147890,1000000,4,1,0,37,1,0
147891,1.22212795424243,1,1,0,37,1,0
147892,0.6,4,1,0,37,1,0
147894,0.6,4,1,0,37,1,0
147895,1000000,4,1,0,37,1,0
147896,1000000,4,1,0,37,1,0
147897,1000000,4,1,0,37,1,0
147898,1000000,4,1,0,37,1,0
147899,1.21921299941311,1,1,0,37,1,0
147900,0.6,4,1,0,37,1,0
147902,0.6,4,1,0,37,1,0
147903,1000000,4,1,0,37,1,0
147904,1000000,4,1,0,37,1,0
147905,1000000,4,1,0,37,1,0
147906,1000000,4,1,0,37,1,0
147907,1.21634287186283,1,1,0,37,1,0
147908,0.6,4,1,0,37,1,0
147910,0.6,4,1,0,37,1,0
147911,1000000,4,1,0,37,1,0
147912,1000000,4,1,0,37,1,0
147913,1000000,4,1,0,37,1,0
147914,1000000,4,1,0,37,1,0
147915,1.21351638499025,1,1,0,37,1,0
147916,0.6,4,1,0,37,1,0
147918,0.6,4,1,0,37,1,0
147919,1000000,4,1,0,37,1,0
147920,1000000,4,1,0,37,1,0
147921,1000000,4,1,0,37,1,0
147922,1000000,4,1,0,37,1,0
147923,1.2107323962523,1,1,0,37,1,0
147924,0.6,4,1,0,37,1,0
147926,0.6,4,1,0,37,1,0
147927,1000000,4,1,0,37,1,0
147928,1000000,4,1,0,37,1,0
147929,1000000,4,1,0,37,1,0
147930,1000000,4,1,0,37,1,0
147931,1.20798980507258,1,1,0,37,1,0
147932,0.6,4,1,0,37,1,0
147934,0.6,4,1,0,37,1,0
147935,1000000,4,1,0,37,1,0
147936,1000000,4,1,0,37,1,0
147937,1000000,4,1,0,37,1,0
147938,1000000,4,1,0,37,1,0
147939,1.20528755087006,1,1,0,37,1,0
147940,0.6,4,1,0,37,1,0
147942,0.6,4,1,0,37,1,0
147943,1000000,4,1,0,37,1,0
147944,1000000,4,1,0,37,1,0
147945,1000000,4,1,0,37,1,0
147946,1000000,4,1,0,37,1,0
147947,1.20262461120004,1,1,0,37,1,0
147948,0.6,4,1,0,37,1,0
147950,0.6,4,1,0,37,1,0
147951,1000000,4,1,0,37,1,0
147952,1000000,4,1,0,37,1,0
147953,1000000,4,1,0,37,1,0
147954,1000000,4,1,0,37,1,0
147955,1.2,1,1,0,37,1,0
147956,0.6,4,1,0,37,1,0
147958,0.6,4,1,0,37,1,0
147959,1000000,4,1,0,37,1,0
147960,1000000,4,1,0,37,1,0
147961,1000000,4,1,0,37,1,0
147962,1000000,4,1,0,37,1,0
147963,1.19741276593315,1,1,0,37,1,0
147964,0.6,4,1,0,37,1,0
147966,0.6,4,1,0,37,1,0
147967,1000000,4,1,0,37,1,0
147968,1000000,4,1,0,37,1,0
147969,1000000,4,1,0,37,1,0
147970,1000000,4,1,0,37,1,0
147971,1.19486199082357,1,1,0,37,1,0
147972,0.6,4,1,0,37,1,0
147974,0.6,4,1,0,37,1,0
147975,1000000,4,1,0,37,1,0
147976,1000000,4,1,0,37,1,0
147977,1000000,4,1,0,37,1,0
147978,1000000,4,1,0,37,1,0
147979,1.19234678817684,1,1,0,37,1,0
147980,0.6,4,1,0,37,1,0
147982,0.6,4,1,0,37,1,0
147983,1000000,4,1,0,37,1,0
147984,1000000,4,1,0,37,1,0
147985,1000000,4,1,0,37,1,0
147986,1000000,4,1,0,37,1,0
147987,1.18986630178079,1,1,0,37,1,0
147988,0.6,4,1,0,37,1,0
147990,0.6,4,1,0,37,1,0
147991,1000000,4,1,0,37,1,0
147992,1000000,4,1,0,37,1,0
147993,1000000,4,1,0,37,1,0
147994,1000000,4,1,0,37,1,0
147995,1.18741970438117,1,1,0,37,1,0
147996,0.6,4,1,0,37,1,0
147998,0.6,4,1,0,37,1,0
147999,1000000,4,1,0,37,1,0
148000,1000000,4,1,0,37,1,0
148001,1000000,4,1,0,37,1,0
148002,1000000,4,1,0,37,1,0
148003,1.18500619642764,1,1,0,37,1,0
148004,0.6,4,1,0,37,1,0
148006,0.6,4,1,0,37,1,0
148007,1000000,4,1,0,37,1,0
148008,1000000,4,1,0,37,1,0
148009,1000000,4,1,0,37,1,0
148010,1000000,4,1,0,37,1,0
148011,1.18262500488573,1,1,0,37,1,0
148012,0.6,4,1,0,37,1,0
148014,0.6,4,1,0,37,1,0
148015,1000000,4,1,0,37,1,0
148016,1000000,4,1,0,37,1,0
148017,1000000,4,1,0,37,1,0
148018,1000000,4,1,0,37,1,0
148019,1000000,4,1,0,37,1,0
148020,1.18262500488573,1,1,0,37,1,0
148021,0.6,4,1,0,37,1,0
148023,0.6,4,1,0,37,1,0
148024,1000000,4,1,0,37,1,0
148025,1000000,4,1,0,37,1,0
148026,1000000,4,1,0,37,1,0
148027,1000000,4,1,0,37,1,0
148028,1.18819280301649,1,1,0,37,1,0
148029,0.6,4,1,0,37,1,0
148031,0.6,4,1,0,37,1,0
148032,1000000,4,1,0,37,1,0
148033,1000000,4,1,0,37,1,0
148034,1000000,4,1,0,37,1,0
148035,1000000,4,1,0,37,1,0
148036,1.19392085468493,1,1,0,37,1,0
148037,0.6,4,1,0,37,1,0
148039,0.6,4,1,0,37,1,0
148040,1000000,4,1,0,37,1,0
148041,1000000,4,1,0,37,1,0
148042,1000000,4,1,0,37,1,0
148043,1000000,4,1,0,37,1,0
148044,1.19981726511318,1,1,0,37,1,0
148045,0.6,4,1,0,37,1,0
148047,0.6,4,1,0,37,1,0
148048,1000000,4,1,0,37,1,0
148049,1000000,4,1,0,37,1,0
148050,1000000,4,1,0,37,1,0
148051,1000000,4,1,0,37,1,0
148052,1.20589072993984,1,1,0,37,1,0
148053,0.6,4,1,0,37,1,0
148055,0.6,4,1,0,37,1,0
148056,1000000,4,1,0,37,1,0
148057,1000000,4,1,0,37,1,0
148058,1000000,4,1,0,37,1,0
148059,1000000,4,1,0,37,1,0
148060,1.21215059180595,1,1,0,37,1,0
148061,0.6,4,1,0,37,1,0
148063,0.6,4,1,0,37,1,0
148064,1000000,4,1,0,37,1,0
148065,1000000,4,1,0,37,1,0
148066,1000000,4,1,0,37,1,0
148067,1000000,4,1,0,37,1,0
148068,1.21860690371406,1,1,0,37,1,0
148069,0.6,4,1,0,37,1,0
148071,0.6,4,1,0,37,1,0
148072,1000000,4,1,0,37,1,0
148073,1000000,4,1,0,37,1,0
148074,1000000,4,1,0,37,1,0
148075,1000000,4,1,0,37,1,0
148076,1.22527050013924,1,1,0,37,1,0
148077,0.6,4,1,0,37,1,0
148079,0.6,4,1,0,37,1,0
148080,1000000,4,1,0,37,1,0
148081,1000000,4,1,0,37,1,0
148082,1000000,4,1,0,37,1,0
148083,1000000,4,1,0,37,1,0
148084,1.2321530770375,1,1,0,37,1,0
148085,0.6,4,1,0,37,1,0
148087,0.6,4,1,0,37,1,0
148088,1000000,4,1,0,37,1,0
148089,1000000,4,1,0,37,1,0
148090,1000000,4,1,0,37,1,0
148091,1000000,4,1,0,37,1,0
148092,1.23926728209672,1,1,0,37,1,0
148093,0.6,4,1,0,37,1,0
148094,1000000,4,1,0,37,1,0
148095,1000000,4,1,0,37,1,0
148096,346.820809248555,3,1,0,37,1,0
151564,-33.3333333333333,4,1,0,37,0,0
151607,-333.333333333333,4,1,0,37,0,0
151737,-100,4,1,0,37,0,0
151911,-33.3333333333333,4,1,0,37,0,0
151954,-333.333333333333,4,1,0,37,0,0
152084,-100,4,1,0,37,0,0
152257,0.6,4,1,0,37,1,0
152258,1000000,4,1,0,37,1,0
152259,1000000,4,1,0,37,1,0
152260,1000000,4,1,0,37,1,0
152261,1000000,4,1,0,37,1,0
152262,1.27995817889105,1,1,0,37,1,0
152263,0.6,4,1,0,37,1,0
152265,0.6,4,1,0,37,1,0
152266,1000000,4,1,0,37,1,0
152267,1000000,4,1,0,37,1,0
152268,1000000,4,1,0,37,1,0
152269,1000000,4,1,0,37,1,0
152270,1.27604352172381,1,1,0,37,1,0
152271,0.6,4,1,0,37,1,0
152273,0.6,4,1,0,37,1,0
152274,1000000,4,1,0,37,1,0
152275,1000000,4,1,0,37,1,0
152276,1000000,4,1,0,37,1,0
152277,1000000,4,1,0,37,1,0
152278,1.2722034452518,1,1,0,37,1,0
152279,0.6,4,1,0,37,1,0
152281,0.6,4,1,0,37,1,0
152282,1000000,4,1,0,37,1,0
152283,1000000,4,1,0,37,1,0
152284,1000000,4,1,0,37,1,0
152285,1000000,4,1,0,37,1,0
152286,1.26843551933783,1,1,0,37,1,0
152287,0.6,4,1,0,37,1,0
152289,0.6,4,1,0,37,1,0
152290,1000000,4,1,0,37,1,0
152291,1000000,4,1,0,37,1,0
152292,1000000,4,1,0,37,1,0
152293,1000000,4,1,0,37,1,0
152294,1.26473742444725,1,1,0,37,1,0
152295,0.6,4,1,0,37,1,0
152297,0.6,4,1,0,37,1,0
152298,1000000,4,1,0,37,1,0
152299,1000000,4,1,0,37,1,0
152300,1000000,4,1,0,37,1,0
152301,1000000,4,1,0,37,1,0
152302,1.26110694523357,1,1,0,37,1,0
152303,0.6,4,1,0,37,1,0
152305,0.6,4,1,0,37,1,0
152306,1000000,4,1,0,37,1,0
152307,1000000,4,1,0,37,1,0
152308,1000000,4,1,0,37,1,0
152309,1000000,4,1,0,37,1,0
152310,1.25754196457363,1,1,0,37,1,0
152311,0.6,4,1,0,37,1,0
152313,0.6,4,1,0,37,1,0
152314,1000000,4,1,0,37,1,0
152315,1000000,4,1,0,37,1,0
152316,1000000,4,1,0,37,1,0
152317,1000000,4,1,0,37,1,0
152318,1.25404045801566,1,1,0,37,1,0
152319,0.6,4,1,0,37,1,0
152321,0.6,4,1,0,37,1,0
152322,1000000,4,1,0,37,1,0
152323,1000000,4,1,0,37,1,0
152324,1000000,4,1,0,37,1,0
152325,1000000,4,1,0,37,1,0
152326,1.25060048860674,1,1,0,37,1,0
152327,0.6,4,1,0,37,1,0
152329,0.6,4,1,0,37,1,0
152330,1000000,4,1,0,37,1,0
152331,1000000,4,1,0,37,1,0
152332,1000000,4,1,0,37,1,0
152333,1000000,4,1,0,37,1,0
152334,1.24722020206937,1,1,0,37,1,0
152335,0.6,4,1,0,37,1,0
152337,0.6,4,1,0,37,1,0
152338,1000000,4,1,0,37,1,0
152339,1000000,4,1,0,37,1,0
152340,1000000,4,1,0,37,1,0
152341,1000000,4,1,0,37,1,0
152342,1.24389782229979,1,1,0,37,1,0
152343,0.6,4,1,0,37,1,0
152345,0.6,4,1,0,37,1,0
152346,1000000,4,1,0,37,1,0
152347,1000000,4,1,0,37,1,0
152348,1000000,4,1,0,37,1,0
152349,1000000,4,1,0,37,1,0
152350,1.2406316471627,1,1,0,37,1,0
152351,0.6,4,1,0,37,1,0
152353,0.6,4,1,0,37,1,0
152354,1000000,4,1,0,37,1,0
152355,1000000,4,1,0,37,1,0
152356,1000000,4,1,0,37,1,0
152357,1000000,4,1,0,37,1,0
152358,1.23742004455984,1,1,0,37,1,0
152359,0.6,4,1,0,37,1,0
152361,0.6,4,1,0,37,1,0
152362,1000000,4,1,0,37,1,0
152363,1000000,4,1,0,37,1,0
152364,1000000,4,1,0,37,1,0
152365,1000000,4,1,0,37,1,0
152366,1.23426144875137,1,1,0,37,1,0
152367,0.6,4,1,0,37,1,0
152369,0.6,4,1,0,37,1,0
152370,1000000,4,1,0,37,1,0
152371,1000000,4,1,0,37,1,0
152372,1000000,4,1,0,37,1,0
152373,1000000,4,1,0,37,1,0
152374,1.23115435691118,1,1,0,37,1,0
152375,0.6,4,1,0,37,1,0
152377,0.6,4,1,0,37,1,0
152378,1000000,4,1,0,37,1,0
152379,1000000,4,1,0,37,1,0
152380,1000000,4,1,0,37,1,0
152381,1000000,4,1,0,37,1,0
152382,1.2280973258987,1,1,0,37,1,0
152383,0.6,4,1,0,37,1,0
152385,0.6,4,1,0,37,1,0
152386,1000000,4,1,0,37,1,0
152387,1000000,4,1,0,37,1,0
152388,1000000,4,1,0,37,1,0
152389,1000000,4,1,0,37,1,0
152390,1.22508896923125,1,1,0,37,1,0
152391,0.6,4,1,0,37,1,0
152393,0.6,4,1,0,37,1,0
152394,1000000,4,1,0,37,1,0
152395,1000000,4,1,0,37,1,0
152396,1000000,4,1,0,37,1,0
152397,1000000,4,1,0,37,1,0
152398,1.22212795424243,1,1,0,37,1,0
152399,0.6,4,1,0,37,1,0
152401,0.6,4,1,0,37,1,0
152402,1000000,4,1,0,37,1,0
152403,1000000,4,1,0,37,1,0
152404,1000000,4,1,0,37,1,0
152405,1000000,4,1,0,37,1,0
152406,1.21921299941311,1,1,0,37,1,0
152407,0.6,4,1,0,37,1,0
152409,0.6,4,1,0,37,1,0
152410,1000000,4,1,0,37,1,0
152411,1000000,4,1,0,37,1,0
152412,1000000,4,1,0,37,1,0
152413,1000000,4,1,0,37,1,0
152414,1.21634287186283,1,1,0,37,1,0
152415,0.6,4,1,0,37,1,0
152417,0.6,4,1,0,37,1,0
152418,1000000,4,1,0,37,1,0
152419,1000000,4,1,0,37,1,0
152420,1000000,4,1,0,37,1,0
152421,1000000,4,1,0,37,1,0
152422,1.21351638499025,1,1,0,37,1,0
152423,0.6,4,1,0,37,1,0
152425,0.6,4,1,0,37,1,0
152426,1000000,4,1,0,37,1,0
152427,1000000,4,1,0,37,1,0
152428,1000000,4,1,0,37,1,0
152429,1000000,4,1,0,37,1,0
152430,1.2107323962523,1,1,0,37,1,0
152431,0.6,4,1,0,37,1,0
152433,0.6,4,1,0,37,1,0
152434,1000000,4,1,0,37,1,0
152435,1000000,4,1,0,37,1,0
152436,1000000,4,1,0,37,1,0
152437,1000000,4,1,0,37,1,0
152438,1.20798980507258,1,1,0,37,1,0
152439,0.6,4,1,0,37,1,0
152441,0.6,4,1,0,37,1,0
152442,1000000,4,1,0,37,1,0
152443,1000000,4,1,0,37,1,0
152444,1000000,4,1,0,37,1,0
152445,1000000,4,1,0,37,1,0
152446,1.20528755087006,1,1,0,37,1,0
152447,0.6,4,1,0,37,1,0
152449,0.6,4,1,0,37,1,0
152450,1000000,4,1,0,37,1,0
152451,1000000,4,1,0,37,1,0
152452,1000000,4,1,0,37,1,0
152453,1000000,4,1,0,37,1,0
152454,1.20262461120004,1,1,0,37,1,0
152455,0.6,4,1,0,37,1,0
152457,0.6,4,1,0,37,1,0
152458,1000000,4,1,0,37,1,0
152459,1000000,4,1,0,37,1,0
152460,1000000,4,1,0,37,1,0
152461,1000000,4,1,0,37,1,0
152462,1.2,1,1,0,37,1,0
152463,0.6,4,1,0,37,1,0
152465,0.6,4,1,0,37,1,0
152466,1000000,4,1,0,37,1,0
152467,1000000,4,1,0,37,1,0
152468,1000000,4,1,0,37,1,0
152469,1000000,4,1,0,37,1,0
152470,1.19741276593315,1,1,0,37,1,0
152471,0.6,4,1,0,37,1,0
152473,0.6,4,1,0,37,1,0
152474,1000000,4,1,0,37,1,0
152475,1000000,4,1,0,37,1,0
152476,1000000,4,1,0,37,1,0
152477,1000000,4,1,0,37,1,0
152478,1.19486199082357,1,1,0,37,1,0
152479,0.6,4,1,0,37,1,0
152481,0.6,4,1,0,37,1,0
152482,1000000,4,1,0,37,1,0
152483,1000000,4,1,0,37,1,0
152484,1000000,4,1,0,37,1,0
152485,1000000,4,1,0,37,1,0
152486,1.19234678817684,1,1,0,37,1,0
152487,0.6,4,1,0,37,1,0
152489,0.6,4,1,0,37,1,0
152490,1000000,4,1,0,37,1,0
152491,1000000,4,1,0,37,1,0
152492,1000000,4,1,0,37,1,0
152493,1000000,4,1,0,37,1,0
152494,1.18986630178079,1,1,0,37,1,0
152495,0.6,4,1,0,37,1,0
152497,0.6,4,1,0,37,1,0
152498,1000000,4,1,0,37,1,0
152499,1000000,4,1,0,37,1,0
152500,1000000,4,1,0,37,1,0
152501,1000000,4,1,0,37,1,0
152502,1.18741970438117,1,1,0,37,1,0
152503,0.6,4,1,0,37,1,0
152505,0.6,4,1,0,37,1,0
152506,1000000,4,1,0,37,1,0
152507,1000000,4,1,0,37,1,0
152508,1000000,4,1,0,37,1,0
152509,1000000,4,1,0,37,1,0
152510,1.18500619642764,1,1,0,37,1,0
152511,0.6,4,1,0,37,1,0
152513,0.6,4,1,0,37,1,0
152514,1000000,4,1,0,37,1,0
152515,1000000,4,1,0,37,1,0
152516,1000000,4,1,0,37,1,0
152517,1000000,4,1,0,37,1,0
152518,1.18262500488573,1,1,0,37,1,0
152519,0.6,4,1,0,37,1,0
152521,0.6,4,1,0,37,1,0
152522,1000000,4,1,0,37,1,0
152523,1000000,4,1,0,37,1,0
152524,1000000,4,1,0,37,1,0
152525,1000000,4,1,0,37,1,0
152526,1000000,4,1,0,37,1,0
152527,1.18262500488573,1,1,0,37,1,0
152528,0.6,4,1,0,37,1,0
152530,0.6,4,1,0,37,1,0
152531,1000000,4,1,0,37,1,0
152532,1000000,4,1,0,37,1,0
152533,1000000,4,1,0,37,1,0
152534,1000000,4,1,0,37,1,0
152535,1.18819280301649,1,1,0,37,1,0
152536,0.6,4,1,0,37,1,0
152538,0.6,4,1,0,37,1,0
152539,1000000,4,1,0,37,1,0
152540,1000000,4,1,0,37,1,0
152541,1000000,4,1,0,37,1,0
152542,1000000,4,1,0,37,1,0
152543,1.19392085468493,1,1,0,37,1,0
152544,0.6,4,1,0,37,1,0
152546,0.6,4,1,0,37,1,0
152547,1000000,4,1,0,37,1,0
152548,1000000,4,1,0,37,1,0
152549,1000000,4,1,0,37,1,0
152550,1000000,4,1,0,37,1,0
152551,1.19981726511318,1,1,0,37,1,0
152552,0.6,4,1,0,37,1,0
152554,0.6,4,1,0,37,1,0
152555,1000000,4,1,0,37,1,0
152556,1000000,4,1,0,37,1,0
152557,1000000,4,1,0,37,1,0
152558,1000000,4,1,0,37,1,0
152559,1.20589072993984,1,1,0,37,1,0
152560,0.6,4,1,0,37,1,0
152562,0.6,4,1,0,37,1,0
152563,1000000,4,1,0,37,1,0
152564,1000000,4,1,0,37,1,0
152565,1000000,4,1,0,37,1,0
152566,1000000,4,1,0,37,1,0
152567,1.21215059180595,1,1,0,37,1,0
152568,0.6,4,1,0,37,1,0
152570,0.6,4,1,0,37,1,0
152571,1000000,4,1,0,37,1,0
152572,1000000,4,1,0,37,1,0
152573,1000000,4,1,0,37,1,0
152574,1000000,4,1,0,37,1,0
152575,1.21860690371406,1,1,0,37,1,0
152576,0.6,4,1,0,37,1,0
152578,0.6,4,1,0,37,1,0
152579,1000000,4,1,0,37,1,0
152580,1000000,4,1,0,37,1,0
152581,1000000,4,1,0,37,1,0
152582,1000000,4,1,0,37,1,0
152583,1.22527050013924,1,1,0,37,1,0
152584,0.6,4,1,0,37,1,0
152586,0.6,4,1,0,37,1,0
152587,1000000,4,1,0,37,1,0
152588,1000000,4,1,0,37,1,0
152589,1000000,4,1,0,37,1,0
152590,1000000,4,1,0,37,1,0
152591,1.2321530770375,1,1,0,37,1,0
152592,0.6,4,1,0,37,1,0
152594,0.6,4,1,0,37,1,0
152595,1000000,4,1,0,37,1,0
152596,1000000,4,1,0,37,1,0
152597,1000000,4,1,0,37,1,0
152598,1000000,4,1,0,37,1,0
152599,1.23926728209672,1,1,0,37,1,0
152600,0.6,4,1,0,37,1,0
152601,1000000,4,1,0,37,1,0
152602,1000000,4,1,0,37,1,0
152604,346.820809248555,3,1,0,37,1,0

[HitObjects]
460,192,2100,5,0,0:0:0:0:
51,192,2100,1,0,0:0:0:0:
256,192,2100,1,0,0:0:0:0:
358,192,2446,1,0,0:0:0:0:
358,192,2620,1,0,0:0:0:0:
153,192,2793,1,0,0:0:0:0:
256,192,2967,1,0,0:0:0:0:
358,192,3140,1,0,0:0:0:0:
51,192,3140,1,0,0:0:0:0:
153,192,3487,1,0,0:0:0:0:
153,192,3660,1,0,0:0:0:0:
358,192,3834,1,0,0:0:0:0:
256,192,4007,128,0,4180:0:0:0:0:
153,192,4180,1,0,0:0:0:0:
460,192,4180,1,0,0:0:0:0:
358,192,4527,1,0,0:0:0:0:
358,192,4701,1,0,0:0:0:0:
153,192,4874,1,0,0:0:0:0:
256,192,5047,1,0,0:0:0:0:
358,192,5221,1,0,0:0:0:0:
51,192,5221,1,0,0:0:0:0:
153,192,5568,1,0,0:0:0:0:
153,192,5741,1,0,0:0:0:0:
358,192,5915,1,0,0:0:0:0:
256,192,6088,128,0,6608:0:0:0:0:
460,192,6261,128,0,6608:0:0:0:0:
153,192,6261,1,0,0:0:0:0:
51,192,6608,1,0,0:0:0:0:
153,192,6955,1,0,0:0:0:0:
358,192,7302,1,0,0:0:0:0:
153,192,7995,1,0,0:0:0:0:
358,192,8342,1,0,0:0:0:0:
51,192,8342,1,0,0:0:0:0:
153,192,9036,1,0,0:0:0:0:
358,192,9383,5,0,0:0:0:0:
51,192,9556,128,0,9730:0:0:0:0:
153,192,9730,1,0,0:0:0:0:
256,192,9903,1,0,0:0:0:0:
358,192,10076,128,0,10423:0:0:0:0:
153,192,10076,128,0,10423:0:0:0:0:
51,192,10423,1,0,0:0:0:0:
460,192,10423,1,0,0:0:0:0:
256,192,10423,1,0,0:0:0:0:
153,192,10596,128,0,11116:0:0:0:0:
256,192,10769,128,0,11116:0:0:0:0:
358,192,10943,128,0,11116:0:0:0:0:
51,192,11116,1,0,0:0:0:0:
460,192,11116,1,0,0:0:0:0:
153,192,11463,1,0,0:0:0:0:
358,192,11463,1,0,0:0:0:0:
51,192,11810,1,0,0:0:0:0:
153,192,11983,1,0,0:0:0:0:
460,192,12070,1,0,0:0:0:0:
256,192,12157,1,0,0:0:0:0:
358,192,12330,1,0,0:0:0:0:
153,192,12330,1,0,0:0:0:0:
460,192,12503,1,0,0:0:0:0:
51,192,12503,1,0,0:0:0:0:
358,192,12677,128,0,12850:0:0:0:0:
153,192,12850,1,0,0:0:0:0:
51,192,13024,128,0,13197:0:0:0:0:
460,192,13024,128,0,13197:0:0:0:0:
256,192,13197,1,0,0:0:0:0:
153,192,13370,128,0,13544:0:0:0:0:
358,192,13370,128,0,13544:0:0:0:0:
460,192,13544,1,0,0:0:0:0:
51,192,13544,1,0,0:0:0:0:
358,192,14411,128,0,14584:0:0:0:0:
256,192,14584,1,0,0:0:0:0:
51,192,14584,1,0,0:0:0:0:
460,192,14584,1,0,0:0:0:0:
153,192,14758,128,0,15278:0:0:0:0:
358,192,14931,128,0,15278:0:0:0:0:
256,192,15105,128,0,15278:0:0:0:0:
460,192,15278,1,0,0:0:0:0:
51,192,15278,1,0,0:0:0:0:
358,192,15451,1,0,0:0:0:0:
51,192,15625,1,0,0:0:0:0:
256,192,15625,1,0,0:0:0:0:
460,192,15972,1,0,0:0:0:0:
358,192,16145,1,0,0:0:0:0:
51,192,16232,1,0,0:0:0:0:
256,192,16318,1,0,0:0:0:0:
153,192,16492,1,0,0:0:0:0:
51,192,16492,1,0,0:0:0:0:
358,192,16665,1,0,0:0:0:0:
460,192,16665,1,0,0:0:0:0:
51,192,16839,128,0,17012:0:0:0:0:
256,192,17012,1,0,0:0:0:0:
460,192,17186,128,0,17359:0:0:0:0:
51,192,17186,128,0,17359:0:0:0:0:
256,192,17359,1,0,0:0:0:0:
358,192,17532,128,0,17706:0:0:0:0:
153,192,17532,128,0,17706:0:0:0:0:
51,192,17706,1,0,0:0:0:0:
460,192,17706,1,0,0:0:0:0:
460,192,18053,1,0,0:0:0:0:
358,192,18226,1,0,0:0:0:0:
256,192,18399,128,0,18746:0:0:0:0:
153,192,18573,128,0,18746:0:0:0:0:
51,192,18746,1,0,0:0:0:0:
358,192,18746,1,0,0:0:0:0:
460,192,18746,128,0,19787:0:0:0:0:
51,192,19093,1,0,0:0:0:0:
153,192,19266,1,0,0:0:0:0:
256,192,19440,1,0,0:0:0:0:
358,192,19613,1,0,0:0:0:0:
51,192,19787,128,0,20827:0:0:0:0:
460,192,20133,1,0,0:0:0:0:
358,192,20307,1,0,0:0:0:0:
256,192,20480,1,0,0:0:0:0:
153,192,20654,1,0,0:0:0:0:
358,192,20827,128,0,21868:0:0:0:0:
51,192,21174,1,0,0:0:0:0:
153,192,21347,1,0,0:0:0:0:
256,192,21521,1,0,0:0:0:0:
460,192,21694,1,0,0:0:0:0:
153,192,21868,128,0,22908:0:0:0:0:
51,192,22041,1,0,0:0:0:0:
460,192,22214,1,0,0:0:0:0:
358,192,22388,1,0,0:0:0:0:
256,192,22561,1,0,0:0:0:0:
51,192,22735,1,0,0:0:0:0:
256,192,22908,128,0,24989:0:0:0:0:
358,192,23081,1,0,0:0:0:0:
460,192,23255,1,0,0:0:0:0:
358,192,23428,1,0,0:0:0:0:
153,192,23602,1,0,0:0:0:0:
51,192,23775,1,0,0:0:0:0:
460,192,23949,1,0,0:0:0:0:
153,192,24122,128,0,24209:0:0:0:0:
51,192,24295,1,0,0:0:0:0:
153,192,24469,1,0,0:0:0:0:
358,192,24642,1,0,0:0:0:0:
460,192,24816,1,0,0:0:0:0:
51,192,24989,128,0,25683:0:0:0:0:
460,192,25336,1,0,0:0:0:0:
358,192,25509,1,0,0:0:0:0:
256,192,25683,1,0,0:0:0:0:
153,192,25856,1,0,0:0:0:0:
51,192,26029,1,0,0:0:0:0:
460,192,26377,128,0,27071:0:0:0:0:
51,192,26377,128,0,27071:0:0:0:0:
153,192,27071,1,0,0:0:0:0:
256,192,27071,1,0,0:0:0:0:
358,192,27071,1,0,0:0:0:0:
51,192,27244,128,0,27273:0:0:0:0:
153,192,27331,128,0,27360:0:0:0:0:
460,192,27417,1,0,0:0:0:0:
358,192,27591,1,0,0:0:0:0:
256,192,27764,1,0,0:0:0:0:
153,192,27938,1,0,0:0:0:0:
460,192,27938,1,0,0:0:0:0:
51,192,28111,1,0,0:0:0:0:
460,192,28111,1,0,0:0:0:0:
358,192,28284,128,0,28458:0:0:0:0:
153,192,28458,1,0,0:0:0:0:
51,192,28631,1,0,0:0:0:0:
358,192,28805,1,0,0:0:0:0:
460,192,28978,128,0,29151:0:0:0:0:
51,192,29151,1,0,0:0:0:0:
153,192,29151,1,0,0:0:0:0:
460,192,29325,128,0,29354:0:0:0:0:
358,192,29412,128,0,29433:0:0:0:0:
51,192,29498,1,0,0:0:0:0:
153,192,29672,1,0,0:0:0:0:
460,192,29845,1,0,0:0:0:0:
358,192,30018,1,0,0:0:0:0:
51,192,30018,1,0,0:0:0:0:
51,192,30192,1,0,0:0:0:0:
153,192,30192,1,0,0:0:0:0:
460,192,30365,128,0,30539:0:0:0:0:
358,192,30539,1,0,0:0:0:0:
51,192,30712,128,0,30886:0:0:0:0:
153,192,30886,1,0,0:0:0:0:
358,192,31059,128,0,31232:0:0:0:0:
460,192,31232,1,0,0:0:0:0:
51,192,31232,1,0,0:0:0:0:
256,192,31232,1,0,0:0:0:0:
153,192,31406,128,0,31435:0:0:0:0:
256,192,31492,128,0,31514:0:0:0:0:
358,192,31579,1,0,0:0:0:0:
460,192,31753,1,0,0:0:0:0:
153,192,31926,1,0,0:0:0:0:
51,192,32099,1,0,0:0:0:0:
358,192,32099,1,0,0:0:0:0:
51,192,32273,1,0,0:0:0:0:
460,192,32273,1,0,0:0:0:0:
153,192,32446,128,0,32620:0:0:0:0:
358,192,32620,1,0,0:0:0:0:
51,192,32793,128,0,32966:0:0:0:0:
256,192,32966,1,0,0:0:0:0:
460,192,33140,128,0,33313:0:0:0:0:
358,192,33313,1,0,0:0:0:0:
153,192,33313,1,0,0:0:0:0:
256,192,33487,128,0,33516:0:0:0:0:
358,192,33573,128,0,33602:0:0:0:0:
51,192,33660,1,0,0:0:0:0:
153,192,33834,1,0,0:0:0:0:
358,192,34007,1,0,0:0:0:0:
460,192,34180,1,0,0:0:0:0:
153,192,34180,1,0,0:0:0:0:
153,192,34354,1,0,0:0:0:0:
358,192,34354,1,0,0:0:0:0:
51,192,34527,128,0,34701:0:0:0:0:
460,192,34701,1,0,0:0:0:0:
153,192,34874,128,0,35047:0:0:0:0:
358,192,35047,128,0,35221:0:0:0:0:
51,192,35221,128,0,35394:0:0:0:0:
256,192,35394,1,0,0:0:0:0:
460,192,35394,1,0,0:0:0:0:
358,192,35394,1,0,0:0:0:0:
256,192,36087,1,0,0:0:0:0:
256,192,36782,1,0,0:0:0:0:
256,192,37302,1,0,0:0:0:0:
256,192,37475,1,0,0:0:0:0:
460,192,37475,1,0,0:0:0:0:
51,192,37475,1,0,0:0:0:0:
256,192,38169,1,0,0:0:0:0:
256,192,38863,1,0,0:0:0:0:
460,192,39555,1,0,0:0:0:0:
256,192,39555,1,0,0:0:0:0:
51,192,39555,1,0,0:0:0:0:
256,192,40250,1,0,0:0:0:0:
256,192,40943,1,0,0:0:0:0:
256,192,41464,1,0,0:0:0:0:
460,192,41637,1,0,0:0:0:0:
256,192,41637,1,0,0:0:0:0:
51,192,41637,1,0,0:0:0:0:
460,192,42330,128,0,43024:0:0:0:0:
51,192,42330,128,0,43024:0:0:0:0:
51,192,43370,128,0,43717:0:0:0:0:
460,192,43544,128,0,43891:0:0:0:0:
153,192,43717,128,0,44064:0:0:0:0:
358,192,43891,128,0,44065:0:0:0:0:
51,192,44064,1,0,0:0:0:0:
256,192,44065,1,0,0:0:0:0:
460,192,44065,1,0,0:0:0:0:
460,192,44411,1,0,0:0:0:0:
153,192,44411,1,0,0:0:0:0:
358,192,44585,1,0,0:0:0:0:
51,192,44585,1,0,0:0:0:0:
153,192,44758,1,0,0:0:0:0:
460,192,44758,1,0,0:0:0:0:
153,192,44932,1,0,0:0:0:0:
460,192,44932,1,0,0:0:0:0:
51,192,45105,1,0,0:0:0:0:
358,192,45105,1,0,0:0:0:0:
256,192,45105,1,0,0:0:0:0:
153,192,45452,1,0,0:0:0:0:
358,192,45452,1,0,0:0:0:0:
51,192,45712,1,0,0:0:0:0:
460,192,45712,1,0,0:0:0:0:
153,192,45799,1,0,0:0:0:0:
256,192,45799,1,0,0:0:0:0:
358,192,45799,1,0,0:0:0:0:
51,192,45972,1,0,0:0:0:0:
460,192,45972,1,0,0:0:0:0:
51,192,46145,1,0,0:0:0:0:
256,192,46145,1,0,0:0:0:0:
460,192,46145,1,0,0:0:0:0:
153,192,46492,1,0,0:0:0:0:
460,192,46492,1,0,0:0:0:0:
51,192,46666,1,0,0:0:0:0:
358,192,46666,1,0,0:0:0:0:
51,192,46839,1,0,0:0:0:0:
358,192,46839,1,0,0:0:0:0:
153,192,47012,1,0,0:0:0:0:
460,192,47012,1,0,0:0:0:0:
51,192,47186,1,0,0:0:0:0:
358,192,47186,1,0,0:0:0:0:
256,192,47186,1,0,0:0:0:0:
256,192,47533,1,0,0:0:0:0:
358,192,47533,1,0,0:0:0:0:
460,192,47533,1,0,0:0:0:0:
153,192,47880,1,0,0:0:0:0:
256,192,47880,1,0,0:0:0:0:
358,192,47880,1,0,0:0:0:0:
51,192,48226,1,0,0:0:0:0:
153,192,48226,1,0,0:0:0:0:
256,192,48226,1,0,0:0:0:0:
51,192,48572,1,0,0:0:0:0:
256,192,48572,1,0,0:0:0:0:
460,192,48572,1,0,0:0:0:0:
153,192,48918,1,0,0:0:0:0:
460,192,48918,1,0,0:0:0:0:
51,192,49092,1,0,0:0:0:0:
358,192,49092,1,0,0:0:0:0:
153,192,49265,1,0,0:0:0:0:
460,192,49265,1,0,0:0:0:0:
153,192,49439,1,0,0:0:0:0:
460,192,49439,1,0,0:0:0:0:
51,192,49612,1,0,0:0:0:0:
358,192,49612,1,0,0:0:0:0:
256,192,49612,1,0,0:0:0:0:
51,192,49959,1,0,0:0:0:0:
460,192,49959,1,0,0:0:0:0:
51,192,50306,1,0,0:0:0:0:
460,192,50306,1,0,0:0:0:0:
51,192,50479,1,0,0:0:0:0:
460,192,50479,1,0,0:0:0:0:
153,192,50652,1,0,0:0:0:0:
358,192,50652,1,0,0:0:0:0:
256,192,50652,1,0,0:0:0:0:
153,192,50999,1,0,0:0:0:0:
460,192,50999,1,0,0:0:0:0:
51,192,51173,1,0,0:0:0:0:
358,192,51173,1,0,0:0:0:0:
460,192,51346,1,0,0:0:0:0:
153,192,51346,1,0,0:0:0:0:
460,192,51519,1,0,0:0:0:0:
153,192,51519,1,0,0:0:0:0:
51,192,51693,1,0,0:0:0:0:
358,192,51693,1,0,0:0:0:0:
256,192,51693,1,0,0:0:0:0:
51,192,52040,1,0,0:0:0:0:
153,192,52040,1,0,0:0:0:0:
256,192,52387,1,0,0:0:0:0:
358,192,52387,1,0,0:0:0:0:
460,192,52387,1,0,0:0:0:0:
51,192,52733,1,0,0:0:0:0:
256,192,52733,1,0,0:0:0:0:
460,192,52733,1,0,0:0:0:0:
51,192,53427,1,0,0:0:0:0:
460,192,53427,1,0,0:0:0:0:
256,192,53427,1,0,0:0:0:0:
153,192,53773,1,0,0:0:0:0:
358,192,53773,1,0,0:0:0:0:
51,192,53947,1,0,0:0:0:0:
460,192,53947,1,0,0:0:0:0:
153,192,54120,1,0,0:0:0:0:
358,192,54120,1,0,0:0:0:0:
153,192,54207,1,0,0:0:0:0:
358,192,54207,1,0,0:0:0:0:
51,192,54294,1,0,0:0:0:0:
460,192,54294,1,0,0:0:0:0:
51,192,54467,1,0,0:0:0:0:
256,192,54467,1,0,0:0:0:0:
460,192,54467,1,0,0:0:0:0:
358,192,54814,1,0,0:0:0:0:
153,192,54814,1,0,0:0:0:0:
51,192,54814,1,0,0:0:0:0:
153,192,55161,1,0,0:0:0:0:
460,192,55161,1,0,0:0:0:0:
358,192,55161,1,0,0:0:0:0:
460,192,55507,1,0,0:0:0:0:
358,192,55507,1,0,0:0:0:0:
51,192,55507,1,0,0:0:0:0:
51,192,55854,1,0,0:0:0:0:
153,192,55854,1,0,0:0:0:0:
153,192,55941,1,0,0:0:0:0:
51,192,55941,1,0,0:0:0:0:
358,192,56028,1,0,0:0:0:0:
460,192,56028,1,0,0:0:0:0:
51,192,56288,1,0,0:0:0:0:
153,192,56288,1,0,0:0:0:0:
358,192,56374,1,0,0:0:0:0:
460,192,56374,1,0,0:0:0:0:
51,192,56548,1,0,0:0:0:0:
153,192,56548,1,0,0:0:0:0:
256,192,56548,1,0,0:0:0:0:
153,192,56895,1,0,0:0:0:0:
256,192,56895,1,0,0:0:0:0:
358,192,56895,1,0,0:0:0:0:
256,192,57242,1,0,0:0:0:0:
358,192,57242,1,0,0:0:0:0:
460,192,57242,1,0,0:0:0:0:
51,192,57588,1,0,0:0:0:0:
153,192,57588,1,0,0:0:0:0:
358,192,57588,1,0,0:0:0:0:
153,192,57935,1,0,0:0:0:0:
256,192,57935,1,0,0:0:0:0:
460,192,57935,1,0,0:0:0:0:
358,192,58282,1,0,0:0:0:0:
256,192,58282,1,0,0:0:0:0:
51,192,58282,1,0,0:0:0:0:
358,192,58629,1,0,0:0:0:0:
460,192,58629,1,0,0:0:0:0:
153,192,58629,1,0,0:0:0:0:
460,192,58976,1,0,0:0:0:0:
51,192,58976,1,0,0:0:0:0:
256,192,58976,1,0,0:0:0:0:
51,192,59322,1,0,0:0:0:0:
358,192,59322,1,0,0:0:0:0:
153,192,59322,1,0,0:0:0:0:
460,192,59669,1,0,0:0:0:0:
256,192,59669,1,0,0:0:0:0:
51,192,59669,1,0,0:0:0:0:
460,192,60016,1,0,0:0:0:0:
358,192,60016,1,0,0:0:0:0:
153,192,60016,1,0,0:0:0:0:
256,192,60363,1,0,0:0:0:0:
358,192,60363,1,0,0:0:0:0:
460,192,60363,1,0,0:0:0:0:
51,192,60710,1,0,0:0:0:0:
153,192,60710,1,0,0:0:0:0:
256,192,60710,1,0,0:0:0:0:
460,192,61057,128,0,61403:0:0:0:0:
51,192,61057,128,0,61403:0:0:0:0:
153,192,61403,1,0,0:0:0:0:
256,192,61403,1,0,0:0:0:0:
358,192,61403,1,0,0:0:0:0:
460,192,61749,1,0,0:0:0:0:
153,192,61749,1,0,0:0:0:0:
358,192,61923,1,0,0:0:0:0:
51,192,61923,1,0,0:0:0:0:
153,192,62096,1,0,0:0:0:0:
460,192,62096,1,0,0:0:0:0:
153,192,62270,1,0,0:0:0:0:
460,192,62270,1,0,0:0:0:0:
358,192,62443,1,0,0:0:0:0:
51,192,62443,1,0,0:0:0:0:
256,192,62443,1,0,0:0:0:0:
153,192,62616,1,0,0:0:0:0:
460,192,62616,1,0,0:0:0:0:
358,192,62790,1,0,0:0:0:0:
51,192,62790,1,0,0:0:0:0:
256,192,62963,1,0,0:0:0:0:
460,192,62963,1,0,0:0:0:0:
51,192,63137,1,0,0:0:0:0:
256,192,63137,1,0,0:0:0:0:
153,192,63310,1,0,0:0:0:0:
358,192,63310,1,0,0:0:0:0:
51,192,63483,1,0,0:0:0:0:
256,192,63483,1,0,0:0:0:0:
460,192,63483,1,0,0:0:0:0:
51,192,63657,1,0,0:0:0:0:
358,192,63657,1,0,0:0:0:0:
153,192,63830,1,0,0:0:0:0:
460,192,63830,1,0,0:0:0:0:
358,192,64004,1,0,0:0:0:0:
51,192,64004,1,0,0:0:0:0:
51,192,64177,1,0,0:0:0:0:
358,192,64177,1,0,0:0:0:0:
460,192,64350,1,0,0:0:0:0:
153,192,64350,1,0,0:0:0:0:
51,192,64524,1,0,0:0:0:0:
460,192,64524,1,0,0:0:0:0:
153,192,64524,1,0,0:0:0:0:
358,192,64697,1,0,0:0:0:0:
460,192,64697,1,0,0:0:0:0:
153,192,64871,1,0,0:0:0:0:
51,192,64871,1,0,0:0:0:0:
256,192,64957,1,0,0:0:0:0:
358,192,65044,1,0,0:0:0:0:
460,192,65131,1,0,0:0:0:0:
153,192,65218,1,0,0:0:0:0:
256,192,65218,1,0,0:0:0:0:
358,192,65218,1,0,0:0:0:0:
256,192,65564,1,0,0:0:0:0:
358,192,65564,1,0,0:0:0:0:
460,192,65564,1,0,0:0:0:0:
358,192,65911,1,0,0:0:0:0:
460,192,65911,1,0,0:0:0:0:
51,192,65911,1,0,0:0:0:0:
153,192,66084,1,0,0:0:0:0:
256,192,66084,1,0,0:0:0:0:
460,192,66257,1,0,0:0:0:0:
51,192,66257,1,0,0:0:0:0:
256,192,66431,1,0,0:0:0:0:
358,192,66431,1,0,0:0:0:0:
51,192,66604,1,0,0:0:0:0:
460,192,66604,1,0,0:0:0:0:
153,192,66778,1,0,0:0:0:0:
256,192,66778,1,0,0:0:0:0:
358,192,66951,1,0,0:0:0:0:
460,192,66951,1,0,0:0:0:0:
51,192,66951,1,0,0:0:0:0:
153,192,67124,1,0,0:0:0:0:
358,192,67124,1,0,0:0:0:0:
51,192,67298,1,0,0:0:0:0:
460,192,67298,1,0,0:0:0:0:
153,192,67471,1,0,0:0:0:0:
358,192,67471,1,0,0:0:0:0:
256,192,67645,1,0,0:0:0:0:
153,192,67645,1,0,0:0:0:0:
358,192,67645,1,0,0:0:0:0:
51,192,67818,1,0,0:0:0:0:
460,192,67818,1,0,0:0:0:0:
256,192,67991,1,0,0:0:0:0:
51,192,67991,1,0,0:0:0:0:
460,192,67991,1,0,0:0:0:0:
153,192,68165,1,0,0:0:0:0:
358,192,68165,1,0,0:0:0:0:
51,192,68338,1,0,0:0:0:0:
460,192,68338,1,0,0:0:0:0:
153,192,68512,1,0,0:0:0:0:
358,192,68512,1,0,0:0:0:0:
153,192,68685,1,0,0:0:0:0:
358,192,68685,1,0,0:0:0:0:
51,192,68858,1,0,0:0:0:0:
460,192,68858,1,0,0:0:0:0:
51,192,69032,1,0,0:0:0:0:
256,192,69032,1,0,0:0:0:0:
460,192,69032,1,0,0:0:0:0:
153,192,69205,1,0,0:0:0:0:
358,192,69205,1,0,0:0:0:0:
153,192,69379,1,0,0:0:0:0:
358,192,69379,1,0,0:0:0:0:
256,192,69465,1,0,0:0:0:0:
153,192,69552,1,0,0:0:0:0:
51,192,69639,1,0,0:0:0:0:
256,192,69726,1,0,0:0:0:0:
358,192,69726,1,0,0:0:0:0:
460,192,69726,1,0,0:0:0:0:
153,192,70072,1,0,0:0:0:0:
256,192,70072,1,0,0:0:0:0:
358,192,70072,1,0,0:0:0:0:
51,192,70417,1,0,0:0:0:0:
153,192,70417,1,0,0:0:0:0:
460,192,70417,1,0,0:0:0:0:
358,192,70763,1,0,0:0:0:0:
460,192,70763,1,0,0:0:0:0:
358,192,70850,1,0,0:0:0:0:
460,192,70850,1,0,0:0:0:0:
153,192,70937,1,0,0:0:0:0:
51,192,70937,1,0,0:0:0:0:
358,192,71110,1,0,0:0:0:0:
460,192,71110,1,0,0:0:0:0:
358,192,71197,1,0,0:0:0:0:
460,192,71197,1,0,0:0:0:0:
153,192,71284,1,0,0:0:0:0:
51,192,71284,1,0,0:0:0:0:
358,192,71457,1,0,0:0:0:0:
460,192,71457,1,0,0:0:0:0:
51,192,71457,1,0,0:0:0:0:
256,192,71804,1,0,0:0:0:0:
358,192,71804,1,0,0:0:0:0:
153,192,72151,1,0,0:0:0:0:
256,192,72151,1,0,0:0:0:0:
51,192,72497,1,0,0:0:0:0:
153,192,72497,1,0,0:0:0:0:
460,192,72497,1,0,0:0:0:0:
51,192,72844,1,0,0:0:0:0:
153,192,72844,1,0,0:0:0:0:
51,192,72931,1,0,0:0:0:0:
153,192,72931,1,0,0:0:0:0:
358,192,73018,1,0,0:0:0:0:
460,192,73018,1,0,0:0:0:0:
51,192,73278,1,0,0:0:0:0:
153,192,73278,1,0,0:0:0:0:
358,192,73364,1,0,0:0:0:0:
460,192,73364,1,0,0:0:0:0:
51,192,73538,1,0,0:0:0:0:
153,192,73538,1,0,0:0:0:0:
256,192,73538,1,0,0:0:0:0:
153,192,73885,1,0,0:0:0:0:
256,192,73885,1,0,0:0:0:0:
358,192,73885,1,0,0:0:0:0:
256,192,74230,1,0,0:0:0:0:
358,192,74230,1,0,0:0:0:0:
460,192,74230,1,0,0:0:0:0:
358,192,74576,1,0,0:0:0:0:
460,192,74576,1,0,0:0:0:0:
358,192,74663,1,0,0:0:0:0:
460,192,74663,1,0,0:0:0:0:
153,192,74750,1,0,0:0:0:0:
51,192,74750,1,0,0:0:0:0:
358,192,74923,1,0,0:0:0:0:
460,192,74923,1,0,0:0:0:0:
358,192,75010,1,0,0:0:0:0:
460,192,75010,1,0,0:0:0:0:
51,192,75097,1,0,0:0:0:0:
153,192,75097,1,0,0:0:0:0:
358,192,75270,1,0,0:0:0:0:
460,192,75270,1,0,0:0:0:0:
51,192,75270,1,0,0:0:0:0:
256,192,75617,1,0,0:0:0:0:
358,192,75617,1,0,0:0:0:0:
153,192,75964,1,0,0:0:0:0:
256,192,75964,1,0,0:0:0:0:
51,192,76310,1,0,0:0:0:0:
153,192,76310,1,0,0:0:0:0:
460,192,76310,1,0,0:0:0:0:
51,192,76657,1,0,0:0:0:0:
153,192,76657,1,0,0:0:0:0:
51,192,76744,1,0,0:0:0:0:
153,192,76744,1,0,0:0:0:0:
358,192,76831,1,0,0:0:0:0:
460,192,76831,1,0,0:0:0:0:
51,192,77004,5,0,0:0:0:0:
153,192,77004,1,0,0:0:0:0:
51,192,77091,1,0,0:0:0:0:
153,192,77091,1,0,0:0:0:0:
358,192,77177,1,0,0:0:0:0:
460,192,77177,1,0,0:0:0:0:
51,192,77351,1,0,0:0:0:0:
256,192,77351,1,0,0:0:0:0:
153,192,77698,1,0,0:0:0:0:
358,192,77698,1,0,0:0:0:0:
460,192,78045,128,0,78391:0:0:0:0:
51,192,78045,128,0,78391:0:0:0:0:
153,192,78391,1,0,0:0:0:0:
256,192,78391,1,0,0:0:0:0:
358,192,78391,1,0,0:0:0:0:
51,192,78737,1,0,0:0:0:0:
460,192,78911,1,0,0:0:0:0:
358,192,79084,1,0,0:0:0:0:
153,192,79171,1,0,0:0:0:0:
256,192,79258,1,0,0:0:0:0:
358,192,79344,1,0,0:0:0:0:
153,192,79431,1,0,0:0:0:0:
51,192,79431,1,0,0:0:0:0:
256,192,79778,1,0,0:0:0:0:
460,192,79951,1,0,0:0:0:0:
358,192,80038,1,0,0:0:0:0:
153,192,80125,1,0,0:0:0:0:
256,192,80211,1,0,0:0:0:0:
358,192,80298,1,0,0:0:0:0:
51,192,80385,1,0,0:0:0:0:
153,192,80471,1,0,0:0:0:0:
460,192,80471,1,0,0:0:0:0:
358,192,80645,1,0,0:0:0:0:
256,192,80732,1,0,0:0:0:0:
460,192,80818,1,0,0:0:0:0:
153,192,80992,1,0,0:0:0:0:
358,192,81165,1,0,0:0:0:0:
256,192,81252,1,0,0:0:0:0:
51,192,81338,1,0,0:0:0:0:
153,192,81425,1,0,0:0:0:0:
358,192,81512,1,0,0:0:0:0:
460,192,81512,1,0,0:0:0:0:
256,192,81685,1,0,0:0:0:0:
358,192,81772,1,0,0:0:0:0:
51,192,81859,1,0,0:0:0:0:
460,192,82032,1,0,0:0:0:0:
256,192,82032,1,0,0:0:0:0:
358,192,82119,1,0,0:0:0:0:
51,192,82206,1,0,0:0:0:0:
153,192,82292,1,0,0:0:0:0:
256,192,82292,1,0,0:0:0:0:
460,192,82379,1,0,0:0:0:0:
358,192,82466,1,0,0:0:0:0:
153,192,82466,1,0,0:0:0:0:
460,192,82552,1,0,0:0:0:0:
51,192,82552,1,0,0:0:0:0:
358,192,82726,1,0,0:0:0:0:
256,192,82812,1,0,0:0:0:0:
153,192,82899,1,0,0:0:0:0:
460,192,83073,1,0,0:0:0:0:
153,192,83246,1,0,0:0:0:0:
256,192,83333,1,0,0:0:0:0:
358,192,83419,1,0,0:0:0:0:
51,192,83506,1,0,0:0:0:0:
153,192,83593,1,0,0:0:0:0:
256,192,83593,1,0,0:0:0:0:
460,192,83766,1,0,0:0:0:0:
358,192,83853,1,0,0:0:0:0:
256,192,83940,1,0,0:0:0:0:
153,192,84113,1,0,0:0:0:0:
460,192,84286,1,0,0:0:0:0:
256,192,84373,1,0,0:0:0:0:
51,192,84460,1,0,0:0:0:0:
358,192,84547,1,0,0:0:0:0:
153,192,84633,1,0,0:0:0:0:
256,192,84633,1,0,0:0:0:0:
460,192,84807,1,0,0:0:0:0:
358,192,84893,1,0,0:0:0:0:
256,192,84980,1,0,0:0:0:0:
358,192,85067,1,0,0:0:0:0:
460,192,85154,1,0,0:0:0:0:
51,192,85240,1,0,0:0:0:0:
153,192,85327,1,0,0:0:0:0:
256,192,85414,1,0,0:0:0:0:
153,192,85500,1,0,0:0:0:0:
51,192,85587,1,0,0:0:0:0:
460,192,85674,1,0,0:0:0:0:
358,192,85674,1,0,0:0:0:0:
153,192,85847,1,0,0:0:0:0:
256,192,85934,1,0,0:0:0:0:
358,192,86021,1,0,0:0:0:0:
51,192,86107,1,0,0:0:0:0:
153,192,86194,1,0,0:0:0:0:
256,192,86194,1,0,0:0:0:0:
460,192,86367,1,0,0:0:0:0:
358,192,86454,1,0,0:0:0:0:
256,192,86454,1,0,0:0:0:0:
51,192,86627,1,0,0:0:0:0:
153,192,86714,1,0,0:0:0:0:
460,192,86714,1,0,0:0:0:0:
358,192,86888,1,0,0:0:0:0:
256,192,87061,1,0,0:0:0:0:
153,192,87234,1,0,0:0:0:0:
51,192,87408,1,0,0:0:0:0:
460,192,87495,1,0,0:0:0:0:
153,192,87581,1,0,0:0:0:0:
358,192,87668,1,0,0:0:0:0:
256,192,87755,1,0,0:0:0:0:
153,192,87755,1,0,0:0:0:0:
51,192,87928,1,0,0:0:0:0:
358,192,88015,1,0,0:0:0:0:
460,192,88101,1,0,0:0:0:0:
256,192,88275,1,0,0:0:0:0:
358,192,88448,1,0,0:0:0:0:
153,192,88622,1,0,0:0:0:0:
256,192,88708,1,0,0:0:0:0:
51,192,88795,1,0,0:0:0:0:
153,192,88795,1,0,0:0:0:0:
358,192,88969,1,0,0:0:0:0:
256,192,89142,1,0,0:0:0:0:
460,192,89315,1,0,0:0:0:0:
358,192,89489,1,0,0:0:0:0:
256,192,89662,1,0,0:0:0:0:
51,192,89836,1,0,0:0:0:0:
153,192,89836,1,0,0:0:0:0:
460,192,90009,1,0,0:0:0:0:
256,192,90096,1,0,0:0:0:0:
460,192,90182,1,0,0:0:0:0:
51,192,90356,1,0,0:0:0:0:
153,192,90356,1,0,0:0:0:0:
256,192,90443,1,0,0:0:0:0:
358,192,90529,1,0,0:0:0:0:
51,192,90616,1,0,0:0:0:0:
460,192,90616,1,0,0:0:0:0:
153,192,90703,1,0,0:0:0:0:
358,192,90789,1,0,0:0:0:0:
256,192,90789,1,0,0:0:0:0:
51,192,90876,1,0,0:0:0:0:
460,192,90876,1,0,0:0:0:0:
153,192,91223,1,0,0:0:0:0:
358,192,91396,1,0,0:0:0:0:
256,192,91570,1,0,0:0:0:0:
153,192,91743,1,0,0:0:0:0:
358,192,91917,1,0,0:0:0:0:
460,192,91917,1,0,0:0:0:0:
51,192,92090,1,0,0:0:0:0:
153,192,92263,1,0,0:0:0:0:
460,192,92437,1,0,0:0:0:0:
256,192,92610,1,0,0:0:0:0:
358,192,92784,1,0,0:0:0:0:
153,192,92957,1,0,0:0:0:0:
51,192,92957,1,0,0:0:0:0:
460,192,93304,1,0,0:0:0:0:
256,192,93477,1,0,0:0:0:0:
51,192,93651,1,0,0:0:0:0:
153,192,93824,1,0,0:0:0:0:
358,192,93997,1,0,0:0:0:0:
460,192,93997,1,0,0:0:0:0:
256,192,94171,1,0,0:0:0:0:
153,192,94258,1,0,0:0:0:0:
358,192,94344,1,0,0:0:0:0:
256,192,94431,1,0,0:0:0:0:
51,192,94518,1,0,0:0:0:0:
460,192,94518,1,0,0:0:0:0:
153,192,94604,1,0,0:0:0:0:
358,192,94691,1,0,0:0:0:0:
256,192,94778,1,0,0:0:0:0:
51,192,94778,1,0,0:0:0:0:
460,192,94951,1,0,0:0:0:0:
358,192,94951,1,0,0:0:0:0:
256,192,95038,1,0,0:0:0:0:
153,192,95038,1,0,0:0:0:0:
51,192,95038,128,0,98853:0:0:0:0:
460,192,101281,1,0,0:0:0:0:
358,192,101281,1,0,0:0:0:0:
51,192,101281,1,0,0:0:0:0:
153,192,101454,1,0,0:0:0:0:
358,192,101627,1,0,0:0:0:0:
256,192,101714,1,0,0:0:0:0:
51,192,101714,1,0,0:0:0:0:
153,192,101801,1,0,0:0:0:0:
460,192,101974,1,0,0:0:0:0:
358,192,102061,1,0,0:0:0:0:
153,192,102061,1,0,0:0:0:0:
256,192,102148,1,0,0:0:0:0:
153,192,102321,1,0,0:0:0:0:
51,192,102321,1,0,0:0:0:0:
358,192,102494,1,0,0:0:0:0:
153,192,102668,1,0,0:0:0:0:
256,192,102754,1,0,0:0:0:0:
460,192,102754,1,0,0:0:0:0:
358,192,102928,1,0,0:0:0:0:
153,192,103015,1,0,0:0:0:0:
51,192,103015,1,0,0:0:0:0:
256,192,103188,1,0,0:0:0:0:
358,192,103188,1,0,0:0:0:0:
460,192,103361,1,0,0:0:0:0:
153,192,103361,1,0,0:0:0:0:
51,192,103535,1,0,0:0:0:0:
358,192,103535,1,0,0:0:0:0:
153,192,103708,1,0,0:0:0:0:
256,192,103795,1,0,0:0:0:0:
358,192,103795,1,0,0:0:0:0:
51,192,103882,1,0,0:0:0:0:
153,192,104055,1,0,0:0:0:0:
256,192,104142,1,0,0:0:0:0:
460,192,104142,1,0,0:0:0:0:
358,192,104228,1,0,0:0:0:0:
256,192,104402,1,0,0:0:0:0:
51,192,104402,1,0,0:0:0:0:
460,192,104575,1,0,0:0:0:0:
358,192,104662,1,0,0:0:0:0:
256,192,104749,1,0,0:0:0:0:
153,192,104835,1,0,0:0:0:0:
51,192,104835,1,0,0:0:0:0:
358,192,104922,1,0,0:0:0:0:
460,192,105009,1,0,0:0:0:0:
256,192,105096,1,0,0:0:0:0:
51,192,105096,1,0,0:0:0:0:
358,192,105269,1,0,0:0:0:0:
153,192,105269,1,0,0:0:0:0:
256,192,105442,1,0,0:0:0:0:
460,192,105442,1,0,0:0:0:0:
358,192,105616,1,0,0:0:0:0:
51,192,105789,1,0,0:0:0:0:
153,192,105876,1,0,0:0:0:0:
256,192,105876,1,0,0:0:0:0:
460,192,105963,1,0,0:0:0:0:
256,192,106136,1,0,0:0:0:0:
153,192,106223,1,0,0:0:0:0:
358,192,106223,1,0,0:0:0:0:
51,192,106309,1,0,0:0:0:0:
256,192,106483,1,0,0:0:0:0:
460,192,106483,1,0,0:0:0:0:
358,192,106656,1,0,0:0:0:0:
153,192,106830,1,0,0:0:0:0:
256,192,106916,1,0,0:0:0:0:
51,192,106916,1,0,0:0:0:0:
460,192,107090,1,0,0:0:0:0:
256,192,107090,1,0,0:0:0:0:
358,192,107176,1,0,0:0:0:0:
153,192,107350,1,0,0:0:0:0:
51,192,107350,1,0,0:0:0:0:
256,192,107523,1,0,0:0:0:0:
358,192,107523,1,0,0:0:0:0:
153,192,107697,1,0,0:0:0:0:
256,192,107870,1,0,0:0:0:0:
358,192,107957,1,0,0:0:0:0:
460,192,107957,1,0,0:0:0:0:
153,192,108044,1,0,0:0:0:0:
51,192,108217,1,0,0:0:0:0:
256,192,108304,1,0,0:0:0:0:
460,192,108304,1,0,0:0:0:0:
358,192,108390,1,0,0:0:0:0:
153,192,108390,1,0,0:0:0:0:
256,192,108564,1,0,0:0:0:0:
51,192,108564,1,0,0:0:0:0:
153,192,108737,1,0,0:0:0:0:
358,192,108737,1,0,0:0:0:0:
460,192,108911,1,0,0:0:0:0:
51,192,108911,1,0,0:0:0:0:
153,192,108997,1,0,0:0:0:0:
358,192,108997,1,0,0:0:0:0:
256,192,109171,1,0,0:0:0:0:
460,192,109171,1,0,0:0:0:0:
358,192,109257,1,0,0:0:0:0:
153,192,109257,1,0,0:0:0:0:
256,192,109431,1,0,0:0:0:0:
51,192,109431,1,0,0:0:0:0:
153,192,109604,1,0,0:0:0:0:
460,192,109604,1,0,0:0:0:0:
358,192,109778,1,0,0:0:0:0:
153,192,109951,1,0,0:0:0:0:
256,192,110038,1,0,0:0:0:0:
358,192,110038,1,0,0:0:0:0:
51,192,110124,1,0,0:0:0:0:
153,192,110298,1,0,0:0:0:0:
256,192,110385,1,0,0:0:0:0:
460,192,110385,1,0,0:0:0:0:
358,192,110471,1,0,0:0:0:0:
51,192,110645,1,0,0:0:0:0:
153,192,110645,1,0,0:0:0:0:
256,192,110818,1,0,0:0:0:0:
358,192,110818,1,0,0:0:0:0:
460,192,110991,1,0,0:0:0:0:
358,192,111078,1,0,0:0:0:0:
153,192,111078,1,0,0:0:0:0:
51,192,111252,1,0,0:0:0:0:
256,192,111252,1,0,0:0:0:0:
358,192,111338,1,0,0:0:0:0:
460,192,111338,1,0,0:0:0:0:
256,192,111512,1,0,0:0:0:0:
358,192,111512,1,0,0:0:0:0:
153,192,111685,1,0,0:0:0:0:
256,192,111685,1,0,0:0:0:0:
153,192,111859,1,0,0:0:0:0:
358,192,111859,1,0,0:0:0:0:
358,192,112032,1,0,0:0:0:0:
51,192,112032,1,0,0:0:0:0:
256,192,112119,1,0,0:0:0:0:
153,192,112119,1,0,0:0:0:0:
460,192,112205,1,0,0:0:0:0:
358,192,112379,1,0,0:0:0:0:
256,192,112465,1,0,0:0:0:0:
153,192,112465,1,0,0:0:0:0:
51,192,112552,1,0,0:0:0:0:
358,192,112726,1,0,0:0:0:0:
460,192,112726,1,0,0:0:0:0:
153,192,112899,1,0,0:0:0:0:
256,192,112899,1,0,0:0:0:0:
358,192,113072,1,0,0:0:0:0:
51,192,113072,1,0,0:0:0:0:
153,192,113159,1,0,0:0:0:0:
256,192,113159,1,0,0:0:0:0:
460,192,113333,1,0,0:0:0:0:
358,192,113333,1,0,0:0:0:0:
256,192,113419,1,0,0:0:0:0:
51,192,113419,1,0,0:0:0:0:
153,192,113593,1,0,0:0:0:0:
358,192,113593,1,0,0:0:0:0:
256,192,113766,1,0,0:0:0:0:
460,192,113766,1,0,0:0:0:0:
358,192,113939,1,0,0:0:0:0:
51,192,114113,1,0,0:0:0:0:
153,192,114113,1,0,0:0:0:0:
256,192,114200,1,0,0:0:0:0:
460,192,114200,1,0,0:0:0:0:
358,192,114286,1,0,0:0:0:0:
153,192,114460,1,0,0:0:0:0:
256,192,114460,1,0,0:0:0:0:
51,192,114546,1,0,0:0:0:0:
460,192,114546,1,0,0:0:0:0:
358,192,114633,1,0,0:0:0:0:
256,192,114807,1,0,0:0:0:0:
51,192,114807,1,0,0:0:0:0:
460,192,114980,1,0,0:0:0:0:
358,192,115153,1,0,0:0:0:0:
153,192,115153,1,0,0:0:0:0:
256,192,115240,1,0,0:0:0:0:
51,192,115240,1,0,0:0:0:0:
460,192,115327,1,0,0:0:0:0:
153,192,115500,1,0,0:0:0:0:
256,192,115500,1,0,0:0:0:0:
460,192,115674,1,0,0:0:0:0:
358,192,115674,1,0,0:0:0:0:
256,192,115847,1,0,0:0:0:0:
51,192,115847,1,0,0:0:0:0:
153,192,116020,1,0,0:0:0:0:
358,192,116194,1,0,0:0:0:0:
460,192,116194,1,0,0:0:0:0:
256,192,116281,1,0,0:0:0:0:
51,192,116281,1,0,0:0:0:0:
153,192,116367,1,0,0:0:0:0:
358,192,116541,1,0,0:0:0:0:
256,192,116541,1,0,0:0:0:0:
51,192,116627,1,0,0:0:0:0:
153,192,116627,1,0,0:0:0:0:
460,192,116714,1,0,0:0:0:0:
358,192,116887,1,0,0:0:0:0:
51,192,116887,1,0,0:0:0:0:
153,192,117061,1,0,0:0:0:0:
256,192,117234,1,0,0:0:0:0:
358,192,117234,1,0,0:0:0:0:
153,192,117321,1,0,0:0:0:0:
460,192,117321,1,0,0:0:0:0:
51,192,117408,1,0,0:0:0:0:
153,192,117581,1,0,0:0:0:0:
358,192,117581,1,0,0:0:0:0:
256,192,117668,1,0,0:0:0:0:
460,192,117668,1,0,0:0:0:0:
153,192,117754,1,0,0:0:0:0:
358,192,117928,1,0,0:0:0:0:
51,192,117928,128,0,118101:0:0:0:0:
153,192,118101,128,0,118274:0:0:0:0:
460,192,118101,1,0,0:0:0:0:
358,192,118274,1,0,0:0:0:0:
256,192,118361,1,0,0:0:0:0:
153,192,118448,128,0,118621:0:0:0:0:
358,192,118448,1,0,0:0:0:0:
460,192,118621,1,0,0:0:0:0:
358,192,118708,1,0,0:0:0:0:
153,192,118795,128,0,118968:0:0:0:0:
256,192,118795,1,0,0:0:0:0:
460,192,118968,128,0,119141:0:0:0:0:
51,192,118968,1,0,0:0:0:0:
358,192,119141,128,0,119315:0:0:0:0:
153,192,119141,1,0,0:0:0:0:
256,192,119315,128,0,119488:0:0:0:0:
51,192,119315,1,0,0:0:0:0:
153,192,119401,1,0,0:0:0:0:
460,192,119575,1,0,0:0:0:0:
358,192,119662,1,0,0:0:0:0:
51,192,119835,128,0,120008:0:0:0:0:
153,192,119835,1,0,0:0:0:0:
256,192,120008,128,0,120182:0:0:0:0:
358,192,120008,1,0,0:0:0:0:
460,192,120182,128,0,120355:0:0:0:0:
153,192,120182,1,0,0:0:0:0:
153,192,120355,128,0,120529:0:0:0:0:
51,192,120355,1,0,0:0:0:0:
358,192,120442,1,0,0:0:0:0:
256,192,120529,1,0,0:0:0:0:
358,192,120702,128,0,120875:0:0:0:0:
51,192,120702,1,0,0:0:0:0:
153,192,120789,1,0,0:0:0:0:
256,192,120875,1,0,0:0:0:0:
51,192,121049,128,0,121222:0:0:0:0:
153,192,121049,1,0,0:0:0:0:
153,192,121222,128,0,121396:0:0:0:0:
256,192,121222,1,0,0:0:0:0:
256,192,121396,128,0,121569:0:0:0:0:
358,192,121396,1,0,0:0:0:0:
358,192,121569,128,0,121743:0:0:0:0:
460,192,121569,1,0,0:0:0:0:
460,192,121743,128,0,121916:0:0:0:0:
51,192,121743,1,0,0:0:0:0:
256,192,121916,1,0,0:0:0:0:
51,192,122089,128,0,122263:0:0:0:0:
358,192,122089,1,0,0:0:0:0:
256,192,122263,128,0,122436:0:0:0:0:
153,192,122263,1,0,0:0:0:0:
460,192,122436,1,0,0:0:0:0:
358,192,122523,1,0,0:0:0:0:
256,192,122610,128,0,122783:0:0:0:0:
153,192,122610,1,0,0:0:0:0:
51,192,122783,1,0,0:0:0:0:
153,192,122870,1,0,0:0:0:0:
256,192,122956,128,0,123130:0:0:0:0:
358,192,122956,1,0,0:0:0:0:
460,192,123130,128,0,123303:0:0:0:0:
51,192,123130,1,0,0:0:0:0:
153,192,123303,128,0,123477:0:0:0:0:
358,192,123303,1,0,0:0:0:0:
51,192,123477,128,0,123650:0:0:0:0:
256,192,123477,1,0,0:0:0:0:
358,192,123563,1,0,0:0:0:0:
256,192,123737,1,0,0:0:0:0:
460,192,123823,1,0,0:0:0:0:
358,192,123997,128,0,124170:0:0:0:0:
256,192,123997,1,0,0:0:0:0:
153,192,124170,128,0,124344:0:0:0:0:
51,192,124170,1,0,0:0:0:0:
256,192,124344,128,0,124517:0:0:0:0:
460,192,124344,1,0,0:0:0:0:
358,192,124517,128,0,124691:0:0:0:0:
51,192,124517,1,0,0:0:0:0:
153,192,124604,1,0,0:0:0:0:
256,192,124691,1,0,0:0:0:0:
460,192,124864,1,0,0:0:0:0:
358,192,124951,1,0,0:0:0:0:
51,192,125037,128,0,125211:0:0:0:0:
256,192,125037,1,0,0:0:0:0:
153,192,125211,128,0,125384:0:0:0:0:
358,192,125211,1,0,0:0:0:0:
460,192,125384,128,0,125558:0:0:0:0:
256,192,125384,1,0,0:0:0:0:
358,192,125558,128,0,125731:0:0:0:0:
51,192,125558,1,0,0:0:0:0:
153,192,125644,1,0,0:0:0:0:
256,192,125731,1,0,0:0:0:0:
153,192,125904,128,0,126078:0:0:0:0:
460,192,125904,1,0,0:0:0:0:
358,192,125991,1,0,0:0:0:0:
256,192,126078,1,0,0:0:0:0:
460,192,126251,128,0,126425:0:0:0:0:
51,192,126251,1,0,0:0:0:0:
358,192,126425,128,0,126598:0:0:0:0:
153,192,126425,1,0,0:0:0:0:
51,192,126598,1,0,0:0:0:0:
153,192,126685,1,0,0:0:0:0:
358,192,126771,128,0,126945:0:0:0:0:
256,192,126771,1,0,0:0:0:0:
51,192,126945,1,0,0:0:0:0:
153,192,127032,1,0,0:0:0:0:
358,192,127118,128,0,127292:0:0:0:0:
256,192,127118,1,0,0:0:0:0:
256,192,127292,128,0,127465:0:0:0:0:
460,192,127292,1,0,0:0:0:0:
153,192,127465,128,0,127638:0:0:0:0:
358,192,127465,1,0,0:0:0:0:
51,192,127638,128,0,127812:0:0:0:0:
256,192,127638,1,0,0:0:0:0:
358,192,127725,1,0,0:0:0:0:
256,192,127899,1,0,0:0:0:0:
460,192,127985,1,0,0:0:0:0:
358,192,128159,128,0,128332:0:0:0:0:
153,192,128159,1,0,0:0:0:0:
51,192,128332,128,0,128506:0:0:0:0:
256,192,128332,1,0,0:0:0:0:
153,192,128506,128,0,128679:0:0:0:0:
358,192,128506,1,0,0:0:0:0:
256,192,128679,128,0,128852:0:0:0:0:
460,192,128679,1,0,0:0:0:0:
358,192,128766,1,0,0:0:0:0:
51,192,128852,1,0,0:0:0:0:
460,192,129026,128,0,129199:0:0:0:0:
153,192,129026,1,0,0:0:0:0:
256,192,129112,1,0,0:0:0:0:
51,192,129199,1,0,0:0:0:0:
358,192,129373,128,0,129546:0:0:0:0:
256,192,129373,1,0,0:0:0:0:
153,192,129546,128,0,129719:0:0:0:0:
51,192,129546,1,0,0:0:0:0:
256,192,129719,128,0,129893:0:0:0:0:
358,192,129719,1,0,0:0:0:0:
51,192,129893,128,0,130066:0:0:0:0:
153,192,129893,1,0,0:0:0:0:
153,192,130066,128,0,130240:0:0:0:0:
460,192,130066,1,0,0:0:0:0:
256,192,130240,1,0,0:0:0:0:
460,192,130413,128,0,132494:0:0:0:0:
358,192,130413,128,0,130586:0:0:0:0:
256,192,130586,1,0,0:0:0:0:
51,192,130760,128,0,130933:0:0:0:0:
153,192,130760,1,0,0:0:0:0:
256,192,130847,1,0,0:0:0:0:
358,192,130933,1,0,0:0:0:0:
358,192,131107,128,0,131280:0:0:0:0:
256,192,131107,1,0,0:0:0:0:
153,192,131193,1,0,0:0:0:0:
51,192,131280,1,0,0:0:0:0:
51,192,131454,128,0,131627:0:0:0:0:
153,192,131454,1,0,0:0:0:0:
256,192,131540,1,0,0:0:0:0:
358,192,131627,1,0,0:0:0:0:
358,192,131800,128,0,131974:0:0:0:0:
153,192,131800,1,0,0:0:0:0:
256,192,131974,128,0,132147:0:0:0:0:
51,192,131974,1,0,0:0:0:0:
153,192,132147,128,0,132321:0:0:0:0:
358,192,132147,1,0,0:0:0:0:
51,192,132321,128,0,132494:0:0:0:0:
256,192,132321,1,0,0:0:0:0:
358,192,132494,1,0,0:0:0:0:
153,192,132494,1,0,0:0:0:0:
460,192,132841,1,0,0:0:0:0:
358,192,133188,1,0,0:0:0:0:
358,192,133361,1,0,0:0:0:0:
256,192,133534,128,0,133880:0:0:0:0:
51,192,133707,128,0,134228:0:0:0:0:
358,192,134228,128,0,134575:0:0:0:0:
153,192,134228,128,0,134575:0:0:0:0:
256,192,134575,1,0,0:0:0:0:
51,192,134575,1,0,0:0:0:0:
460,192,134575,1,0,0:0:0:0:
256,192,134748,1,0,0:0:0:0:
153,192,134921,1,0,0:0:0:0:
256,192,135095,1,0,0:0:0:0:
358,192,135268,1,0,0:0:0:0:
51,192,135615,1,0,0:0:0:0:
256,192,135615,1,0,0:0:0:0:
153,192,135788,1,0,0:0:0:0:
358,192,135962,1,0,0:0:0:0:
256,192,136135,1,0,0:0:0:0:
153,192,136309,1,0,0:0:0:0:
51,192,136655,1,0,0:0:0:0:
460,192,136655,1,0,0:0:0:0:
51,192,136829,1,0,0:0:0:0:
460,192,137002,1,0,0:0:0:0:
358,192,137176,1,0,0:0:0:0:
256,192,137349,1,0,0:0:0:0:
51,192,137696,1,0,0:0:0:0:
460,192,137696,1,0,0:0:0:0:
460,192,137869,1,0,0:0:0:0:
51,192,138043,1,0,0:0:0:0:
153,192,138216,1,0,0:0:0:0:
256,192,138390,1,0,0:0:0:0:
51,192,138736,128,0,139081:0:0:0:0:
460,192,138736,128,0,139081:0:0:0:0:
153,192,139081,1,0,0:0:0:0:
358,192,139081,1,0,0:0:0:0:
256,192,139081,1,0,0:0:0:0:
256,192,139254,1,0,0:0:0:0:
153,192,139427,1,0,0:0:0:0:
358,192,139601,1,0,0:0:0:0:
460,192,139774,1,0,0:0:0:0:
153,192,140121,1,0,0:0:0:0:
358,192,140121,1,0,0:0:0:0:
460,192,140294,1,0,0:0:0:0:
256,192,140468,1,0,0:0:0:0:
153,192,140641,1,0,0:0:0:0:
51,192,140815,1,0,0:0:0:0:
153,192,141161,1,0,0:0:0:0:
358,192,141161,1,0,0:0:0:0:
358,192,141335,1,0,0:0:0:0:
51,192,141508,1,0,0:0:0:0:
153,192,141682,1,0,0:0:0:0:
256,192,141855,1,0,0:0:0:0:
153,192,142202,1,0,0:0:0:0:
358,192,142202,1,0,0:0:0:0:
153,192,142375,1,0,0:0:0:0:
460,192,142549,1,0,0:0:0:0:
358,192,142722,1,0,0:0:0:0:
256,192,142896,1,0,0:0:0:0:
460,192,143242,128,0,143589:0:0:0:0:
51,192,143242,128,0,143589:0:0:0:0:
153,192,143589,1,0,0:0:0:0:
256,192,143589,1,0,0:0:0:0:
358,192,143589,1,0,0:0:0:0:
256,192,143762,1,0,0:0:0:0:
358,192,143935,1,0,0:0:0:0:
153,192,144109,1,0,0:0:0:0:
460,192,144282,1,0,0:0:0:0:
153,192,144629,1,0,0:0:0:0:
358,192,144629,1,0,0:0:0:0:
460,192,144802,1,0,0:0:0:0:
153,192,144976,1,0,0:0:0:0:
358,192,145149,1,0,0:0:0:0:
51,192,145323,1,0,0:0:0:0:
256,192,145669,1,0,0:0:0:0:
51,192,145669,1,0,0:0:0:0:
256,192,145843,1,0,0:0:0:0:
358,192,146016,1,0,0:0:0:0:
460,192,146190,1,0,0:0:0:0:
51,192,146363,1,0,0:0:0:0:
460,192,146710,1,0,0:0:0:0:
256,192,146710,1,0,0:0:0:0:
256,192,146883,1,0,0:0:0:0:
153,192,147057,1,0,0:0:0:0:
51,192,147230,1,0,0:0:0:0:
460,192,147404,1,0,0:0:0:0:
153,192,147750,128,0,148096:0:0:0:0:
358,192,147750,128,0,148096:0:0:0:0:
256,192,148096,1,0,0:0:0:0:
51,192,148096,1,0,0:0:0:0:
460,192,148096,1,0,0:0:0:0:
256,192,148269,1,0,0:0:0:0:
358,192,148442,1,0,0:0:0:0:
51,192,148616,1,0,0:0:0:0:
460,192,148789,1,0,0:0:0:0:
51,192,149136,1,0,0:0:0:0:
460,192,149136,1,0,0:0:0:0:
358,192,149309,1,0,0:0:0:0:
153,192,149483,1,0,0:0:0:0:
460,192,149656,1,0,0:0:0:0:
51,192,149830,1,0,0:0:0:0:
153,192,150176,1,0,0:0:0:0:
358,192,150176,1,0,0:0:0:0:
358,192,150350,1,0,0:0:0:0:
153,192,150350,1,0,0:0:0:0:
256,192,150523,1,0,0:0:0:0:
358,192,150697,1,0,0:0:0:0:
153,192,150870,1,0,0:0:0:0:
460,192,150870,1,0,0:0:0:0:
51,192,151217,1,0,0:0:0:0:
358,192,151217,1,0,0:0:0:0:
51,192,151390,1,0,0:0:0:0:
358,192,151390,1,0,0:0:0:0:
153,192,151564,1,0,0:0:0:0:
256,192,151564,1,0,0:0:0:0:
358,192,151911,1,0,0:0:0:0:
460,192,151911,1,0,0:0:0:0:
51,192,151911,1,0,0:0:0:0:
460,192,152257,128,0,152599:0:0:0:0:
51,192,152257,128,0,152604:0:0:0:0:
256,192,152604,1,0,0:0:0:0:
153,192,152604,1,0,0:0:0:0:
358,192,152604,1,0,0:0:0:0:
256,192,153297,1,0,0:0:0:0:
256,192,153644,1,0,0:0:0:0:
256,192,154338,1,0,0:0:0:0:
256,192,154684,1,0,0:0:0:0:
256,192,155378,1,0,0:0:0:0:
256,192,155725,1,0,0:0:0:0:
256,192,156245,1,0,0:0:0:0:
256,192,156765,1,0,0:0:0:0:
256,192,157459,1,0,0:0:0:0:
256,192,157806,1,0,0:0:0:0:
256,192,158499,1,0,0:0:0:0:
256,192,158846,1,0,0:0:0:0:
256,192,159540,1,0,0:0:0:0:
256,192,159887,1,0,0:0:0:0:
256,192,160407,1,0,0:0:0:0:
256,192,160927,1,0,0:0:0:0:
