osu file format v14

[General]
AudioFilename: audio.mp3
AudioLeadIn: 0
PreviewTime: 78391
Countdown: 0
SampleSet: Soft
StackLeniency: 0.7
Mode: 3
LetterboxInBreaks: 0
SpecialStyle: 0
WidescreenStoryboard: 0

[Editor]
DistanceSpacing: 0.9
BeatDivisor: 4
GridSize: 4
TimelineZoom: 2.399999

[Metadata]
Title:AngelFalse
TitleUnicode:AngelFalse
Artist:Sakuzyo
ArtistUnicode:Sakuzyo
Creator:Linyx-sama
Version:Nixeria's Afterlife (NSV)
Source:Deemo
Tags:Ari_Knight Syadow- Another_Lie lombit dionzz99 Unknown_Player MEGAtive Nixeria-sama chouyaa Ridho_2307
BeatmapID:1305993
BeatmapSetID:619596

[Difficulty]
HPDrainRate:9
CircleSize:7
OverallDifficulty:8
ApproachRate:5
SliderMultiplier:1.4
SliderTickRate:1

[Events]
//Background and Video events
0,0,"nixeria.jpg",0,0
//Break Periods
//Storyboard Layer 0 (Background)
//Storyboard Layer 1 (Fail)
//Storyboard Layer 2 (Pass)
//Storyboard Layer 3 (Foreground)
//Storyboard Sound Samples

[TimingPoints]
2100,346.820809248555,3,2,0,30,1,0
44065,346.820809248555,3,2,0,30,1,0
48572,346.820809248555,3,2,0,30,1,0
53427,346.820809248555,3,2,0,30,1,0
61403,346.820809248555,3,2,0,30,1,0
65911,346.820809248555,3,2,0,30,1,0
70417,346.820809248555,3,2,0,30,1,0
74230,346.820809248555,3,2,0,30,1,0
78391,346.820809248555,3,2,0,30,1,1
98853,-100,4,2,0,30,0,0
101281,346.820809248555,3,2,0,30,1,1
117581,-100,4,2,0,30,0,0
117928,346.820809248555,3,2,0,30,1,1
133534,-100,4,2,0,30,0,0
134575,346.820809248555,3,2,0,30,1,0
139081,346.820809248555,3,2,0,30,1,0
143589,346.820809248555,3,2,0,30,1,0
148096,346.820809248555,3,2,0,30,1,0
152604,346.820809248555,3,2,0,30,1,0

[HitObjects]
475,192,192,128,0,2100:0:0:0:0:
402,192,1059,1,0,0:0:0:0:
329,192,1146,1,0,0:0:0:0:
36,192,1232,1,0,0:0:0:0:
109,192,1319,1,0,0:0:0:0:
182,192,1406,128,0,2100:0:0:0:0:
36,192,1579,1,0,0:0:0:0:
329,192,1666,128,0,2100:0:0:0:0:
402,192,1753,128,0,2100:0:0:0:0:
36,192,2100,5,0,0:0:0:0:
109,192,2100,1,0,0:0:0:0:
256,192,2100,1,0,0:0:0:0:
36,192,2446,1,0,0:0:0:0:
109,192,2620,1,0,0:0:0:0:
402,192,2793,128,0,3140:0:0:0:0:
475,192,2793,128,0,3140:0:0:0:0:
182,192,2967,1,0,0:0:0:0:
256,192,3140,128,0,3487:0:0:0:0:
329,192,3140,128,0,3487:0:0:0:0:
36,192,3487,1,0,0:0:0:0:
109,192,3660,1,0,0:0:0:0:
475,192,3834,128,0,4180:0:0:0:0:
402,192,3834,128,0,4180:0:0:0:0:
182,192,4007,1,0,0:0:0:0:
329,192,4180,128,0,4527:0:0:0:0:
256,192,4180,128,0,4527:0:0:0:0:
182,192,4527,1,0,0:0:0:0:
36,192,4701,1,0,0:0:0:0:
475,192,4874,128,0,5221:0:0:0:0:
182,192,4874,128,0,5221:0:0:0:0:
402,192,4874,128,0,5221:0:0:0:0:
329,192,5047,1,0,0:0:0:0:
256,192,5221,128,0,5568:0:0:0:0:
109,192,5221,128,0,5568:0:0:0:0:
36,192,5568,128,0,6088:0:0:0:0:
402,192,5741,128,0,6088:0:0:0:0:
475,192,5915,128,0,6088:0:0:0:0:
182,192,6088,128,0,6608:0:0:0:0:
329,192,6261,128,0,6608:0:0:0:0:
475,192,6955,128,0,7649:0:0:0:0:
36,192,7302,128,0,7649:0:0:0:0:
402,192,7995,128,0,8689:0:0:0:0:
109,192,8342,128,0,8689:0:0:0:0:
256,192,8342,1,0,0:0:0:0:
329,192,9036,128,0,9556:0:0:0:0:
182,192,9383,128,0,9556:0:0:0:0:
36,192,9556,128,0,9730:0:0:0:0:
475,192,9730,128,0,10423:0:0:0:0:
182,192,9903,128,0,10423:0:0:0:0:
329,192,10076,128,0,10423:0:0:0:0:
109,192,10250,128,0,10423:0:0:0:0:
402,192,10423,1,0,0:0:0:0:
256,192,10597,1,0,0:0:0:0:
182,192,10654,1,0,0:0:0:0:
109,192,10712,1,0,0:0:0:0:
475,192,10770,1,0,0:0:0:0:
36,192,10770,1,0,0:0:0:0:
402,192,10828,1,0,0:0:0:0:
329,192,10886,1,0,0:0:0:0:
475,192,10943,1,0,0:0:0:0:
256,192,10943,1,0,0:0:0:0:
182,192,11001,1,0,0:0:0:0:
109,192,11059,1,0,0:0:0:0:
475,192,11117,1,0,0:0:0:0:
36,192,11117,1,0,0:0:0:0:
329,192,11117,1,0,0:0:0:0:
256,192,11290,1,0,0:0:0:0:
109,192,11464,1,0,0:0:0:0:
182,192,11464,1,0,0:0:0:0:
329,192,11464,1,0,0:0:0:0:
402,192,11464,1,0,0:0:0:0:
329,192,11810,1,0,0:0:0:0:
402,192,11984,1,0,0:0:0:0:
475,192,11984,1,0,0:0:0:0:
36,192,12071,1,0,0:0:0:0:
109,192,12071,1,0,0:0:0:0:
475,192,12157,1,0,0:0:0:0:
402,192,12157,1,0,0:0:0:0:
329,192,12157,1,0,0:0:0:0:
182,192,12244,1,0,0:0:0:0:
256,192,12244,1,0,0:0:0:0:
402,192,12331,1,0,0:0:0:0:
109,192,12331,1,0,0:0:0:0:
36,192,12331,1,0,0:0:0:0:
475,192,12331,1,0,0:0:0:0:
256,192,12504,1,0,0:0:0:0:
36,192,12504,1,0,0:0:0:0:
109,192,12504,1,0,0:0:0:0:
402,192,12504,1,0,0:0:0:0:
475,192,12504,1,0,0:0:0:0:
109,192,12678,1,0,0:0:0:0:
182,192,12721,1,0,0:0:0:0:
402,192,12764,1,0,0:0:0:0:
329,192,12808,1,0,0:0:0:0:
256,192,12851,1,0,0:0:0:0:
475,192,13024,128,0,13198:0:0:0:0:
256,192,13024,128,0,13198:0:0:0:0:
36,192,13024,128,0,13198:0:0:0:0:
109,192,13024,1,0,0:0:0:0:
402,192,13198,1,0,0:0:0:0:
36,192,13371,128,0,13545:0:0:0:0:
256,192,13371,128,0,13545:0:0:0:0:
475,192,13371,128,0,13545:0:0:0:0:
182,192,13545,1,0,0:0:0:0:
329,192,13545,1,0,0:0:0:0:
402,192,13545,128,0,14585:0:0:0:0:
109,192,13545,128,0,14585:0:0:0:0:
475,192,13891,1,0,0:0:0:0:
36,192,14065,1,0,0:0:0:0:
329,192,14238,1,0,0:0:0:0:
182,192,14412,128,0,14585:0:0:0:0:
475,192,14412,1,0,0:0:0:0:
256,192,14585,128,0,15626:0:0:0:0:
475,192,14585,128,0,15626:0:0:0:0:
329,192,14585,1,0,0:0:0:0:
36,192,14585,1,0,0:0:0:0:
36,192,14874,1,0,0:0:0:0:
109,192,14932,1,0,0:0:0:0:
182,192,14990,1,0,0:0:0:0:
402,192,15047,1,0,0:0:0:0:
329,192,15105,1,0,0:0:0:0:
182,192,15163,1,0,0:0:0:0:
109,192,15221,1,0,0:0:0:0:
36,192,15279,1,0,0:0:0:0:
402,192,15279,1,0,0:0:0:0:
329,192,15279,128,0,15626:0:0:0:0:
402,192,15626,128,0,16666:0:0:0:0:
36,192,15626,128,0,16666:0:0:0:0:
109,192,15626,1,0,0:0:0:0:
182,192,15626,1,0,0:0:0:0:
475,192,15972,1,0,0:0:0:0:
109,192,16146,1,0,0:0:0:0:
256,192,16146,128,0,16319:0:0:0:0:
329,192,16319,1,0,0:0:0:0:
182,192,16493,1,0,0:0:0:0:
475,192,16493,128,0,16666:0:0:0:0:
182,192,16666,128,0,17706:0:0:0:0:
329,192,16666,128,0,17706:0:0:0:0:
256,192,16666,1,0,0:0:0:0:
109,192,16666,1,0,0:0:0:0:
475,192,16839,1,0,0:0:0:0:
402,192,16883,1,0,0:0:0:0:
109,192,16926,1,0,0:0:0:0:
36,192,16969,1,0,0:0:0:0:
475,192,17013,1,0,0:0:0:0:
256,192,17186,128,0,17360:0:0:0:0:
109,192,17186,1,0,0:0:0:0:
402,192,17360,1,0,0:0:0:0:
256,192,17533,128,0,17706:0:0:0:0:
36,192,17533,1,0,0:0:0:0:
475,192,17706,128,0,18747:0:0:0:0:
109,192,17706,1,0,0:0:0:0:
402,192,17706,1,0,0:0:0:0:
402,192,18053,1,0,0:0:0:0:
329,192,18227,128,0,18747:0:0:0:0:
36,192,18227,1,0,0:0:0:0:
256,192,18400,128,0,18747:0:0:0:0:
109,192,18573,128,0,18747:0:0:0:0:
182,192,18747,128,0,19787:0:0:0:0:
36,192,18747,1,0,0:0:0:0:
402,192,18747,1,0,0:0:0:0:
475,192,19094,1,0,0:0:0:0:
402,192,19094,1,0,0:0:0:0:
36,192,19267,1,0,0:0:0:0:
329,192,19441,1,0,0:0:0:0:
402,192,19614,1,0,0:0:0:0:
256,192,19614,1,0,0:0:0:0:
109,192,19787,1,0,0:0:0:0:
329,192,19787,128,0,20828:0:0:0:0:
475,192,19787,1,0,0:0:0:0:
36,192,19961,1,0,0:0:0:0:
475,192,20134,1,0,0:0:0:0:
256,192,20134,1,0,0:0:0:0:
36,192,20308,1,0,0:0:0:0:
182,192,20481,1,0,0:0:0:0:
402,192,20654,1,0,0:0:0:0:
256,192,20828,1,0,0:0:0:0:
109,192,20828,128,0,21868:0:0:0:0:
36,192,20828,1,0,0:0:0:0:
475,192,21175,1,0,0:0:0:0:
256,192,21175,1,0,0:0:0:0:
36,192,21348,1,0,0:0:0:0:
402,192,21521,1,0,0:0:0:0:
329,192,21695,1,0,0:0:0:0:
182,192,21695,1,0,0:0:0:0:
402,192,21868,128,0,22909:0:0:0:0:
475,192,21868,1,0,0:0:0:0:
256,192,21868,1,0,0:0:0:0:
36,192,22042,1,0,0:0:0:0:
329,192,22215,1,0,0:0:0:0:
182,192,22215,1,0,0:0:0:0:
36,192,22389,1,0,0:0:0:0:
109,192,22562,1,0,0:0:0:0:
256,192,22562,1,0,0:0:0:0:
329,192,22735,1,0,0:0:0:0:
182,192,22735,1,0,0:0:0:0:
109,192,22909,1,0,0:0:0:0:
256,192,22909,128,0,23949:0:0:0:0:
475,192,23256,1,0,0:0:0:0:
329,192,23256,1,0,0:0:0:0:
36,192,23429,1,0,0:0:0:0:
182,192,23602,1,0,0:0:0:0:
402,192,23776,1,0,0:0:0:0:
329,192,23776,1,0,0:0:0:0:
475,192,23949,1,0,0:0:0:0:
36,192,23949,1,0,0:0:0:0:
329,192,24296,1,0,0:0:0:0:
475,192,24296,1,0,0:0:0:0:
402,192,24469,128,0,24643:0:0:0:0:
109,192,24469,1,0,0:0:0:0:
256,192,24643,1,0,0:0:0:0:
329,192,24643,1,0,0:0:0:0:
36,192,24816,128,0,25683:0:0:0:0:
475,192,24816,1,0,0:0:0:0:
109,192,24990,1,0,0:0:0:0:
182,192,24990,1,0,0:0:0:0:
329,192,25336,1,0,0:0:0:0:
475,192,25336,1,0,0:0:0:0:
256,192,25510,1,0,0:0:0:0:
182,192,25683,1,0,0:0:0:0:
109,192,25857,1,0,0:0:0:0:
402,192,25857,1,0,0:0:0:0:
182,192,26030,1,0,0:0:0:0:
329,192,26030,1,0,0:0:0:0:
256,192,26204,1,0,0:0:0:0:
36,192,26377,128,0,27071:0:0:0:0:
109,192,26377,1,0,0:0:0:0:
256,192,26464,128,0,27071:0:0:0:0:
475,192,26550,128,0,27071:0:0:0:0:
329,192,26724,1,0,0:0:0:0:
109,192,27071,1,0,0:0:0:0:
182,192,27071,1,0,0:0:0:0:
329,192,27071,1,0,0:0:0:0:
402,192,27071,1,0,0:0:0:0:
475,192,27244,1,0,0:0:0:0:
36,192,27331,1,0,0:0:0:0:
402,192,27417,1,0,0:0:0:0:
182,192,27591,1,0,0:0:0:0:
329,192,27591,1,0,0:0:0:0:
256,192,27678,1,0,0:0:0:0:
109,192,27764,1,0,0:0:0:0:
36,192,27764,1,0,0:0:0:0:
475,192,27764,1,0,0:0:0:0:
329,192,27938,1,0,0:0:0:0:
182,192,27938,1,0,0:0:0:0:
256,192,27938,1,0,0:0:0:0:
109,192,28111,1,0,0:0:0:0:
256,192,28111,1,0,0:0:0:0:
402,192,28111,1,0,0:0:0:0:
475,192,28284,1,0,0:0:0:0:
402,192,28342,1,0,0:0:0:0:
329,192,28400,1,0,0:0:0:0:
256,192,28458,1,0,0:0:0:0:
36,192,28631,128,0,28805:0:0:0:0:
256,192,28631,128,0,28805:0:0:0:0:
475,192,28631,128,0,28805:0:0:0:0:
109,192,28631,1,0,0:0:0:0:
402,192,28805,1,0,0:0:0:0:
36,192,28978,128,0,29152:0:0:0:0:
256,192,28978,128,0,29152:0:0:0:0:
475,192,28978,128,0,29152:0:0:0:0:
109,192,29152,1,0,0:0:0:0:
402,192,29152,1,0,0:0:0:0:
329,192,29152,1,0,0:0:0:0:
475,192,29325,1,0,0:0:0:0:
36,192,29412,1,0,0:0:0:0:
109,192,29672,1,0,0:0:0:0:
256,192,29672,1,0,0:0:0:0:
182,192,29758,1,0,0:0:0:0:
329,192,29845,1,0,0:0:0:0:
475,192,29845,1,0,0:0:0:0:
402,192,29845,1,0,0:0:0:0:
36,192,30019,1,0,0:0:0:0:
109,192,30019,1,0,0:0:0:0:
256,192,30019,1,0,0:0:0:0:
182,192,30192,1,0,0:0:0:0:
329,192,30192,1,0,0:0:0:0:
402,192,30192,1,0,0:0:0:0:
475,192,30192,1,0,0:0:0:0:
36,192,30365,1,0,0:0:0:0:
109,192,30423,1,0,0:0:0:0:
182,192,30481,1,0,0:0:0:0:
256,192,30539,1,0,0:0:0:0:
475,192,30712,1,0,0:0:0:0:
402,192,30712,1,0,0:0:0:0:
329,192,30712,1,0,0:0:0:0:
109,192,30886,1,0,0:0:0:0:
402,192,31059,128,0,31232:0:0:0:0:
329,192,31059,128,0,31232:0:0:0:0:
182,192,31232,1,0,0:0:0:0:
109,192,31232,1,0,0:0:0:0:
36,192,31232,1,0,0:0:0:0:
475,192,31406,1,0,0:0:0:0:
36,192,31493,1,0,0:0:0:0:
329,192,31753,1,0,0:0:0:0:
36,192,31839,1,0,0:0:0:0:
109,192,31839,1,0,0:0:0:0:
402,192,31926,1,0,0:0:0:0:
475,192,31926,1,0,0:0:0:0:
182,192,32100,1,0,0:0:0:0:
109,192,32100,1,0,0:0:0:0:
36,192,32100,1,0,0:0:0:0:
256,192,32186,1,0,0:0:0:0:
182,192,32273,1,0,0:0:0:0:
402,192,32273,1,0,0:0:0:0:
109,192,32273,1,0,0:0:0:0:
329,192,32273,1,0,0:0:0:0:
256,192,32360,1,0,0:0:0:0:
475,192,32446,1,0,0:0:0:0:
402,192,32504,1,0,0:0:0:0:
329,192,32562,1,0,0:0:0:0:
36,192,32793,128,0,32967:0:0:0:0:
475,192,32793,128,0,32967:0:0:0:0:
182,192,32967,128,0,33313:0:0:0:0:
329,192,32967,128,0,33313:0:0:0:0:
109,192,33140,128,0,33313:0:0:0:0:
402,192,33140,128,0,33313:0:0:0:0:
36,192,33313,1,0,0:0:0:0:
256,192,33313,1,0,0:0:0:0:
475,192,33313,1,0,0:0:0:0:
402,192,33487,1,0,0:0:0:0:
109,192,33573,1,0,0:0:0:0:
182,192,33920,1,0,0:0:0:0:
329,192,34007,1,0,0:0:0:0:
402,192,34180,1,0,0:0:0:0:
475,192,34180,1,0,0:0:0:0:
256,192,34267,1,0,0:0:0:0:
182,192,34354,1,0,0:0:0:0:
329,192,34354,1,0,0:0:0:0:
109,192,34354,1,0,0:0:0:0:
402,192,34354,1,0,0:0:0:0:
36,192,34527,1,0,0:0:0:0:
109,192,34585,1,0,0:0:0:0:
182,192,34643,1,0,0:0:0:0:
109,192,34874,1,0,0:0:0:0:
402,192,34874,1,0,0:0:0:0:
36,192,35221,1,0,0:0:0:0:
256,192,35221,1,0,0:0:0:0:
475,192,35221,1,0,0:0:0:0:
109,192,35394,1,0,0:0:0:0:
182,192,35394,1,0,0:0:0:0:
329,192,35394,1,0,0:0:0:0:
402,192,35394,1,0,0:0:0:0:
402,192,36088,1,0,0:0:0:0:
402,192,36782,1,0,0:0:0:0:
109,192,37302,1,0,0:0:0:0:
182,192,37302,1,0,0:0:0:0:
329,192,37302,1,0,0:0:0:0:
109,192,37475,1,0,0:0:0:0:
182,192,37475,1,0,0:0:0:0:
329,192,37475,1,0,0:0:0:0:
402,192,37475,1,0,0:0:0:0:
402,192,38169,1,0,0:0:0:0:
402,192,38863,1,0,0:0:0:0:
109,192,39556,1,0,0:0:0:0:
182,192,39556,1,0,0:0:0:0:
329,192,39556,1,0,0:0:0:0:
402,192,39556,1,0,0:0:0:0:
402,192,40250,1,0,0:0:0:0:
402,192,40943,1,0,0:0:0:0:
109,192,41464,1,0,0:0:0:0:
182,192,41464,1,0,0:0:0:0:
329,192,41464,1,0,0:0:0:0:
109,192,41637,1,0,0:0:0:0:
182,192,41637,1,0,0:0:0:0:
329,192,41637,1,0,0:0:0:0:
402,192,41637,1,0,0:0:0:0:
182,192,42331,128,0,42981:0:0:0:0:
402,192,42331,1,0,0:0:0:0:
475,192,43371,128,0,43891:0:0:0:0:
329,192,43545,128,0,43891:0:0:0:0:
402,192,43718,128,0,43891:0:0:0:0:
256,192,43891,128,0,44065:0:0:0:0:
109,192,44065,1,0,0:0:0:0:
36,192,44065,1,0,0:0:0:0:
402,192,44065,1,0,0:0:0:0:
475,192,44065,1,0,0:0:0:0:
36,192,44238,1,0,0:0:0:0:
256,192,44238,1,0,0:0:0:0:
329,192,44325,1,0,0:0:0:0:
109,192,44325,1,0,0:0:0:0:
36,192,44411,1,0,0:0:0:0:
402,192,44411,1,0,0:0:0:0:
475,192,44411,1,0,0:0:0:0:
109,192,44498,1,0,0:0:0:0:
256,192,44498,1,0,0:0:0:0:
182,192,44498,1,0,0:0:0:0:
475,192,44585,1,0,0:0:0:0:
402,192,44585,1,0,0:0:0:0:
182,192,44671,1,0,0:0:0:0:
36,192,44758,1,0,0:0:0:0:
256,192,44758,1,0,0:0:0:0:
109,192,44845,1,0,0:0:0:0:
329,192,44845,1,0,0:0:0:0:
182,192,44932,1,0,0:0:0:0:
36,192,44932,1,0,0:0:0:0:
402,192,44932,1,0,0:0:0:0:
475,192,45018,1,0,0:0:0:0:
329,192,45105,1,0,0:0:0:0:
256,192,45105,1,0,0:0:0:0:
182,192,45105,1,0,0:0:0:0:
402,192,45278,1,0,0:0:0:0:
475,192,45278,1,0,0:0:0:0:
256,192,45365,1,0,0:0:0:0:
36,192,45452,1,0,0:0:0:0:
109,192,45452,1,0,0:0:0:0:
182,192,45452,1,0,0:0:0:0:
36,192,45625,1,0,0:0:0:0:
109,192,45712,1,0,0:0:0:0:
329,192,45712,1,0,0:0:0:0:
182,192,45799,1,0,0:0:0:0:
475,192,45799,1,0,0:0:0:0:
256,192,45799,1,0,0:0:0:0:
329,192,45972,1,0,0:0:0:0:
475,192,45972,1,0,0:0:0:0:
256,192,46059,1,0,0:0:0:0:
182,192,46145,1,0,0:0:0:0:
36,192,46145,1,0,0:0:0:0:
109,192,46319,1,0,0:0:0:0:
402,192,46319,1,0,0:0:0:0:
182,192,46406,1,0,0:0:0:0:
329,192,46406,1,0,0:0:0:0:
256,192,46492,1,0,0:0:0:0:
36,192,46492,1,0,0:0:0:0:
475,192,46492,1,0,0:0:0:0:
109,192,46579,1,0,0:0:0:0:
402,192,46579,1,0,0:0:0:0:
182,192,46666,1,0,0:0:0:0:
329,192,46666,1,0,0:0:0:0:
256,192,46752,1,0,0:0:0:0:
402,192,46839,1,0,0:0:0:0:
475,192,46839,1,0,0:0:0:0:
109,192,46926,1,0,0:0:0:0:
36,192,46926,1,0,0:0:0:0:
475,192,47012,1,0,0:0:0:0:
329,192,47012,1,0,0:0:0:0:
402,192,47012,1,0,0:0:0:0:
256,192,47099,1,0,0:0:0:0:
36,192,47186,1,0,0:0:0:0:
109,192,47186,1,0,0:0:0:0:
182,192,47359,1,0,0:0:0:0:
329,192,47359,1,0,0:0:0:0:
256,192,47446,1,0,0:0:0:0:
402,192,47446,1,0,0:0:0:0:
329,192,47533,1,0,0:0:0:0:
182,192,47533,1,0,0:0:0:0:
475,192,47533,1,0,0:0:0:0:
36,192,47533,1,0,0:0:0:0:
256,192,47706,1,0,0:0:0:0:
402,192,47706,1,0,0:0:0:0:
182,192,47793,1,0,0:0:0:0:
329,192,47793,1,0,0:0:0:0:
109,192,47880,1,0,0:0:0:0:
36,192,47880,1,0,0:0:0:0:
256,192,47880,1,0,0:0:0:0:
475,192,47880,1,0,0:0:0:0:
182,192,48053,1,0,0:0:0:0:
402,192,48053,1,0,0:0:0:0:
256,192,48140,1,0,0:0:0:0:
475,192,48140,1,0,0:0:0:0:
36,192,48226,1,0,0:0:0:0:
109,192,48226,1,0,0:0:0:0:
182,192,48226,1,0,0:0:0:0:
329,192,48226,1,0,0:0:0:0:
256,192,48400,1,0,0:0:0:0:
475,192,48400,1,0,0:0:0:0:
182,192,48486,1,0,0:0:0:0:
402,192,48486,1,0,0:0:0:0:
109,192,48572,1,0,0:0:0:0:
36,192,48572,1,0,0:0:0:0:
329,192,48572,1,0,0:0:0:0:
256,192,48572,1,0,0:0:0:0:
182,192,48745,1,0,0:0:0:0:
475,192,48745,1,0,0:0:0:0:
109,192,48832,1,0,0:0:0:0:
402,192,48832,1,0,0:0:0:0:
182,192,48918,1,0,0:0:0:0:
256,192,48918,1,0,0:0:0:0:
329,192,48918,1,0,0:0:0:0:
109,192,49005,1,0,0:0:0:0:
402,192,49005,1,0,0:0:0:0:
36,192,49092,1,0,0:0:0:0:
329,192,49092,1,0,0:0:0:0:
256,192,49178,1,0,0:0:0:0:
182,192,49265,1,0,0:0:0:0:
109,192,49352,1,0,0:0:0:0:
256,192,49352,1,0,0:0:0:0:
329,192,49439,1,0,0:0:0:0:
36,192,49439,1,0,0:0:0:0:
402,192,49439,1,0,0:0:0:0:
182,192,49612,1,0,0:0:0:0:
109,192,49612,1,0,0:0:0:0:
182,192,49785,1,0,0:0:0:0:
329,192,49785,1,0,0:0:0:0:
109,192,49872,1,0,0:0:0:0:
402,192,49872,1,0,0:0:0:0:
36,192,49959,1,0,0:0:0:0:
256,192,49959,1,0,0:0:0:0:
475,192,49959,1,0,0:0:0:0:
109,192,50045,1,0,0:0:0:0:
402,192,50045,1,0,0:0:0:0:
329,192,50132,1,0,0:0:0:0:
182,192,50219,1,0,0:0:0:0:
256,192,50219,1,0,0:0:0:0:
36,192,50306,1,0,0:0:0:0:
109,192,50306,1,0,0:0:0:0:
475,192,50306,1,0,0:0:0:0:
329,192,50479,1,0,0:0:0:0:
402,192,50479,1,0,0:0:0:0:
256,192,50566,1,0,0:0:0:0:
109,192,50652,1,0,0:0:0:0:
182,192,50652,1,0,0:0:0:0:
36,192,50652,1,0,0:0:0:0:
256,192,50826,1,0,0:0:0:0:
475,192,50826,1,0,0:0:0:0:
329,192,50913,1,0,0:0:0:0:
109,192,50999,1,0,0:0:0:0:
36,192,50999,1,0,0:0:0:0:
182,192,50999,1,0,0:0:0:0:
402,192,51086,1,0,0:0:0:0:
475,192,51086,1,0,0:0:0:0:
256,192,51173,1,0,0:0:0:0:
182,192,51173,1,0,0:0:0:0:
329,192,51259,1,0,0:0:0:0:
109,192,51346,1,0,0:0:0:0:
182,192,51433,1,0,0:0:0:0:
36,192,51433,1,0,0:0:0:0:
329,192,51519,1,0,0:0:0:0:
402,192,51519,1,0,0:0:0:0:
475,192,51519,1,0,0:0:0:0:
182,192,51693,1,0,0:0:0:0:
256,192,51693,1,0,0:0:0:0:
329,192,51866,1,0,0:0:0:0:
475,192,51866,1,0,0:0:0:0:
402,192,51953,1,0,0:0:0:0:
256,192,52040,1,0,0:0:0:0:
36,192,52040,1,0,0:0:0:0:
109,192,52040,1,0,0:0:0:0:
182,192,52126,1,0,0:0:0:0:
329,192,52126,1,0,0:0:0:0:
402,192,52213,1,0,0:0:0:0:
256,192,52300,1,0,0:0:0:0:
475,192,52300,1,0,0:0:0:0:
36,192,52387,1,0,0:0:0:0:
109,192,52387,1,0,0:0:0:0:
182,192,52387,1,0,0:0:0:0:
256,192,52560,1,0,0:0:0:0:
475,192,52560,1,0,0:0:0:0:
402,192,52647,1,0,0:0:0:0:
182,192,52647,1,0,0:0:0:0:
109,192,52733,1,0,0:0:0:0:
36,192,52733,1,0,0:0:0:0:
329,192,52733,1,0,0:0:0:0:
109,192,52907,1,0,0:0:0:0:
402,192,52907,1,0,0:0:0:0:
182,192,52993,1,0,0:0:0:0:
329,192,52993,1,0,0:0:0:0:
36,192,53080,1,0,0:0:0:0:
475,192,53080,1,0,0:0:0:0:
256,192,53080,1,0,0:0:0:0:
109,192,53080,1,0,0:0:0:0:
402,192,53080,1,0,0:0:0:0:
109,192,53427,1,0,0:0:0:0:
182,192,53427,1,0,0:0:0:0:
329,192,53427,1,0,0:0:0:0:
402,192,53427,1,0,0:0:0:0:
36,192,53600,1,0,0:0:0:0:
256,192,53600,1,0,0:0:0:0:
109,192,53687,1,0,0:0:0:0:
329,192,53687,1,0,0:0:0:0:
182,192,53773,1,0,0:0:0:0:
402,192,53773,1,0,0:0:0:0:
475,192,53773,1,0,0:0:0:0:
256,192,53947,1,0,0:0:0:0:
329,192,53947,1,0,0:0:0:0:
36,192,53947,1,0,0:0:0:0:
109,192,54120,1,0,0:0:0:0:
329,192,54120,1,0,0:0:0:0:
182,192,54207,1,0,0:0:0:0:
475,192,54207,1,0,0:0:0:0:
402,192,54207,1,0,0:0:0:0:
36,192,54294,1,0,0:0:0:0:
256,192,54294,1,0,0:0:0:0:
329,192,54294,1,0,0:0:0:0:
109,192,54467,1,0,0:0:0:0:
182,192,54467,1,0,0:0:0:0:
402,192,54467,1,0,0:0:0:0:
256,192,54640,1,0,0:0:0:0:
329,192,54640,1,0,0:0:0:0:
109,192,54727,1,0,0:0:0:0:
182,192,54727,1,0,0:0:0:0:
36,192,54814,1,0,0:0:0:0:
402,192,54814,1,0,0:0:0:0:
475,192,54814,1,0,0:0:0:0:
256,192,54900,1,0,0:0:0:0:
109,192,54987,1,0,0:0:0:0:
182,192,54987,1,0,0:0:0:0:
329,192,55074,1,0,0:0:0:0:
402,192,55074,1,0,0:0:0:0:
256,192,55161,1,0,0:0:0:0:
182,192,55247,1,0,0:0:0:0:
109,192,55334,1,0,0:0:0:0:
36,192,55334,1,0,0:0:0:0:
475,192,55334,1,0,0:0:0:0:
329,192,55421,1,0,0:0:0:0:
182,192,55507,1,0,0:0:0:0:
256,192,55507,1,0,0:0:0:0:
402,192,55507,1,0,0:0:0:0:
36,192,55594,1,0,0:0:0:0:
109,192,55681,1,0,0:0:0:0:
329,192,55681,1,0,0:0:0:0:
182,192,55768,1,0,0:0:0:0:
402,192,55768,1,0,0:0:0:0:
256,192,55854,1,0,0:0:0:0:
475,192,55854,1,0,0:0:0:0:
36,192,55854,1,0,0:0:0:0:
109,192,55941,1,0,0:0:0:0:
182,192,55941,1,0,0:0:0:0:
329,192,55941,1,0,0:0:0:0:
256,192,56028,1,0,0:0:0:0:
475,192,56028,1,0,0:0:0:0:
36,192,56028,1,0,0:0:0:0:
182,192,56114,1,0,0:0:0:0:
109,192,56201,1,0,0:0:0:0:
329,192,56201,1,0,0:0:0:0:
36,192,56288,1,0,0:0:0:0:
182,192,56288,1,0,0:0:0:0:
402,192,56288,1,0,0:0:0:0:
256,192,56374,1,0,0:0:0:0:
329,192,56374,1,0,0:0:0:0:
475,192,56374,1,0,0:0:0:0:
36,192,56548,1,0,0:0:0:0:
109,192,56548,1,0,0:0:0:0:
182,192,56548,1,0,0:0:0:0:
402,192,56548,1,0,0:0:0:0:
329,192,56635,1,0,0:0:0:0:
256,192,56721,1,0,0:0:0:0:
182,192,56808,1,0,0:0:0:0:
402,192,56895,1,0,0:0:0:0:
475,192,56895,1,0,0:0:0:0:
329,192,56895,1,0,0:0:0:0:
109,192,56895,1,0,0:0:0:0:
109,192,57242,1,0,0:0:0:0:
182,192,57242,1,0,0:0:0:0:
36,192,57242,1,0,0:0:0:0:
329,192,57242,1,0,0:0:0:0:
256,192,57415,1,0,0:0:0:0:
475,192,57415,1,0,0:0:0:0:
182,192,57502,1,0,0:0:0:0:
402,192,57502,1,0,0:0:0:0:
109,192,57588,1,0,0:0:0:0:
329,192,57588,1,0,0:0:0:0:
36,192,57588,1,0,0:0:0:0:
182,192,57762,1,0,0:0:0:0:
256,192,57762,1,0,0:0:0:0:
475,192,57762,1,0,0:0:0:0:
402,192,57935,1,0,0:0:0:0:
109,192,57935,1,0,0:0:0:0:
329,192,57935,1,0,0:0:0:0:
182,192,58022,1,0,0:0:0:0:
475,192,58022,1,0,0:0:0:0:
256,192,58022,1,0,0:0:0:0:
402,192,58109,1,0,0:0:0:0:
329,192,58109,1,0,0:0:0:0:
109,192,58109,1,0,0:0:0:0:
36,192,58109,1,0,0:0:0:0:
182,192,58282,1,0,0:0:0:0:
256,192,58282,1,0,0:0:0:0:
36,192,58455,1,0,0:0:0:0:
109,192,58455,1,0,0:0:0:0:
402,192,58542,1,0,0:0:0:0:
475,192,58542,1,0,0:0:0:0:
182,192,58629,1,0,0:0:0:0:
256,192,58629,1,0,0:0:0:0:
329,192,58629,1,0,0:0:0:0:
402,192,58802,1,0,0:0:0:0:
475,192,58802,1,0,0:0:0:0:
36,192,58889,1,0,0:0:0:0:
109,192,58889,1,0,0:0:0:0:
256,192,58976,1,0,0:0:0:0:
182,192,59062,1,0,0:0:0:0:
329,192,59149,1,0,0:0:0:0:
402,192,59149,1,0,0:0:0:0:
475,192,59149,1,0,0:0:0:0:
36,192,59322,1,0,0:0:0:0:
109,192,59322,1,0,0:0:0:0:
182,192,59322,1,0,0:0:0:0:
256,192,59496,1,0,0:0:0:0:
329,192,59496,1,0,0:0:0:0:
36,192,59669,1,0,0:0:0:0:
109,192,59669,1,0,0:0:0:0:
182,192,59669,1,0,0:0:0:0:
109,192,59756,1,0,0:0:0:0:
182,192,59756,1,0,0:0:0:0:
36,192,59756,1,0,0:0:0:0:
402,192,59843,1,0,0:0:0:0:
475,192,59843,1,0,0:0:0:0:
329,192,59843,1,0,0:0:0:0:
256,192,60016,1,0,0:0:0:0:
109,192,60103,1,0,0:0:0:0:
36,192,60103,1,0,0:0:0:0:
329,192,60190,1,0,0:0:0:0:
402,192,60190,1,0,0:0:0:0:
475,192,60190,1,0,0:0:0:0:
182,192,60363,1,0,0:0:0:0:
109,192,60363,128,0,60710:0:0:0:0:
256,192,60363,128,0,60710:0:0:0:0:
182,192,60710,128,0,61057:0:0:0:0:
36,192,60710,128,0,61057:0:0:0:0:
329,192,60710,128,0,61057:0:0:0:0:
475,192,60710,128,0,61057:0:0:0:0:
256,192,61057,1,0,0:0:0:0:
109,192,61403,1,0,0:0:0:0:
182,192,61403,1,0,0:0:0:0:
329,192,61403,1,0,0:0:0:0:
402,192,61403,1,0,0:0:0:0:
256,192,61576,1,0,0:0:0:0:
475,192,61576,1,0,0:0:0:0:
182,192,61663,1,0,0:0:0:0:
402,192,61663,1,0,0:0:0:0:
109,192,61749,1,0,0:0:0:0:
36,192,61749,1,0,0:0:0:0:
329,192,61749,1,0,0:0:0:0:
475,192,61749,1,0,0:0:0:0:
182,192,61836,1,0,0:0:0:0:
256,192,61836,1,0,0:0:0:0:
402,192,61923,1,0,0:0:0:0:
36,192,62096,1,0,0:0:0:0:
109,192,62096,1,0,0:0:0:0:
256,192,62096,1,0,0:0:0:0:
182,192,62183,1,0,0:0:0:0:
329,192,62183,1,0,0:0:0:0:
475,192,62270,1,0,0:0:0:0:
402,192,62270,1,0,0:0:0:0:
109,192,62270,1,0,0:0:0:0:
36,192,62270,1,0,0:0:0:0:
182,192,62443,1,0,0:0:0:0:
256,192,62443,1,0,0:0:0:0:
329,192,62443,1,0,0:0:0:0:
402,192,62616,1,0,0:0:0:0:
475,192,62616,1,0,0:0:0:0:
109,192,62616,1,0,0:0:0:0:
182,192,62703,1,0,0:0:0:0:
256,192,62703,1,0,0:0:0:0:
329,192,62790,1,0,0:0:0:0:
109,192,62790,1,0,0:0:0:0:
36,192,62790,1,0,0:0:0:0:
402,192,62876,1,0,0:0:0:0:
475,192,62876,1,0,0:0:0:0:
109,192,62963,1,0,0:0:0:0:
36,192,62963,1,0,0:0:0:0:
329,192,63050,1,0,0:0:0:0:
402,192,63050,1,0,0:0:0:0:
182,192,63137,1,0,0:0:0:0:
256,192,63137,1,0,0:0:0:0:
109,192,63137,1,0,0:0:0:0:
329,192,63310,1,0,0:0:0:0:
402,192,63310,1,0,0:0:0:0:
475,192,63310,1,0,0:0:0:0:
36,192,63397,1,0,0:0:0:0:
109,192,63397,1,0,0:0:0:0:
329,192,63483,1,0,0:0:0:0:
475,192,63483,1,0,0:0:0:0:
402,192,63483,1,0,0:0:0:0:
256,192,63483,1,0,0:0:0:0:
36,192,63657,1,0,0:0:0:0:
182,192,63657,1,0,0:0:0:0:
109,192,63744,1,0,0:0:0:0:
256,192,63744,1,0,0:0:0:0:
182,192,63830,1,0,0:0:0:0:
329,192,63830,1,0,0:0:0:0:
475,192,63830,1,0,0:0:0:0:
256,192,63917,1,0,0:0:0:0:
402,192,63917,1,0,0:0:0:0:
329,192,64004,1,0,0:0:0:0:
36,192,64004,1,0,0:0:0:0:
256,192,64090,1,0,0:0:0:0:
182,192,64177,1,0,0:0:0:0:
475,192,64177,1,0,0:0:0:0:
109,192,64264,1,0,0:0:0:0:
402,192,64264,1,0,0:0:0:0:
329,192,64264,1,0,0:0:0:0:
36,192,64350,1,0,0:0:0:0:
256,192,64350,1,0,0:0:0:0:
475,192,64350,1,0,0:0:0:0:
182,192,64350,1,0,0:0:0:0:
109,192,64524,1,0,0:0:0:0:
329,192,64524,1,0,0:0:0:0:
402,192,64524,1,0,0:0:0:0:
256,192,64697,1,0,0:0:0:0:
36,192,64697,1,0,0:0:0:0:
109,192,64784,1,0,0:0:0:0:
182,192,64784,1,0,0:0:0:0:
402,192,64871,1,0,0:0:0:0:
329,192,64871,1,0,0:0:0:0:
475,192,64871,1,0,0:0:0:0:
256,192,64957,1,0,0:0:0:0:
36,192,64957,1,0,0:0:0:0:
109,192,65044,1,0,0:0:0:0:
329,192,65044,1,0,0:0:0:0:
182,192,65131,1,0,0:0:0:0:
402,192,65131,1,0,0:0:0:0:
475,192,65131,1,0,0:0:0:0:
256,192,65218,1,0,0:0:0:0:
329,192,65218,1,0,0:0:0:0:
36,192,65218,1,0,0:0:0:0:
109,192,65391,1,0,0:0:0:0:
329,192,65391,1,0,0:0:0:0:
182,192,65478,1,0,0:0:0:0:
402,192,65478,1,0,0:0:0:0:
256,192,65564,1,0,0:0:0:0:
475,192,65564,1,0,0:0:0:0:
36,192,65564,1,0,0:0:0:0:
329,192,65651,1,0,0:0:0:0:
182,192,65738,1,0,0:0:0:0:
402,192,65738,1,0,0:0:0:0:
256,192,65824,1,0,0:0:0:0:
475,192,65824,1,0,0:0:0:0:
329,192,65911,1,0,0:0:0:0:
109,192,65911,1,0,0:0:0:0:
36,192,65911,1,0,0:0:0:0:
182,192,66084,1,0,0:0:0:0:
402,192,66084,1,0,0:0:0:0:
256,192,66171,1,0,0:0:0:0:
329,192,66171,1,0,0:0:0:0:
109,192,66257,1,0,0:0:0:0:
36,192,66257,1,0,0:0:0:0:
475,192,66257,1,0,0:0:0:0:
402,192,66257,1,0,0:0:0:0:
329,192,66344,1,0,0:0:0:0:
182,192,66344,1,0,0:0:0:0:
256,192,66344,1,0,0:0:0:0:
36,192,66431,1,0,0:0:0:0:
475,192,66431,1,0,0:0:0:0:
402,192,66517,1,0,0:0:0:0:
329,192,66604,1,0,0:0:0:0:
109,192,66604,1,0,0:0:0:0:
36,192,66604,1,0,0:0:0:0:
256,192,66691,1,0,0:0:0:0:
475,192,66691,1,0,0:0:0:0:
182,192,66778,1,0,0:0:0:0:
402,192,66778,1,0,0:0:0:0:
109,192,66778,1,0,0:0:0:0:
256,192,66951,1,0,0:0:0:0:
329,192,66951,1,0,0:0:0:0:
36,192,66951,1,0,0:0:0:0:
475,192,66951,1,0,0:0:0:0:
109,192,67124,1,0,0:0:0:0:
329,192,67124,1,0,0:0:0:0:
182,192,67211,1,0,0:0:0:0:
402,192,67211,1,0,0:0:0:0:
256,192,67298,1,0,0:0:0:0:
475,192,67298,1,0,0:0:0:0:
36,192,67298,1,0,0:0:0:0:
109,192,67384,1,0,0:0:0:0:
329,192,67384,1,0,0:0:0:0:
182,192,67471,1,0,0:0:0:0:
402,192,67471,1,0,0:0:0:0:
256,192,67558,1,0,0:0:0:0:
475,192,67558,1,0,0:0:0:0:
36,192,67645,1,0,0:0:0:0:
109,192,67645,1,0,0:0:0:0:
329,192,67645,1,0,0:0:0:0:
182,192,67818,1,0,0:0:0:0:
402,192,67818,1,0,0:0:0:0:
256,192,67905,1,0,0:0:0:0:
475,192,67905,1,0,0:0:0:0:
36,192,67991,1,0,0:0:0:0:
109,192,67991,1,0,0:0:0:0:
329,192,67991,1,0,0:0:0:0:
256,192,68078,1,0,0:0:0:0:
182,192,68165,1,0,0:0:0:0:
402,192,68165,1,0,0:0:0:0:
109,192,68252,1,0,0:0:0:0:
329,192,68252,1,0,0:0:0:0:
36,192,68338,1,0,0:0:0:0:
256,192,68338,1,0,0:0:0:0:
475,192,68338,1,0,0:0:0:0:
402,192,68425,1,0,0:0:0:0:
109,192,68425,1,0,0:0:0:0:
329,192,68512,1,0,0:0:0:0:
182,192,68512,1,0,0:0:0:0:
256,192,68598,1,0,0:0:0:0:
329,192,68685,1,0,0:0:0:0:
475,192,68685,1,0,0:0:0:0:
36,192,68772,1,0,0:0:0:0:
109,192,68772,1,0,0:0:0:0:
329,192,68858,1,0,0:0:0:0:
402,192,68858,1,0,0:0:0:0:
475,192,68858,1,0,0:0:0:0:
182,192,69032,1,0,0:0:0:0:
256,192,69032,1,0,0:0:0:0:
109,192,69032,1,0,0:0:0:0:
475,192,69205,1,0,0:0:0:0:
329,192,69205,1,0,0:0:0:0:
402,192,69292,1,0,0:0:0:0:
36,192,69379,1,0,0:0:0:0:
256,192,69379,1,0,0:0:0:0:
109,192,69465,1,0,0:0:0:0:
329,192,69465,1,0,0:0:0:0:
182,192,69552,1,0,0:0:0:0:
402,192,69552,1,0,0:0:0:0:
256,192,69639,1,0,0:0:0:0:
475,192,69639,1,0,0:0:0:0:
36,192,69639,1,0,0:0:0:0:
109,192,69726,1,0,0:0:0:0:
182,192,69726,1,0,0:0:0:0:
329,192,69726,1,0,0:0:0:0:
402,192,69726,1,0,0:0:0:0:
256,192,69812,1,0,0:0:0:0:
475,192,69812,1,0,0:0:0:0:
182,192,69899,1,0,0:0:0:0:
402,192,69899,1,0,0:0:0:0:
109,192,69986,1,0,0:0:0:0:
329,192,69986,1,0,0:0:0:0:
36,192,70072,1,0,0:0:0:0:
256,192,70072,1,0,0:0:0:0:
475,192,70072,1,0,0:0:0:0:
182,192,70159,1,0,0:0:0:0:
402,192,70159,1,0,0:0:0:0:
109,192,70246,1,0,0:0:0:0:
329,192,70246,1,0,0:0:0:0:
36,192,70332,1,0,0:0:0:0:
256,192,70332,1,0,0:0:0:0:
329,192,70417,1,0,0:0:0:0:
402,192,70417,1,0,0:0:0:0:
109,192,70417,1,0,0:0:0:0:
182,192,70417,1,0,0:0:0:0:
36,192,70590,1,0,0:0:0:0:
475,192,70590,1,0,0:0:0:0:
329,192,70677,1,0,0:0:0:0:
182,192,70677,1,0,0:0:0:0:
109,192,70763,1,0,0:0:0:0:
402,192,70763,1,0,0:0:0:0:
256,192,70763,1,0,0:0:0:0:
182,192,70850,1,0,0:0:0:0:
329,192,70850,1,0,0:0:0:0:
36,192,70937,1,0,0:0:0:0:
256,192,70937,1,0,0:0:0:0:
475,192,70937,1,0,0:0:0:0:
182,192,71110,1,0,0:0:0:0:
402,192,71110,1,0,0:0:0:0:
475,192,71110,1,0,0:0:0:0:
329,192,71197,1,0,0:0:0:0:
256,192,71197,1,0,0:0:0:0:
109,192,71197,1,0,0:0:0:0:
36,192,71284,1,0,0:0:0:0:
402,192,71284,1,0,0:0:0:0:
182,192,71284,1,0,0:0:0:0:
36,192,71457,1,0,0:0:0:0:
109,192,71457,1,0,0:0:0:0:
475,192,71457,1,0,0:0:0:0:
402,192,71544,1,0,0:0:0:0:
329,192,71630,1,0,0:0:0:0:
256,192,71717,1,0,0:0:0:0:
182,192,71804,1,0,0:0:0:0:
475,192,71804,1,0,0:0:0:0:
402,192,71804,1,0,0:0:0:0:
329,192,71890,1,0,0:0:0:0:
109,192,71890,1,0,0:0:0:0:
256,192,71977,1,0,0:0:0:0:
182,192,72064,1,0,0:0:0:0:
402,192,72064,1,0,0:0:0:0:
109,192,72151,1,0,0:0:0:0:
256,192,72151,1,0,0:0:0:0:
36,192,72151,1,0,0:0:0:0:
182,192,72237,1,0,0:0:0:0:
329,192,72324,1,0,0:0:0:0:
402,192,72324,1,0,0:0:0:0:
475,192,72324,1,0,0:0:0:0:
256,192,72411,1,0,0:0:0:0:
182,192,72497,1,0,0:0:0:0:
109,192,72497,1,0,0:0:0:0:
36,192,72497,1,0,0:0:0:0:
36,192,72671,1,0,0:0:0:0:
475,192,72671,1,0,0:0:0:0:
109,192,72758,1,0,0:0:0:0:
329,192,72758,1,0,0:0:0:0:
182,192,72758,1,0,0:0:0:0:
402,192,72844,1,0,0:0:0:0:
256,192,72844,1,0,0:0:0:0:
475,192,72844,1,0,0:0:0:0:
182,192,72931,1,0,0:0:0:0:
109,192,72931,1,0,0:0:0:0:
36,192,72931,1,0,0:0:0:0:
402,192,73018,1,0,0:0:0:0:
329,192,73018,1,0,0:0:0:0:
475,192,73018,1,0,0:0:0:0:
36,192,73104,1,0,0:0:0:0:
109,192,73191,1,0,0:0:0:0:
182,192,73278,1,0,0:0:0:0:
329,192,73278,1,0,0:0:0:0:
256,192,73364,1,0,0:0:0:0:
402,192,73364,1,0,0:0:0:0:
475,192,73364,1,0,0:0:0:0:
36,192,73538,1,0,0:0:0:0:
109,192,73538,1,0,0:0:0:0:
402,192,73538,1,0,0:0:0:0:
475,192,73538,1,0,0:0:0:0:
256,192,73538,1,0,0:0:0:0:
182,192,73885,1,0,0:0:0:0:
256,192,73885,1,0,0:0:0:0:
329,192,73885,1,0,0:0:0:0:
36,192,73885,1,0,0:0:0:0:
475,192,73885,1,0,0:0:0:0:
182,192,74230,1,0,0:0:0:0:
256,192,74230,1,0,0:0:0:0:
329,192,74230,1,0,0:0:0:0:
402,192,74230,1,0,0:0:0:0:
109,192,74230,1,0,0:0:0:0:
475,192,74403,1,0,0:0:0:0:
36,192,74403,1,0,0:0:0:0:
109,192,74490,1,0,0:0:0:0:
182,192,74490,1,0,0:0:0:0:
402,192,74576,1,0,0:0:0:0:
329,192,74576,1,0,0:0:0:0:
182,192,74663,1,0,0:0:0:0:
36,192,74663,1,0,0:0:0:0:
329,192,74750,1,0,0:0:0:0:
475,192,74750,1,0,0:0:0:0:
402,192,74750,1,0,0:0:0:0:
182,192,74923,1,0,0:0:0:0:
109,192,74923,1,0,0:0:0:0:
36,192,74923,1,0,0:0:0:0:
36,192,75010,1,0,0:0:0:0:
109,192,75010,1,0,0:0:0:0:
182,192,75010,1,0,0:0:0:0:
329,192,75097,1,0,0:0:0:0:
402,192,75097,1,0,0:0:0:0:
475,192,75097,1,0,0:0:0:0:
256,192,75097,1,0,0:0:0:0:
109,192,75270,1,0,0:0:0:0:
182,192,75270,1,0,0:0:0:0:
402,192,75357,1,0,0:0:0:0:
475,192,75357,1,0,0:0:0:0:
36,192,75443,1,0,0:0:0:0:
109,192,75443,1,0,0:0:0:0:
329,192,75530,1,0,0:0:0:0:
402,192,75530,1,0,0:0:0:0:
182,192,75617,1,0,0:0:0:0:
256,192,75617,1,0,0:0:0:0:
475,192,75617,1,0,0:0:0:0:
329,192,75703,1,0,0:0:0:0:
109,192,75703,1,0,0:0:0:0:
256,192,75790,1,0,0:0:0:0:
182,192,75877,1,0,0:0:0:0:
402,192,75877,1,0,0:0:0:0:
329,192,75964,1,0,0:0:0:0:
109,192,75964,1,0,0:0:0:0:
182,192,76137,1,0,0:0:0:0:
256,192,76137,1,0,0:0:0:0:
475,192,76137,1,0,0:0:0:0:
36,192,76310,1,0,0:0:0:0:
109,192,76310,1,0,0:0:0:0:
329,192,76310,1,0,0:0:0:0:
402,192,76310,1,0,0:0:0:0:
475,192,76484,1,0,0:0:0:0:
402,192,76484,1,0,0:0:0:0:
36,192,76571,1,0,0:0:0:0:
256,192,76571,1,0,0:0:0:0:
109,192,76657,1,0,0:0:0:0:
329,192,76657,1,0,0:0:0:0:
182,192,76744,1,0,0:0:0:0:
402,192,76744,1,0,0:0:0:0:
256,192,76831,1,0,0:0:0:0:
475,192,76831,1,0,0:0:0:0:
36,192,77004,1,0,0:0:0:0:
109,192,77091,1,0,0:0:0:0:
329,192,77091,1,0,0:0:0:0:
402,192,77177,1,0,0:0:0:0:
475,192,77177,1,0,0:0:0:0:
182,192,77177,1,0,0:0:0:0:
256,192,77351,1,0,0:0:0:0:
329,192,77351,1,0,0:0:0:0:
109,192,77524,1,0,0:0:0:0:
475,192,77698,1,0,0:0:0:0:
36,192,77784,1,0,0:0:0:0:
475,192,77871,1,0,0:0:0:0:
36,192,77958,1,0,0:0:0:0:
475,192,78045,1,0,0:0:0:0:
182,192,78391,1,0,0:0:0:0:
256,192,78391,1,0,0:0:0:0:
329,192,78391,1,0,0:0:0:0:
109,192,78391,128,0,78737:0:0:0:0:
402,192,78391,128,0,78737:0:0:0:0:
36,192,78737,128,0,79431:0:0:0:0:
329,192,78737,128,0,79431:0:0:0:0:
182,192,79084,128,0,79431:0:0:0:0:
475,192,79084,128,0,79431:0:0:0:0:
109,192,79431,128,0,79778:0:0:0:0:
402,192,79431,128,0,79778:0:0:0:0:
256,192,79431,1,0,0:0:0:0:
329,192,79778,128,0,80471:0:0:0:0:
182,192,79778,128,0,80471:0:0:0:0:
36,192,80125,128,0,80471:0:0:0:0:
475,192,80125,128,0,80471:0:0:0:0:
109,192,80471,128,0,80818:0:0:0:0:
256,192,80471,128,0,80818:0:0:0:0:
402,192,80471,1,0,0:0:0:0:
182,192,80818,128,0,81512:0:0:0:0:
329,192,80818,128,0,81859:0:0:0:0:
256,192,81165,128,0,81512:0:0:0:0:
402,192,81165,128,0,81859:0:0:0:0:
475,192,81512,128,0,81859:0:0:0:0:
109,192,81512,1,0,0:0:0:0:
36,192,81512,128,0,81859:0:0:0:0:
256,192,81859,128,0,82552:0:0:0:0:
182,192,81859,128,0,82379:0:0:0:0:
36,192,82032,1,0,0:0:0:0:
109,192,82032,1,0,0:0:0:0:
36,192,82292,1,0,0:0:0:0:
109,192,82292,1,0,0:0:0:0:
402,192,82379,1,0,0:0:0:0:
475,192,82379,1,0,0:0:0:0:
329,192,82379,128,0,82552:0:0:0:0:
36,192,82466,1,0,0:0:0:0:
109,192,82466,1,0,0:0:0:0:
182,192,82552,1,0,0:0:0:0:
402,192,82552,128,0,82899:0:0:0:0:
475,192,82552,128,0,82899:0:0:0:0:
36,192,82899,128,0,83593:0:0:0:0:
109,192,82899,128,0,83593:0:0:0:0:
329,192,83246,128,0,83593:0:0:0:0:
402,192,83246,128,0,83593:0:0:0:0:
182,192,83593,1,0,0:0:0:0:
256,192,83593,128,0,83940:0:0:0:0:
475,192,83593,128,0,83940:0:0:0:0:
182,192,83940,128,0,85674:0:0:0:0:
402,192,83940,128,0,85674:0:0:0:0:
36,192,84286,128,0,85674:0:0:0:0:
329,192,84286,128,0,85674:0:0:0:0:
256,192,84633,1,0,0:0:0:0:
475,192,84980,1,0,0:0:0:0:
109,192,85067,1,0,0:0:0:0:
475,192,85154,1,0,0:0:0:0:
109,192,85240,1,0,0:0:0:0:
475,192,85327,1,0,0:0:0:0:
109,192,85414,1,0,0:0:0:0:
475,192,85500,1,0,0:0:0:0:
475,192,85674,1,0,0:0:0:0:
109,192,85674,128,0,86021:0:0:0:0:
256,192,85674,128,0,86021:0:0:0:0:
402,192,85891,1,0,0:0:0:0:
36,192,86021,128,0,86714:0:0:0:0:
182,192,86021,128,0,86714:0:0:0:0:
329,192,86021,1,0,0:0:0:0:
402,192,86151,1,0,0:0:0:0:
109,192,86194,1,0,0:0:0:0:
329,192,86367,128,0,86714:0:0:0:0:
475,192,86367,128,0,86714:0:0:0:0:
402,192,86367,1,0,0:0:0:0:
109,192,86454,1,0,0:0:0:0:
402,192,86541,1,0,0:0:0:0:
402,192,86627,1,0,0:0:0:0:
256,192,86714,128,0,87581:0:0:0:0:
109,192,86714,128,0,87755:0:0:0:0:
182,192,87061,128,0,87755:0:0:0:0:
329,192,87061,128,0,87755:0:0:0:0:
36,192,87581,128,0,87755:0:0:0:0:
256,192,87755,1,0,0:0:0:0:
402,192,87755,128,0,88795:0:0:0:0:
475,192,87755,128,0,88795:0:0:0:0:
36,192,88101,1,0,0:0:0:0:
329,192,88188,1,0,0:0:0:0:
36,192,88275,1,0,0:0:0:0:
109,192,88362,1,0,0:0:0:0:
36,192,88448,1,0,0:0:0:0:
329,192,88535,1,0,0:0:0:0:
109,192,88622,1,0,0:0:0:0:
36,192,88708,1,0,0:0:0:0:
182,192,88795,128,0,89836:0:0:0:0:
329,192,88795,128,0,89836:0:0:0:0:
256,192,88795,1,0,0:0:0:0:
36,192,88882,1,0,0:0:0:0:
109,192,88969,1,0,0:0:0:0:
256,192,89055,1,0,0:0:0:0:
402,192,89142,1,0,0:0:0:0:
475,192,89229,1,0,0:0:0:0:
109,192,89315,1,0,0:0:0:0:
256,192,89402,1,0,0:0:0:0:
36,192,89489,128,0,89836:0:0:0:0:
475,192,89489,128,0,89836:0:0:0:0:
402,192,89489,1,0,0:0:0:0:
109,192,89662,1,0,0:0:0:0:
109,192,89836,128,0,90876:0:0:0:0:
402,192,89836,128,0,90876:0:0:0:0:
256,192,89836,1,0,0:0:0:0:
329,192,90096,1,0,0:0:0:0:
182,192,90182,1,0,0:0:0:0:
475,192,90356,1,0,0:0:0:0:
36,192,90443,1,0,0:0:0:0:
182,192,90529,128,0,92610:0:0:0:0:
329,192,90529,128,0,92610:0:0:0:0:
475,192,90529,1,0,0:0:0:0:
36,192,90616,1,0,0:0:0:0:
475,192,90703,1,0,0:0:0:0:
256,192,90789,1,0,0:0:0:0:
256,192,90876,1,0,0:0:0:0:
36,192,90876,128,0,92610:0:0:0:0:
475,192,90876,128,0,92610:0:0:0:0:
109,192,91049,1,0,0:0:0:0:
402,192,91223,1,0,0:0:0:0:
109,192,91396,1,0,0:0:0:0:
402,192,91570,1,0,0:0:0:0:
109,192,91743,1,0,0:0:0:0:
256,192,91917,1,0,0:0:0:0:
109,192,92090,128,0,92263:0:0:0:0:
402,192,92263,1,0,0:0:0:0:
109,192,92437,1,0,0:0:0:0:
109,192,92610,128,0,92784:0:0:0:0:
256,192,92610,128,0,92784:0:0:0:0:
402,192,92610,1,0,0:0:0:0:
182,192,92784,128,0,92957:0:0:0:0:
329,192,92784,128,0,92957:0:0:0:0:
475,192,92957,1,0,0:0:0:0:
36,192,92957,128,0,95038:0:0:0:0:
109,192,92957,128,0,95038:0:0:0:0:
329,192,93130,1,0,0:0:0:0:
402,192,93304,1,0,0:0:0:0:
182,192,93477,1,0,0:0:0:0:
475,192,93651,1,0,0:0:0:0:
329,192,93824,1,0,0:0:0:0:
182,192,93997,128,0,95038:0:0:0:0:
256,192,93997,128,0,95038:0:0:0:0:
402,192,93997,1,0,0:0:0:0:
329,192,94171,1,0,0:0:0:0:
329,192,94344,1,0,0:0:0:0:
475,192,94431,1,0,0:0:0:0:
402,192,94518,1,0,0:0:0:0:
329,192,94604,1,0,0:0:0:0:
475,192,94691,1,0,0:0:0:0:
402,192,94778,1,0,0:0:0:0:
329,192,94864,1,0,0:0:0:0:
402,192,94951,1,0,0:0:0:0:
329,192,95038,128,0,98680:0:0:0:0:
475,192,95038,128,0,98680:0:0:0:0:
182,192,95385,128,0,98680:0:0:0:0:
36,192,95385,128,0,98853:0:0:0:0:
109,192,95905,128,0,98159:0:0:0:0:
402,192,95905,128,0,98159:0:0:0:0:
109,192,98853,128,0,99200:0:0:0:0:
182,192,98853,128,0,99200:0:0:0:0:
329,192,98853,128,0,99200:0:0:0:0:
402,192,98853,128,0,99200:0:0:0:0:
475,192,98853,128,0,99200:0:0:0:0:
256,192,98853,128,0,99200:0:0:0:0:
36,192,99200,1,0,0:0:0:0:
182,192,99286,1,0,0:0:0:0:
475,192,99373,1,0,0:0:0:0:
475,192,99460,1,0,0:0:0:0:
109,192,99547,1,0,0:0:0:0:
402,192,99720,1,0,0:0:0:0:
36,192,99893,128,0,100067:0:0:0:0:
475,192,99893,128,0,100067:0:0:0:0:
109,192,100067,128,0,100587:0:0:0:0:
182,192,100067,128,0,100934:0:0:0:0:
402,192,100067,128,0,100587:0:0:0:0:
329,192,100067,128,0,100934:0:0:0:0:
256,192,100587,128,0,100934:0:0:0:0:
36,192,101281,1,0,0:0:0:0:
109,192,101281,1,0,0:0:0:0:
475,192,101281,1,0,0:0:0:0:
402,192,101281,1,0,0:0:0:0:
256,192,101281,1,0,0:0:0:0:
182,192,101454,1,0,0:0:0:0:
109,192,101541,1,0,0:0:0:0:
256,192,101627,1,0,0:0:0:0:
402,192,101627,1,0,0:0:0:0:
329,192,101714,1,0,0:0:0:0:
475,192,101714,1,0,0:0:0:0:
109,192,101801,1,0,0:0:0:0:
182,192,101801,1,0,0:0:0:0:
36,192,101974,1,0,0:0:0:0:
256,192,101974,1,0,0:0:0:0:
109,192,102061,1,0,0:0:0:0:
329,192,102061,1,0,0:0:0:0:
182,192,102148,1,0,0:0:0:0:
402,192,102148,1,0,0:0:0:0:
475,192,102148,1,0,0:0:0:0:
36,192,102321,1,0,0:0:0:0:
109,192,102321,1,0,0:0:0:0:
182,192,102494,1,0,0:0:0:0:
329,192,102494,1,0,0:0:0:0:
256,192,102581,1,0,0:0:0:0:
402,192,102581,1,0,0:0:0:0:
329,192,102668,1,0,0:0:0:0:
475,192,102668,1,0,0:0:0:0:
36,192,102668,1,0,0:0:0:0:
109,192,102754,1,0,0:0:0:0:
182,192,102841,1,0,0:0:0:0:
329,192,102841,1,0,0:0:0:0:
256,192,102928,1,0,0:0:0:0:
402,192,102928,1,0,0:0:0:0:
329,192,103015,1,0,0:0:0:0:
475,192,103015,1,0,0:0:0:0:
36,192,103015,1,0,0:0:0:0:
109,192,103072,1,0,0:0:0:0:
182,192,103130,1,0,0:0:0:0:
256,192,103188,1,0,0:0:0:0:
475,192,103188,1,0,0:0:0:0:
402,192,103361,1,0,0:0:0:0:
329,192,103361,1,0,0:0:0:0:
182,192,103361,1,0,0:0:0:0:
109,192,103535,1,0,0:0:0:0:
256,192,103535,1,0,0:0:0:0:
475,192,103535,1,0,0:0:0:0:
182,192,103622,1,0,0:0:0:0:
329,192,103622,1,0,0:0:0:0:
36,192,103708,1,0,0:0:0:0:
109,192,103708,1,0,0:0:0:0:
402,192,103708,1,0,0:0:0:0:
475,192,103708,1,0,0:0:0:0:
182,192,103795,1,0,0:0:0:0:
329,192,103795,1,0,0:0:0:0:
256,192,103882,1,0,0:0:0:0:
182,192,103968,1,0,0:0:0:0:
402,192,104055,1,0,0:0:0:0:
329,192,104055,1,0,0:0:0:0:
36,192,104142,1,0,0:0:0:0:
109,192,104142,1,0,0:0:0:0:
182,192,104142,1,0,0:0:0:0:
329,192,104228,1,0,0:0:0:0:
402,192,104228,1,0,0:0:0:0:
475,192,104228,1,0,0:0:0:0:
256,192,104228,1,0,0:0:0:0:
36,192,104402,1,0,0:0:0:0:
109,192,104402,1,0,0:0:0:0:
256,192,104402,1,0,0:0:0:0:
182,192,104575,1,0,0:0:0:0:
329,192,104575,1,0,0:0:0:0:
256,192,104662,1,0,0:0:0:0:
36,192,104749,1,0,0:0:0:0:
109,192,104749,1,0,0:0:0:0:
475,192,104749,1,0,0:0:0:0:
329,192,104922,1,0,0:0:0:0:
402,192,104922,1,0,0:0:0:0:
475,192,104922,1,0,0:0:0:0:
182,192,105009,1,0,0:0:0:0:
109,192,105009,1,0,0:0:0:0:
256,192,105009,1,0,0:0:0:0:
329,192,105096,1,0,0:0:0:0:
402,192,105096,1,0,0:0:0:0:
475,192,105096,1,0,0:0:0:0:
36,192,105096,1,0,0:0:0:0:
182,192,105269,1,0,0:0:0:0:
36,192,105442,1,0,0:0:0:0:
329,192,105442,1,0,0:0:0:0:
402,192,105442,1,0,0:0:0:0:
182,192,105616,1,0,0:0:0:0:
475,192,105789,1,0,0:0:0:0:
256,192,105789,1,0,0:0:0:0:
36,192,105789,1,0,0:0:0:0:
182,192,105876,1,0,0:0:0:0:
402,192,105876,1,0,0:0:0:0:
329,192,105963,1,0,0:0:0:0:
475,192,105963,1,0,0:0:0:0:
109,192,106049,1,0,0:0:0:0:
256,192,106136,1,0,0:0:0:0:
182,192,106223,1,0,0:0:0:0:
402,192,106223,1,0,0:0:0:0:
109,192,106309,1,0,0:0:0:0:
36,192,106309,1,0,0:0:0:0:
329,192,106309,1,0,0:0:0:0:
182,192,106483,1,0,0:0:0:0:
256,192,106483,1,0,0:0:0:0:
109,192,106656,1,0,0:0:0:0:
329,192,106656,1,0,0:0:0:0:
36,192,106743,1,0,0:0:0:0:
329,192,106830,1,0,0:0:0:0:
402,192,106830,1,0,0:0:0:0:
475,192,106830,1,0,0:0:0:0:
109,192,107003,1,0,0:0:0:0:
182,192,107090,1,0,0:0:0:0:
329,192,107090,1,0,0:0:0:0:
256,192,107176,1,0,0:0:0:0:
402,192,107176,1,0,0:0:0:0:
475,192,107176,1,0,0:0:0:0:
329,192,107350,1,0,0:0:0:0:
475,192,107350,1,0,0:0:0:0:
109,192,107437,1,0,0:0:0:0:
256,192,107437,1,0,0:0:0:0:
36,192,107523,1,0,0:0:0:0:
182,192,107523,1,0,0:0:0:0:
402,192,107523,1,0,0:0:0:0:
329,192,107523,1,0,0:0:0:0:
109,192,107697,1,0,0:0:0:0:
475,192,107697,1,0,0:0:0:0:
182,192,107783,1,0,0:0:0:0:
36,192,107870,1,0,0:0:0:0:
402,192,107870,1,0,0:0:0:0:
256,192,107870,1,0,0:0:0:0:
329,192,107870,1,0,0:0:0:0:
109,192,107957,1,0,0:0:0:0:
182,192,107957,1,0,0:0:0:0:
475,192,108044,1,0,0:0:0:0:
329,192,108130,1,0,0:0:0:0:
402,192,108217,1,0,0:0:0:0:
256,192,108304,1,0,0:0:0:0:
36,192,108304,1,0,0:0:0:0:
109,192,108390,1,0,0:0:0:0:
329,192,108390,1,0,0:0:0:0:
475,192,108390,1,0,0:0:0:0:
182,192,108564,1,0,0:0:0:0:
256,192,108564,1,0,0:0:0:0:
402,192,108564,1,0,0:0:0:0:
36,192,108737,1,0,0:0:0:0:
109,192,108737,1,0,0:0:0:0:
329,192,108737,1,0,0:0:0:0:
182,192,108911,1,0,0:0:0:0:
256,192,108911,1,0,0:0:0:0:
475,192,108911,1,0,0:0:0:0:
36,192,108911,1,0,0:0:0:0:
402,192,108997,1,0,0:0:0:0:
109,192,108997,1,0,0:0:0:0:
36,192,109084,1,0,0:0:0:0:
329,192,109084,1,0,0:0:0:0:
109,192,109171,1,0,0:0:0:0:
182,192,109171,1,0,0:0:0:0:
256,192,109171,1,0,0:0:0:0:
329,192,109257,1,0,0:0:0:0:
402,192,109257,1,0,0:0:0:0:
475,192,109257,1,0,0:0:0:0:
182,192,109431,1,0,0:0:0:0:
109,192,109517,1,0,0:0:0:0:
36,192,109604,1,0,0:0:0:0:
256,192,109604,1,0,0:0:0:0:
475,192,109604,1,0,0:0:0:0:
402,192,109604,1,0,0:0:0:0:
109,192,109778,1,0,0:0:0:0:
182,192,109864,1,0,0:0:0:0:
256,192,109951,1,0,0:0:0:0:
402,192,109951,1,0,0:0:0:0:
36,192,109951,1,0,0:0:0:0:
329,192,110038,1,0,0:0:0:0:
475,192,110038,1,0,0:0:0:0:
109,192,110124,1,0,0:0:0:0:
182,192,110124,1,0,0:0:0:0:
256,192,110124,1,0,0:0:0:0:
36,192,110211,1,0,0:0:0:0:
402,192,110298,1,0,0:0:0:0:
109,192,110385,1,0,0:0:0:0:
256,192,110385,1,0,0:0:0:0:
182,192,110471,1,0,0:0:0:0:
329,192,110471,1,0,0:0:0:0:
475,192,110471,1,0,0:0:0:0:
36,192,110471,1,0,0:0:0:0:
109,192,110645,1,0,0:0:0:0:
182,192,110645,1,0,0:0:0:0:
329,192,110645,1,0,0:0:0:0:
402,192,110645,1,0,0:0:0:0:
109,192,110818,1,0,0:0:0:0:
329,192,110991,1,0,0:0:0:0:
402,192,110991,1,0,0:0:0:0:
36,192,110991,1,0,0:0:0:0:
256,192,111078,1,0,0:0:0:0:
182,192,111165,1,0,0:0:0:0:
109,192,111252,1,0,0:0:0:0:
329,192,111252,1,0,0:0:0:0:
182,192,111338,1,0,0:0:0:0:
402,192,111338,1,0,0:0:0:0:
475,192,111338,1,0,0:0:0:0:
256,192,111425,1,0,0:0:0:0:
329,192,111512,1,0,0:0:0:0:
402,192,111512,1,0,0:0:0:0:
36,192,111685,1,0,0:0:0:0:
109,192,111685,1,0,0:0:0:0:
182,192,111859,1,0,0:0:0:0:
329,192,111859,1,0,0:0:0:0:
182,192,112032,1,0,0:0:0:0:
402,192,112032,1,0,0:0:0:0:
475,192,112032,1,0,0:0:0:0:
329,192,112119,1,0,0:0:0:0:
256,192,112119,1,0,0:0:0:0:
109,192,112205,1,0,0:0:0:0:
36,192,112379,1,0,0:0:0:0:
256,192,112379,1,0,0:0:0:0:
109,192,112465,1,0,0:0:0:0:
329,192,112465,1,0,0:0:0:0:
182,192,112552,1,0,0:0:0:0:
402,192,112552,1,0,0:0:0:0:
475,192,112552,1,0,0:0:0:0:
36,192,112552,1,0,0:0:0:0:
256,192,112726,1,0,0:0:0:0:
329,192,112726,1,0,0:0:0:0:
109,192,112726,1,0,0:0:0:0:
329,192,112899,1,0,0:0:0:0:
475,192,112899,1,0,0:0:0:0:
256,192,112986,1,0,0:0:0:0:
182,192,113072,1,0,0:0:0:0:
109,192,113072,1,0,0:0:0:0:
36,192,113072,1,0,0:0:0:0:
402,192,113072,1,0,0:0:0:0:
329,192,113246,1,0,0:0:0:0:
475,192,113246,1,0,0:0:0:0:
402,192,113246,1,0,0:0:0:0:
182,192,113333,1,0,0:0:0:0:
109,192,113333,1,0,0:0:0:0:
36,192,113333,1,0,0:0:0:0:
256,192,113419,1,0,0:0:0:0:
329,192,113419,1,0,0:0:0:0:
402,192,113419,1,0,0:0:0:0:
329,192,113593,1,0,0:0:0:0:
402,192,113679,1,0,0:0:0:0:
36,192,113766,1,0,0:0:0:0:
109,192,113766,1,0,0:0:0:0:
182,192,113766,1,0,0:0:0:0:
256,192,113766,1,0,0:0:0:0:
402,192,113939,1,0,0:0:0:0:
329,192,114026,1,0,0:0:0:0:
36,192,114113,1,0,0:0:0:0:
109,192,114113,1,0,0:0:0:0:
256,192,114113,1,0,0:0:0:0:
182,192,114200,1,0,0:0:0:0:
329,192,114200,1,0,0:0:0:0:
402,192,114286,1,0,0:0:0:0:
109,192,114373,1,0,0:0:0:0:
329,192,114460,1,0,0:0:0:0:
475,192,114460,1,0,0:0:0:0:
36,192,114546,1,0,0:0:0:0:
182,192,114546,1,0,0:0:0:0:
109,192,114633,1,0,0:0:0:0:
256,192,114633,1,0,0:0:0:0:
329,192,114633,1,0,0:0:0:0:
402,192,114633,1,0,0:0:0:0:
36,192,114807,1,0,0:0:0:0:
182,192,114807,1,0,0:0:0:0:
109,192,114807,1,0,0:0:0:0:
256,192,114807,1,0,0:0:0:0:
402,192,114980,1,0,0:0:0:0:
475,192,115067,1,0,0:0:0:0:
182,192,115153,1,0,0:0:0:0:
36,192,115153,1,0,0:0:0:0:
256,192,115153,1,0,0:0:0:0:
329,192,115153,1,0,0:0:0:0:
109,192,115327,1,0,0:0:0:0:
182,192,115413,1,0,0:0:0:0:
256,192,115500,1,0,0:0:0:0:
329,192,115500,1,0,0:0:0:0:
402,192,115500,1,0,0:0:0:0:
329,192,115674,1,0,0:0:0:0:
475,192,115674,1,0,0:0:0:0:
256,192,115760,1,0,0:0:0:0:
182,192,115847,1,0,0:0:0:0:
109,192,115847,1,0,0:0:0:0:
36,192,115847,1,0,0:0:0:0:
402,192,115847,1,0,0:0:0:0:
182,192,116020,1,0,0:0:0:0:
36,192,116020,1,0,0:0:0:0:
256,192,116107,1,0,0:0:0:0:
329,192,116194,1,0,0:0:0:0:
402,192,116194,1,0,0:0:0:0:
475,192,116194,1,0,0:0:0:0:
109,192,116281,1,0,0:0:0:0:
182,192,116281,1,0,0:0:0:0:
36,192,116367,1,0,0:0:0:0:
256,192,116541,1,0,0:0:0:0:
329,192,116627,1,0,0:0:0:0:
475,192,116627,1,0,0:0:0:0:
109,192,116714,1,0,0:0:0:0:
402,192,116714,1,0,0:0:0:0:
36,192,116714,1,0,0:0:0:0:
182,192,116714,1,0,0:0:0:0:
329,192,116887,1,0,0:0:0:0:
402,192,116887,1,0,0:0:0:0:
475,192,116887,1,0,0:0:0:0:
182,192,117061,1,0,0:0:0:0:
36,192,117061,1,0,0:0:0:0:
109,192,117148,1,0,0:0:0:0:
475,192,117234,1,0,0:0:0:0:
329,192,117234,1,0,0:0:0:0:
256,192,117234,1,0,0:0:0:0:
402,192,117321,1,0,0:0:0:0:
329,192,117408,1,0,0:0:0:0:
109,192,117494,1,0,0:0:0:0:
256,192,117494,1,0,0:0:0:0:
36,192,117581,1,0,0:0:0:0:
182,192,117581,1,0,0:0:0:0:
475,192,117581,1,0,0:0:0:0:
402,192,117581,1,0,0:0:0:0:
36,192,117754,1,0,0:0:0:0:
109,192,117928,1,0,0:0:0:0:
182,192,117928,1,0,0:0:0:0:
329,192,117928,1,0,0:0:0:0:
402,192,117928,1,0,0:0:0:0:
256,192,117928,1,0,0:0:0:0:
475,192,118101,1,0,0:0:0:0:
36,192,118188,1,0,0:0:0:0:
182,192,118274,1,0,0:0:0:0:
402,192,118274,1,0,0:0:0:0:
256,192,118361,1,0,0:0:0:0:
475,192,118361,1,0,0:0:0:0:
109,192,118448,1,0,0:0:0:0:
329,192,118448,1,0,0:0:0:0:
182,192,118534,1,0,0:0:0:0:
36,192,118621,1,0,0:0:0:0:
109,192,118708,1,0,0:0:0:0:
329,192,118708,1,0,0:0:0:0:
182,192,118795,1,0,0:0:0:0:
402,192,118795,1,0,0:0:0:0:
475,192,118795,1,0,0:0:0:0:
36,192,118795,1,0,0:0:0:0:
256,192,118968,1,0,0:0:0:0:
329,192,118968,1,0,0:0:0:0:
36,192,118968,1,0,0:0:0:0:
109,192,118968,1,0,0:0:0:0:
182,192,119141,1,0,0:0:0:0:
475,192,119141,1,0,0:0:0:0:
109,192,119228,1,0,0:0:0:0:
256,192,119315,1,0,0:0:0:0:
329,192,119315,1,0,0:0:0:0:
402,192,119315,1,0,0:0:0:0:
36,192,119315,1,0,0:0:0:0:
475,192,119488,1,0,0:0:0:0:
109,192,119575,1,0,0:0:0:0:
36,192,119575,1,0,0:0:0:0:
256,192,119662,1,0,0:0:0:0:
329,192,119662,1,0,0:0:0:0:
182,192,119662,1,0,0:0:0:0:
402,192,119835,1,0,0:0:0:0:
475,192,119835,1,0,0:0:0:0:
36,192,119835,1,0,0:0:0:0:
329,192,119922,1,0,0:0:0:0:
182,192,119922,1,0,0:0:0:0:
109,192,120008,1,0,0:0:0:0:
402,192,120008,1,0,0:0:0:0:
36,192,120008,1,0,0:0:0:0:
256,192,120008,1,0,0:0:0:0:
475,192,120182,1,0,0:0:0:0:
329,192,120182,1,0,0:0:0:0:
36,192,120355,1,0,0:0:0:0:
256,192,120355,1,0,0:0:0:0:
109,192,120442,1,0,0:0:0:0:
329,192,120442,1,0,0:0:0:0:
182,192,120529,1,0,0:0:0:0:
402,192,120615,1,0,0:0:0:0:
329,192,120702,1,0,0:0:0:0:
475,192,120702,1,0,0:0:0:0:
256,192,120789,1,0,0:0:0:0:
182,192,120789,1,0,0:0:0:0:
36,192,120789,1,0,0:0:0:0:
109,192,120875,1,0,0:0:0:0:
329,192,120875,1,0,0:0:0:0:
402,192,120875,1,0,0:0:0:0:
475,192,120875,1,0,0:0:0:0:
475,192,121049,1,0,0:0:0:0:
36,192,121049,1,0,0:0:0:0:
109,192,121049,1,0,0:0:0:0:
329,192,121049,1,0,0:0:0:0:
402,192,121222,1,0,0:0:0:0:
182,192,121222,1,0,0:0:0:0:
329,192,121309,1,0,0:0:0:0:
256,192,121396,1,0,0:0:0:0:
475,192,121396,1,0,0:0:0:0:
36,192,121396,1,0,0:0:0:0:
182,192,121482,1,0,0:0:0:0:
402,192,121569,1,0,0:0:0:0:
109,192,121569,1,0,0:0:0:0:
329,192,121656,1,0,0:0:0:0:
256,192,121743,1,0,0:0:0:0:
475,192,121743,1,0,0:0:0:0:
36,192,121743,1,0,0:0:0:0:
329,192,121916,1,0,0:0:0:0:
182,192,122003,1,0,0:0:0:0:
475,192,122089,1,0,0:0:0:0:
402,192,122089,1,0,0:0:0:0:
109,192,122089,1,0,0:0:0:0:
36,192,122089,1,0,0:0:0:0:
182,192,122263,1,0,0:0:0:0:
36,192,122349,1,0,0:0:0:0:
256,192,122436,1,0,0:0:0:0:
329,192,122436,1,0,0:0:0:0:
402,192,122436,1,0,0:0:0:0:
182,192,122523,1,0,0:0:0:0:
109,192,122523,1,0,0:0:0:0:
329,192,122610,1,0,0:0:0:0:
475,192,122610,1,0,0:0:0:0:
36,192,122696,1,0,0:0:0:0:
109,192,122783,1,0,0:0:0:0:
182,192,122870,1,0,0:0:0:0:
329,192,122870,1,0,0:0:0:0:
475,192,122956,1,0,0:0:0:0:
402,192,122956,1,0,0:0:0:0:
36,192,122956,1,0,0:0:0:0:
109,192,122956,1,0,0:0:0:0:
182,192,123130,1,0,0:0:0:0:
256,192,123130,1,0,0:0:0:0:
109,192,123130,1,0,0:0:0:0:
402,192,123303,1,0,0:0:0:0:
109,192,123390,1,0,0:0:0:0:
329,192,123477,1,0,0:0:0:0:
475,192,123477,1,0,0:0:0:0:
256,192,123650,1,0,0:0:0:0:
182,192,123737,1,0,0:0:0:0:
109,192,123737,1,0,0:0:0:0:
36,192,123737,1,0,0:0:0:0:
256,192,123823,1,0,0:0:0:0:
329,192,123823,1,0,0:0:0:0:
475,192,123823,1,0,0:0:0:0:
402,192,123823,1,0,0:0:0:0:
475,192,123997,1,0,0:0:0:0:
36,192,123997,1,0,0:0:0:0:
256,192,124084,1,0,0:0:0:0:
402,192,124170,1,0,0:0:0:0:
475,192,124170,1,0,0:0:0:0:
109,192,124170,1,0,0:0:0:0:
329,192,124344,1,0,0:0:0:0:
182,192,124344,1,0,0:0:0:0:
256,192,124430,1,0,0:0:0:0:
109,192,124517,1,0,0:0:0:0:
36,192,124517,1,0,0:0:0:0:
402,192,124517,1,0,0:0:0:0:
182,192,124604,1,0,0:0:0:0:
256,192,124604,1,0,0:0:0:0:
329,192,124604,1,0,0:0:0:0:
475,192,124691,1,0,0:0:0:0:
36,192,124777,1,0,0:0:0:0:
402,192,124864,1,0,0:0:0:0:
182,192,124951,1,0,0:0:0:0:
256,192,124951,1,0,0:0:0:0:
329,192,125037,1,0,0:0:0:0:
402,192,125037,1,0,0:0:0:0:
475,192,125037,1,0,0:0:0:0:
36,192,125037,1,0,0:0:0:0:
109,192,125211,1,0,0:0:0:0:
182,192,125211,1,0,0:0:0:0:
256,192,125211,1,0,0:0:0:0:
329,192,125384,1,0,0:0:0:0:
475,192,125384,1,0,0:0:0:0:
402,192,125471,1,0,0:0:0:0:
109,192,125558,1,0,0:0:0:0:
182,192,125558,1,0,0:0:0:0:
36,192,125558,1,0,0:0:0:0:
256,192,125558,1,0,0:0:0:0:
402,192,125731,1,0,0:0:0:0:
475,192,125731,1,0,0:0:0:0:
36,192,125818,1,0,0:0:0:0:
109,192,125818,1,0,0:0:0:0:
182,192,125818,1,0,0:0:0:0:
256,192,125904,1,0,0:0:0:0:
329,192,125904,1,0,0:0:0:0:
402,192,125904,1,0,0:0:0:0:
475,192,125904,1,0,0:0:0:0:
36,192,126078,1,0,0:0:0:0:
109,192,126078,1,0,0:0:0:0:
329,192,126164,1,0,0:0:0:0:
402,192,126164,1,0,0:0:0:0:
475,192,126164,1,0,0:0:0:0:
256,192,126251,1,0,0:0:0:0:
182,192,126251,1,0,0:0:0:0:
109,192,126251,1,0,0:0:0:0:
36,192,126251,1,0,0:0:0:0:
475,192,126425,1,0,0:0:0:0:
402,192,126511,1,0,0:0:0:0:
329,192,126598,1,0,0:0:0:0:
109,192,126598,1,0,0:0:0:0:
36,192,126598,1,0,0:0:0:0:
256,192,126685,1,0,0:0:0:0:
182,192,126685,1,0,0:0:0:0:
36,192,126771,1,0,0:0:0:0:
109,192,126771,1,0,0:0:0:0:
329,192,126945,1,0,0:0:0:0:
36,192,127032,1,0,0:0:0:0:
182,192,127032,1,0,0:0:0:0:
109,192,127118,1,0,0:0:0:0:
256,192,127118,1,0,0:0:0:0:
402,192,127118,1,0,0:0:0:0:
475,192,127118,1,0,0:0:0:0:
36,192,127292,1,0,0:0:0:0:
182,192,127292,1,0,0:0:0:0:
329,192,127292,1,0,0:0:0:0:
109,192,127465,1,0,0:0:0:0:
329,192,127638,1,0,0:0:0:0:
402,192,127638,1,0,0:0:0:0:
475,192,127638,1,0,0:0:0:0:
36,192,127812,1,0,0:0:0:0:
109,192,127899,1,0,0:0:0:0:
256,192,127899,1,0,0:0:0:0:
182,192,127985,1,0,0:0:0:0:
329,192,127985,1,0,0:0:0:0:
402,192,127985,1,0,0:0:0:0:
36,192,128159,1,0,0:0:0:0:
256,192,128159,1,0,0:0:0:0:
475,192,128159,1,0,0:0:0:0:
109,192,128332,1,0,0:0:0:0:
182,192,128332,1,0,0:0:0:0:
329,192,128332,1,0,0:0:0:0:
402,192,128332,1,0,0:0:0:0:
475,192,128506,1,0,0:0:0:0:
329,192,128506,1,0,0:0:0:0:
36,192,128679,1,0,0:0:0:0:
109,192,128679,1,0,0:0:0:0:
182,192,128679,1,0,0:0:0:0:
402,192,128679,1,0,0:0:0:0:
256,192,128766,1,0,0:0:0:0:
329,192,128766,1,0,0:0:0:0:
182,192,128852,1,0,0:0:0:0:
36,192,129026,1,0,0:0:0:0:
475,192,129026,1,0,0:0:0:0:
109,192,129026,1,0,0:0:0:0:
329,192,129112,1,0,0:0:0:0:
402,192,129112,1,0,0:0:0:0:
182,192,129112,1,0,0:0:0:0:
256,192,129199,1,0,0:0:0:0:
475,192,129199,1,0,0:0:0:0:
36,192,129199,1,0,0:0:0:0:
109,192,129199,1,0,0:0:0:0:
329,192,129373,1,0,0:0:0:0:
109,192,129373,1,0,0:0:0:0:
36,192,129373,1,0,0:0:0:0:
475,192,129546,1,0,0:0:0:0:
402,192,129546,1,0,0:0:0:0:
36,192,129633,1,0,0:0:0:0:
182,192,129719,1,0,0:0:0:0:
109,192,129719,1,0,0:0:0:0:
329,192,129719,1,0,0:0:0:0:
402,192,129719,1,0,0:0:0:0:
256,192,129806,1,0,0:0:0:0:
36,192,129893,1,0,0:0:0:0:
182,192,129893,1,0,0:0:0:0:
402,192,129893,1,0,0:0:0:0:
109,192,129980,1,0,0:0:0:0:
256,192,129980,1,0,0:0:0:0:
36,192,130066,1,0,0:0:0:0:
329,192,130066,1,0,0:0:0:0:
475,192,130066,1,0,0:0:0:0:
402,192,130066,1,0,0:0:0:0:
256,192,130240,1,0,0:0:0:0:
182,192,130326,1,0,0:0:0:0:
109,192,130413,1,0,0:0:0:0:
36,192,130413,1,0,0:0:0:0:
402,192,130413,1,0,0:0:0:0:
256,192,130586,1,0,0:0:0:0:
182,192,130760,1,0,0:0:0:0:
475,192,130760,1,0,0:0:0:0:
36,192,130760,1,0,0:0:0:0:
329,192,130760,1,0,0:0:0:0:
109,192,130847,1,0,0:0:0:0:
402,192,130847,1,0,0:0:0:0:
329,192,130933,1,0,0:0:0:0:
182,192,131020,1,0,0:0:0:0:
402,192,131107,1,0,0:0:0:0:
36,192,131193,1,0,0:0:0:0:
256,192,131193,1,0,0:0:0:0:
109,192,131280,1,0,0:0:0:0:
329,192,131280,1,0,0:0:0:0:
475,192,131280,1,0,0:0:0:0:
182,192,131454,1,0,0:0:0:0:
256,192,131454,1,0,0:0:0:0:
402,192,131454,1,0,0:0:0:0:
475,192,131627,1,0,0:0:0:0:
329,192,131714,1,0,0:0:0:0:
256,192,131800,1,0,0:0:0:0:
475,192,131800,1,0,0:0:0:0:
36,192,131800,1,0,0:0:0:0:
182,192,131887,1,0,0:0:0:0:
402,192,131887,1,0,0:0:0:0:
109,192,131974,1,0,0:0:0:0:
329,192,131974,1,0,0:0:0:0:
475,192,131974,1,0,0:0:0:0:
36,192,132060,1,0,0:0:0:0:
256,192,132060,1,0,0:0:0:0:
109,192,132147,1,0,0:0:0:0:
182,192,132147,1,0,0:0:0:0:
402,192,132147,1,0,0:0:0:0:
475,192,132147,1,0,0:0:0:0:
256,192,132321,1,0,0:0:0:0:
329,192,132321,1,0,0:0:0:0:
109,192,132407,1,0,0:0:0:0:
36,192,132494,1,0,0:0:0:0:
329,192,132494,1,0,0:0:0:0:
475,192,132494,1,0,0:0:0:0:
182,192,132494,128,0,134228:0:0:0:0:
402,192,132841,128,0,134228:0:0:0:0:
475,192,133361,128,0,134228:0:0:0:0:
109,192,133534,128,0,134228:0:0:0:0:
256,192,133708,128,0,134228:0:0:0:0:
36,192,133881,128,0,134228:0:0:0:0:
109,192,134575,1,0,0:0:0:0:
182,192,134575,1,0,0:0:0:0:
256,192,134575,1,0,0:0:0:0:
329,192,134575,1,0,0:0:0:0:
402,192,134575,1,0,0:0:0:0:
475,192,134748,1,0,0:0:0:0:
329,192,134835,1,0,0:0:0:0:
256,192,134921,1,0,0:0:0:0:
109,192,134921,1,0,0:0:0:0:
36,192,134921,1,0,0:0:0:0:
182,192,135008,1,0,0:0:0:0:
402,192,135008,1,0,0:0:0:0:
475,192,135095,1,0,0:0:0:0:
36,192,135181,1,0,0:0:0:0:
109,192,135268,1,0,0:0:0:0:
329,192,135268,1,0,0:0:0:0:
182,192,135355,1,0,0:0:0:0:
402,192,135355,1,0,0:0:0:0:
256,192,135442,1,0,0:0:0:0:
475,192,135442,1,0,0:0:0:0:
36,192,135442,1,0,0:0:0:0:
109,192,135615,1,0,0:0:0:0:
182,192,135615,1,0,0:0:0:0:
329,192,135615,1,0,0:0:0:0:
402,192,135615,1,0,0:0:0:0:
109,192,135788,1,0,0:0:0:0:
36,192,135875,1,0,0:0:0:0:
475,192,135962,1,0,0:0:0:0:
256,192,135962,1,0,0:0:0:0:
402,192,136048,1,0,0:0:0:0:
182,192,136048,1,0,0:0:0:0:
329,192,136135,1,0,0:0:0:0:
109,192,136135,1,0,0:0:0:0:
36,192,136222,1,0,0:0:0:0:
256,192,136222,1,0,0:0:0:0:
109,192,136309,1,0,0:0:0:0:
182,192,136309,1,0,0:0:0:0:
329,192,136309,1,0,0:0:0:0:
402,192,136309,1,0,0:0:0:0:
109,192,136482,1,0,0:0:0:0:
402,192,136482,1,0,0:0:0:0:
182,192,136569,1,0,0:0:0:0:
329,192,136569,1,0,0:0:0:0:
256,192,136655,1,0,0:0:0:0:
36,192,136655,1,0,0:0:0:0:
475,192,136655,1,0,0:0:0:0:
402,192,136829,1,0,0:0:0:0:
329,192,136916,1,0,0:0:0:0:
256,192,137002,1,0,0:0:0:0:
182,192,137002,1,0,0:0:0:0:
475,192,137002,1,0,0:0:0:0:
109,192,137089,1,0,0:0:0:0:
36,192,137089,1,0,0:0:0:0:
402,192,137176,1,0,0:0:0:0:
182,192,137262,1,0,0:0:0:0:
329,192,137349,1,0,0:0:0:0:
109,192,137436,1,0,0:0:0:0:
36,192,137436,1,0,0:0:0:0:
329,192,137522,1,0,0:0:0:0:
402,192,137522,1,0,0:0:0:0:
475,192,137522,1,0,0:0:0:0:
256,192,137696,1,0,0:0:0:0:
182,192,137696,1,0,0:0:0:0:
109,192,137696,1,0,0:0:0:0:
329,192,137869,1,0,0:0:0:0:
402,192,137956,1,0,0:0:0:0:
256,192,137956,1,0,0:0:0:0:
36,192,138043,1,0,0:0:0:0:
109,192,138043,1,0,0:0:0:0:
182,192,138043,1,0,0:0:0:0:
182,192,138216,1,0,0:0:0:0:
109,192,138303,1,0,0:0:0:0:
256,192,138303,1,0,0:0:0:0:
329,192,138390,1,0,0:0:0:0:
402,192,138390,1,0,0:0:0:0:
475,192,138390,1,0,0:0:0:0:
109,192,138563,1,0,0:0:0:0:
36,192,138650,1,0,0:0:0:0:
256,192,138736,1,0,0:0:0:0:
182,192,138736,1,0,0:0:0:0:
329,192,138736,1,0,0:0:0:0:
475,192,138910,1,0,0:0:0:0:
402,192,138996,1,0,0:0:0:0:
256,192,139081,1,0,0:0:0:0:
475,192,139081,1,0,0:0:0:0:
36,192,139081,1,0,0:0:0:0:
182,192,139254,1,0,0:0:0:0:
109,192,139341,1,0,0:0:0:0:
36,192,139427,1,0,0:0:0:0:
475,192,139427,1,0,0:0:0:0:
256,192,139427,1,0,0:0:0:0:
402,192,139514,1,0,0:0:0:0:
109,192,139601,1,0,0:0:0:0:
329,192,139687,1,0,0:0:0:0:
182,192,139774,1,0,0:0:0:0:
36,192,139861,1,0,0:0:0:0:
256,192,139861,1,0,0:0:0:0:
475,192,139948,1,0,0:0:0:0:
109,192,139948,1,0,0:0:0:0:
402,192,139948,1,0,0:0:0:0:
182,192,140121,1,0,0:0:0:0:
256,192,140121,1,0,0:0:0:0:
329,192,140121,1,0,0:0:0:0:
475,192,140294,1,0,0:0:0:0:
402,192,140381,1,0,0:0:0:0:
329,192,140468,1,0,0:0:0:0:
109,192,140468,1,0,0:0:0:0:
256,192,140554,1,0,0:0:0:0:
36,192,140554,1,0,0:0:0:0:
182,192,140641,1,0,0:0:0:0:
402,192,140641,1,0,0:0:0:0:
109,192,140728,1,0,0:0:0:0:
329,192,140728,1,0,0:0:0:0:
36,192,140815,1,0,0:0:0:0:
256,192,140815,1,0,0:0:0:0:
475,192,140815,1,0,0:0:0:0:
109,192,140988,1,0,0:0:0:0:
402,192,140988,1,0,0:0:0:0:
329,192,141075,1,0,0:0:0:0:
182,192,141161,1,0,0:0:0:0:
256,192,141161,1,0,0:0:0:0:
36,192,141161,1,0,0:0:0:0:
329,192,141335,1,0,0:0:0:0:
182,192,141422,1,0,0:0:0:0:
402,192,141508,1,0,0:0:0:0:
475,192,141508,1,0,0:0:0:0:
36,192,141508,1,0,0:0:0:0:
256,192,141595,1,0,0:0:0:0:
329,192,141682,1,0,0:0:0:0:
109,192,141768,1,0,0:0:0:0:
182,192,141855,1,0,0:0:0:0:
36,192,141942,1,0,0:0:0:0:
109,192,142028,1,0,0:0:0:0:
256,192,142028,1,0,0:0:0:0:
402,192,142028,1,0,0:0:0:0:
182,192,142202,1,0,0:0:0:0:
329,192,142202,1,0,0:0:0:0:
36,192,142202,1,0,0:0:0:0:
475,192,142202,1,0,0:0:0:0:
402,192,142375,1,0,0:0:0:0:
329,192,142462,1,0,0:0:0:0:
256,192,142549,1,0,0:0:0:0:
36,192,142549,1,0,0:0:0:0:
475,192,142549,1,0,0:0:0:0:
182,192,142635,1,0,0:0:0:0:
109,192,142722,1,0,0:0:0:0:
256,192,142809,1,0,0:0:0:0:
402,192,142809,1,0,0:0:0:0:
182,192,142896,1,0,0:0:0:0:
329,192,142896,1,0,0:0:0:0:
475,192,142896,1,0,0:0:0:0:
402,192,143069,1,0,0:0:0:0:
182,192,143242,1,0,0:0:0:0:
109,192,143242,1,0,0:0:0:0:
36,192,143242,1,0,0:0:0:0:
256,192,143416,1,0,0:0:0:0:
182,192,143589,1,0,0:0:0:0:
109,192,143589,1,0,0:0:0:0:
329,192,143589,1,0,0:0:0:0:
402,192,143589,1,0,0:0:0:0:
256,192,143762,1,0,0:0:0:0:
182,192,143849,1,0,0:0:0:0:
329,192,143935,1,0,0:0:0:0:
475,192,143935,1,0,0:0:0:0:
109,192,143935,1,0,0:0:0:0:
402,192,144022,1,0,0:0:0:0:
256,192,144109,1,0,0:0:0:0:
36,192,144195,1,0,0:0:0:0:
329,192,144282,1,0,0:0:0:0:
109,192,144369,1,0,0:0:0:0:
256,192,144369,1,0,0:0:0:0:
182,192,144456,1,0,0:0:0:0:
36,192,144456,1,0,0:0:0:0:
475,192,144456,1,0,0:0:0:0:
329,192,144629,1,0,0:0:0:0:
182,192,144629,1,0,0:0:0:0:
256,192,144629,1,0,0:0:0:0:
109,192,144802,1,0,0:0:0:0:
182,192,144889,1,0,0:0:0:0:
109,192,144976,1,0,0:0:0:0:
256,192,144976,1,0,0:0:0:0:
402,192,144976,1,0,0:0:0:0:
329,192,145062,1,0,0:0:0:0:
36,192,145149,1,0,0:0:0:0:
109,192,145236,1,0,0:0:0:0:
256,192,145236,1,0,0:0:0:0:
182,192,145323,1,0,0:0:0:0:
329,192,145323,1,0,0:0:0:0:
475,192,145323,1,0,0:0:0:0:
402,192,145496,1,0,0:0:0:0:
329,192,145583,1,0,0:0:0:0:
36,192,145669,1,0,0:0:0:0:
256,192,145669,1,0,0:0:0:0:
109,192,145669,1,0,0:0:0:0:
402,192,145843,1,0,0:0:0:0:
329,192,145930,1,0,0:0:0:0:
256,192,146016,1,0,0:0:0:0:
182,192,146016,1,0,0:0:0:0:
36,192,146016,1,0,0:0:0:0:
109,192,146103,1,0,0:0:0:0:
475,192,146103,1,0,0:0:0:0:
402,192,146190,1,0,0:0:0:0:
182,192,146276,1,0,0:0:0:0:
329,192,146363,1,0,0:0:0:0:
256,192,146450,1,0,0:0:0:0:
36,192,146450,1,0,0:0:0:0:
109,192,146536,1,0,0:0:0:0:
182,192,146536,1,0,0:0:0:0:
475,192,146536,1,0,0:0:0:0:
329,192,146710,1,0,0:0:0:0:
402,192,146710,1,0,0:0:0:0:
36,192,146710,1,0,0:0:0:0:
182,192,146883,1,0,0:0:0:0:
475,192,146883,1,0,0:0:0:0:
109,192,146970,1,0,0:0:0:0:
402,192,146970,1,0,0:0:0:0:
36,192,147057,1,0,0:0:0:0:
256,192,147057,1,0,0:0:0:0:
329,192,147057,1,0,0:0:0:0:
109,192,147143,1,0,0:0:0:0:
182,192,147143,1,0,0:0:0:0:
256,192,147230,1,0,0:0:0:0:
402,192,147230,1,0,0:0:0:0:
329,192,147317,1,0,0:0:0:0:
475,192,147317,1,0,0:0:0:0:
182,192,147404,1,0,0:0:0:0:
109,192,147404,1,0,0:0:0:0:
36,192,147404,1,0,0:0:0:0:
402,192,147577,1,0,0:0:0:0:
329,192,147664,1,0,0:0:0:0:
182,192,147750,1,0,0:0:0:0:
109,192,147750,1,0,0:0:0:0:
475,192,147750,1,0,0:0:0:0:
402,192,147837,1,0,0:0:0:0:
256,192,147924,1,0,0:0:0:0:
329,192,148010,1,0,0:0:0:0:
182,192,148096,1,0,0:0:0:0:
109,192,148096,1,0,0:0:0:0:
36,192,148096,1,0,0:0:0:0:
475,192,148269,1,0,0:0:0:0:
402,192,148356,1,0,0:0:0:0:
329,192,148442,1,0,0:0:0:0:
475,192,148442,1,0,0:0:0:0:
36,192,148442,1,0,0:0:0:0:
256,192,148529,1,0,0:0:0:0:
182,192,148616,1,0,0:0:0:0:
402,192,148702,1,0,0:0:0:0:
329,192,148789,1,0,0:0:0:0:
256,192,148876,1,0,0:0:0:0:
36,192,148876,1,0,0:0:0:0:
109,192,148963,1,0,0:0:0:0:
182,192,148963,1,0,0:0:0:0:
475,192,148963,1,0,0:0:0:0:
329,192,149049,1,0,0:0:0:0:
402,192,149049,1,0,0:0:0:0:
256,192,149136,1,0,0:0:0:0:
36,192,149136,1,0,0:0:0:0:
475,192,149136,1,0,0:0:0:0:
182,192,149136,1,0,0:0:0:0:
109,192,149309,1,0,0:0:0:0:
329,192,149309,1,0,0:0:0:0:
402,192,149309,1,0,0:0:0:0:
256,192,149396,1,0,0:0:0:0:
182,192,149483,1,0,0:0:0:0:
475,192,149483,1,0,0:0:0:0:
36,192,149483,1,0,0:0:0:0:
109,192,149569,1,0,0:0:0:0:
329,192,149656,1,0,0:0:0:0:
256,192,149743,1,0,0:0:0:0:
182,192,149830,1,0,0:0:0:0:
109,192,149830,1,0,0:0:0:0:
329,192,149830,1,0,0:0:0:0:
402,192,149830,1,0,0:0:0:0:
475,192,150003,1,0,0:0:0:0:
402,192,150090,1,0,0:0:0:0:
182,192,150176,1,0,0:0:0:0:
256,192,150176,1,0,0:0:0:0:
329,192,150176,1,0,0:0:0:0:
475,192,150350,1,0,0:0:0:0:
36,192,150437,1,0,0:0:0:0:
109,192,150523,1,0,0:0:0:0:
182,192,150523,1,0,0:0:0:0:
329,192,150523,1,0,0:0:0:0:
256,192,150610,1,0,0:0:0:0:
182,192,150697,1,0,0:0:0:0:
402,192,150783,1,0,0:0:0:0:
329,192,150870,1,0,0:0:0:0:
475,192,150957,1,0,0:0:0:0:
402,192,151043,1,0,0:0:0:0:
256,192,151043,1,0,0:0:0:0:
109,192,151043,1,0,0:0:0:0:
182,192,151217,1,0,0:0:0:0:
329,192,151217,1,0,0:0:0:0:
256,192,151217,1,0,0:0:0:0:
329,192,151390,1,0,0:0:0:0:
402,192,151390,1,0,0:0:0:0:
475,192,151390,1,0,0:0:0:0:
256,192,151477,1,0,0:0:0:0:
329,192,151564,1,0,0:0:0:0:
402,192,151564,1,0,0:0:0:0:
182,192,151564,1,0,0:0:0:0:
36,192,151650,1,0,0:0:0:0:
109,192,151737,1,0,0:0:0:0:
182,192,151824,1,0,0:0:0:0:
329,192,151824,1,0,0:0:0:0:
256,192,151911,1,0,0:0:0:0:
36,192,151911,1,0,0:0:0:0:
475,192,151911,1,0,0:0:0:0:
109,192,151911,1,0,0:0:0:0:
402,192,151911,1,0,0:0:0:0:
182,192,152084,1,0,0:0:0:0:
402,192,152257,1,0,0:0:0:0:
475,192,152257,1,0,0:0:0:0:
256,192,152257,1,0,0:0:0:0:
36,192,152604,1,0,0:0:0:0:
109,192,152604,1,0,0:0:0:0:
182,192,152604,1,0,0:0:0:0:
329,192,152604,1,0,0:0:0:0:
475,192,152604,1,0,0:0:0:0:
402,192,152604,1,0,0:0:0:0:
