osu file format v14

[General]
AudioFilename: audio.mp3
AudioLeadIn: 0
PreviewTime: 101249
Countdown: 0
SampleSet: Soft
StackLeniency: 0.7
Mode: 3
LetterboxInBreaks: 0
SpecialStyle: 1
WidescreenStoryboard: 0

[Editor]
DistanceSpacing: 0.8
BeatDivisor: 8
GridSize: 16
TimelineZoom: 3.660001

[Metadata]
Title:AngelFalse
TitleUnicode:AngelFalse
Artist:Sakuzyo
ArtistUnicode:Sakuzyo
Creator:Linyx-sama
Version:MEGA's Purgatory (SV)
Source:Deemo
Tags:Ari_Knight Syadow- Another_Lie lombit dionzz99 Unknown_Player MEGAtive Nixeria-sama chouyaa Ridho_2307Ari_Knight Syadow- Another_Lie lombit dionzz99 Unknown_Player MEGAtive Nixeria-sama chouyaa Ridho_2307
BeatmapID:1398778
BeatmapSetID:619596

[Difficulty]
HPDrainRate:6.7
CircleSize:8
OverallDifficulty:8
ApproachRate:5
SliderMultiplier:1.4
SliderTickRate:1

[Events]
//Background and Video events
0,0,"BG MEGA.jpg",0,0
//Break Periods
//Storyboard Layer 0 (Background)
//Storyboard Layer 1 (Fail)
//Storyboard Layer 2 (Pass)
//Storyboard Layer 3 (Foreground)
//Storyboard Sound Samples

[TimingPoints]
22,1736,3,2,0,25,1,0
23,1735,3,2,0,25,1,0
24,1734,3,2,0,25,1,0
25,1733,3,2,0,25,1,0
26,1732,3,2,0,25,1,0
27,1731,3,2,0,25,1,0
28,1730,3,2,0,25,1,0
29,1729,3,2,0,25,1,0
30,1728,3,2,0,25,1,0
31,1727,3,2,0,25,1,0
32,1726,3,2,0,25,1,0
33,1725,3,2,0,25,1,0
34,1724,3,2,0,25,1,0
35,1723,3,2,0,25,1,0
36,1722,3,2,0,25,1,0
37,1721,3,2,0,25,1,0
38,1720,3,2,0,25,1,0
39,1719,3,2,0,25,1,0
40,1718,3,2,0,25,1,0
41,1717,3,2,0,25,1,0
42,1716,3,2,0,25,1,0
43,1715,3,2,0,25,1,0
44,1714,3,2,0,25,1,0
45,1713,3,2,0,25,1,0
46,1712,3,2,0,25,1,0
47,1711,3,2,0,25,1,0
48,1710,3,2,0,25,1,0
49,1709,3,2,0,25,1,0
50,1708,3,2,0,25,1,0
51,1707,3,2,0,25,1,0
52,1706,3,2,0,25,1,0
53,1705,3,2,0,25,1,0
54,1704,3,2,0,25,1,0
55,1703,3,2,0,25,1,0
56,1702,3,2,0,25,1,0
57,1701,3,2,0,25,1,0
58,1700,3,2,0,25,1,0
59,1699,3,2,0,25,1,0
60,1698,3,2,0,25,1,0
61,1697,3,2,0,25,1,0
62,1696,3,2,0,25,1,0
63,1695,3,2,0,25,1,0
64,1694,3,2,0,25,1,0
65,1693,3,2,0,25,1,0
66,1692,3,2,0,25,1,0
67,1691,3,2,0,25,1,0
68,1690,3,2,0,25,1,0
69,1689,3,2,0,25,1,0
70,1688,3,2,0,25,1,0
71,1687,3,2,0,25,1,0
72,1686,3,2,0,25,1,0
73,1685,3,2,0,25,1,0
74,1684,3,2,0,25,1,0
75,1683,3,2,0,25,1,0
76,1682,3,2,0,25,1,0
77,1681,3,2,0,25,1,0
78,1680,3,2,0,25,1,0
79,1679,3,2,0,25,1,0
80,1678,3,2,0,25,1,0
81,1677,3,2,0,25,1,0
82,1676,3,2,0,25,1,0
83,1675,3,2,0,25,1,0
84,1674,3,2,0,25,1,0
85,1673,3,2,0,25,1,0
86,1672,3,2,0,25,1,0
87,1671,3,2,0,25,1,0
88,1670,3,2,0,25,1,0
89,1669,3,2,0,25,1,0
90,1668,3,2,0,25,1,0
91,1667,3,2,0,25,1,0
92,1666,3,2,0,25,1,0
93,1665,3,2,0,25,1,0
94,1664,3,2,0,25,1,0
95,1663,3,2,0,25,1,0
96,1662,3,2,0,25,1,0
97,1661,3,2,0,25,1,0
98,1660,3,2,0,25,1,0
99,1659,3,2,0,25,1,0
100,1658,3,2,0,25,1,0
101,1657,3,2,0,25,1,0
102,1656,3,2,0,25,1,0
103,1655,3,2,0,25,1,0
104,1654,3,2,0,25,1,0
105,1653,3,2,0,25,1,0
106,1652,3,2,0,25,1,0
107,1651,3,2,0,25,1,0
108,1650,3,2,0,25,1,0
109,1649,3,2,0,25,1,0
110,1648,3,2,0,25,1,0
111,1647,3,2,0,25,1,0
112,1646,3,2,0,25,1,0
113,1645,3,2,0,25,1,0
114,1644,3,2,0,25,1,0
115,1643,3,2,0,25,1,0
116,1642,3,2,0,25,1,0
117,1641,3,2,0,25,1,0
118,1640,3,2,0,25,1,0
119,1639,3,2,0,25,1,0
120,1638,3,2,0,25,1,0
121,1637,3,2,0,25,1,0
122,1636,3,2,0,25,1,0
123,1635,3,2,0,25,1,0
124,1634,3,2,0,25,1,0
125,1633,3,2,0,25,1,0
126,1632,3,2,0,25,1,0
127,1631,3,2,0,25,1,0
128,1630,3,2,0,25,1,0
129,1629,3,2,0,25,1,0
130,1628,3,2,0,25,1,0
131,1627,3,2,0,25,1,0
132,1626,3,2,0,25,1,0
133,1625,3,2,0,25,1,0
134,1624,3,2,0,25,1,0
135,1623,3,2,0,25,1,0
136,1622,3,2,0,25,1,0
137,1621,3,2,0,25,1,0
138,1620,3,2,0,25,1,0
139,1619,3,2,0,25,1,0
140,1618,3,2,0,25,1,0
141,1617,3,2,0,25,1,0
142,1616,3,2,0,25,1,0
143,1615,3,2,0,25,1,0
144,1614,3,2,0,25,1,0
145,1613,3,2,0,25,1,0
146,1612,3,2,0,25,1,0
147,1611,3,2,0,25,1,0
148,1610,3,2,0,25,1,0
149,1609,3,2,0,25,1,0
150,1608,3,2,0,25,1,0
151,1607,3,2,0,25,1,0
152,1606,3,2,0,25,1,0
153,1605,3,2,0,25,1,0
154,1604,3,2,0,25,1,0
155,1603,3,2,0,25,1,0
156,1602,3,2,0,25,1,0
157,1601,3,2,0,25,1,0
158,1600,3,2,0,25,1,0
159,1599,3,2,0,25,1,0
160,1598,3,2,0,25,1,0
161,1597,3,2,0,25,1,0
162,1596,3,2,0,25,1,0
163,1595,3,2,0,25,1,0
164,1594,3,2,0,25,1,0
165,1593,3,2,0,25,1,0
166,1592,3,2,0,25,1,0
167,1591,3,2,0,25,1,0
168,1590,3,2,0,25,1,0
169,1589,3,2,0,25,1,0
170,1588,3,2,0,25,1,0
171,1587,3,2,0,25,1,0
172,1586,3,2,0,25,1,0
173,1585,3,2,0,25,1,0
174,1584,3,2,0,25,1,0
175,1583,3,2,0,25,1,0
176,1582,3,2,0,25,1,0
177,1581,3,2,0,25,1,0
178,1580,3,2,0,25,1,0
179,1579,3,2,0,25,1,0
180,1578,3,2,0,25,1,0
181,1577,3,2,0,25,1,0
182,1576,3,2,0,25,1,0
183,1575,3,2,0,25,1,0
184,1574,3,2,0,25,1,0
185,1573,3,2,0,25,1,0
186,1572,3,2,0,25,1,0
187,1571,3,2,0,25,1,0
188,1570,3,2,0,25,1,0
189,1569,3,2,0,25,1,0
190,1568,3,2,0,25,1,0
191,1567,3,2,0,25,1,0
192,1566,3,2,0,25,1,0
193,1565,3,2,0,25,1,0
194,1564,3,2,0,25,1,0
195,1563,3,2,0,25,1,0
196,1562,3,2,0,25,1,0
197,1561,3,2,0,25,1,0
198,1560,3,2,0,25,1,0
199,1559,3,2,0,25,1,0
200,1558,3,2,0,25,1,0
201,1557,3,2,0,25,1,0
202,1556,3,2,0,25,1,0
203,1555,3,2,0,25,1,0
204,1554,3,2,0,25,1,0
205,1553,3,2,0,25,1,0
206,1552,3,2,0,25,1,0
207,1551,3,2,0,25,1,0
208,1550,3,2,0,25,1,0
209,1549,3,2,0,25,1,0
210,1548,3,2,0,25,1,0
211,1547,3,2,0,25,1,0
212,1546,3,2,0,25,1,0
213,1545,3,2,0,25,1,0
214,1544,3,2,0,25,1,0
215,1543,3,2,0,25,1,0
216,1542,3,2,0,25,1,0
217,1541,3,2,0,25,1,0
218,1540,3,2,0,25,1,0
219,1539,3,2,0,25,1,0
220,1538,3,2,0,25,1,0
221,1537,3,2,0,25,1,0
222,1536,3,2,0,25,1,0
223,1535,3,2,0,25,1,0
224,1534,3,2,0,25,1,0
225,1533,3,2,0,25,1,0
226,1532,3,2,0,25,1,0
227,1531,3,2,0,25,1,0
228,1530,3,2,0,25,1,0
229,1529,3,2,0,25,1,0
230,1528,3,2,0,25,1,0
231,1527,3,2,0,25,1,0
232,1526,3,2,0,25,1,0
233,1525,3,2,0,25,1,0
234,1524,3,2,0,25,1,0
235,1523,3,2,0,25,1,0
236,1522,3,2,0,25,1,0
237,1521,3,2,0,25,1,0
238,1520,3,2,0,25,1,0
239,1519,3,2,0,25,1,0
240,1518,3,2,0,25,1,0
241,1517,3,2,0,25,1,0
242,1516,3,2,0,25,1,0
243,1515,3,2,0,25,1,0
244,1514,3,2,0,25,1,0
245,1513,3,2,0,25,1,0
246,1512,3,2,0,25,1,0
247,1511,3,2,0,25,1,0
248,1510,3,2,0,25,1,0
249,1509,3,2,0,25,1,0
250,1508,3,2,0,25,1,0
251,1507,3,2,0,25,1,0
252,1506,3,2,0,25,1,0
253,1505,3,2,0,25,1,0
254,1504,3,2,0,25,1,0
255,1503,3,2,0,25,1,0
256,1502,3,2,0,25,1,0
257,1501,3,2,0,25,1,0
258,1500,3,2,0,25,1,0
259,1499,3,2,0,25,1,0
260,1498,3,2,0,25,1,0
261,1497,3,2,0,25,1,0
262,1496,3,2,0,25,1,0
263,1495,3,2,0,25,1,0
264,1494,3,2,0,25,1,0
265,1493,3,2,0,25,1,0
266,1492,3,2,0,25,1,0
267,1491,3,2,0,25,1,0
268,1490,3,2,0,25,1,0
269,1489,3,2,0,25,1,0
270,1488,3,2,0,25,1,0
271,1487,3,2,0,25,1,0
272,1486,3,2,0,25,1,0
273,1485,3,2,0,25,1,0
274,1484,3,2,0,25,1,0
275,1483,3,2,0,25,1,0
276,1482,3,2,0,25,1,0
277,1481,3,2,0,25,1,0
278,1480,3,2,0,25,1,0
279,1479,3,2,0,25,1,0
280,1478,3,2,0,25,1,0
281,1477,3,2,0,25,1,0
282,1476,3,2,0,25,1,0
283,1475,3,2,0,25,1,0
284,1474,3,2,0,25,1,0
285,1473,3,2,0,25,1,0
286,1472,3,2,0,25,1,0
287,1471,3,2,0,25,1,0
288,1470,3,2,0,25,1,0
289,1469,3,2,0,25,1,0
290,1468,3,2,0,25,1,0
291,1467,3,2,0,25,1,0
292,1466,3,2,0,25,1,0
293,1465,3,2,0,25,1,0
294,1464,3,2,0,25,1,0
295,1463,3,2,0,25,1,0
296,1462,3,2,0,25,1,0
297,1461,3,2,0,25,1,0
298,1460,3,2,0,25,1,0
299,1459,3,2,0,25,1,0
300,1458,3,2,0,25,1,0
301,1457,3,2,0,25,1,0
302,1456,3,2,0,25,1,0
303,1455,3,2,0,25,1,0
304,1454,3,2,0,25,1,0
305,1453,3,2,0,25,1,0
306,1452,3,2,0,25,1,0
307,1451,3,2,0,25,1,0
308,1450,3,2,0,25,1,0
309,1449,3,2,0,25,1,0
310,1448,3,2,0,25,1,0
311,1447,3,2,0,25,1,0
312,1446,3,2,0,25,1,0
313,1445,3,2,0,25,1,0
314,1444,3,2,0,25,1,0
315,1443,3,2,0,25,1,0
316,1442,3,2,0,25,1,0
317,1441,3,2,0,25,1,0
318,1440,3,2,0,25,1,0
319,1439,3,2,0,25,1,0
320,1438,3,2,0,25,1,0
321,1437,3,2,0,25,1,0
322,1436,3,2,0,25,1,0
323,1435,3,2,0,25,1,0
324,1434,3,2,0,25,1,0
325,1433,3,2,0,25,1,0
326,1432,3,2,0,25,1,0
327,1431,3,2,0,25,1,0
328,1430,3,2,0,25,1,0
329,1429,3,2,0,25,1,0
330,1428,3,2,0,25,1,0
331,1427,3,2,0,25,1,0
332,1426,3,2,0,25,1,0
333,1425,3,2,0,25,1,0
334,1424,3,2,0,25,1,0
335,1423,3,2,0,25,1,0
336,1422,3,2,0,25,1,0
337,1421,3,2,0,25,1,0
338,1420,3,2,0,25,1,0
339,1419,3,2,0,25,1,0
340,1418,3,2,0,25,1,0
341,1417,3,2,0,25,1,0
342,1416,3,2,0,25,1,0
343,1415,3,2,0,25,1,0
344,1414,3,2,0,25,1,0
345,1413,3,2,0,25,1,0
346,1412,3,2,0,25,1,0
347,1411,3,2,0,25,1,0
348,1410,3,2,0,25,1,0
349,1409,3,2,0,25,1,0
350,1408,3,2,0,25,1,0
351,1407,3,2,0,25,1,0
352,1406,3,2,0,25,1,0
353,1405,3,2,0,25,1,0
354,1404,3,2,0,25,1,0
355,1403,3,2,0,25,1,0
356,1402,3,2,0,25,1,0
357,1401,3,2,0,25,1,0
358,1400,3,2,0,25,1,0
359,1399,3,2,0,25,1,0
360,1398,3,2,0,25,1,0
361,1397,3,2,0,25,1,0
362,1396,3,2,0,25,1,0
363,1395,3,2,0,25,1,0
364,1394,3,2,0,25,1,0
365,1393,3,2,0,25,1,0
366,1392,3,2,0,25,1,0
367,1391,3,2,0,25,1,0
368,1390,3,2,0,25,1,0
369,1389,3,2,0,25,1,0
370,1388,3,2,0,25,1,0
371,1387,3,2,0,25,1,0
372,1386,3,2,0,25,1,0
373,1385,3,2,0,25,1,0
374,1384,3,2,0,25,1,0
375,1383,3,2,0,25,1,0
376,1382,3,2,0,25,1,0
377,1381,3,2,0,25,1,0
378,1380,3,2,0,25,1,0
379,1379,3,2,0,25,1,0
380,1378,3,2,0,25,1,0
381,1377,3,2,0,25,1,0
382,1376,3,2,0,25,1,0
383,1375,3,2,0,25,1,0
384,1374,3,2,0,25,1,0
385,1373,3,2,0,25,1,0
386,1372,3,2,0,25,1,0
387,1371,3,2,0,25,1,0
388,1370,3,2,0,25,1,0
389,1369,3,2,0,25,1,0
390,1368,3,2,0,25,1,0
391,1367,3,2,0,25,1,0
392,1366,3,2,0,25,1,0
393,1365,3,2,0,25,1,0
394,1364,3,2,0,25,1,0
395,1363,3,2,0,25,1,0
396,1362,3,2,0,25,1,0
397,1361,3,2,0,25,1,0
398,1360,3,2,0,25,1,0
399,1359,3,2,0,25,1,0
400,1358,3,2,0,25,1,0
401,1357,3,2,0,25,1,0
402,1356,3,2,0,25,1,0
403,1355,3,2,0,25,1,0
404,1354,3,2,0,25,1,0
405,1353,3,2,0,25,1,0
406,1352,3,2,0,25,1,0
407,1351,3,2,0,25,1,0
408,1350,3,2,0,25,1,0
409,1349,3,2,0,25,1,0
410,1348,3,2,0,25,1,0
411,1347,3,2,0,25,1,0
412,1346,3,2,0,25,1,0
413,1345,3,2,0,25,1,0
414,1344,3,2,0,25,1,0
415,1343,3,2,0,25,1,0
416,1342,3,2,0,25,1,0
417,1341,3,2,0,25,1,0
418,1340,3,2,0,25,1,0
419,1339,3,2,0,25,1,0
420,1338,3,2,0,25,1,0
421,1337,3,2,0,25,1,0
422,1336,3,2,0,25,1,0
423,1335,3,2,0,25,1,0
424,1334,3,2,0,25,1,0
425,1333,3,2,0,25,1,0
426,1332,3,2,0,25,1,0
427,1331,3,2,0,25,1,0
428,1330,3,2,0,25,1,0
429,1329,3,2,0,25,1,0
430,1328,3,2,0,25,1,0
431,1327,3,2,0,25,1,0
432,1326,3,2,0,25,1,0
433,1325,3,2,0,25,1,0
434,1324,3,2,0,25,1,0
435,1323,3,2,0,25,1,0
436,1322,3,2,0,25,1,0
437,1321,3,2,0,25,1,0
438,1320,3,2,0,25,1,0
439,1319,3,2,0,25,1,0
440,1318,3,2,0,25,1,0
441,1317,3,2,0,25,1,0
442,1316,3,2,0,25,1,0
443,1315,3,2,0,25,1,0
444,1314,3,2,0,25,1,0
445,1313,3,2,0,25,1,0
446,1312,3,2,0,25,1,0
447,1311,3,2,0,25,1,0
448,1310,3,2,0,25,1,0
449,1309,3,2,0,25,1,0
450,1308,3,2,0,25,1,0
451,1307,3,2,0,25,1,0
452,1306,3,2,0,25,1,0
453,1305,3,2,0,25,1,0
454,1304,3,2,0,25,1,0
455,1303,3,2,0,25,1,0
456,1302,3,2,0,25,1,0
457,1301,3,2,0,25,1,0
458,1300,3,2,0,25,1,0
459,1299,3,2,0,25,1,0
460,1298,3,2,0,25,1,0
461,1297,3,2,0,25,1,0
462,1296,3,2,0,25,1,0
463,1295,3,2,0,25,1,0
464,1294,3,2,0,25,1,0
465,1293,3,2,0,25,1,0
466,1292,3,2,0,25,1,0
467,1291,3,2,0,25,1,0
468,1290,3,2,0,25,1,0
469,1289,3,2,0,25,1,0
470,1288,3,2,0,25,1,0
471,1287,3,2,0,25,1,0
472,1286,3,2,0,25,1,0
473,1285,3,2,0,25,1,0
474,1284,3,2,0,25,1,0
475,1283,3,2,0,25,1,0
476,1282,3,2,0,25,1,0
477,1281,3,2,0,25,1,0
478,1280,3,2,0,25,1,0
479,1279,3,2,0,25,1,0
480,1278,3,2,0,25,1,0
481,1277,3,2,0,25,1,0
482,1276,3,2,0,25,1,0
483,1275,3,2,0,25,1,0
484,1274,3,2,0,25,1,0
485,1273,3,2,0,25,1,0
486,1272,3,2,0,25,1,0
487,1271,3,2,0,25,1,0
488,1270,3,2,0,25,1,0
489,1269,3,2,0,25,1,0
490,1268,3,2,0,25,1,0
491,1267,3,2,0,25,1,0
492,1266,3,2,0,25,1,0
493,1265,3,2,0,25,1,0
494,1264,3,2,0,25,1,0
495,1263,3,2,0,25,1,0
496,1262,3,2,0,25,1,0
497,1261,3,2,0,25,1,0
498,1260,3,2,0,25,1,0
499,1259,3,2,0,25,1,0
500,1258,3,2,0,25,1,0
501,1257,3,2,0,25,1,0
502,1256,3,2,0,25,1,0
503,1255,3,2,0,25,1,0
504,1254,3,2,0,25,1,0
505,1253,3,2,0,25,1,0
506,1252,3,2,0,25,1,0
507,1251,3,2,0,25,1,0
508,1250,3,2,0,25,1,0
509,1249,3,2,0,25,1,0
510,1248,3,2,0,25,1,0
511,1247,3,2,0,25,1,0
512,1246,3,2,0,25,1,0
513,1245,3,2,0,25,1,0
514,1244,3,2,0,25,1,0
515,1243,3,2,0,25,1,0
516,1242,3,2,0,25,1,0
517,1241,3,2,0,25,1,0
518,1240,3,2,0,25,1,0
519,1239,3,2,0,25,1,0
520,1238,3,2,0,25,1,0
521,1237,3,2,0,25,1,0
522,1236,3,2,0,25,1,0
523,1235,3,2,0,25,1,0
524,1234,3,2,0,25,1,0
525,1233,3,2,0,25,1,0
526,1232,3,2,0,25,1,0
527,1231,3,2,0,25,1,0
528,1230,3,2,0,25,1,0
529,1229,3,2,0,25,1,0
530,1228,3,2,0,25,1,0
531,1227,3,2,0,25,1,0
532,1226,3,2,0,25,1,0
533,1225,3,2,0,25,1,0
534,1224,3,2,0,25,1,0
535,1223,3,2,0,25,1,0
536,1222,3,2,0,25,1,0
537,1221,3,2,0,25,1,0
538,1220,3,2,0,25,1,0
539,1219,3,2,0,25,1,0
540,1218,3,2,0,25,1,0
541,1217,3,2,0,25,1,0
542,1216,3,2,0,25,1,0
543,1215,3,2,0,25,1,0
544,1214,3,2,0,25,1,0
545,1213,3,2,0,25,1,0
546,1212,3,2,0,25,1,0
547,1211,3,2,0,25,1,0
548,1210,3,2,0,25,1,0
549,1209,3,2,0,25,1,0
550,1208,3,2,0,25,1,0
551,1207,3,2,0,25,1,0
552,1206,3,2,0,25,1,0
553,1205,3,2,0,25,1,0
554,1204,3,2,0,25,1,0
555,1203,3,2,0,25,1,0
556,1202,3,2,0,25,1,0
557,1201,3,2,0,25,1,0
558,1200,3,2,0,25,1,0
559,1199,3,2,0,25,1,0
560,1198,3,2,0,25,1,0
561,1197,3,2,0,25,1,0
562,1196,3,2,0,25,1,0
563,1195,3,2,0,25,1,0
564,1194,3,2,0,25,1,0
565,1193,3,2,0,25,1,0
566,1192,3,2,0,25,1,0
567,1191,3,2,0,25,1,0
568,1190,3,2,0,25,1,0
569,1189,3,2,0,25,1,0
570,1188,3,2,0,25,1,0
571,1187,3,2,0,25,1,0
572,1186,3,2,0,25,1,0
573,1185,3,2,0,25,1,0
574,1184,3,2,0,25,1,0
575,1183,3,2,0,25,1,0
576,1182,3,2,0,25,1,0
577,1181,3,2,0,25,1,0
578,1180,3,2,0,25,1,0
579,1179,3,2,0,25,1,0
580,1178,3,2,0,25,1,0
581,1177,3,2,0,25,1,0
582,1176,3,2,0,25,1,0
583,1175,3,2,0,25,1,0
584,1174,3,2,0,25,1,0
585,1173,3,2,0,25,1,0
586,1172,3,2,0,25,1,0
587,1171,3,2,0,25,1,0
588,1170,3,2,0,25,1,0
589,1169,3,2,0,25,1,0
590,1168,3,2,0,25,1,0
591,1167,3,2,0,25,1,0
592,1166,3,2,0,25,1,0
593,1165,3,2,0,25,1,0
594,1164,3,2,0,25,1,0
595,1163,3,2,0,25,1,0
596,1162,3,2,0,25,1,0
597,1161,3,2,0,25,1,0
598,1160,3,2,0,25,1,0
599,1159,3,2,0,25,1,0
600,1158,3,2,0,25,1,0
601,1157,3,2,0,25,1,0
602,1156,3,2,0,25,1,0
603,1155,3,2,0,25,1,0
604,1154,3,2,0,25,1,0
605,1153,3,2,0,25,1,0
606,1152,3,2,0,25,1,0
607,1151,3,2,0,25,1,0
608,1150,3,2,0,25,1,0
609,1149,3,2,0,25,1,0
610,1148,3,2,0,25,1,0
611,1147,3,2,0,25,1,0
612,1146,3,2,0,25,1,0
613,1145,3,2,0,25,1,0
614,1144,3,2,0,25,1,0
615,1143,3,2,0,25,1,0
616,1142,3,2,0,25,1,0
617,1141,3,2,0,25,1,0
618,1140,3,2,0,25,1,0
619,1139,3,2,0,25,1,0
620,1138,3,2,0,25,1,0
621,1137,3,2,0,25,1,0
622,1136,3,2,0,25,1,0
623,1135,3,2,0,25,1,0
624,1134,3,2,0,25,1,0
625,1133,3,2,0,25,1,0
626,1132,3,2,0,25,1,0
627,1131,3,2,0,25,1,0
628,1130,3,2,0,25,1,0
629,1129,3,2,0,25,1,0
630,1128,3,2,0,25,1,0
631,1127,3,2,0,25,1,0
632,1126,3,2,0,25,1,0
633,1125,3,2,0,25,1,0
634,1124,3,2,0,25,1,0
635,1123,3,2,0,25,1,0
636,1122,3,2,0,25,1,0
637,1121,3,2,0,25,1,0
638,1120,3,2,0,25,1,0
639,1119,3,2,0,25,1,0
640,1118,3,2,0,25,1,0
641,1117,3,2,0,25,1,0
642,1116,3,2,0,25,1,0
643,1115,3,2,0,25,1,0
644,1114,3,2,0,25,1,0
645,1113,3,2,0,25,1,0
646,1112,3,2,0,25,1,0
647,1111,3,2,0,25,1,0
648,1110,3,2,0,25,1,0
649,1109,3,2,0,25,1,0
650,1108,3,2,0,25,1,0
651,1107,3,2,0,25,1,0
652,1106,3,2,0,25,1,0
653,1105,3,2,0,25,1,0
654,1104,3,2,0,25,1,0
655,1103,3,2,0,25,1,0
656,1102,3,2,0,25,1,0
657,1101,3,2,0,25,1,0
658,1100,3,2,0,25,1,0
659,1099,3,2,0,25,1,0
660,1098,3,2,0,25,1,0
661,1097,3,2,0,25,1,0
662,1096,3,2,0,25,1,0
663,1095,3,2,0,25,1,0
664,1094,3,2,0,25,1,0
665,1093,3,2,0,25,1,0
666,1092,3,2,0,25,1,0
667,1091,3,2,0,25,1,0
668,1090,3,2,0,25,1,0
669,1089,3,2,0,25,1,0
670,1088,3,2,0,25,1,0
671,1087,3,2,0,25,1,0
672,1086,3,2,0,25,1,0
673,1085,3,2,0,25,1,0
674,1084,3,2,0,25,1,0
675,1083,3,2,0,25,1,0
676,1082,3,2,0,25,1,0
677,1081,3,2,0,25,1,0
678,1080,3,2,0,25,1,0
679,1079,3,2,0,25,1,0
680,1078,3,2,0,25,1,0
681,1077,3,2,0,25,1,0
682,1076,3,2,0,25,1,0
683,1075,3,2,0,25,1,0
684,1074,3,2,0,25,1,0
685,1073,3,2,0,25,1,0
686,1072,3,2,0,25,1,0
687,1071,3,2,0,25,1,0
688,1070,3,2,0,25,1,0
689,1069,3,2,0,25,1,0
690,1068,3,2,0,25,1,0
691,1067,3,2,0,25,1,0
692,1066,3,2,0,25,1,0
693,1065,3,2,0,25,1,0
694,1064,3,2,0,25,1,0
695,1063,3,2,0,25,1,0
696,1062,3,2,0,25,1,0
697,1061,3,2,0,25,1,0
698,1060,3,2,0,25,1,0
699,1059,3,2,0,25,1,0
700,1058,3,2,0,25,1,0
701,1057,3,2,0,25,1,0
702,1056,3,2,0,25,1,0
703,1055,3,2,0,25,1,0
704,1054,3,2,0,25,1,0
705,1053,3,2,0,25,1,0
706,1052,3,2,0,25,1,0
707,1051,3,2,0,25,1,0
708,1050,3,2,0,25,1,0
709,1049,3,2,0,25,1,0
710,1048,3,2,0,25,1,0
711,1047,3,2,0,25,1,0
712,1046,3,2,0,25,1,0
713,1045,3,2,0,25,1,0
714,1044,3,2,0,25,1,0
715,1043,3,2,0,25,1,0
716,1042,3,2,0,25,1,0
717,1041,3,2,0,25,1,0
718,1040,3,2,0,25,1,0
719,1039,3,2,0,25,1,0
720,1038,3,2,0,25,1,0
721,1037,3,2,0,25,1,0
722,1036,3,2,0,25,1,0
723,1035,3,2,0,25,1,0
724,1034,3,2,0,25,1,0
725,1033,3,2,0,25,1,0
726,1032,3,2,0,25,1,0
727,1031,3,2,0,25,1,0
728,1030,3,2,0,25,1,0
729,1029,3,2,0,25,1,0
730,1028,3,2,0,25,1,0
731,1027,3,2,0,25,1,0
732,1026,3,2,0,25,1,0
733,1025,3,2,0,25,1,0
734,1024,3,2,0,25,1,0
735,1023,3,2,0,25,1,0
736,1022,3,2,0,25,1,0
737,1021,3,2,0,25,1,0
738,1020,3,2,0,25,1,0
739,1019,3,2,0,25,1,0
740,1018,3,2,0,25,1,0
741,1017,3,2,0,25,1,0
742,1016,3,2,0,25,1,0
743,1015,3,2,0,25,1,0
744,1014,3,2,0,25,1,0
745,1013,3,2,0,25,1,0
746,1012,3,2,0,25,1,0
747,1011,3,2,0,25,1,0
748,1010,3,2,0,25,1,0
749,1009,3,2,0,25,1,0
750,1008,3,2,0,25,1,0
751,1007,3,2,0,25,1,0
752,1006,3,2,0,25,1,0
753,1005,3,2,0,25,1,0
754,1004,3,2,0,25,1,0
755,1003,3,2,0,25,1,0
756,1002,3,2,0,25,1,0
757,1001,3,2,0,25,1,0
758,1000,3,2,0,25,1,0
759,999,3,2,0,25,1,0
760,998,3,2,0,25,1,0
761,997,3,2,0,25,1,0
762,996,3,2,0,25,1,0
763,995,3,2,0,25,1,0
764,994,3,2,0,25,1,0
765,993,3,2,0,25,1,0
766,992,3,2,0,25,1,0
767,991,3,2,0,25,1,0
768,990,3,2,0,25,1,0
769,989,3,2,0,25,1,0
770,988,3,2,0,25,1,0
771,987,3,2,0,25,1,0
772,986,3,2,0,25,1,0
773,985,3,2,0,25,1,0
774,984,3,2,0,25,1,0
775,983,3,2,0,25,1,0
776,982,3,2,0,25,1,0
777,981,3,2,0,25,1,0
778,980,3,2,0,25,1,0
779,979,3,2,0,25,1,0
780,978,3,2,0,25,1,0
781,977,3,2,0,25,1,0
782,976,3,2,0,25,1,0
783,975,3,2,0,25,1,0
784,974,3,2,0,25,1,0
785,973,3,2,0,25,1,0
786,972,3,2,0,25,1,0
787,971,3,2,0,25,1,0
788,970,3,2,0,25,1,0
789,969,3,2,0,25,1,0
790,968,3,2,0,25,1,0
791,967,3,2,0,25,1,0
792,966,3,2,0,25,1,0
793,965,3,2,0,25,1,0
794,964,3,2,0,25,1,0
795,963,3,2,0,25,1,0
796,962,3,2,0,25,1,0
797,961,3,2,0,25,1,0
798,960,3,2,0,25,1,0
799,959,3,2,0,25,1,0
800,958,3,2,0,25,1,0
801,957,3,2,0,25,1,0
802,956,3,2,0,25,1,0
803,955,3,2,0,25,1,0
804,954,3,2,0,25,1,0
805,953,3,2,0,25,1,0
806,952,3,2,0,25,1,0
807,951,3,2,0,25,1,0
808,950,3,2,0,25,1,0
809,949,3,2,0,25,1,0
810,948,3,2,0,25,1,0
811,947,3,2,0,25,1,0
812,946,3,2,0,25,1,0
813,945,3,2,0,25,1,0
814,944,3,2,0,25,1,0
815,943,3,2,0,25,1,0
816,942,3,2,0,25,1,0
817,941,3,2,0,25,1,0
818,940,3,2,0,25,1,0
819,939,3,2,0,25,1,0
820,938,3,2,0,25,1,0
821,937,3,2,0,25,1,0
822,936,3,2,0,25,1,0
823,935,3,2,0,25,1,0
824,934,3,2,0,25,1,0
825,933,3,2,0,25,1,0
826,932,3,2,0,25,1,0
827,931,3,2,0,25,1,0
828,930,3,2,0,25,1,0
829,929,3,2,0,25,1,0
830,928,3,2,0,25,1,0
831,927,3,2,0,25,1,0
832,926,3,2,0,25,1,0
833,925,3,2,0,25,1,0
834,924,3,2,0,25,1,0
835,923,3,2,0,25,1,0
836,922,3,2,0,25,1,0
837,921,3,2,0,25,1,0
838,920,3,2,0,25,1,0
839,919,3,2,0,25,1,0
840,918,3,2,0,25,1,0
841,917,3,2,0,25,1,0
842,916,3,2,0,25,1,0
843,915,3,2,0,25,1,0
844,914,3,2,0,25,1,0
845,913,3,2,0,25,1,0
846,912,3,2,0,25,1,0
847,911,3,2,0,25,1,0
848,910,3,2,0,25,1,0
849,909,3,2,0,25,1,0
850,908,3,2,0,25,1,0
851,907,3,2,0,25,1,0
852,906,3,2,0,25,1,0
853,905,3,2,0,25,1,0
854,904,3,2,0,25,1,0
855,903,3,2,0,25,1,0
856,902,3,2,0,25,1,0
857,901,3,2,0,25,1,0
858,900,3,2,0,25,1,0
859,899,3,2,0,25,1,0
860,898,3,2,0,25,1,0
861,897,3,2,0,25,1,0
862,896,3,2,0,25,1,0
863,895,3,2,0,25,1,0
864,894,3,2,0,25,1,0
865,893,3,2,0,25,1,0
866,892,3,2,0,25,1,0
867,891,3,2,0,25,1,0
868,890,3,2,0,25,1,0
869,889,3,2,0,25,1,0
870,888,3,2,0,25,1,0
871,887,3,2,0,25,1,0
872,886,3,2,0,25,1,0
873,885,3,2,0,25,1,0
874,884,3,2,0,25,1,0
875,883,3,2,0,25,1,0
876,882,3,2,0,25,1,0
877,881,3,2,0,25,1,0
878,880,3,2,0,25,1,0
879,879,3,2,0,25,1,0
880,878,3,2,0,25,1,0
881,877,3,2,0,25,1,0
882,876,3,2,0,25,1,0
883,875,3,2,0,25,1,0
884,874,3,2,0,25,1,0
885,873,3,2,0,25,1,0
886,872,3,2,0,25,1,0
887,871,3,2,0,25,1,0
888,870,3,2,0,25,1,0
889,869,3,2,0,25,1,0
890,868,3,2,0,25,1,0
891,867,3,2,0,25,1,0
892,866,3,2,0,25,1,0
893,865,3,2,0,25,1,0
894,864,3,2,0,25,1,0
895,863,3,2,0,25,1,0
896,862,3,2,0,25,1,0
897,861,3,2,0,25,1,0
898,860,3,2,0,25,1,0
899,859,3,2,0,25,1,0
900,858,3,2,0,25,1,0
901,857,3,2,0,25,1,0
902,856,3,2,0,25,1,0
903,855,3,2,0,25,1,0
904,854,3,2,0,25,1,0
905,853,3,2,0,25,1,0
906,852,3,2,0,25,1,0
907,851,3,2,0,25,1,0
908,850,3,2,0,25,1,0
909,849,3,2,0,25,1,0
910,848,3,2,0,25,1,0
911,847,3,2,0,25,1,0
912,846,3,2,0,25,1,0
913,845,3,2,0,25,1,0
914,844,3,2,0,25,1,0
915,843,3,2,0,25,1,0
916,842,3,2,0,25,1,0
917,841,3,2,0,25,1,0
918,840,3,2,0,25,1,0
919,839,3,2,0,25,1,0
920,838,3,2,0,25,1,0
921,837,3,2,0,25,1,0
922,836,3,2,0,25,1,0
923,835,3,2,0,25,1,0
924,834,3,2,0,25,1,0
925,833,3,2,0,25,1,0
926,832,3,2,0,25,1,0
927,831,3,2,0,25,1,0
928,830,3,2,0,25,1,0
929,829,3,2,0,25,1,0
930,828,3,2,0,25,1,0
931,827,3,2,0,25,1,0
932,826,3,2,0,25,1,0
933,825,3,2,0,25,1,0
934,824,3,2,0,25,1,0
935,823,3,2,0,25,1,0
936,822,3,2,0,25,1,0
937,821,3,2,0,25,1,0
938,820,3,2,0,25,1,0
939,819,3,2,0,25,1,0
940,818,3,2,0,25,1,0
941,817,3,2,0,25,1,0
942,816,3,2,0,25,1,0
943,815,3,2,0,25,1,0
944,814,3,2,0,25,1,0
945,813,3,2,0,25,1,0
946,812,3,2,0,25,1,0
947,811,3,2,0,25,1,0
948,810,3,2,0,25,1,0
949,809,3,2,0,25,1,0
950,808,3,2,0,25,1,0
951,807,3,2,0,25,1,0
952,806,3,2,0,25,1,0
953,805,3,2,0,25,1,0
954,804,3,2,0,25,1,0
955,803,3,2,0,25,1,0
956,802,3,2,0,25,1,0
957,801,3,2,0,25,1,0
958,800,3,2,0,25,1,0
959,799,3,2,0,25,1,0
960,798,3,2,0,25,1,0
961,797,3,2,0,25,1,0
962,796,3,2,0,25,1,0
963,795,3,2,0,25,1,0
964,794,3,2,0,25,1,0
965,793,3,2,0,25,1,0
966,792,3,2,0,25,1,0
967,791,3,2,0,25,1,0
968,790,3,2,0,25,1,0
969,789,3,2,0,25,1,0
970,788,3,2,0,25,1,0
971,787,3,2,0,25,1,0
972,786,3,2,0,25,1,0
973,785,3,2,0,25,1,0
974,784,3,2,0,25,1,0
975,783,3,2,0,25,1,0
976,782,3,2,0,25,1,0
977,781,3,2,0,25,1,0
978,780,3,2,0,25,1,0
979,779,3,2,0,25,1,0
980,778,3,2,0,25,1,0
981,777,3,2,0,25,1,0
982,776,3,2,0,25,1,0
983,775,3,2,0,25,1,0
984,774,3,2,0,25,1,0
985,773,3,2,0,25,1,0
986,772,3,2,0,25,1,0
987,771,3,2,0,25,1,0
988,770,3,2,0,25,1,0
989,769,3,2,0,25,1,0
990,768,3,2,0,25,1,0
991,767,3,2,0,25,1,0
992,766,3,2,0,25,1,0
993,765,3,2,0,25,1,0
994,764,3,2,0,25,1,0
995,763,3,2,0,25,1,0
996,762,3,2,0,25,1,0
997,761,3,2,0,25,1,0
998,760,3,2,0,25,1,0
999,759,3,2,0,25,1,0
1000,758,3,2,0,25,1,0
1001,757,3,2,0,25,1,0
1002,756,3,2,0,25,1,0
1003,755,3,2,0,25,1,0
1004,754,3,2,0,25,1,0
1005,753,3,2,0,25,1,0
1006,752,3,2,0,25,1,0
1007,751,3,2,0,25,1,0
1008,750,3,2,0,25,1,0
1009,749,3,2,0,25,1,0
1010,748,3,2,0,25,1,0
1011,747,3,2,0,25,1,0
1012,746,3,2,0,25,1,0
1013,745,3,2,0,25,1,0
1014,744,3,2,0,25,1,0
1015,743,3,2,0,25,1,0
1016,742,3,2,0,25,1,0
1017,741,3,2,0,25,1,0
1018,740,3,2,0,25,1,0
1019,739,3,2,0,25,1,0
1020,738,3,2,0,25,1,0
1021,737,3,2,0,25,1,0
1022,736,3,2,0,25,1,0
1023,735,3,2,0,25,1,0
1024,734,3,2,0,25,1,0
1025,733,3,2,0,25,1,0
1026,732,3,2,0,25,1,0
1027,731,3,2,0,25,1,0
1028,730,3,2,0,25,1,0
1029,729,3,2,0,25,1,0
1030,728,3,2,0,25,1,0
1031,727,3,2,0,25,1,0
1032,726,3,2,0,25,1,0
1033,725,3,2,0,25,1,0
1034,724,3,2,0,25,1,0
1035,723,3,2,0,25,1,0
1036,722,3,2,0,25,1,0
1037,721,3,2,0,25,1,0
1038,720,3,2,0,25,1,0
1039,719,3,2,0,25,1,0
1040,718,3,2,0,25,1,0
1041,717,3,2,0,25,1,0
1042,716,3,2,0,25,1,0
1043,715,3,2,0,25,1,0
1044,714,3,2,0,25,1,0
1045,713,3,2,0,25,1,0
1046,712,3,2,0,25,1,0
1047,711,3,2,0,25,1,0
1048,710,3,2,0,25,1,0
1049,709,3,2,0,25,1,0
1050,708,3,2,0,25,1,0
1051,707,3,2,0,25,1,0
1052,706,3,2,0,25,1,0
1053,705,3,2,0,25,1,0
1054,704,3,2,0,25,1,0
1055,703,3,2,0,25,1,0
1056,702,3,2,0,25,1,0
1057,701,3,2,0,25,1,0
1058,700,3,2,0,25,1,0
1059,699,3,2,0,25,1,0
1060,698,3,2,0,25,1,0
1061,697,3,2,0,25,1,0
1062,696,3,2,0,25,1,0
1063,695,3,2,0,25,1,0
1064,694,3,2,0,25,1,0
1065,693,3,2,0,25,1,0
1066,692,3,2,0,25,1,0
1067,691,3,2,0,25,1,0
1068,690,3,2,0,25,1,0
1069,689,3,2,0,25,1,0
1070,688,3,2,0,25,1,0
1071,687,3,2,0,25,1,0
1072,686,3,2,0,25,1,0
1073,685,3,2,0,25,1,0
1074,684,3,2,0,25,1,0
1075,683,3,2,0,25,1,0
1076,682,3,2,0,25,1,0
1077,681,3,2,0,25,1,0
1078,680,3,2,0,25,1,0
1079,679,3,2,0,25,1,0
1080,678,3,2,0,25,1,0
1081,677,3,2,0,25,1,0
1082,676,3,2,0,25,1,0
1083,675,3,2,0,25,1,0
1084,674,3,2,0,25,1,0
1085,673,3,2,0,25,1,0
1086,672,3,2,0,25,1,0
1087,671,3,2,0,25,1,0
1088,670,3,2,0,25,1,0
1089,669,3,2,0,25,1,0
1090,668,3,2,0,25,1,0
1091,667,3,2,0,25,1,0
1092,666,3,2,0,25,1,0
1093,665,3,2,0,25,1,0
1094,664,3,2,0,25,1,0
1095,663,3,2,0,25,1,0
1096,662,3,2,0,25,1,0
1097,661,3,2,0,25,1,0
1098,660,3,2,0,25,1,0
1099,659,3,2,0,25,1,0
1100,658,3,2,0,25,1,0
1101,657,3,2,0,25,1,0
1102,656,3,2,0,25,1,0
1103,655,3,2,0,25,1,0
1104,654,3,2,0,25,1,0
1105,653,3,2,0,25,1,0
1106,652,3,2,0,25,1,0
1107,651,3,2,0,25,1,0
1108,650,3,2,0,25,1,0
1109,649,3,2,0,25,1,0
1110,648,3,2,0,25,1,0
1111,647,3,2,0,25,1,0
1112,646,3,2,0,25,1,0
1113,645,3,2,0,25,1,0
1114,644,3,2,0,25,1,0
1115,643,3,2,0,25,1,0
1116,642,3,2,0,25,1,0
1117,641,3,2,0,25,1,0
1118,640,3,2,0,25,1,0
1119,639,3,2,0,25,1,0
1120,638,3,2,0,25,1,0
1121,637,3,2,0,25,1,0
1122,636,3,2,0,25,1,0
1123,635,3,2,0,25,1,0
1124,634,3,2,0,25,1,0
1125,633,3,2,0,25,1,0
1126,632,3,2,0,25,1,0
1127,631,3,2,0,25,1,0
1128,630,3,2,0,25,1,0
1129,629,3,2,0,25,1,0
1130,628,3,2,0,25,1,0
1131,627,3,2,0,25,1,0
1132,626,3,2,0,25,1,0
1133,625,3,2,0,25,1,0
1134,624,3,2,0,25,1,0
1135,623,3,2,0,25,1,0
1136,622,3,2,0,25,1,0
1137,621,3,2,0,25,1,0
1138,620,3,2,0,25,1,0
1139,619,3,2,0,25,1,0
1140,618,3,2,0,25,1,0
1141,617,3,2,0,25,1,0
1142,616,3,2,0,25,1,0
1143,615,3,2,0,25,1,0
1144,614,3,2,0,25,1,0
1145,613,3,2,0,25,1,0
1146,612,3,2,0,25,1,0
1147,611,3,2,0,25,1,0
1148,610,3,2,0,25,1,0
1149,609,3,2,0,25,1,0
1150,608,3,2,0,25,1,0
1151,607,3,2,0,25,1,0
1152,606,3,2,0,25,1,0
1153,605,3,2,0,25,1,0
1154,604,3,2,0,25,1,0
1155,603,3,2,0,25,1,0
1156,602,3,2,0,25,1,0
1157,601,3,2,0,25,1,0
1158,600,3,2,0,25,1,0
1159,599,3,2,0,25,1,0
1160,598,3,2,0,25,1,0
1161,597,3,2,0,25,1,0
1162,596,3,2,0,25,1,0
1163,595,3,2,0,25,1,0
1164,594,3,2,0,25,1,0
1165,593,3,2,0,25,1,0
1166,592,3,2,0,25,1,0
1167,591,3,2,0,25,1,0
1168,590,3,2,0,25,1,0
1169,589,3,2,0,25,1,0
1170,588,3,2,0,25,1,0
1171,587,3,2,0,25,1,0
1172,586,3,2,0,25,1,0
1173,585,3,2,0,25,1,0
1174,584,3,2,0,25,1,0
1175,583,3,2,0,25,1,0
1176,582,3,2,0,25,1,0
1177,581,3,2,0,25,1,0
1178,580,3,2,0,25,1,0
1179,579,3,2,0,25,1,0
1180,578,3,2,0,25,1,0
1181,577,3,2,0,25,1,0
1182,576,3,2,0,25,1,0
1183,575,3,2,0,25,1,0
1184,574,3,2,0,25,1,0
1185,573,3,2,0,25,1,0
1186,572,3,2,0,25,1,0
1187,571,3,2,0,25,1,0
1188,570,3,2,0,25,1,0
1189,569,3,2,0,25,1,0
1190,568,3,2,0,25,1,0
1191,567,3,2,0,25,1,0
1192,566,3,2,0,25,1,0
1193,565,3,2,0,25,1,0
1194,564,3,2,0,25,1,0
1195,563,3,2,0,25,1,0
1196,562,3,2,0,25,1,0
1197,561,3,2,0,25,1,0
1198,560,3,2,0,25,1,0
1199,559,3,2,0,25,1,0
1200,558,3,2,0,25,1,0
1201,557,3,2,0,25,1,0
1202,556,3,2,0,25,1,0
1203,555,3,2,0,25,1,0
1204,554,3,2,0,25,1,0
1205,553,3,2,0,25,1,0
1206,552,3,2,0,25,1,0
1207,551,3,2,0,25,1,0
1208,550,3,2,0,25,1,0
1209,549,3,2,0,25,1,0
1210,548,3,2,0,25,1,0
1211,547,3,2,0,25,1,0
1212,546,3,2,0,25,1,0
1213,545,3,2,0,25,1,0
1214,544,3,2,0,25,1,0
1215,543,3,2,0,25,1,0
1216,542,3,2,0,25,1,0
1217,541,3,2,0,25,1,0
1218,540,3,2,0,25,1,0
1219,539,3,2,0,25,1,0
1220,538,3,2,0,25,1,0
1221,537,3,2,0,25,1,0
1222,536,3,2,0,25,1,0
1223,535,3,2,0,25,1,0
1224,534,3,2,0,25,1,0
1225,533,3,2,0,25,1,0
1226,532,3,2,0,25,1,0
1227,531,3,2,0,25,1,0
1228,530,3,2,0,25,1,0
1229,529,3,2,0,25,1,0
1230,528,3,2,0,25,1,0
1231,527,3,2,0,25,1,0
1232,526,3,2,0,25,1,0
1233,525,3,2,0,25,1,0
1234,524,3,2,0,25,1,0
1235,523,3,2,0,25,1,0
1236,522,3,2,0,25,1,0
1237,521,3,2,0,25,1,0
1238,520,3,2,0,25,1,0
1239,519,3,2,0,25,1,0
1240,518,3,2,0,25,1,0
1241,517,3,2,0,25,1,0
1242,516,3,2,0,25,1,0
1243,515,3,2,0,25,1,0
1244,514,3,2,0,25,1,0
1245,513,3,2,0,25,1,0
1246,512,3,2,0,25,1,0
1247,511,3,2,0,25,1,0
1248,510,3,2,0,25,1,0
1249,509,3,2,0,25,1,0
1250,508,3,2,0,25,1,0
1251,507,3,2,0,25,1,0
1252,506,3,2,0,25,1,0
1253,505,3,2,0,25,1,0
1254,504,3,2,0,25,1,0
1255,503,3,2,0,25,1,0
1256,502,3,2,0,25,1,0
1257,501,3,2,0,25,1,0
1258,500,3,2,0,25,1,0
1259,499,3,2,0,25,1,0
1260,498,3,2,0,25,1,0
1261,497,3,2,0,25,1,0
1262,496,3,2,0,25,1,0
1263,495,3,2,0,25,1,0
1264,494,3,2,0,25,1,0
1265,493,3,2,0,25,1,0
1266,492,3,2,0,25,1,0
1267,491,3,2,0,25,1,0
1268,490,3,2,0,25,1,0
1269,489,3,2,0,25,1,0
1270,488,3,2,0,25,1,0
1271,487,3,2,0,25,1,0
1272,486,3,2,0,25,1,0
1273,485,3,2,0,25,1,0
1274,484,3,2,0,25,1,0
1275,483,3,2,0,25,1,0
1276,482,3,2,0,25,1,0
1277,481,3,2,0,25,1,0
1278,480,3,2,0,25,1,0
1279,479,3,2,0,25,1,0
1280,478,3,2,0,25,1,0
1281,477,3,2,0,25,1,0
1282,476,3,2,0,25,1,0
1283,475,3,2,0,25,1,0
1284,474,3,2,0,25,1,0
1285,473,3,2,0,25,1,0
1286,472,3,2,0,25,1,0
1287,471,3,2,0,25,1,0
1288,470,3,2,0,25,1,0
1289,469,3,2,0,25,1,0
1290,468,3,2,0,25,1,0
1291,467,3,2,0,25,1,0
1292,466,3,2,0,25,1,0
1293,465,3,2,0,25,1,0
1294,464,3,2,0,25,1,0
1295,463,3,2,0,25,1,0
1296,462,3,2,0,25,1,0
1297,461,3,2,0,25,1,0
1298,460,3,2,0,25,1,0
1299,459,3,2,0,25,1,0
1300,458,3,2,0,25,1,0
1301,457,3,2,0,25,1,0
1302,456,3,2,0,25,1,0
1303,455,3,2,0,25,1,0
1304,454,3,2,0,25,1,0
1305,453,3,2,0,25,1,0
1306,452,3,2,0,25,1,0
1307,451,3,2,0,25,1,0
1308,450,3,2,0,25,1,0
1309,449,3,2,0,25,1,0
1310,448,3,2,0,25,1,0
1311,447,3,2,0,25,1,0
1312,446,3,2,0,25,1,0
1313,445,3,2,0,25,1,0
1314,444,3,2,0,25,1,0
1315,443,3,2,0,25,1,0
1316,442,3,2,0,25,1,0
1317,441,3,2,0,25,1,0
1318,440,3,2,0,25,1,0
1319,439,3,2,0,25,1,0
1320,438,3,2,0,25,1,0
1321,437,3,2,0,25,1,0
1322,436,3,2,0,25,1,0
1323,435,3,2,0,25,1,0
1324,434,3,2,0,25,1,0
1325,433,3,2,0,25,1,0
1326,432,3,2,0,25,1,0
1327,431,3,2,0,25,1,0
1328,430,3,2,0,25,1,0
1329,429,3,2,0,25,1,0
1330,428,3,2,0,25,1,0
1331,427,3,2,0,25,1,0
1332,426,3,2,0,25,1,0
1333,425,3,2,0,25,1,0
1334,424,3,2,0,25,1,0
1335,423,3,2,0,25,1,0
1336,422,3,2,0,25,1,0
1337,421,3,2,0,25,1,0
1338,420,3,2,0,25,1,0
1339,419,3,2,0,25,1,0
1340,418,3,2,0,25,1,0
1341,417,3,2,0,25,1,0
1342,416,3,2,0,25,1,0
1343,415,3,2,0,25,1,0
1344,414,3,2,0,25,1,0
1345,413,3,2,0,25,1,0
1346,412,3,2,0,25,1,0
1347,411,3,2,0,25,1,0
1348,410,3,2,0,25,1,0
1349,409,3,2,0,25,1,0
1350,408,3,2,0,25,1,0
1351,407,3,2,0,25,1,0
1352,406,3,2,0,25,1,0
1353,405,3,2,0,25,1,0
1354,404,3,2,0,25,1,0
1355,403,3,2,0,25,1,0
1356,402,3,2,0,25,1,0
1357,401,3,2,0,25,1,0
1358,400,3,2,0,25,1,0
1359,399,3,2,0,25,1,0
1360,398,3,2,0,25,1,0
1361,397,3,2,0,25,1,0
1362,396,3,2,0,25,1,0
1363,395,3,2,0,25,1,0
1364,394,3,2,0,25,1,0
1365,393,3,2,0,25,1,0
1366,392,3,2,0,25,1,0
1367,391,3,2,0,25,1,0
1368,390,3,2,0,25,1,0
1369,389,3,2,0,25,1,0
1370,388,3,2,0,25,1,0
1371,387,3,2,0,25,1,0
1372,386,3,2,0,25,1,0
1373,385,3,2,0,25,1,0
1374,384,3,2,0,25,1,0
1375,383,3,2,0,25,1,0
1376,382,3,2,0,25,1,0
1377,381,3,2,0,25,1,0
1378,380,3,2,0,25,1,0
1379,379,3,2,0,25,1,0
1380,378,3,2,0,25,1,0
1381,377,3,2,0,25,1,0
1382,376,3,2,0,25,1,0
1383,375,3,2,0,25,1,0
1384,374,3,2,0,25,1,0
1385,373,3,2,0,25,1,0
1386,372,3,2,0,25,1,0
1387,371,3,2,0,25,1,0
1388,370,3,2,0,25,1,0
1389,369,3,2,0,25,1,0
1390,368,3,2,0,25,1,0
1391,367,3,2,0,25,1,0
1392,366,3,2,0,25,1,0
1393,365,3,2,0,25,1,0
1394,364,3,2,0,25,1,0
1395,363,3,2,0,25,1,0
1396,362,3,2,0,25,1,0
1397,361,3,2,0,25,1,0
1398,360,3,2,0,25,1,0
1399,359,3,2,0,25,1,0
1400,358,3,2,0,25,1,0
1401,357,3,2,0,25,1,0
1402,356,3,2,0,25,1,0
1403,355,3,2,0,25,1,0
1404,354,3,2,0,25,1,0
1405,353,3,2,0,25,1,0
1406,352,3,2,0,25,1,0
1407,351,3,2,0,25,1,0
1408,350,3,2,0,25,1,0
1409,349,3,2,0,25,1,0
1410,348,3,2,0,25,1,0
1411,347,3,2,0,25,1,0
1412,346,3,2,0,25,1,0
1413,345,3,2,0,25,1,0
1414,344,3,2,0,25,1,0
1415,343,3,2,0,25,1,0
1416,342,3,2,0,25,1,0
1417,341,3,2,0,25,1,0
1418,340,3,2,0,25,1,0
1419,339,3,2,0,25,1,0
1420,338,3,2,0,25,1,0
1421,337,3,2,0,25,1,0
1422,336,3,2,0,25,1,0
1423,335,3,2,0,25,1,0
1424,334,3,2,0,25,1,0
1425,333,3,2,0,25,1,0
1426,332,3,2,0,25,1,0
1427,331,3,2,0,25,1,0
1428,330,3,2,0,25,1,0
1429,329,3,2,0,25,1,0
1430,328,3,2,0,25,1,0
1431,327,3,2,0,25,1,0
1432,326,3,2,0,25,1,0
1433,325,3,2,0,25,1,0
1434,324,3,2,0,25,1,0
1435,323,3,2,0,25,1,0
1436,322,3,2,0,25,1,0
1437,321,3,2,0,25,1,0
1438,320,3,2,0,25,1,0
1439,319,3,2,0,25,1,0
1440,318,3,2,0,25,1,0
1441,317,3,2,0,25,1,0
1442,316,3,2,0,25,1,0
1443,315,3,2,0,25,1,0
1444,314,3,2,0,25,1,0
1445,313,3,2,0,25,1,0
1446,312,3,2,0,25,1,0
1447,311,3,2,0,25,1,0
1448,310,3,2,0,25,1,0
1449,309,3,2,0,25,1,0
1450,308,3,2,0,25,1,0
1451,307,3,2,0,25,1,0
1452,306,3,2,0,25,1,0
1453,305,3,2,0,25,1,0
1454,304,3,2,0,25,1,0
1455,303,3,2,0,25,1,0
1456,302,3,2,0,25,1,0
1457,301,3,2,0,25,1,0
1458,300,3,2,0,25,1,0
1459,299,3,2,0,25,1,0
1460,298,3,2,0,25,1,0
1461,297,3,2,0,25,1,0
1462,296,3,2,0,25,1,0
1463,295,3,2,0,25,1,0
1464,294,3,2,0,25,1,0
1465,293,3,2,0,25,1,0
1466,292,3,2,0,25,1,0
1467,291,3,2,0,25,1,0
1468,290,3,2,0,25,1,0
1469,289,3,2,0,25,1,0
1470,288,3,2,0,25,1,0
1471,287,3,2,0,25,1,0
1472,286,3,2,0,25,1,0
1473,285,3,2,0,25,1,0
1474,284,3,2,0,25,1,0
1475,283,3,2,0,25,1,0
1476,282,3,2,0,25,1,0
1477,281,3,2,0,25,1,0
1478,280,3,2,0,25,1,0
1479,279,3,2,0,25,1,0
1480,278,3,2,0,25,1,0
1481,277,3,2,0,25,1,0
1482,276,3,2,0,25,1,0
1483,275,3,2,0,25,1,0
1484,274,3,2,0,25,1,0
1485,273,3,2,0,25,1,0
1486,272,3,2,0,25,1,0
1487,271,3,2,0,25,1,0
1488,270,3,2,0,25,1,0
1489,269,3,2,0,25,1,0
1490,268,3,2,0,25,1,0
1491,267,3,2,0,25,1,0
1492,266,3,2,0,25,1,0
1493,265,3,2,0,25,1,0
1494,264,3,2,0,25,1,0
1495,263,3,2,0,25,1,0
1496,262,3,2,0,25,1,0
1497,261,3,2,0,25,1,0
1498,260,3,2,0,25,1,0
1499,259,3,2,0,25,1,0
1500,258,3,2,0,25,1,0
1501,257,3,2,0,25,1,0
1502,256,3,2,0,25,1,0
1503,255,3,2,0,25,1,0
1504,254,3,2,0,25,1,0
1505,253,3,2,0,25,1,0
1506,252,3,2,0,25,1,0
1507,251,3,2,0,25,1,0
1508,250,3,2,0,25,1,0
1509,249,3,2,0,25,1,0
1510,248,3,2,0,25,1,0
1511,247,3,2,0,25,1,0
1512,246,3,2,0,25,1,0
1513,245,3,2,0,25,1,0
1514,244,3,2,0,25,1,0
1515,243,3,2,0,25,1,0
1516,242,3,2,0,25,1,0
1517,241,3,2,0,25,1,0
1518,240,3,2,0,25,1,0
1519,239,3,2,0,25,1,0
1520,238,3,2,0,25,1,0
1521,237,3,2,0,25,1,0
1522,236,3,2,0,25,1,0
1523,235,3,2,0,25,1,0
1524,234,3,2,0,25,1,0
1525,233,3,2,0,25,1,0
1526,232,3,2,0,25,1,0
1527,231,3,2,0,25,1,0
1528,230,3,2,0,25,1,0
1529,229,3,2,0,25,1,0
1530,228,3,2,0,25,1,0
1531,227,3,2,0,25,1,0
1532,226,3,2,0,25,1,0
1533,225,3,2,0,25,1,0
1534,224,3,2,0,25,1,0
1535,223,3,2,0,25,1,0
1536,222,3,2,0,25,1,0
1537,221,3,2,0,25,1,0
1538,220,3,2,0,25,1,0
1539,219,3,2,0,25,1,0
1540,218,3,2,0,25,1,0
1541,217,3,2,0,25,1,0
1542,216,3,2,0,25,1,0
1543,215,3,2,0,25,1,0
1544,214,3,2,0,25,1,0
1545,213,3,2,0,25,1,0
1546,212,3,2,0,25,1,0
1547,211,3,2,0,25,1,0
1548,210,3,2,0,25,1,0
1549,209,3,2,0,25,1,0
1550,208,3,2,0,25,1,0
1551,207,3,2,0,25,1,0
1552,206,3,2,0,25,1,0
1553,205,3,2,0,25,1,0
1554,204,3,2,0,25,1,0
1555,203,3,2,0,25,1,0
1556,202,3,2,0,25,1,0
1557,201,3,2,0,25,1,0
1558,200,3,2,0,25,1,0
1559,199,3,2,0,25,1,0
1560,198,3,2,0,25,1,0
1561,197,3,2,0,25,1,0
1562,196,3,2,0,25,1,0
1563,195,3,2,0,25,1,0
1564,194,3,2,0,25,1,0
1565,193,3,2,0,25,1,0
1566,192,3,2,0,25,1,0
1567,191,3,2,0,25,1,0
1568,190,3,2,0,25,1,0
1569,189,3,2,0,25,1,0
1570,188,3,2,0,25,1,0
1571,187,3,2,0,25,1,0
1572,186,3,2,0,25,1,0
1573,185,3,2,0,25,1,0
1574,184,3,2,0,25,1,0
1575,183,3,2,0,25,1,0
1576,182,3,2,0,25,1,0
1577,181,3,2,0,25,1,0
1578,180,3,2,0,25,1,0
1579,179,3,2,0,25,1,0
1580,178,3,2,0,25,1,0
1581,177,3,2,0,25,1,0
1582,176,3,2,0,25,1,0
1583,175,3,2,0,25,1,0
1584,174,3,2,0,25,1,0
1585,173,3,2,0,25,1,0
1586,172,3,2,0,25,1,0
1587,171,3,2,0,25,1,0
1588,170,3,2,0,25,1,0
1589,169,3,2,0,25,1,0
1590,168,3,2,0,25,1,0
1591,167,3,2,0,25,1,0
1592,166,3,2,0,25,1,0
1593,165,3,2,0,25,1,0
1594,164,3,2,0,25,1,0
1595,163,3,2,0,25,1,0
1596,162,3,2,0,25,1,0
1597,161,3,2,0,25,1,0
1598,160,3,2,0,25,1,0
1599,159,3,2,0,25,1,0
1600,158,3,2,0,25,1,0
1601,157,3,2,0,25,1,0
1602,156,3,2,0,25,1,0
1603,155,3,2,0,25,1,0
1604,154,3,2,0,25,1,0
1605,153,3,2,0,25,1,0
1606,152,3,2,0,25,1,0
1607,151,3,2,0,25,1,0
1608,150,3,2,0,25,1,0
1609,149,3,2,0,25,1,0
1610,148,3,2,0,25,1,0
1611,147,3,2,0,25,1,0
1612,146,3,2,0,25,1,0
1613,145,3,2,0,25,1,0
1614,144,3,2,0,25,1,0
1615,143,3,2,0,25,1,0
1616,142,3,2,0,25,1,0
1617,141,3,2,0,25,1,0
1618,140,3,2,0,25,1,0
1619,139,3,2,0,25,1,0
1620,138,3,2,0,25,1,0
1621,137,3,2,0,25,1,0
1622,136,3,2,0,25,1,0
1623,135,3,2,0,25,1,0
1624,134,3,2,0,25,1,0
1625,133,3,2,0,25,1,0
1626,132,3,2,0,25,1,0
1627,131,3,2,0,25,1,0
1628,130,3,2,0,25,1,0
1629,129,3,2,0,25,1,0
1630,128,3,2,0,25,1,0
1631,127,3,2,0,25,1,0
1632,126,3,2,0,25,1,0
1633,125,3,2,0,25,1,0
1634,124,3,2,0,25,1,0
1635,123,3,2,0,25,1,0
1636,122,3,2,0,25,1,0
1637,121,3,2,0,25,1,0
1638,120,3,2,0,25,1,0
1639,119,3,2,0,25,1,0
1640,118,3,2,0,25,1,0
1641,117,3,2,0,25,1,0
1642,116,3,2,0,25,1,0
1643,115,3,2,0,25,1,0
1644,114,3,2,0,25,1,0
1645,113,3,2,0,25,1,0
1646,112,3,2,0,25,1,0
1647,111,3,2,0,25,1,0
1648,110,3,2,0,25,1,0
1649,109,3,2,0,25,1,0
1650,108,3,2,0,25,1,0
1651,107,3,2,0,25,1,0
1652,106,3,2,0,25,1,0
1653,105,3,2,0,25,1,0
1654,104,3,2,0,25,1,0
1655,103,3,2,0,25,1,0
1656,102,3,2,0,25,1,0
1657,101,3,2,0,25,1,0
1658,100,3,2,0,25,1,0
1659,99,3,2,0,25,1,0
1660,98,3,2,0,25,1,0
1661,97,3,2,0,25,1,0
1662,96,3,2,0,25,1,0
1663,95,3,2,0,25,1,0
1664,94,3,2,0,25,1,0
1665,93,3,2,0,25,1,0
1666,92,3,2,0,25,1,0
1667,91,3,2,0,25,1,0
1668,90,3,2,0,25,1,0
1669,89,3,2,0,25,1,0
1670,88,3,2,0,25,1,0
1671,87,3,2,0,25,1,0
1672,86,3,2,0,25,1,0
1673,85,3,2,0,25,1,0
1674,84,3,2,0,25,1,0
1675,83,3,2,0,25,1,0
1676,82,3,2,0,25,1,0
1677,81,3,2,0,25,1,0
1678,80,3,2,0,25,1,0
1679,79,3,2,0,25,1,0
1680,78,3,2,0,25,1,0
1681,77,3,2,0,25,1,0
1682,76,3,2,0,25,1,0
1683,75,3,2,0,25,1,0
1684,74,3,2,0,25,1,0
1685,73,3,2,0,25,1,0
1686,72,3,2,0,25,1,0
1687,71,3,2,0,25,1,0
1688,70,3,2,0,25,1,0
1689,69,3,2,0,25,1,0
1690,68,3,2,0,25,1,0
1691,67,3,2,0,25,1,0
1692,66,3,2,0,25,1,0
1693,65,3,2,0,25,1,0
1694,64,3,2,0,25,1,0
1695,63,3,2,0,25,1,0
1696,62,3,2,0,25,1,0
1697,61,3,2,0,25,1,0
1698,60,3,2,0,25,1,0
1699,59,3,2,0,25,1,0
1700,58,3,2,0,25,1,0
1701,57,3,2,0,25,1,0
1702,56,3,2,0,25,1,0
1703,55,3,2,0,25,1,0
1704,54,3,2,0,25,1,0
1705,53,3,2,0,25,1,0
1706,52,3,2,0,25,1,0
1707,51,3,2,0,25,1,0
1708,50,3,2,0,25,1,0
1709,49,3,2,0,25,1,0
1710,48,3,2,0,25,1,0
1711,47,3,2,0,25,1,0
1712,46,3,2,0,25,1,0
1713,45,3,2,0,25,1,0
1714,44,3,2,0,25,1,0
1715,43,3,2,0,25,1,0
1716,42,3,2,0,25,1,0
1717,41,3,2,0,25,1,0
1718,40,3,2,0,25,1,0
1719,39,3,2,0,25,1,0
1720,38,3,2,0,25,1,0
1721,37,3,2,0,25,1,0
1722,36,3,2,0,25,1,0
1723,35,3,2,0,25,1,0
1724,34,3,2,0,25,1,0
1725,33,3,2,0,25,1,0
1726,32,3,2,0,25,1,0
1727,31,3,2,0,25,1,0
1728,30,3,2,0,25,1,0
1729,29,3,2,0,25,1,0
1730,28,3,2,0,25,1,0
1731,27,3,2,0,25,1,0
1732,26,3,2,0,25,1,0
1733,25,3,2,0,25,1,0
1734,24,3,2,0,25,1,0
1735,23,3,2,0,25,1,0
1736,22,3,2,0,25,1,0
1737,21,3,2,0,25,1,0
1738,20,3,2,0,25,1,0
1739,19,3,2,0,25,1,0
1740,18,3,2,0,25,1,0
1741,17,3,2,0,25,1,0
1742,16,3,2,0,25,1,0
1743,15,3,2,0,25,1,0
1744,14,3,2,0,25,1,0
1745,13,3,2,0,25,1,0
1746,12,3,2,0,25,1,0
1747,11,3,2,0,25,1,0
1748,10,3,2,0,25,1,0
1749,9,3,2,0,25,1,0
1750,8,3,2,0,25,1,0
1751,7,3,2,0,25,1,0
1752,6,3,2,0,25,1,0
1753,5,3,2,0,25,1,0
1754,4,3,2,0,25,1,0
1755,3,3,2,0,25,1,0
1756,2,3,2,0,25,1,0
1757,1E+77,3,2,0,25,1,0
2103,1.273465839389,3,2,0,25,1,0
2104,346.820809248555,3,2,0,25,1,0
3144,1,3,2,0,25,1,0
3145,4,3,2,0,25,1,0
3146,7,3,2,0,25,1,0
3147,10,3,2,0,25,1,0
3148,13,3,2,0,25,1,0
3149,16,3,2,0,25,1,0
3150,19,3,2,0,25,1,0
3151,22,3,2,0,25,1,0
3152,25,3,2,0,25,1,0
3153,28,3,2,0,25,1,0
3154,31,3,2,0,25,1,0
3155,34,3,2,0,25,1,0
3156,37,3,2,0,25,1,0
3157,40,3,2,0,25,1,0
3158,43,3,2,0,25,1,0
3159,46,3,2,0,25,1,0
3160,49,3,2,0,25,1,0
3161,52,3,2,0,25,1,0
3162,55,3,2,0,25,1,0
3163,58,3,2,0,25,1,0
3164,61,3,2,0,25,1,0
3165,64,3,2,0,25,1,0
3166,67,3,2,0,25,1,0
3167,70,3,2,0,25,1,0
3168,73,3,2,0,25,1,0
3169,76,3,2,0,25,1,0
3170,79,3,2,0,25,1,0
3171,82,3,2,0,25,1,0
3172,85,3,2,0,25,1,0
3173,88,3,2,0,25,1,0
3174,91,3,2,0,25,1,0
3175,94,3,2,0,25,1,0
3176,97,3,2,0,25,1,0
3177,100,3,2,0,25,1,0
3178,103,3,2,0,25,1,0
3179,106,3,2,0,25,1,0
3180,109,3,2,0,25,1,0
3181,112,3,2,0,25,1,0
3182,115,3,2,0,25,1,0
3183,118,3,2,0,25,1,0
3184,121,3,2,0,25,1,0
3185,124,3,2,0,25,1,0
3186,127,3,2,0,25,1,0
3187,130,3,2,0,25,1,0
3188,133,3,2,0,25,1,0
3189,136,3,2,0,25,1,0
3190,139,3,2,0,25,1,0
3191,142,3,2,0,25,1,0
3192,145,3,2,0,25,1,0
3193,148,3,2,0,25,1,0
3194,151,3,2,0,25,1,0
3195,154,3,2,0,25,1,0
3196,157,3,2,0,25,1,0
3197,160,3,2,0,25,1,0
3198,163,3,2,0,25,1,0
3199,166,3,2,0,25,1,0
3200,169,3,2,0,25,1,0
3201,172,3,2,0,25,1,0
3202,175,3,2,0,25,1,0
3203,178,3,2,0,25,1,0
3204,181,3,2,0,25,1,0
3205,184,3,2,0,25,1,0
3206,187,3,2,0,25,1,0
3207,190,3,2,0,25,1,0
3208,193,3,2,0,25,1,0
3209,196,3,2,0,25,1,0
3210,199,3,2,0,25,1,0
3211,202,3,2,0,25,1,0
3212,205,3,2,0,25,1,0
3213,208,3,2,0,25,1,0
3214,211,3,2,0,25,1,0
3215,214,3,2,0,25,1,0
3216,217,3,2,0,25,1,0
3217,220,3,2,0,25,1,0
3218,223,3,2,0,25,1,0
3219,226,3,2,0,25,1,0
3220,229,3,2,0,25,1,0
3221,232,3,2,0,25,1,0
3222,235,3,2,0,25,1,0
3223,238,3,2,0,25,1,0
3224,241,3,2,0,25,1,0
3225,244,3,2,0,25,1,0
3226,247,3,2,0,25,1,0
3227,250,3,2,0,25,1,0
3228,253,3,2,0,25,1,0
3229,256,3,2,0,25,1,0
3230,259,3,2,0,25,1,0
3231,262,3,2,0,25,1,0
3232,265,3,2,0,25,1,0
3233,268,3,2,0,25,1,0
3234,271,3,2,0,25,1,0
3235,274,3,2,0,25,1,0
3236,277,3,2,0,25,1,0
3237,280,3,2,0,25,1,0
3238,283,3,2,0,25,1,0
3239,286,3,2,0,25,1,0
3240,289,3,2,0,25,1,0
3241,292,3,2,0,25,1,0
3242,295,3,2,0,25,1,0
3243,298,3,2,0,25,1,0
3244,301,3,2,0,25,1,0
3245,304,3,2,0,25,1,0
3246,307,3,2,0,25,1,0
3247,310,3,2,0,25,1,0
3248,313,3,2,0,25,1,0
3249,316,3,2,0,25,1,0
3250,319,3,2,0,25,1,0
3251,322,3,2,0,25,1,0
3252,325,3,2,0,25,1,0
3253,328,3,2,0,25,1,0
3254,331,3,2,0,25,1,0
3255,334,3,2,0,25,1,0
3256,337,3,2,0,25,1,0
3257,340,3,2,0,25,1,0
3258,343,3,2,0,25,1,0
3259,346,3,2,0,25,1,0
3260,349,3,2,0,25,1,0
3261,352,3,2,0,25,1,0
3262,355,3,2,0,25,1,0
3263,358,3,2,0,25,1,0
3264,361,3,2,0,25,1,0
3265,364,3,2,0,25,1,0
3266,367,3,2,0,25,1,0
3267,370,3,2,0,25,1,0
3268,373,3,2,0,25,1,0
3269,376,3,2,0,25,1,0
3270,379,3,2,0,25,1,0
3271,382,3,2,0,25,1,0
3272,385,3,2,0,25,1,0
3273,388,3,2,0,25,1,0
3274,391,3,2,0,25,1,0
3275,394,3,2,0,25,1,0
3276,397,3,2,0,25,1,0
3277,400,3,2,0,25,1,0
3278,403,3,2,0,25,1,0
3279,406,3,2,0,25,1,0
3280,409,3,2,0,25,1,0
3281,412,3,2,0,25,1,0
3282,415,3,2,0,25,1,0
3283,418,3,2,0,25,1,0
3284,421,3,2,0,25,1,0
3285,424,3,2,0,25,1,0
3286,427,3,2,0,25,1,0
3287,430,3,2,0,25,1,0
3288,433,3,2,0,25,1,0
3289,436,3,2,0,25,1,0
3290,439,3,2,0,25,1,0
3291,442,3,2,0,25,1,0
3292,445,3,2,0,25,1,0
3293,448,3,2,0,25,1,0
3294,451,3,2,0,25,1,0
3295,454,3,2,0,25,1,0
3296,457,3,2,0,25,1,0
3297,460,3,2,0,25,1,0
3298,463,3,2,0,25,1,0
3299,466,3,2,0,25,1,0
3300,469,3,2,0,25,1,0
3301,472,3,2,0,25,1,0
3302,475,3,2,0,25,1,0
3303,478,3,2,0,25,1,0
3304,481,3,2,0,25,1,0
3305,484,3,2,0,25,1,0
3306,487,3,2,0,25,1,0
3307,490,3,2,0,25,1,0
3308,493,3,2,0,25,1,0
3309,496,3,2,0,25,1,0
3310,499,3,2,0,25,1,0
3311,502,3,2,0,25,1,0
3312,505,3,2,0,25,1,0
3313,508,3,2,0,25,1,0
3314,511,3,2,0,25,1,0
3315,514,3,2,0,25,1,0
3316,517,3,2,0,25,1,0
3317,520,3,2,0,25,1,0
3318,523,3,2,0,25,1,0
3319,526,3,2,0,25,1,0
3320,529,3,2,0,25,1,0
3321,532,3,2,0,25,1,0
3322,535,3,2,0,25,1,0
3323,538,3,2,0,25,1,0
3324,541,3,2,0,25,1,0
3325,544,3,2,0,25,1,0
3326,547,3,2,0,25,1,0
3327,550,3,2,0,25,1,0
3328,553,3,2,0,25,1,0
3329,556,3,2,0,25,1,0
3330,559,3,2,0,25,1,0
3331,562,3,2,0,25,1,0
3332,565,3,2,0,25,1,0
3333,568,3,2,0,25,1,0
3334,571,3,2,0,25,1,0
3335,574,3,2,0,25,1,0
3336,577,3,2,0,25,1,0
3337,580,3,2,0,25,1,0
3338,583,3,2,0,25,1,0
3339,586,3,2,0,25,1,0
3340,589,3,2,0,25,1,0
3341,592,3,2,0,25,1,0
3342,595,3,2,0,25,1,0
3343,598,3,2,0,25,1,0
3344,601,3,2,0,25,1,0
3345,604,3,2,0,25,1,0
3346,607,3,2,0,25,1,0
3347,610,3,2,0,25,1,0
3348,613,3,2,0,25,1,0
3349,616,3,2,0,25,1,0
3350,619,3,2,0,25,1,0
3351,622,3,2,0,25,1,0
3352,625,3,2,0,25,1,0
3353,628,3,2,0,25,1,0
3354,631,3,2,0,25,1,0
3355,634,3,2,0,25,1,0
3356,637,3,2,0,25,1,0
3357,640,3,2,0,25,1,0
3358,643,3,2,0,25,1,0
3359,646,3,2,0,25,1,0
3360,649,3,2,0,25,1,0
3361,652,3,2,0,25,1,0
3362,655,3,2,0,25,1,0
3363,658,3,2,0,25,1,0
3364,661,3,2,0,25,1,0
3365,664,3,2,0,25,1,0
3366,667,3,2,0,25,1,0
3367,670,3,2,0,25,1,0
3368,673,3,2,0,25,1,0
3369,676,3,2,0,25,1,0
3370,679,3,2,0,25,1,0
3371,682,3,2,0,25,1,0
3372,685,3,2,0,25,1,0
3373,688,3,2,0,25,1,0
3374,691,3,2,0,25,1,0
3375,694,3,2,0,25,1,0
3376,697,3,2,0,25,1,0
3377,700,3,2,0,25,1,0
3378,703,3,2,0,25,1,0
3379,706,3,2,0,25,1,0
3380,709,3,2,0,25,1,0
3381,712,3,2,0,25,1,0
3382,715,3,2,0,25,1,0
3383,718,3,2,0,25,1,0
3384,721,3,2,0,25,1,0
3385,724,3,2,0,25,1,0
3386,727,3,2,0,25,1,0
3387,730,3,2,0,25,1,0
3388,733,3,2,0,25,1,0
3389,736,3,2,0,25,1,0
3390,739,3,2,0,25,1,0
3391,742,3,2,0,25,1,0
3392,745,3,2,0,25,1,0
3393,748,3,2,0,25,1,0
3394,751,3,2,0,25,1,0
3395,754,3,2,0,25,1,0
3396,757,3,2,0,25,1,0
3397,760,3,2,0,25,1,0
3398,763,3,2,0,25,1,0
3399,766,3,2,0,25,1,0
3400,769,3,2,0,25,1,0
3401,772,3,2,0,25,1,0
3402,775,3,2,0,25,1,0
3403,778,3,2,0,25,1,0
3404,781,3,2,0,25,1,0
3405,784,3,2,0,25,1,0
3406,787,3,2,0,25,1,0
3407,790,3,2,0,25,1,0
3408,793,3,2,0,25,1,0
3409,796,3,2,0,25,1,0
3410,799,3,2,0,25,1,0
3411,802,3,2,0,25,1,0
3412,805,3,2,0,25,1,0
3413,808,3,2,0,25,1,0
3414,811,3,2,0,25,1,0
3415,814,3,2,0,25,1,0
3416,817,3,2,0,25,1,0
3417,820,3,2,0,25,1,0
3418,823,3,2,0,25,1,0
3419,826,3,2,0,25,1,0
3420,829,3,2,0,25,1,0
3421,832,3,2,0,25,1,0
3422,835,3,2,0,25,1,0
3423,838,3,2,0,25,1,0
3424,841,3,2,0,25,1,0
3425,844,3,2,0,25,1,0
3426,847,3,2,0,25,1,0
3427,850,3,2,0,25,1,0
3428,853,3,2,0,25,1,0
3429,856,3,2,0,25,1,0
3430,859,3,2,0,25,1,0
3431,862,3,2,0,25,1,0
3432,865,3,2,0,25,1,0
3433,868,3,2,0,25,1,0
3434,871,3,2,0,25,1,0
3435,874,3,2,0,25,1,0
3436,877,3,2,0,25,1,0
3437,880,3,2,0,25,1,0
3438,883,3,2,0,25,1,0
3439,886,3,2,0,25,1,0
3440,889,3,2,0,25,1,0
3441,892,3,2,0,25,1,0
3442,895,3,2,0,25,1,0
3443,898,3,2,0,25,1,0
3444,901,3,2,0,25,1,0
3445,904,3,2,0,25,1,0
3446,907,3,2,0,25,1,0
3447,910,3,2,0,25,1,0
3448,913,3,2,0,25,1,0
3449,916,3,2,0,25,1,0
3450,919,3,2,0,25,1,0
3451,922,3,2,0,25,1,0
3452,925,3,2,0,25,1,0
3453,928,3,2,0,25,1,0
3454,931,3,2,0,25,1,0
3455,934,3,2,0,25,1,0
3456,937,3,2,0,25,1,0
3457,940,3,2,0,25,1,0
3458,943,3,2,0,25,1,0
3459,946,3,2,0,25,1,0
3460,949,3,2,0,25,1,0
3461,952,3,2,0,25,1,0
3462,955,3,2,0,25,1,0
3463,958,3,2,0,25,1,0
3464,961,3,2,0,25,1,0
3465,964,3,2,0,25,1,0
3466,967,3,2,0,25,1,0
3467,970,3,2,0,25,1,0
3468,973,3,2,0,25,1,0
3469,976,3,2,0,25,1,0
3470,979,3,2,0,25,1,0
3471,982,3,2,0,25,1,0
3472,985,3,2,0,25,1,0
3473,988,3,2,0,25,1,0
3474,991,3,2,0,25,1,0
3475,994,3,2,0,25,1,0
3476,997,3,2,0,25,1,0
3477,1000,3,2,0,25,1,0
3478,1003,3,2,0,25,1,0
3479,1006,3,2,0,25,1,0
3480,1009,3,2,0,25,1,0
3481,1012,3,2,0,25,1,0
3482,1015,3,2,0,25,1,0
3483,1018,3,2,0,25,1,0
3484,1021,3,2,0,25,1,0
3485,1024,3,2,0,25,1,0
3486,1027,3,2,0,25,1,0
3487,1030,3,2,0,25,1,0
3488,1033,3,2,0,25,1,0
3489,1036,3,2,0,25,1,0
3490,1039,3,2,0,25,1,0
3491,346.820809248555,3,2,0,25,1,0
3664,1E+69,3,2,0,25,1,0
3924,86.7052023121387,3,2,0,25,1,0
4011,1000000000,3,2,0,25,1,0
4183,3,3,2,0,25,1,0
4184,50000,3,2,0,25,1,0
4531,346.820809248555,3,2,0,25,1,0
5571,-100,3,2,0,25,0,0
5593,-102.040816326531,3,2,0,25,0,0
5614,-104.166666666667,3,2,0,25,0,0
6265,1.324E-06,3,2,0,25,1,0
6266,1E+41,3,2,0,25,1,0
6958,1.337,3,2,0,25,1,0
6959,1.324E-06,3,2,0,25,1,0
6960,1E+41,3,2,0,25,1,0
7305,1.337,3,2,0,25,1,0
7306,1.324E-06,3,2,0,25,1,0
7307,1E+41,3,2,0,25,1,0
7998,1.337,3,2,0,25,1,0
7999,1.324E-06,3,2,0,25,1,0
8000,1E+41,3,2,0,25,1,0
8345,1.337,3,2,0,25,1,0
8346,1.324E-06,3,2,0,25,1,0
8347,1E+41,3,2,0,25,1,0
9039,1.337,3,2,0,25,1,0
9040,1.324E-06,3,2,0,25,1,0
9041,1E+38,3,2,0,25,1,0
9386,1.337,3,2,0,25,1,0
9387,0.001324,3,2,0,25,1,0
9388,4000,3,2,0,25,1,0
9559,2,3,2,0,25,1,0
9560,0.133713371337134,3,2,0,25,1,0
9561,2000,3,2,0,25,1,0
9734,346.820809248555,3,2,0,25,1,0
10427,346.820809248555,3,2,0,25,1,0
18750,1,3,2,0,25,1,0
18751,1E+69,3,2,0,25,1,0
19790,1,3,2,0,25,1,0
19791,1E+69,3,2,0,25,1,0
20830,1,3,2,0,25,1,0
20831,1E+69,3,2,0,25,1,0
21871,1,3,2,0,25,1,0
21872,1E+69,3,2,0,25,1,0
22911,1,3,2,0,25,1,0
22912,1E+69,3,2,0,25,1,0
23952,1,3,2,0,25,1,0
23953,1E+69,3,2,0,25,1,0
24992,1,3,2,0,25,1,0
24993,1E+69,3,2,0,25,1,0
26032,1,3,2,0,25,1,0
26033,1E+69,3,2,0,25,1,0
27072,1,3,2,0,25,1,0
27073,346.820809248555,3,2,0,25,1,0
53085,1,3,2,0,25,1,0
53086,1E+69,3,2,0,25,1,0
53431,2,3,2,0,25,1,0
53432,346.820809248555,3,2,0,25,1,0
61062,1,3,2,0,25,1,0
61063,1E+69,3,2,0,25,1,0
61408,1.5,3,2,0,25,1,0
61409,346.820809248555,3,2,0,25,1,0
78056,0.12345,3,2,0,25,1,0
78057,1E+69,3,2,0,25,1,0
78315,200,3,2,0,25,1,0
78403,346.820809248555,3,2,0,25,1,0
78403,-400,3,2,0,25,0,0
95050,-56.8181818181818,3,2,0,25,0,0
95093,-57.4712643678161,3,2,0,25,0,0
95137,-58.1395348837209,3,2,0,25,0,0
95180,-58.8235294117647,3,2,0,25,0,0
95224,-59.5238095238095,3,2,0,25,0,0
95267,-60.2409638554217,3,2,0,25,0,0
95310,-60.9756097560976,3,2,0,25,0,0
95354,-61.7283950617284,3,2,0,25,0,0
95397,-62.5,3,2,0,25,0,0
95440,-63.2911392405063,3,2,0,25,0,0
95484,-64.1025641025641,3,2,0,25,0,0
95527,-64.9350649350649,3,2,0,25,0,0
95570,-65.7894736842105,3,2,0,25,0,0
95614,-66.6666666666667,3,2,0,25,0,0
95657,-67.5675675675676,3,2,0,25,0,0
95700,-68.4931506849315,3,2,0,25,0,0
95744,-69.4444444444444,3,2,0,25,0,0
95787,-70.4225352112676,3,2,0,25,0,0
95830,-71.4285714285714,3,2,0,25,0,0
95874,-72.463768115942,3,2,0,25,0,0
95917,-73.5294117647059,3,2,0,25,0,0
95961,-74.6268656716418,3,2,0,25,0,0
96004,-75.7575757575758,3,2,0,25,0,0
96047,-76.9230769230769,3,2,0,25,0,0
96091,-78.125,3,2,0,25,0,0
96134,-79.3650793650794,3,2,0,25,0,0
96177,-80.6451612903226,3,2,0,25,0,0
96221,-81.9672131147541,3,2,0,25,0,0
96264,-83.3333333333333,3,2,0,25,0,0
96307,-84.7457627118644,3,2,0,25,0,0
96351,-86.2068965517241,3,2,0,25,0,0
96394,-87.719298245614,3,2,0,25,0,0
96437,-89.2857142857143,3,2,0,25,0,0
96481,-90.9090909090909,3,2,0,25,0,0
96524,-92.5925925925926,3,2,0,25,0,0
96567,-94.3396226415094,3,2,0,25,0,0
96611,-96.1538461538461,3,2,0,25,0,0
96654,-98.0392156862745,3,2,0,25,0,0
96698,-100,3,2,0,25,0,0
96741,-102.040816326531,3,2,0,25,0,0
96784,-104.166666666667,3,2,0,25,0,0
96828,-106.382978723404,3,2,0,25,0,0
96871,-108.695652173913,3,2,0,25,0,0
96914,-111.111111111111,3,2,0,25,0,0
96958,-113.636363636364,3,2,0,25,0,0
97001,-116.279069767442,3,2,0,25,0,0
97044,-119.047619047619,3,2,0,25,0,0
97088,-121.951219512195,3,2,0,25,0,0
97131,-125,3,2,0,25,0,0
97174,-128.205128205128,3,2,0,25,0,0
97218,-131.578947368421,3,2,0,25,0,0
97261,-135.135135135135,3,2,0,25,0,0
97304,-138.888888888889,3,2,0,25,0,0
97348,-142.857142857143,3,2,0,25,0,0
97391,-147.058823529412,3,2,0,25,0,0
97435,-151.515151515152,3,2,0,25,0,0
97478,-156.25,3,2,0,25,0,0
97521,-161.290322580645,3,2,0,25,0,0
97565,-166.666666666667,3,2,0,25,0,0
97608,-172.413793103448,3,2,0,25,0,0
97651,-178.571428571429,3,2,0,25,0,0
97695,-185.185185185185,3,2,0,25,0,0
97738,-192.307692307692,3,2,0,25,0,0
97781,-200,3,2,0,25,0,0
97825,-208.333333333333,3,2,0,25,0,0
97868,-217.391304347826,3,2,0,25,0,0
97911,-227.272727272727,3,2,0,25,0,0
97955,-238.095238095238,3,2,0,25,0,0
97998,-250,3,2,0,25,0,0
98041,-263.157894736842,3,2,0,25,0,0
98085,-277.777777777778,3,2,0,25,0,0
98128,-294.117647058824,3,2,0,25,0,0
98172,-312.5,3,2,0,25,0,0
98215,-333.333333333333,3,2,0,25,0,0
98258,-357.142857142857,3,2,0,25,0,0
98302,-384.615384615385,3,2,0,25,0,0
98345,-416.666666666667,3,2,0,25,0,0
98388,-454.545454545455,3,2,0,25,0,0
98432,-500,3,2,0,25,0,0
98475,-555.555555555556,3,2,0,25,0,0
98518,-625,3,2,0,25,0,0
98562,-714.285714285714,3,2,0,25,0,0
98605,-833.333333333333,3,2,0,25,0,0
98648,-1000,3,2,0,25,0,0
98692,-1250,3,2,0,25,0,0
98735,-1666.66666666667,3,2,0,25,0,0
98778,-2500,3,2,0,25,0,0
98822,-5000,3,2,0,25,0,0
98865,1E+69,3,2,0,25,1,0
99212,346.820809248555,3,2,0,25,1,0
99212,-250,3,2,0,25,0,0
99906,0.08765,3,2,0,25,1,0
100946,1E+69,3,2,0,25,1,0
101250,93.75,3,2,0,25,1,0
101293,346.820809248555,3,2,0,25,1,0
101293,-55.5555555555556,3,2,0,25,0,0
101336,-100,3,2,0,25,0,0
101380,-166.666666666667,3,2,0,25,0,0
101466,-55.5555555555556,3,2,0,25,0,0
101510,-100,3,2,0,25,0,0
101553,-166.666666666667,3,2,0,25,0,0
101640,-55.555555555,3,2,0,25,0,0
101661,-100,3,2,0,25,0,0
101682,-166.66666666666,3,2,0,25,0,0
101726,-55.555555555,3,2,0,25,0,0
101747,-100,3,2,0,25,0,0
101768,-166.66666666666,3,2,0,25,0,0
101813,-55.555555555,3,2,0,25,0,0
101856,-100,3,2,0,25,0,0
101899,-166.66666666666,3,2,0,25,0,0
101987,-55.555555555,3,2,0,25,0,0
102008,-100,3,2,0,25,0,0
102029,-166.66666666666,3,2,0,25,0,0
102073,-55.555555555,3,2,0,25,0,0
102094,-100,3,2,0,25,0,0
102115,-166.66666666666,3,2,0,25,0,0
102160,-55.555555555,3,2,0,25,0,0
102203,-100,3,2,0,25,0,0
102246,-166.66666666666,3,2,0,25,0,0
102333,-55.555555555,3,2,0,25,0,0
102376,-100,3,2,0,25,0,0
102419,-166.66666666666,3,2,0,25,0,0
102507,-55.555555555,3,2,0,25,0,0
102550,-100,3,2,0,25,0,0
102593,-166.66666666666,3,2,0,25,0,0
102680,-55.555555555,3,2,0,25,0,0
102723,-100,3,2,0,25,0,0
102766,-166.66666666666,3,2,0,25,0,0
102854,-55.555555555,3,2,0,25,0,0
102897,-100,3,2,0,25,0,0
102940,-166.66666666666,3,2,0,25,0,0
103027,-55.555555555,3,2,0,25,0,0
103048,-100,3,2,0,25,0,0
103069,-166.66666666666,3,2,0,25,0,0
103114,-55.555555555,3,2,0,25,0,0
103135,-100,3,2,0,25,0,0
103156,-166.66666666666,3,2,0,25,0,0
103200,-55.555555555,3,2,0,25,0,0
103243,-100,3,2,0,25,0,0
103286,-166.66666666666,3,2,0,25,0,0
103374,-55.555555555,3,2,0,25,0,0
103417,-100,3,2,0,25,0,0
103460,-166.66666666666,3,2,0,25,0,0
103547,-55.555555555,3,2,0,25,0,0
103590,-100,3,2,0,25,0,0
103633,-166.66666666666,3,2,0,25,0,0
103721,-55.555555555,3,2,0,25,0,0
103764,-100,3,2,0,25,0,0
103807,-166.66666666666,3,2,0,25,0,0
103894,-55.555555555,3,2,0,25,0,0
103937,-100,3,2,0,25,0,0
103980,-166.66666666666,3,2,0,25,0,0
104067,-55.555555555,3,2,0,25,0,0
104110,-100,3,2,0,25,0,0
104153,-166.66666666666,3,2,0,25,0,0
104241,-55.555555555,3,2,0,25,0,0
104284,-100,3,2,0,25,0,0
104327,-166.66666666666,3,2,0,25,0,0
104414,-55.555555555,3,2,0,25,0,0
104457,-100,3,2,0,25,0,0
104500,-166.66666666666,3,2,0,25,0,0
104588,-55.555555555,3,2,0,25,0,0
104631,-100,3,2,0,25,0,0
104674,-166.66666666666,3,2,0,25,0,0
104761,-55.555555555,3,2,0,25,0,0
104804,-100,3,2,0,25,0,0
104847,-166.66666666666,3,2,0,25,0,0
104935,-55.555555555,3,2,0,25,0,0
104978,-100,3,2,0,25,0,0
105021,-166.66666666666,3,2,0,25,0,0
105108,-55.555555555,3,2,0,25,0,0
105151,-100,3,2,0,25,0,0
105194,-166.66666666666,3,2,0,25,0,0
105281,-55.555555555,3,2,0,25,0,0
105324,-100,3,2,0,25,0,0
105367,-166.66666666666,3,2,0,25,0,0
105455,-55.555555555,3,2,0,25,0,0
105498,-100,3,2,0,25,0,0
105541,-166.66666666666,3,2,0,25,0,0
105628,-55.555555555,3,2,0,25,0,0
105671,-100,3,2,0,25,0,0
105714,-166.66666666666,3,2,0,25,0,0
105802,-55.555555555,3,2,0,25,0,0
105823,-100,3,2,0,25,0,0
105844,-166.66666666666,3,2,0,25,0,0
105888,-55.555555555,3,2,0,25,0,0
105909,-100,3,2,0,25,0,0
105930,-166.66666666666,3,2,0,25,0,0
105975,-55.555555555,3,2,0,25,0,0
106018,-100,3,2,0,25,0,0
106061,-166.66666666666,3,2,0,25,0,0
106148,-55.555555555,3,2,0,25,0,0
106169,-100,3,2,0,25,0,0
106190,-166.66666666666,3,2,0,25,0,0
106235,-55.555555555,3,2,0,25,0,0
106256,-100,3,2,0,25,0,0
106277,-166.66666666666,3,2,0,25,0,0
106322,-55.555555555,3,2,0,25,0,0
106365,-100,3,2,0,25,0,0
106408,-166.66666666666,3,2,0,25,0,0
106495,-55.555555555,3,2,0,25,0,0
106538,-100,3,2,0,25,0,0
106581,-166.66666666666,3,2,0,25,0,0
106669,-55.555555555,3,2,0,25,0,0
106712,-100,3,2,0,25,0,0
106755,-166.66666666666,3,2,0,25,0,0
106842,-55.555555555,3,2,0,25,0,0
106885,-100,3,2,0,25,0,0
106928,-166.66666666666,3,2,0,25,0,0
107015,-55.555555555,3,2,0,25,0,0
107058,-100,3,2,0,25,0,0
107101,-166.66666666666,3,2,0,25,0,0
107189,-55.555555555,3,2,0,25,0,0
107210,-100,3,2,0,25,0,0
107231,-166.66666666666,3,2,0,25,0,0
107276,-55.555555555,3,2,0,25,0,0
107297,-100,3,2,0,25,0,0
107318,-166.66666666666,3,2,0,25,0,0
107362,-55.555555555,3,2,0,25,0,0
107405,-100,3,2,0,25,0,0
107448,-166.66666666666,3,2,0,25,0,0
107536,-55.555555555,3,2,0,25,0,0
107579,-100,3,2,0,25,0,0
107622,-166.66666666666,3,2,0,25,0,0
107709,-55.555555555,3,2,0,25,0,0
107752,-100,3,2,0,25,0,0
107795,-166.66666666666,3,2,0,25,0,0
107882,-55.555555555,3,2,0,25,0,0
107925,-100,3,2,0,25,0,0
107968,-166.66666666666,3,2,0,25,0,0
108056,-55.555555555,3,2,0,25,0,0
108099,-100,3,2,0,25,0,0
108142,-166.66666666666,3,2,0,25,0,0
108229,-55.555555555,3,2,0,25,0,0
108272,-100,3,2,0,25,0,0
108315,-166.66666666666,3,2,0,25,0,0
108403,-55.555555555,3,2,0,25,0,0
108446,-100,3,2,0,25,0,0
108489,-166.66666666666,3,2,0,25,0,0
108576,-55.555555555,3,2,0,25,0,0
108619,-100,3,2,0,25,0,0
108662,-166.66666666666,3,2,0,25,0,0
108750,-55.555555555,3,2,0,25,0,0
108793,-100,3,2,0,25,0,0
108836,-166.66666666666,3,2,0,25,0,0
108923,-55.555555555,3,2,0,25,0,0
108966,-100,3,2,0,25,0,0
109009,-166.66666666666,3,2,0,25,0,0
109096,-55.555555555,3,2,0,25,0,0
109139,-100,3,2,0,25,0,0
109182,-166.66666666666,3,2,0,25,0,0
109270,-55.555555555,3,2,0,25,0,0
109313,-100,3,2,0,25,0,0
109356,-166.66666666666,3,2,0,25,0,0
109443,-55.555555555,3,2,0,25,0,0
109486,-100,3,2,0,25,0,0
109529,-166.66666666666,3,2,0,25,0,0
109617,-55.555555555,3,2,0,25,0,0
109660,-100,3,2,0,25,0,0
109703,-166.66666666666,3,2,0,25,0,0
109790,-55.555555555,3,2,0,25,0,0
109833,-100,3,2,0,25,0,0
109876,-166.66666666666,3,2,0,25,0,0
109963,-55.555555555,3,2,0,25,0,0
109984,-100,3,2,0,25,0,0
110005,-166.66666666666,3,2,0,25,0,0
110050,-55.555555555,3,2,0,25,0,0
110071,-100,3,2,0,25,0,0
110092,-166.66666666666,3,2,0,25,0,0
110137,-55.555555555,3,2,0,25,0,0
110180,-100,3,2,0,25,0,0
110223,-166.66666666666,3,2,0,25,0,0
110310,-55.555555555,3,2,0,25,0,0
110331,-100,3,2,0,25,0,0
110352,-166.66666666666,3,2,0,25,0,0
110397,-55.555555555,3,2,0,25,0,0
110418,-100,3,2,0,25,0,0
110439,-166.66666666666,3,2,0,25,0,0
110484,-55.555555555,3,2,0,25,0,0
110527,-100,3,2,0,25,0,0
110570,-166.66666666666,3,2,0,25,0,0
110657,-55.555555555,3,2,0,25,0,0
110700,-100,3,2,0,25,0,0
110743,-166.66666666666,3,2,0,25,0,0
110830,-55.555555555,3,2,0,25,0,0
110873,-100,3,2,0,25,0,0
110916,-166.66666666666,3,2,0,25,0,0
111004,-55.555555555,3,2,0,25,0,0
111047,-100,3,2,0,25,0,0
111090,-166.66666666666,3,2,0,25,0,0
111177,-55.555555555,3,2,0,25,0,0
111220,-100,3,2,0,25,0,0
111263,-166.66666666666,3,2,0,25,0,0
111351,-55.555555555,3,2,0,25,0,0
111372,-100,3,2,0,25,0,0
111393,-166.66666666666,3,2,0,25,0,0
111437,-55.555555555,3,2,0,25,0,0
111458,-100,3,2,0,25,0,0
111479,-166.66666666666,3,2,0,25,0,0
111524,-55.555555555,3,2,0,25,0,0
111567,-100,3,2,0,25,0,0
111610,-166.66666666666,3,2,0,25,0,0
111698,-55.555555555,3,2,0,25,0,0
111741,-100,3,2,0,25,0,0
111784,-166.66666666666,3,2,0,25,0,0
111871,-55.555555555,3,2,0,25,0,0
111914,-100,3,2,0,25,0,0
111957,-166.66666666666,3,2,0,25,0,0
112044,-55.555555555,3,2,0,25,0,0
112087,-100,3,2,0,25,0,0
112130,-166.66666666666,3,2,0,25,0,0
112218,-55.555555555,3,2,0,25,0,0
112261,-100,3,2,0,25,0,0
112304,-166.66666666666,3,2,0,25,0,0
112391,-55.555555555,3,2,0,25,0,0
112434,-100,3,2,0,25,0,0
112477,-166.66666666666,3,2,0,25,0,0
112565,-55.555555555,3,2,0,25,0,0
112608,-100,3,2,0,25,0,0
112651,-166.66666666666,3,2,0,25,0,0
112738,-55.555555555,3,2,0,25,0,0
112781,-100,3,2,0,25,0,0
112824,-166.66666666666,3,2,0,25,0,0
112911,-55.555555555,3,2,0,25,0,0
112954,-100,3,2,0,25,0,0
112997,-166.66666666666,3,2,0,25,0,0
113085,-55.555555555,3,2,0,25,0,0
113128,-100,3,2,0,25,0,0
113171,-166.66666666666,3,2,0,25,0,0
113258,-55.555555555,3,2,0,25,0,0
113301,-100,3,2,0,25,0,0
113344,-166.66666666666,3,2,0,25,0,0
113432,-55.555555555,3,2,0,25,0,0
113475,-100,3,2,0,25,0,0
113518,-166.66666666666,3,2,0,25,0,0
113605,-55.555555555,3,2,0,25,0,0
113648,-100,3,2,0,25,0,0
113691,-166.66666666666,3,2,0,25,0,0
113778,-55.555555555,3,2,0,25,0,0
113821,-100,3,2,0,25,0,0
113864,-166.66666666666,3,2,0,25,0,0
113952,-55.555555555,3,2,0,25,0,0
113995,-100,3,2,0,25,0,0
114038,-166.66666666666,3,2,0,25,0,0
114125,-55.555555555,3,2,0,25,0,0
114146,-100,3,2,0,25,0,0
114167,-166.66666666666,3,2,0,25,0,0
114212,-55.555555555,3,2,0,25,0,0
114233,-100,3,2,0,25,0,0
114254,-166.66666666666,3,2,0,25,0,0
114299,-55.555555555,3,2,0,25,0,0
114342,-100,3,2,0,25,0,0
114385,-166.66666666666,3,2,0,25,0,0
114472,-55.555555555,3,2,0,25,0,0
114493,-100,3,2,0,25,0,0
114514,-166.66666666666,3,2,0,25,0,0
114559,-55.555555555,3,2,0,25,0,0
114580,-100,3,2,0,25,0,0
114601,-166.66666666666,3,2,0,25,0,0
114645,-55.555555555,3,2,0,25,0,0
114688,-100,3,2,0,25,0,0
114731,-166.66666666666,3,2,0,25,0,0
114819,-55.555555555,3,2,0,25,0,0
114862,-100,3,2,0,25,0,0
114905,-166.66666666666,3,2,0,25,0,0
114992,-55.555555555,3,2,0,25,0,0
115035,-100,3,2,0,25,0,0
115078,-166.66666666666,3,2,0,25,0,0
115166,-55.555555555,3,2,0,25,0,0
115209,-100,3,2,0,25,0,0
115252,-166.66666666666,3,2,0,25,0,0
115339,-55.555555555,3,2,0,25,0,0
115382,-100,3,2,0,25,0,0
115425,-166.66666666666,3,2,0,25,0,0
115513,-55.555555555,3,2,0,25,0,0
115534,-100,3,2,0,25,0,0
115555,-166.66666666666,3,2,0,25,0,0
115599,-55.555555555,3,2,0,25,0,0
115620,-100,3,2,0,25,0,0
115641,-166.66666666666,3,2,0,25,0,0
115686,-55.555555555,3,2,0,25,0,0
115729,-100,3,2,0,25,0,0
115772,-166.66666666666,3,2,0,25,0,0
115859,-55.555555555,3,2,0,25,0,0
115902,-100,3,2,0,25,0,0
115945,-166.66666666666,3,2,0,25,0,0
116033,-55.555555555,3,2,0,25,0,0
116076,-100,3,2,0,25,0,0
116119,-166.66666666666,3,2,0,25,0,0
116206,-55.555555555,3,2,0,25,0,0
116249,-100,3,2,0,25,0,0
116292,-166.66666666666,3,2,0,25,0,0
116380,-55.555555555,3,2,0,25,0,0
116423,-100,3,2,0,25,0,0
116466,-166.66666666666,3,2,0,25,0,0
116553,-55.555555555,3,2,0,25,0,0
116596,-100,3,2,0,25,0,0
116639,-166.66666666666,3,2,0,25,0,0
116726,-55.555555555,3,2,0,25,0,0
116769,-100,3,2,0,25,0,0
116812,-166.66666666666,3,2,0,25,0,0
116900,-55.555555555,3,2,0,25,0,0
116943,-100,3,2,0,25,0,0
116986,-166.66666666666,3,2,0,25,0,0
117073,-55.555555555,3,2,0,25,0,0
117116,-100,3,2,0,25,0,0
117159,-166.66666666666,3,2,0,25,0,0
117247,-55.555555555,3,2,0,25,0,0
117290,-100,3,2,0,25,0,0
117333,-166.66666666666,3,2,0,25,0,0
117420,-55.555555555,3,2,0,25,0,0
117463,-100,3,2,0,25,0,0
117506,-166.66666666666,3,2,0,25,0,0
117593,-55.555555555,3,2,0,25,0,0
117636,-100,3,2,0,25,0,0
117679,-166.66666666666,3,2,0,25,0,0
117767,-55.555555555,3,2,0,25,0,0
117810,-100,3,2,0,25,0,0
117853,-166.66666666666,3,2,0,25,0,0
117940,-55.5555555555556,3,2,0,25,0,0
117983,-100,3,2,0,25,0,0
118027,-166.666666666667,3,2,0,25,0,0
118113,-55.5555555555556,3,2,0,25,0,0
118157,-100,3,2,0,25,0,0
118200,-166.666666666667,3,2,0,25,0,0
118287,-55.555555555,3,2,0,25,0,0
118308,-100,3,2,0,25,0,0
118329,-166.66666666666,3,2,0,25,0,0
118374,-55.555555555,3,2,0,25,0,0
118395,-100,3,2,0,25,0,0
118416,-166.66666666666,3,2,0,25,0,0
118460,-55.555555555,3,2,0,25,0,0
118503,-100,3,2,0,25,0,0
118546,-166.66666666666,3,2,0,25,0,0
118634,-55.555555555,3,2,0,25,0,0
118655,-100,3,2,0,25,0,0
118676,-166.66666666666,3,2,0,25,0,0
118721,-55.555555555,3,2,0,25,0,0
118742,-100,3,2,0,25,0,0
118763,-166.66666666666,3,2,0,25,0,0
118807,-55.555555555,3,2,0,25,0,0
118850,-100,3,2,0,25,0,0
118893,-166.66666666666,3,2,0,25,0,0
118980,-55.555555555,3,2,0,25,0,0
119023,-100,3,2,0,25,0,0
119066,-166.66666666666,3,2,0,25,0,0
119154,-55.555555555,3,2,0,25,0,0
119197,-100,3,2,0,25,0,0
119240,-166.66666666666,3,2,0,25,0,0
119327,-55.555555555,3,2,0,25,0,0
119370,-100,3,2,0,25,0,0
119413,-166.66666666666,3,2,0,25,0,0
119501,-55.555555555,3,2,0,25,0,0
119544,-100,3,2,0,25,0,0
119587,-166.66666666666,3,2,0,25,0,0
119674,-55.555555555,3,2,0,25,0,0
119695,-100,3,2,0,25,0,0
119716,-166.66666666666,3,2,0,25,0,0
119761,-55.555555555,3,2,0,25,0,0
119782,-100,3,2,0,25,0,0
119803,-166.66666666666,3,2,0,25,0,0
119847,-55.555555555,3,2,0,25,0,0
119890,-100,3,2,0,25,0,0
119933,-166.66666666666,3,2,0,25,0,0
120021,-55.555555555,3,2,0,25,0,0
120064,-100,3,2,0,25,0,0
120107,-166.66666666666,3,2,0,25,0,0
120194,-55.555555555,3,2,0,25,0,0
120237,-100,3,2,0,25,0,0
120280,-166.66666666666,3,2,0,25,0,0
120368,-55.555555555,3,2,0,25,0,0
120411,-100,3,2,0,25,0,0
120454,-166.66666666666,3,2,0,25,0,0
120541,-55.555555555,3,2,0,25,0,0
120584,-100,3,2,0,25,0,0
120627,-166.66666666666,3,2,0,25,0,0
120714,-55.555555555,3,2,0,25,0,0
120757,-100,3,2,0,25,0,0
120800,-166.66666666666,3,2,0,25,0,0
120888,-55.555555555,3,2,0,25,0,0
120931,-100,3,2,0,25,0,0
120974,-166.66666666666,3,2,0,25,0,0
121061,-55.555555555,3,2,0,25,0,0
121104,-100,3,2,0,25,0,0
121147,-166.66666666666,3,2,0,25,0,0
121235,-55.555555555,3,2,0,25,0,0
121278,-100,3,2,0,25,0,0
121321,-166.66666666666,3,2,0,25,0,0
121408,-55.555555555,3,2,0,25,0,0
121451,-100,3,2,0,25,0,0
121494,-166.66666666666,3,2,0,25,0,0
121582,-55.555555555,3,2,0,25,0,0
121625,-100,3,2,0,25,0,0
121668,-166.66666666666,3,2,0,25,0,0
121755,-55.555555555,3,2,0,25,0,0
121798,-100,3,2,0,25,0,0
121841,-166.66666666666,3,2,0,25,0,0
121928,-55.555555555,3,2,0,25,0,0
121971,-100,3,2,0,25,0,0
122014,-166.66666666666,3,2,0,25,0,0
122102,-55.555555555,3,2,0,25,0,0
122145,-100,3,2,0,25,0,0
122188,-166.66666666666,3,2,0,25,0,0
122275,-55.555555555,3,2,0,25,0,0
122318,-100,3,2,0,25,0,0
122361,-166.66666666666,3,2,0,25,0,0
122449,-55.555555555,3,2,0,25,0,0
122470,-100,3,2,0,25,0,0
122491,-166.66666666666,3,2,0,25,0,0
122536,-55.555555555,3,2,0,25,0,0
122557,-100,3,2,0,25,0,0
122578,-166.66666666666,3,2,0,25,0,0
122622,-55.555555555,3,2,0,25,0,0
122665,-100,3,2,0,25,0,0
122708,-166.66666666666,3,2,0,25,0,0
122795,-55.555555555,3,2,0,25,0,0
122816,-100,3,2,0,25,0,0
122837,-166.66666666666,3,2,0,25,0,0
122882,-55.555555555,3,2,0,25,0,0
122903,-100,3,2,0,25,0,0
122924,-166.66666666666,3,2,0,25,0,0
122969,-55.555555555,3,2,0,25,0,0
123012,-100,3,2,0,25,0,0
123055,-166.66666666666,3,2,0,25,0,0
123142,-55.555555555,3,2,0,25,0,0
123185,-100,3,2,0,25,0,0
123228,-166.66666666666,3,2,0,25,0,0
123316,-55.555555555,3,2,0,25,0,0
123359,-100,3,2,0,25,0,0
123402,-166.66666666666,3,2,0,25,0,0
123489,-55.555555555,3,2,0,25,0,0
123532,-100,3,2,0,25,0,0
123575,-166.66666666666,3,2,0,25,0,0
123662,-55.555555555,3,2,0,25,0,0
123705,-100,3,2,0,25,0,0
123748,-166.66666666666,3,2,0,25,0,0
123836,-55.555555555,3,2,0,25,0,0
123857,-100,3,2,0,25,0,0
123878,-166.66666666666,3,2,0,25,0,0
123923,-55.555555555,3,2,0,25,0,0
123944,-100,3,2,0,25,0,0
123965,-166.66666666666,3,2,0,25,0,0
124009,-55.555555555,3,2,0,25,0,0
124052,-100,3,2,0,25,0,0
124095,-166.66666666666,3,2,0,25,0,0
124183,-55.555555555,3,2,0,25,0,0
124226,-100,3,2,0,25,0,0
124269,-166.66666666666,3,2,0,25,0,0
124356,-55.555555555,3,2,0,25,0,0
124399,-100,3,2,0,25,0,0
124442,-166.66666666666,3,2,0,25,0,0
124529,-55.555555555,3,2,0,25,0,0
124572,-100,3,2,0,25,0,0
124615,-166.66666666666,3,2,0,25,0,0
124703,-55.555555555,3,2,0,25,0,0
124746,-100,3,2,0,25,0,0
124789,-166.66666666666,3,2,0,25,0,0
124876,-55.555555555,3,2,0,25,0,0
124919,-100,3,2,0,25,0,0
124962,-166.66666666666,3,2,0,25,0,0
125050,-55.555555555,3,2,0,25,0,0
125093,-100,3,2,0,25,0,0
125136,-166.66666666666,3,2,0,25,0,0
125223,-55.555555555,3,2,0,25,0,0
125266,-100,3,2,0,25,0,0
125309,-166.66666666666,3,2,0,25,0,0
125397,-55.555555555,3,2,0,25,0,0
125440,-100,3,2,0,25,0,0
125483,-166.66666666666,3,2,0,25,0,0
125570,-55.555555555,3,2,0,25,0,0
125613,-100,3,2,0,25,0,0
125656,-166.66666666666,3,2,0,25,0,0
125743,-55.555555555,3,2,0,25,0,0
125786,-100,3,2,0,25,0,0
125829,-166.66666666666,3,2,0,25,0,0
125917,-55.555555555,3,2,0,25,0,0
125960,-100,3,2,0,25,0,0
126003,-166.66666666666,3,2,0,25,0,0
126090,-55.555555555,3,2,0,25,0,0
126133,-100,3,2,0,25,0,0
126176,-166.66666666666,3,2,0,25,0,0
126264,-55.555555555,3,2,0,25,0,0
126307,-100,3,2,0,25,0,0
126350,-166.66666666666,3,2,0,25,0,0
126437,-55.555555555,3,2,0,25,0,0
126480,-100,3,2,0,25,0,0
126523,-166.66666666666,3,2,0,25,0,0
126610,-55.555555555,3,2,0,25,0,0
126631,-100,3,2,0,25,0,0
126652,-166.66666666666,3,2,0,25,0,0
126698,-55.555555555,3,2,0,25,0,0
126719,-100,3,2,0,25,0,0
126740,-166.66666666666,3,2,0,25,0,0
126784,-55.555555555,3,2,0,25,0,0
126827,-100,3,2,0,25,0,0
126870,-166.66666666666,3,2,0,25,0,0
126957,-55.555555555,3,2,0,25,0,0
126978,-100,3,2,0,25,0,0
126999,-166.66666666666,3,2,0,25,0,0
127044,-55.555555555,3,2,0,25,0,0
127065,-100,3,2,0,25,0,0
127086,-166.66666666666,3,2,0,25,0,0
127131,-55.555555555,3,2,0,25,0,0
127174,-100,3,2,0,25,0,0
127217,-166.66666666666,3,2,0,25,0,0
127304,-55.555555555,3,2,0,25,0,0
127347,-100,3,2,0,25,0,0
127390,-166.66666666666,3,2,0,25,0,0
127477,-55.555555555,3,2,0,25,0,0
127520,-100,3,2,0,25,0,0
127563,-166.66666666666,3,2,0,25,0,0
127651,-55.555555555,3,2,0,25,0,0
127694,-100,3,2,0,25,0,0
127737,-166.66666666666,3,2,0,25,0,0
127824,-55.555555555,3,2,0,25,0,0
127867,-100,3,2,0,25,0,0
127910,-166.66666666666,3,2,0,25,0,0
127998,-55.555555555,3,2,0,25,0,0
128019,-100,3,2,0,25,0,0
128040,-166.66666666666,3,2,0,25,0,0
128085,-55.555555555,3,2,0,25,0,0
128106,-100,3,2,0,25,0,0
128127,-166.66666666666,3,2,0,25,0,0
128171,-55.555555555,3,2,0,25,0,0
128214,-100,3,2,0,25,0,0
128257,-166.66666666666,3,2,0,25,0,0
128345,-55.555555555,3,2,0,25,0,0
128388,-100,3,2,0,25,0,0
128431,-166.66666666666,3,2,0,25,0,0
128518,-55.555555555,3,2,0,25,0,0
128561,-100,3,2,0,25,0,0
128604,-166.66666666666,3,2,0,25,0,0
128691,-55.555555555,3,2,0,25,0,0
128734,-100,3,2,0,25,0,0
128777,-166.66666666666,3,2,0,25,0,0
128865,-55.555555555,3,2,0,25,0,0
128908,-100,3,2,0,25,0,0
128951,-166.66666666666,3,2,0,25,0,0
129038,-55.555555555,3,2,0,25,0,0
129081,-100,3,2,0,25,0,0
129124,-166.66666666666,3,2,0,25,0,0
129212,-55.555555555,3,2,0,25,0,0
129255,-100,3,2,0,25,0,0
129298,-166.66666666666,3,2,0,25,0,0
129385,-55.555555555,3,2,0,25,0,0
129428,-100,3,2,0,25,0,0
129471,-166.66666666666,3,2,0,25,0,0
129558,-55.555555555,3,2,0,25,0,0
129601,-100,3,2,0,25,0,0
129644,-166.66666666666,3,2,0,25,0,0
129732,-55.555555555,3,2,0,25,0,0
129775,-100,3,2,0,25,0,0
129818,-166.66666666666,3,2,0,25,0,0
129905,-55.555555555,3,2,0,25,0,0
129948,-100,3,2,0,25,0,0
129991,-166.66666666666,3,2,0,25,0,0
130079,-55.555555555,3,2,0,25,0,0
130122,-100,3,2,0,25,0,0
130165,-166.66666666666,3,2,0,25,0,0
130252,-55.555555555,3,2,0,25,0,0
130295,-100,3,2,0,25,0,0
130338,-166.66666666666,3,2,0,25,0,0
130425,-55.555555555,3,2,0,25,0,0
130468,-100,3,2,0,25,0,0
130511,-166.66666666666,3,2,0,25,0,0
130599,-55.555555555,3,2,0,25,0,0
130642,-100,3,2,0,25,0,0
130685,-166.66666666666,3,2,0,25,0,0
130772,-55.555555555,3,2,0,25,0,0
130793,-100,3,2,0,25,0,0
130814,-166.66666666666,3,2,0,25,0,0
130859,-55.555555555,3,2,0,25,0,0
130880,-100,3,2,0,25,0,0
130901,-166.66666666666,3,2,0,25,0,0
130946,-55.555555555,3,2,0,25,0,0
130989,-100,3,2,0,25,0,0
131032,-166.66666666666,3,2,0,25,0,0
131119,-55.555555555,3,2,0,25,0,0
131140,-100,3,2,0,25,0,0
131161,-166.66666666666,3,2,0,25,0,0
131206,-55.555555555,3,2,0,25,0,0
131227,-100,3,2,0,25,0,0
131248,-166.66666666666,3,2,0,25,0,0
131292,-55.555555555,3,2,0,25,0,0
131335,-100,3,2,0,25,0,0
131378,-166.66666666666,3,2,0,25,0,0
131466,-55.555555555,3,2,0,25,0,0
131509,-100,3,2,0,25,0,0
131552,-166.66666666666,3,2,0,25,0,0
131639,-55.555555555,3,2,0,25,0,0
131682,-100,3,2,0,25,0,0
131725,-166.66666666666,3,2,0,25,0,0
131813,-55.555555555,3,2,0,25,0,0
131856,-100,3,2,0,25,0,0
131899,-166.66666666666,3,2,0,25,0,0
131986,-55.555555555,3,2,0,25,0,0
132029,-100,3,2,0,25,0,0
132072,-166.66666666666,3,2,0,25,0,0
132160,-55.555555555,3,2,0,25,0,0
132181,-100,3,2,0,25,0,0
132202,-166.66666666666,3,2,0,25,0,0
132247,-55.555555555,3,2,0,25,0,0
132268,-100,3,2,0,25,0,0
132289,-166.66666666666,3,2,0,25,0,0
132333,-55.5555555555556,3,2,0,25,0,0
132377,-166.66666666666,3,2,0,25,0,0
132420,-166.66666666666,3,2,0,25,0,0
132507,-105.263157894737,3,2,0,25,0,0
132593,-111.111111111111,3,2,0,25,0,0
132680,-117.647058823529,3,2,0,25,0,0
132767,-125,3,2,0,25,0,0
132854,-133.333333333333,3,2,0,25,0,0
132940,-142.857142857143,3,2,0,25,0,0
133027,-153.846153846154,3,2,0,25,0,0
133114,-166.666666666667,3,2,0,25,0,0
133200,-181.818181818182,3,2,0,25,0,0
133287,-200,3,2,0,25,0,0
133374,-222.222222222222,3,2,0,25,0,0
133461,-250,3,2,0,25,0,0
133547,1,3,2,0,25,1,0
134240,1E+69,3,2,0,25,1,0
134544,200,3,2,0,25,1,0
134588,346.820809248555,3,2,0,25,1,0

[HitObjects]
32,192,2104,5,0,0:0:0:0:
480,192,2104,1,0,0:0:0:0:
352,192,2104,1,0,0:0:0:0:
224,192,2450,1,0,0:0:0:0:
224,192,2624,1,0,0:0:0:0:
352,192,2797,1,0,0:0:0:0:
480,192,2797,1,0,0:0:0:0:
224,192,2971,1,0,0:0:0:0:
480,192,3144,1,0,0:0:0:0:
352,192,3144,1,0,0:0:0:0:
96,192,3144,128,0,3491:0:0:0:0:
224,192,3491,1,0,0:0:0:0:
224,192,3664,1,0,0:0:0:0:
96,192,3664,128,0,4011:0:0:0:0:
160,192,4011,1,0,0:0:0:0:
352,192,4011,1,0,0:0:0:0:
96,192,4184,128,0,4530:0:0:0:0:
288,192,4184,128,0,4530:0:0:0:0:
224,192,4705,1,0,0:0:0:0:
352,192,4878,1,0,0:0:0:0:
480,192,4878,1,0,0:0:0:0:
224,192,5051,1,0,0:0:0:0:
352,192,5225,1,0,0:0:0:0:
480,192,5225,1,0,0:0:0:0:
96,192,5528,1,0,0:0:0:0:
224,192,5572,1,0,0:0:0:0:
288,192,5615,1,0,0:0:0:0:
96,192,5658,1,0,0:0:0:0:
224,192,5745,1,0,0:0:0:0:
352,192,5745,1,0,0:0:0:0:
288,192,5919,1,0,0:0:0:0:
160,192,5919,1,0,0:0:0:0:
96,192,6092,128,0,6265:0:0:0:0:
224,192,6092,128,0,6265:0:0:0:0:
160,192,6265,1,0,0:0:0:0:
288,192,6265,1,0,0:0:0:0:
416,192,6265,1,0,0:0:0:0:
416,192,6959,1,0,0:0:0:0:
416,192,7306,1,0,0:0:0:0:
416,192,7999,1,0,0:0:0:0:
416,192,8346,1,0,0:0:0:0:
160,192,8346,1,0,0:0:0:0:
416,192,9040,1,0,0:0:0:0:
416,192,9387,1,0,0:0:0:0:
288,192,9560,128,0,9734:0:0:0:0:
96,192,9734,128,0,10340:0:0:0:0:
224,192,9907,128,0,10340:0:0:0:0:
352,192,10080,128,0,10340:0:0:0:0:
32,192,10427,1,0,0:0:0:0:
96,192,10427,1,0,0:0:0:0:
224,192,10427,1,0,0:0:0:0:
352,192,10427,1,0,0:0:0:0:
480,192,10427,1,0,0:0:0:0:
224,192,10773,1,0,0:0:0:0:
224,192,10947,1,0,0:0:0:0:
352,192,11120,1,0,0:0:0:0:
480,192,11120,1,0,0:0:0:0:
224,192,11294,1,0,0:0:0:0:
352,192,11467,1,0,0:0:0:0:
480,192,11467,1,0,0:0:0:0:
96,192,11467,1,0,0:0:0:0:
224,192,11814,1,0,0:0:0:0:
224,192,11987,1,0,0:0:0:0:
352,192,12161,1,0,0:0:0:0:
480,192,12161,1,0,0:0:0:0:
224,192,12334,1,0,0:0:0:0:
352,192,12507,1,0,0:0:0:0:
480,192,12507,1,0,0:0:0:0:
96,192,12507,1,0,0:0:0:0:
160,192,12681,1,0,0:0:0:0:
416,192,12724,1,0,0:0:0:0:
160,192,12768,1,0,0:0:0:0:
416,192,12811,1,0,0:0:0:0:
224,192,12854,1,0,0:0:0:0:
160,192,12854,1,0,0:0:0:0:
224,192,13028,1,0,0:0:0:0:
480,192,13201,1,0,0:0:0:0:
352,192,13201,1,0,0:0:0:0:
224,192,13374,1,0,0:0:0:0:
96,192,13548,1,0,0:0:0:0:
480,192,13548,1,0,0:0:0:0:
352,192,13548,1,0,0:0:0:0:
224,192,13895,1,0,0:0:0:0:
224,192,14068,1,0,0:0:0:0:
352,192,14242,1,0,0:0:0:0:
480,192,14242,1,0,0:0:0:0:
224,192,14415,1,0,0:0:0:0:
352,192,14588,1,0,0:0:0:0:
480,192,14588,1,0,0:0:0:0:
96,192,14588,1,0,0:0:0:0:
224,192,14935,1,0,0:0:0:0:
224,192,15109,1,0,0:0:0:0:
480,192,15282,1,0,0:0:0:0:
352,192,15282,1,0,0:0:0:0:
224,192,15455,1,0,0:0:0:0:
96,192,15629,1,0,0:0:0:0:
480,192,15629,1,0,0:0:0:0:
352,192,15629,1,0,0:0:0:0:
224,192,15976,1,0,0:0:0:0:
224,192,16149,1,0,0:0:0:0:
352,192,16322,1,0,0:0:0:0:
480,192,16322,1,0,0:0:0:0:
224,192,16496,1,0,0:0:0:0:
352,192,16669,1,0,0:0:0:0:
480,192,16669,1,0,0:0:0:0:
96,192,16669,1,0,0:0:0:0:
160,192,16843,1,0,0:0:0:0:
416,192,16886,1,0,0:0:0:0:
160,192,16929,1,0,0:0:0:0:
416,192,16973,1,0,0:0:0:0:
224,192,17016,1,0,0:0:0:0:
160,192,17016,1,0,0:0:0:0:
224,192,17190,1,0,0:0:0:0:
480,192,17363,1,0,0:0:0:0:
352,192,17363,1,0,0:0:0:0:
224,192,17536,1,0,0:0:0:0:
96,192,17710,1,0,0:0:0:0:
480,192,17710,1,0,0:0:0:0:
352,192,17710,1,0,0:0:0:0:
224,192,18057,1,0,0:0:0:0:
224,192,18230,1,0,0:0:0:0:
352,192,18403,1,0,0:0:0:0:
480,192,18403,1,0,0:0:0:0:
224,192,18577,1,0,0:0:0:0:
352,192,18750,1,0,0:0:0:0:
480,192,18750,1,0,0:0:0:0:
96,192,18750,128,0,19791:0:0:0:0:
224,192,19791,128,0,20831:0:0:0:0:
352,192,20831,128,0,21872:0:0:0:0:
224,192,21872,128,0,22912:0:0:0:0:
480,192,22912,128,0,27074:0:0:0:0:
352,192,23953,128,0,27074:0:0:0:0:
224,192,24993,128,0,27074:0:0:0:0:
96,192,26033,128,0,27074:0:0:0:0:
288,192,27074,1,0,0:0:0:0:
416,192,27074,1,0,0:0:0:0:
32,192,27074,1,0,0:0:0:0:
160,192,27074,128,0,28114:0:0:0:0:
96,192,28114,128,0,28981:0:0:0:0:
352,192,28981,128,0,29155:0:0:0:0:
224,192,29155,128,0,30195:0:0:0:0:
96,192,30195,128,0,31583:0:0:0:0:
224,192,30542,128,0,31583:0:0:0:0:
352,192,30889,128,0,31583:0:0:0:0:
480,192,31236,128,0,31583:0:0:0:0:
288,192,31583,128,0,32276:0:0:0:0:
416,192,31929,128,0,32276:0:0:0:0:
224,192,32276,128,0,32796:0:0:0:0:
352,192,32796,128,0,33143:0:0:0:0:
160,192,33143,128,0,35398:0:0:0:0:
416,192,33317,128,0,35398:0:0:0:0:
32,192,37305,1,0,0:0:0:0:
32,192,37479,1,0,0:0:0:0:
32,192,39559,1,0,0:0:0:0:
160,192,39559,1,0,0:0:0:0:
352,192,39559,1,0,0:0:0:0:
32,192,41467,1,0,0:0:0:0:
32,192,41640,1,0,0:0:0:0:
160,192,41640,128,0,43028:0:0:0:0:
224,192,43374,128,0,43981:0:0:0:0:
352,192,43548,128,0,43981:0:0:0:0:
480,192,43721,128,0,43981:0:0:0:0:
32,192,44068,5,0,0:0:0:0:
96,192,44068,1,0,0:0:0:0:
224,192,44068,1,0,0:0:0:0:
352,192,44068,1,0,0:0:0:0:
480,192,44068,1,0,0:0:0:0:
224,192,44242,1,0,0:0:0:0:
352,192,44242,1,0,0:0:0:0:
160,192,44415,1,0,0:0:0:0:
416,192,44415,1,0,0:0:0:0:
224,192,44458,1,0,0:0:0:0:
288,192,44502,1,0,0:0:0:0:
352,192,44588,1,0,0:0:0:0:
96,192,44588,1,0,0:0:0:0:
288,192,44762,1,0,0:0:0:0:
96,192,44762,1,0,0:0:0:0:
224,192,44935,1,0,0:0:0:0:
416,192,44935,1,0,0:0:0:0:
160,192,44979,1,0,0:0:0:0:
96,192,45022,1,0,0:0:0:0:
480,192,45109,1,0,0:0:0:0:
288,192,45109,1,0,0:0:0:0:
352,192,45282,1,0,0:0:0:0:
160,192,45282,1,0,0:0:0:0:
224,192,45455,1,0,0:0:0:0:
480,192,45455,1,0,0:0:0:0:
96,192,45455,1,0,0:0:0:0:
288,192,45499,1,0,0:0:0:0:
352,192,45542,1,0,0:0:0:0:
288,192,45629,1,0,0:0:0:0:
416,192,45629,1,0,0:0:0:0:
352,192,45802,1,0,0:0:0:0:
480,192,45802,1,0,0:0:0:0:
96,192,45802,1,0,0:0:0:0:
224,192,45846,1,0,0:0:0:0:
416,192,45889,1,0,0:0:0:0:
160,192,45976,1,0,0:0:0:0:
288,192,45976,1,0,0:0:0:0:
224,192,46149,1,0,0:0:0:0:
96,192,46149,1,0,0:0:0:0:
480,192,46149,1,0,0:0:0:0:
480,192,46322,1,0,0:0:0:0:
96,192,46322,1,0,0:0:0:0:
416,192,46496,1,0,0:0:0:0:
160,192,46496,1,0,0:0:0:0:
352,192,46539,1,0,0:0:0:0:
224,192,46583,1,0,0:0:0:0:
96,192,46669,1,0,0:0:0:0:
288,192,46669,1,0,0:0:0:0:
160,192,46843,1,0,0:0:0:0:
352,192,46843,1,0,0:0:0:0:
224,192,47016,1,0,0:0:0:0:
416,192,47016,1,0,0:0:0:0:
352,192,47059,1,0,0:0:0:0:
96,192,47103,1,0,0:0:0:0:
352,192,47190,1,0,0:0:0:0:
160,192,47190,1,0,0:0:0:0:
480,192,47190,1,0,0:0:0:0:
288,192,47363,1,0,0:0:0:0:
96,192,47363,1,0,0:0:0:0:
96,192,47536,1,0,0:0:0:0:
224,192,47536,1,0,0:0:0:0:
480,192,47536,1,0,0:0:0:0:
288,192,47580,1,0,0:0:0:0:
352,192,47623,1,0,0:0:0:0:
480,192,47710,1,0,0:0:0:0:
480,192,47883,1,0,0:0:0:0:
352,192,47883,1,0,0:0:0:0:
96,192,47883,1,0,0:0:0:0:
288,192,47927,1,0,0:0:0:0:
224,192,47970,1,0,0:0:0:0:
96,192,48057,1,0,0:0:0:0:
96,192,48230,1,0,0:0:0:0:
224,192,48230,1,0,0:0:0:0:
352,192,48230,1,0,0:0:0:0:
416,192,48273,1,0,0:0:0:0:
480,192,48317,1,0,0:0:0:0:
160,192,48403,1,0,0:0:0:0:
288,192,48403,1,0,0:0:0:0:
32,192,48577,1,0,0:0:0:0:
96,192,48577,1,0,0:0:0:0:
224,192,48577,1,0,0:0:0:0:
352,192,48577,1,0,0:0:0:0:
480,192,48577,1,0,0:0:0:0:
224,192,48750,1,0,0:0:0:0:
352,192,48750,1,0,0:0:0:0:
160,192,48924,1,0,0:0:0:0:
416,192,48924,1,0,0:0:0:0:
224,192,48967,1,0,0:0:0:0:
288,192,49010,1,0,0:0:0:0:
352,192,49097,1,0,0:0:0:0:
96,192,49097,1,0,0:0:0:0:
288,192,49270,1,0,0:0:0:0:
96,192,49270,1,0,0:0:0:0:
224,192,49444,1,0,0:0:0:0:
416,192,49444,1,0,0:0:0:0:
160,192,49487,1,0,0:0:0:0:
96,192,49531,1,0,0:0:0:0:
480,192,49617,1,0,0:0:0:0:
288,192,49617,1,0,0:0:0:0:
352,192,49791,1,0,0:0:0:0:
160,192,49791,1,0,0:0:0:0:
224,192,49964,1,0,0:0:0:0:
480,192,49964,1,0,0:0:0:0:
96,192,49964,1,0,0:0:0:0:
352,192,50007,1,0,0:0:0:0:
160,192,50051,1,0,0:0:0:0:
288,192,50137,1,0,0:0:0:0:
416,192,50137,1,0,0:0:0:0:
352,192,50311,1,0,0:0:0:0:
480,192,50311,1,0,0:0:0:0:
96,192,50311,1,0,0:0:0:0:
224,192,50354,1,0,0:0:0:0:
416,192,50398,1,0,0:0:0:0:
160,192,50484,1,0,0:0:0:0:
288,192,50484,1,0,0:0:0:0:
224,192,50658,1,0,0:0:0:0:
96,192,50658,1,0,0:0:0:0:
480,192,50658,1,0,0:0:0:0:
480,192,50831,1,0,0:0:0:0:
96,192,50831,1,0,0:0:0:0:
352,192,51005,1,0,0:0:0:0:
160,192,51005,1,0,0:0:0:0:
480,192,51005,1,0,0:0:0:0:
288,192,51048,1,0,0:0:0:0:
224,192,51091,1,0,0:0:0:0:
96,192,51178,1,0,0:0:0:0:
288,192,51178,1,0,0:0:0:0:
160,192,51351,1,0,0:0:0:0:
352,192,51351,1,0,0:0:0:0:
224,192,51525,1,0,0:0:0:0:
416,192,51525,1,0,0:0:0:0:
352,192,51568,1,0,0:0:0:0:
288,192,51611,1,0,0:0:0:0:
352,192,51698,1,0,0:0:0:0:
160,192,51698,1,0,0:0:0:0:
288,192,51872,1,0,0:0:0:0:
96,192,51872,1,0,0:0:0:0:
96,192,52045,1,0,0:0:0:0:
224,192,52045,1,0,0:0:0:0:
480,192,52045,1,0,0:0:0:0:
288,192,52088,1,0,0:0:0:0:
352,192,52132,1,0,0:0:0:0:
480,192,52218,1,0,0:0:0:0:
480,192,52392,1,0,0:0:0:0:
352,192,52392,1,0,0:0:0:0:
96,192,52392,1,0,0:0:0:0:
288,192,52435,1,0,0:0:0:0:
224,192,52479,1,0,0:0:0:0:
96,192,52565,1,0,0:0:0:0:
96,192,52739,1,0,0:0:0:0:
224,192,52739,1,0,0:0:0:0:
416,192,52739,1,0,0:0:0:0:
416,192,52912,1,0,0:0:0:0:
96,192,53085,128,0,-53129:0:0:0:0:
224,192,53085,128,0,-53129:0:0:0:0:
352,192,53085,128,0,-53129:0:0:0:0:
480,192,53085,128,0,-53129:0:0:0:0:
224,192,53432,1,0,0:0:0:0:
96,192,53432,1,0,0:0:0:0:
352,192,53432,1,0,0:0:0:0:
32,192,53432,1,0,0:0:0:0:
480,192,53432,1,0,0:0:0:0:
224,192,53606,1,0,0:0:0:0:
352,192,53606,1,0,0:0:0:0:
160,192,53779,1,0,0:0:0:0:
416,192,53779,1,0,0:0:0:0:
416,192,53952,1,0,0:0:0:0:
224,192,53953,1,0,0:0:0:0:
160,192,53995,1,0,0:0:0:0:
352,192,54039,1,0,0:0:0:0:
480,192,54126,1,0,0:0:0:0:
288,192,54126,1,0,0:0:0:0:
96,192,54213,1,0,0:0:0:0:
416,192,54213,1,0,0:0:0:0:
160,192,54299,1,0,0:0:0:0:
352,192,54299,1,0,0:0:0:0:
224,192,54343,1,0,0:0:0:0:
416,192,54386,1,0,0:0:0:0:
288,192,54473,1,0,0:0:0:0:
96,192,54473,1,0,0:0:0:0:
416,192,54646,1,0,0:0:0:0:
224,192,54646,1,0,0:0:0:0:
480,192,54820,1,0,0:0:0:0:
96,192,54820,1,0,0:0:0:0:
352,192,54820,1,0,0:0:0:0:
224,192,54863,1,0,0:0:0:0:
416,192,54906,1,0,0:0:0:0:
160,192,54993,1,0,0:0:0:0:
288,192,54993,1,0,0:0:0:0:
480,192,55166,1,0,0:0:0:0:
96,192,55166,1,0,0:0:0:0:
224,192,55166,1,0,0:0:0:0:
288,192,55340,1,0,0:0:0:0:
416,192,55340,1,0,0:0:0:0:
96,192,55513,1,0,0:0:0:0:
480,192,55513,1,0,0:0:0:0:
352,192,55513,1,0,0:0:0:0:
480,192,55687,1,0,0:0:0:0:
96,192,55687,1,0,0:0:0:0:
416,192,55860,1,0,0:0:0:0:
224,192,55860,1,0,0:0:0:0:
224,192,55947,1,0,0:0:0:0:
224,192,56033,1,0,0:0:0:0:
480,192,56033,1,0,0:0:0:0:
224,192,56207,1,0,0:0:0:0:
416,192,56207,1,0,0:0:0:0:
480,192,56294,1,0,0:0:0:0:
96,192,56294,1,0,0:0:0:0:
160,192,56380,1,0,0:0:0:0:
352,192,56380,1,0,0:0:0:0:
224,192,56424,1,0,0:0:0:0:
288,192,56467,1,0,0:0:0:0:
416,192,56554,1,0,0:0:0:0:
96,192,56554,1,0,0:0:0:0:
160,192,56554,1,0,0:0:0:0:
96,192,56900,1,0,0:0:0:0:
352,192,56900,1,0,0:0:0:0:
480,192,56900,1,0,0:0:0:0:
224,192,56900,1,0,0:0:0:0:
480,192,57247,1,0,0:0:0:0:
96,192,57247,1,0,0:0:0:0:
288,192,57247,1,0,0:0:0:0:
160,192,57247,1,0,0:0:0:0:
160,192,57420,1,0,0:0:0:0:
480,192,57421,1,0,0:0:0:0:
224,192,57594,1,0,0:0:0:0:
352,192,57594,1,0,0:0:0:0:
288,192,57768,1,0,0:0:0:0:
416,192,57768,1,0,0:0:0:0:
160,192,57768,1,0,0:0:0:0:
96,192,57811,1,0,0:0:0:0:
480,192,57854,1,0,0:0:0:0:
224,192,57941,1,0,0:0:0:0:
352,192,57941,1,0,0:0:0:0:
352,192,58028,1,0,0:0:0:0:
352,192,58114,1,0,0:0:0:0:
160,192,58114,1,0,0:0:0:0:
416,192,58288,1,0,0:0:0:0:
96,192,58288,1,0,0:0:0:0:
288,192,58288,1,0,0:0:0:0:
480,192,58461,1,0,0:0:0:0:
160,192,58461,1,0,0:0:0:0:
480,192,58635,1,0,0:0:0:0:
224,192,58635,1,0,0:0:0:0:
288,192,58635,1,0,0:0:0:0:
352,192,58678,1,0,0:0:0:0:
96,192,58721,1,0,0:0:0:0:
160,192,58808,1,0,0:0:0:0:
352,192,58808,1,0,0:0:0:0:
288,192,58981,1,0,0:0:0:0:
480,192,58981,1,0,0:0:0:0:
416,192,59155,1,0,0:0:0:0:
224,192,59155,1,0,0:0:0:0:
160,192,59198,1,0,0:0:0:0:
288,192,59242,1,0,0:0:0:0:
480,192,59328,1,0,0:0:0:0:
96,192,59328,1,0,0:0:0:0:
352,192,59328,1,0,0:0:0:0:
224,192,59415,1,0,0:0:0:0:
160,192,59502,1,0,0:0:0:0:
288,192,59502,1,0,0:0:0:0:
416,192,59588,1,0,0:0:0:0:
480,192,59675,1,0,0:0:0:0:
96,192,59675,1,0,0:0:0:0:
224,192,59675,1,0,0:0:0:0:
352,192,59675,1,0,0:0:0:0:
96,192,59762,1,0,0:0:0:0:
288,192,59848,1,0,0:0:0:0:
416,192,59848,1,0,0:0:0:0:
96,192,59848,1,0,0:0:0:0:
480,192,60022,1,0,0:0:0:0:
352,192,60022,1,0,0:0:0:0:
224,192,60022,1,0,0:0:0:0:
352,192,60109,1,0,0:0:0:0:
96,192,60195,1,0,0:0:0:0:
352,192,60195,1,0,0:0:0:0:
416,192,60369,1,0,0:0:0:0:
224,192,60369,1,0,0:0:0:0:
96,192,60369,1,0,0:0:0:0:
480,192,60369,1,0,0:0:0:0:
96,192,60716,1,0,0:0:0:0:
224,192,60716,1,0,0:0:0:0:
352,192,60716,1,0,0:0:0:0:
480,192,60716,1,0,0:0:0:0:
288,192,61062,128,0,-61409:0:0:0:0:
352,192,61062,128,0,-61409:0:0:0:0:
480,192,61062,128,0,-61409:0:0:0:0:
224,192,61062,128,0,-61409:0:0:0:0:
160,192,61062,128,0,-61409:0:0:0:0:
416,192,61062,128,0,-61409:0:0:0:0:
96,192,61062,128,0,-61409:0:0:0:0:
96,192,61409,1,0,0:0:0:0:
352,192,61409,1,0,0:0:0:0:
480,192,61409,1,0,0:0:0:0:
96,192,61582,1,0,0:0:0:0:
288,192,61582,1,0,0:0:0:0:
480,192,61755,1,0,0:0:0:0:
224,192,61755,1,0,0:0:0:0:
96,192,61755,1,0,0:0:0:0:
416,192,61799,1,0,0:0:0:0:
352,192,61842,1,0,0:0:0:0:
480,192,61929,1,0,0:0:0:0:
288,192,61929,1,0,0:0:0:0:
160,192,62102,1,0,0:0:0:0:
352,192,62102,1,0,0:0:0:0:
480,192,62102,1,0,0:0:0:0:
96,192,62189,1,0,0:0:0:0:
416,192,62189,1,0,0:0:0:0:
160,192,62276,1,0,0:0:0:0:
288,192,62276,1,0,0:0:0:0:
352,192,62319,1,0,0:0:0:0:
416,192,62362,1,0,0:0:0:0:
96,192,62449,1,0,0:0:0:0:
224,192,62449,1,0,0:0:0:0:
352,192,62449,1,0,0:0:0:0:
480,192,62449,1,0,0:0:0:0:
288,192,62622,1,0,0:0:0:0:
96,192,62622,1,0,0:0:0:0:
224,192,62796,1,0,0:0:0:0:
96,192,62796,1,0,0:0:0:0:
416,192,62796,1,0,0:0:0:0:
352,192,62839,1,0,0:0:0:0:
480,192,62882,1,0,0:0:0:0:
224,192,62969,1,0,0:0:0:0:
352,192,62969,1,0,0:0:0:0:
416,192,63143,1,0,0:0:0:0:
160,192,63143,1,0,0:0:0:0:
352,192,63186,1,0,0:0:0:0:
224,192,63229,1,0,0:0:0:0:
288,192,63316,1,0,0:0:0:0:
480,192,63316,1,0,0:0:0:0:
416,192,63359,1,0,0:0:0:0:
224,192,63403,1,0,0:0:0:0:
352,192,63489,1,0,0:0:0:0:
96,192,63489,1,0,0:0:0:0:
160,192,63489,1,0,0:0:0:0:
352,192,63663,1,0,0:0:0:0:
160,192,63663,1,0,0:0:0:0:
288,192,63836,1,0,0:0:0:0:
480,192,63836,1,0,0:0:0:0:
96,192,63836,1,0,0:0:0:0:
224,192,63880,1,0,0:0:0:0:
160,192,63923,1,0,0:0:0:0:
480,192,64010,1,0,0:0:0:0:
352,192,64010,1,0,0:0:0:0:
288,192,64183,1,0,0:0:0:0:
160,192,64183,1,0,0:0:0:0:
416,192,64183,1,0,0:0:0:0:
224,192,64270,1,0,0:0:0:0:
352,192,64270,1,0,0:0:0:0:
96,192,64356,1,0,0:0:0:0:
480,192,64356,1,0,0:0:0:0:
160,192,64400,1,0,0:0:0:0:
224,192,64443,1,0,0:0:0:0:
416,192,64530,1,0,0:0:0:0:
288,192,64530,1,0,0:0:0:0:
96,192,64530,1,0,0:0:0:0:
416,192,64703,1,0,0:0:0:0:
160,192,64703,1,0,0:0:0:0:
224,192,64877,1,0,0:0:0:0:
416,192,64877,1,0,0:0:0:0:
352,192,64963,1,0,0:0:0:0:
160,192,64963,1,0,0:0:0:0:
96,192,65050,1,0,0:0:0:0:
480,192,65050,1,0,0:0:0:0:
416,192,65137,1,0,0:0:0:0:
224,192,65137,1,0,0:0:0:0:
160,192,65224,128,0,65245:0:0:0:0:
352,192,65224,128,0,65245:0:0:0:0:
480,192,65224,1,0,0:0:0:0:
96,192,65224,1,0,0:0:0:0:
288,192,65224,1,0,0:0:0:0:
480,192,65570,1,0,0:0:0:0:
96,192,65570,128,0,65592:0:0:0:0:
288,192,65570,128,0,65592:0:0:0:0:
416,192,65570,1,0,0:0:0:0:
224,192,65570,1,0,0:0:0:0:
352,192,65917,1,0,0:0:0:0:
288,192,65917,1,0,0:0:0:0:
96,192,65917,1,0,0:0:0:0:
160,192,65917,128,0,65961:0:0:0:0:
224,192,65917,128,0,65961:0:0:0:0:
416,192,65917,128,0,65961:0:0:0:0:
480,192,65917,128,0,65961:0:0:0:0:
96,192,66091,1,0,0:0:0:0:
288,192,66091,1,0,0:0:0:0:
480,192,66264,1,0,0:0:0:0:
224,192,66264,1,0,0:0:0:0:
96,192,66264,1,0,0:0:0:0:
416,192,66307,1,0,0:0:0:0:
352,192,66351,1,0,0:0:0:0:
480,192,66437,1,0,0:0:0:0:
288,192,66437,1,0,0:0:0:0:
224,192,66611,1,0,0:0:0:0:
352,192,66611,1,0,0:0:0:0:
288,192,66611,1,0,0:0:0:0:
96,192,66698,1,0,0:0:0:0:
416,192,66698,1,0,0:0:0:0:
160,192,66784,1,0,0:0:0:0:
288,192,66784,1,0,0:0:0:0:
416,192,66828,1,0,0:0:0:0:
352,192,66871,1,0,0:0:0:0:
96,192,66958,1,0,0:0:0:0:
224,192,66958,1,0,0:0:0:0:
480,192,66958,1,0,0:0:0:0:
288,192,67131,1,0,0:0:0:0:
96,192,67131,1,0,0:0:0:0:
224,192,67304,1,0,0:0:0:0:
96,192,67304,1,0,0:0:0:0:
416,192,67304,1,0,0:0:0:0:
352,192,67348,1,0,0:0:0:0:
480,192,67391,1,0,0:0:0:0:
224,192,67478,1,0,0:0:0:0:
352,192,67478,1,0,0:0:0:0:
288,192,67565,1,0,0:0:0:0:
416,192,67651,1,0,0:0:0:0:
160,192,67651,1,0,0:0:0:0:
352,192,67695,1,0,0:0:0:0:
224,192,67738,1,0,0:0:0:0:
288,192,67825,1,0,0:0:0:0:
480,192,67825,1,0,0:0:0:0:
160,192,67911,1,0,0:0:0:0:
352,192,67911,1,0,0:0:0:0:
480,192,67998,1,0,0:0:0:0:
416,192,67998,1,0,0:0:0:0:
96,192,67998,1,0,0:0:0:0:
352,192,68172,1,0,0:0:0:0:
160,192,68172,1,0,0:0:0:0:
288,192,68345,1,0,0:0:0:0:
480,192,68345,1,0,0:0:0:0:
96,192,68345,1,0,0:0:0:0:
224,192,68388,1,0,0:0:0:0:
160,192,68432,1,0,0:0:0:0:
480,192,68518,1,0,0:0:0:0:
352,192,68518,1,0,0:0:0:0:
288,192,68692,1,0,0:0:0:0:
160,192,68692,1,0,0:0:0:0:
416,192,68692,1,0,0:0:0:0:
224,192,68778,1,0,0:0:0:0:
352,192,68778,1,0,0:0:0:0:
96,192,68865,1,0,0:0:0:0:
480,192,68865,1,0,0:0:0:0:
160,192,68909,1,0,0:0:0:0:
224,192,68952,1,0,0:0:0:0:
416,192,69039,1,0,0:0:0:0:
288,192,69039,1,0,0:0:0:0:
96,192,69039,1,0,0:0:0:0:
416,192,69212,1,0,0:0:0:0:
160,192,69212,1,0,0:0:0:0:
224,192,69385,1,0,0:0:0:0:
416,192,69385,1,0,0:0:0:0:
352,192,69472,1,0,0:0:0:0:
160,192,69472,1,0,0:0:0:0:
96,192,69559,1,0,0:0:0:0:
480,192,69559,1,0,0:0:0:0:
416,192,69645,1,0,0:0:0:0:
224,192,69645,1,0,0:0:0:0:
352,192,69732,1,0,0:0:0:0:
96,192,69732,1,0,0:0:0:0:
160,192,69776,1,0,0:0:0:0:
288,192,69819,1,0,0:0:0:0:
480,192,69819,1,0,0:0:0:0:
160,192,69906,1,0,0:0:0:0:
352,192,69906,1,0,0:0:0:0:
224,192,69992,1,0,0:0:0:0:
416,192,69992,1,0,0:0:0:0:
480,192,70079,1,0,0:0:0:0:
96,192,70079,1,0,0:0:0:0:
288,192,70079,1,0,0:0:0:0:
416,192,70122,1,0,0:0:0:0:
352,192,70166,1,0,0:0:0:0:
224,192,70166,1,0,0:0:0:0:
160,192,70252,1,0,0:0:0:0:
480,192,70252,1,0,0:0:0:0:
96,192,70339,1,0,0:0:0:0:
416,192,70339,1,0,0:0:0:0:
352,192,70426,1,0,0:0:0:0:
224,192,70426,1,0,0:0:0:0:
288,192,70426,1,0,0:0:0:0:
416,192,70469,1,0,0:0:0:0:
480,192,70513,1,0,0:0:0:0:
224,192,70599,1,0,0:0:0:0:
96,192,70599,1,0,0:0:0:0:
352,192,70686,1,0,0:0:0:0:
160,192,70773,1,0,0:0:0:0:
288,192,70773,1,0,0:0:0:0:
480,192,70773,1,0,0:0:0:0:
160,192,70859,1,0,0:0:0:0:
416,192,70859,1,0,0:0:0:0:
160,192,70946,1,0,0:0:0:0:
352,192,70946,1,0,0:0:0:0:
352,192,71119,1,0,0:0:0:0:
96,192,71119,1,0,0:0:0:0:
480,192,71119,1,0,0:0:0:0:
352,192,71206,1,0,0:0:0:0:
160,192,71206,1,0,0:0:0:0:
352,192,71293,1,0,0:0:0:0:
224,192,71293,1,0,0:0:0:0:
288,192,71466,1,0,0:0:0:0:
160,192,71466,1,0,0:0:0:0:
416,192,71466,1,0,0:0:0:0:
352,192,71553,1,0,0:0:0:0:
224,192,71640,1,0,0:0:0:0:
416,192,71726,1,0,0:0:0:0:
352,192,71813,1,0,0:0:0:0:
160,192,71813,1,0,0:0:0:0:
96,192,71813,1,0,0:0:0:0:
224,192,72160,1,0,0:0:0:0:
416,192,72160,1,0,0:0:0:0:
480,192,72160,1,0,0:0:0:0:
480,192,72333,1,0,0:0:0:0:
288,192,72333,1,0,0:0:0:0:
160,192,72333,1,0,0:0:0:0:
96,192,72507,1,0,0:0:0:0:
224,192,72507,1,0,0:0:0:0:
416,192,72507,1,0,0:0:0:0:
480,192,72854,1,0,0:0:0:0:
224,192,72854,1,0,0:0:0:0:
352,192,72854,1,0,0:0:0:0:
480,192,72940,1,0,0:0:0:0:
96,192,72940,1,0,0:0:0:0:
480,192,73027,1,0,0:0:0:0:
160,192,73027,1,0,0:0:0:0:
288,192,73027,1,0,0:0:0:0:
416,192,73200,1,0,0:0:0:0:
96,192,73200,1,0,0:0:0:0:
352,192,73287,1,0,0:0:0:0:
160,192,73287,1,0,0:0:0:0:
352,192,73374,1,0,0:0:0:0:
224,192,73374,1,0,0:0:0:0:
480,192,73374,1,0,0:0:0:0:
160,192,73547,1,0,0:0:0:0:
288,192,73547,1,0,0:0:0:0:
416,192,73547,1,0,0:0:0:0:
352,192,73894,1,0,0:0:0:0:
224,192,73894,1,0,0:0:0:0:
96,192,73894,1,0,0:0:0:0:
96,192,74241,1,0,0:0:0:0:
160,192,74241,1,0,0:0:0:0:
288,192,74241,1,0,0:0:0:0:
224,192,74588,1,0,0:0:0:0:
96,192,74588,1,0,0:0:0:0:
352,192,74588,1,0,0:0:0:0:
224,192,74674,1,0,0:0:0:0:
480,192,74674,1,0,0:0:0:0:
224,192,74761,1,0,0:0:0:0:
416,192,74761,1,0,0:0:0:0:
352,192,74761,1,0,0:0:0:0:
160,192,74935,1,0,0:0:0:0:
416,192,74935,1,0,0:0:0:0:
224,192,75021,1,0,0:0:0:0:
352,192,75021,1,0,0:0:0:0:
160,192,75108,1,0,0:0:0:0:
288,192,75108,1,0,0:0:0:0:
352,192,75281,1,0,0:0:0:0:
480,192,75281,1,0,0:0:0:0:
160,192,75368,1,0,0:0:0:0:
288,192,75455,1,0,0:0:0:0:
416,192,75455,1,0,0:0:0:0:
160,192,75541,1,0,0:0:0:0:
224,192,75628,1,0,0:0:0:0:
352,192,75628,1,0,0:0:0:0:
480,192,75628,1,0,0:0:0:0:
160,192,75975,1,0,0:0:0:0:
288,192,75975,1,0,0:0:0:0:
416,192,75975,1,0,0:0:0:0:
224,192,76148,1,0,0:0:0:0:
352,192,76148,1,0,0:0:0:0:
480,192,76148,1,0,0:0:0:0:
416,192,76322,1,0,0:0:0:0:
288,192,76322,1,0,0:0:0:0:
96,192,76322,1,0,0:0:0:0:
352,192,76495,1,0,0:0:0:0:
160,192,76495,1,0,0:0:0:0:
352,192,76582,1,0,0:0:0:0:
224,192,76582,1,0,0:0:0:0:
416,192,76669,1,0,0:0:0:0:
96,192,76669,1,0,0:0:0:0:
416,192,76755,1,0,0:0:0:0:
160,192,76755,1,0,0:0:0:0:
224,192,76842,1,0,0:0:0:0:
352,192,76842,1,0,0:0:0:0:
288,192,77015,1,0,0:0:0:0:
416,192,77015,1,0,0:0:0:0:
160,192,77102,1,0,0:0:0:0:
480,192,77102,1,0,0:0:0:0:
352,192,77189,1,0,0:0:0:0:
224,192,77189,1,0,0:0:0:0:
416,192,77362,1,0,0:0:0:0:
160,192,77362,1,0,0:0:0:0:
160,192,77709,1,0,0:0:0:0:
160,192,77796,1,0,0:0:0:0:
416,192,77882,1,0,0:0:0:0:
416,192,77969,1,0,0:0:0:0:
96,192,78403,1,0,0:0:0:0:
224,192,78403,1,0,0:0:0:0:
416,192,78403,1,0,0:0:0:0:
480,192,78403,1,0,0:0:0:0:
352,192,78403,128,0,78749:0:0:0:0:
224,192,78749,128,0,79096:0:0:0:0:
96,192,79096,128,0,79443:0:0:0:0:
288,192,79443,128,0,79790:0:0:0:0:
416,192,79790,128,0,80137:0:0:0:0:
480,192,80137,128,0,80483:0:0:0:0:
224,192,80483,128,0,80830:0:0:0:0:
96,192,80830,128,0,81177:0:0:0:0:
416,192,81177,128,0,81524:0:0:0:0:
288,192,81524,128,0,81871:0:0:0:0:
480,192,81871,128,0,82218:0:0:0:0:
224,192,82218,128,0,82564:0:0:0:0:
96,192,82564,128,0,82911:0:0:0:0:
480,192,82911,128,0,83258:0:0:0:0:
352,192,83258,128,0,83605:0:0:0:0:
224,192,83605,128,0,83952:0:0:0:0:
288,192,83952,128,0,84298:0:0:0:0:
416,192,84298,128,0,85686:0:0:0:0:
96,192,85686,128,0,86033:0:0:0:0:
288,192,86033,128,0,86380:0:0:0:0:
480,192,86380,128,0,86726:0:0:0:0:
224,192,86726,1,0,0:0:0:0:
352,192,86726,1,0,0:0:0:0:
96,192,86726,128,0,87420:0:0:0:0:
288,192,87420,128,0,87767:0:0:0:0:
480,192,87767,128,0,88807:0:0:0:0:
224,192,88807,128,0,89501:0:0:0:0:
352,192,89501,128,0,89848:0:0:0:0:
480,192,89848,128,0,90541:0:0:0:0:
288,192,90541,128,0,90888:0:0:0:0:
160,192,90888,128,0,92622:0:0:0:0:
480,192,92622,128,0,92796:0:0:0:0:
352,192,92796,128,0,92969:0:0:0:0:
224,192,92969,128,0,94010:0:0:0:0:
416,192,94010,128,0,95050:0:0:0:0:
32,192,95050,1,0,0:0:0:0:
96,192,95050,1,0,0:0:0:0:
160,192,98865,128,0,99212:0:0:0:0:
416,192,98865,128,0,99212:0:0:0:0:
288,192,99385,1,0,0:0:0:0:
288,192,99472,1,0,0:0:0:0:
288,192,99559,1,0,0:0:0:0:
288,192,99732,1,0,0:0:0:0:
32,192,99906,128,0,100946:0:0:0:0:
288,192,99906,1,0,0:0:0:0:
288,192,101293,5,0,0:0:0:0:
416,192,101293,1,0,0:0:0:0:
480,192,101293,1,0,0:0:0:0:
160,192,101293,1,0,0:0:0:0:
32,192,101293,1,0,0:0:0:0:
160,192,101466,1,0,0:0:0:0:
288,192,101466,1,0,0:0:0:0:
96,192,101640,1,0,0:0:0:0:
480,192,101640,1,0,0:0:0:0:
224,192,101640,1,0,0:0:0:0:
288,192,101726,1,0,0:0:0:0:
96,192,101813,1,0,0:0:0:0:
352,192,101813,1,0,0:0:0:0:
480,192,101813,1,0,0:0:0:0:
416,192,101987,1,0,0:0:0:0:
224,192,101987,1,0,0:0:0:0:
288,192,102073,1,0,0:0:0:0:
352,192,102160,1,0,0:0:0:0:
96,192,102160,1,0,0:0:0:0:
480,192,102160,1,0,0:0:0:0:
96,192,102333,1,0,0:0:0:0:
288,192,102333,1,0,0:0:0:0:
480,192,102333,1,0,0:0:0:0:
160,192,102507,1,0,0:0:0:0:
352,192,102507,1,0,0:0:0:0:
224,192,102680,1,0,0:0:0:0:
416,192,102680,1,0,0:0:0:0:
416,192,102854,1,0,0:0:0:0:
224,192,102854,1,0,0:0:0:0:
352,192,103027,1,0,0:0:0:0:
160,192,103027,1,0,0:0:0:0:
288,192,103114,1,0,0:0:0:0:
224,192,103200,1,0,0:0:0:0:
416,192,103200,1,0,0:0:0:0:
288,192,103374,1,0,0:0:0:0:
160,192,103374,1,0,0:0:0:0:
96,192,103547,1,0,0:0:0:0:
224,192,103547,1,0,0:0:0:0:
352,192,103721,1,0,0:0:0:0:
480,192,103721,1,0,0:0:0:0:
160,192,103894,1,0,0:0:0:0:
352,192,104067,1,0,0:0:0:0:
480,192,104067,1,0,0:0:0:0:
96,192,104067,1,0,0:0:0:0:
224,192,104241,1,0,0:0:0:0:
416,192,104241,1,0,0:0:0:0:
288,192,104414,1,0,0:0:0:0:
160,192,104414,1,0,0:0:0:0:
352,192,104588,1,0,0:0:0:0:
480,192,104588,1,0,0:0:0:0:
224,192,104761,1,0,0:0:0:0:
96,192,104761,1,0,0:0:0:0:
288,192,104935,1,0,0:0:0:0:
416,192,104935,1,0,0:0:0:0:
160,192,105108,1,0,0:0:0:0:
96,192,105108,1,0,0:0:0:0:
416,192,105281,1,0,0:0:0:0:
288,192,105455,5,0,0:0:0:0:
416,192,105455,1,0,0:0:0:0:
160,192,105455,1,0,0:0:0:0:
160,192,105628,1,0,0:0:0:0:
288,192,105628,1,0,0:0:0:0:
96,192,105802,1,0,0:0:0:0:
480,192,105802,1,0,0:0:0:0:
224,192,105802,1,0,0:0:0:0:
288,192,105888,1,0,0:0:0:0:
96,192,105975,1,0,0:0:0:0:
352,192,105975,1,0,0:0:0:0:
480,192,105975,1,0,0:0:0:0:
416,192,106148,1,0,0:0:0:0:
224,192,106148,1,0,0:0:0:0:
288,192,106235,1,0,0:0:0:0:
352,192,106322,1,0,0:0:0:0:
96,192,106322,1,0,0:0:0:0:
480,192,106322,1,0,0:0:0:0:
96,192,106495,1,0,0:0:0:0:
288,192,106495,1,0,0:0:0:0:
480,192,106495,1,0,0:0:0:0:
224,192,106669,1,0,0:0:0:0:
416,192,106669,1,0,0:0:0:0:
288,192,106842,1,0,0:0:0:0:
480,192,106842,1,0,0:0:0:0:
480,192,107015,1,0,0:0:0:0:
288,192,107015,1,0,0:0:0:0:
352,192,107189,1,0,0:0:0:0:
160,192,107189,1,0,0:0:0:0:
288,192,107276,1,0,0:0:0:0:
224,192,107362,1,0,0:0:0:0:
480,192,107362,1,0,0:0:0:0:
416,192,107536,1,0,0:0:0:0:
160,192,107536,1,0,0:0:0:0:
96,192,107709,1,0,0:0:0:0:
352,192,107709,1,0,0:0:0:0:
288,192,107882,1,0,0:0:0:0:
160,192,107882,1,0,0:0:0:0:
224,192,108056,1,0,0:0:0:0:
352,192,108229,1,0,0:0:0:0:
96,192,108403,1,0,0:0:0:0:
224,192,108403,1,0,0:0:0:0:
416,192,108403,1,0,0:0:0:0:
480,192,108576,1,0,0:0:0:0:
288,192,108576,1,0,0:0:0:0:
224,192,108750,1,0,0:0:0:0:
352,192,108750,1,0,0:0:0:0:
416,192,108923,1,0,0:0:0:0:
480,192,108923,1,0,0:0:0:0:
288,192,109096,1,0,0:0:0:0:
224,192,109096,1,0,0:0:0:0:
160,192,109270,1,0,0:0:0:0:
96,192,109270,1,0,0:0:0:0:
224,192,109443,1,0,0:0:0:0:
352,192,109443,1,0,0:0:0:0:
288,192,109617,5,0,0:0:0:0:
480,192,109617,1,0,0:0:0:0:
160,192,109617,1,0,0:0:0:0:
160,192,109790,1,0,0:0:0:0:
288,192,109790,1,0,0:0:0:0:
96,192,109963,1,0,0:0:0:0:
480,192,109963,1,0,0:0:0:0:
224,192,109963,1,0,0:0:0:0:
288,192,110050,1,0,0:0:0:0:
96,192,110137,1,0,0:0:0:0:
352,192,110137,1,0,0:0:0:0:
480,192,110137,1,0,0:0:0:0:
416,192,110310,1,0,0:0:0:0:
224,192,110310,1,0,0:0:0:0:
288,192,110397,1,0,0:0:0:0:
352,192,110484,1,0,0:0:0:0:
96,192,110484,1,0,0:0:0:0:
480,192,110484,1,0,0:0:0:0:
96,192,110657,1,0,0:0:0:0:
288,192,110657,1,0,0:0:0:0:
480,192,110657,1,0,0:0:0:0:
160,192,110830,1,0,0:0:0:0:
352,192,110830,1,0,0:0:0:0:
224,192,111004,1,0,0:0:0:0:
416,192,111004,1,0,0:0:0:0:
416,192,111177,1,0,0:0:0:0:
224,192,111177,1,0,0:0:0:0:
352,192,111351,1,0,0:0:0:0:
160,192,111351,1,0,0:0:0:0:
288,192,111437,1,0,0:0:0:0:
224,192,111524,1,0,0:0:0:0:
416,192,111524,1,0,0:0:0:0:
288,192,111698,1,0,0:0:0:0:
160,192,111698,1,0,0:0:0:0:
96,192,111871,1,0,0:0:0:0:
224,192,111871,1,0,0:0:0:0:
352,192,112044,1,0,0:0:0:0:
480,192,112044,1,0,0:0:0:0:
160,192,112218,1,0,0:0:0:0:
352,192,112391,1,0,0:0:0:0:
480,192,112391,1,0,0:0:0:0:
96,192,112391,1,0,0:0:0:0:
224,192,112565,1,0,0:0:0:0:
416,192,112565,1,0,0:0:0:0:
288,192,112738,1,0,0:0:0:0:
160,192,112738,1,0,0:0:0:0:
352,192,112911,1,0,0:0:0:0:
480,192,112911,1,0,0:0:0:0:
224,192,113085,1,0,0:0:0:0:
96,192,113085,1,0,0:0:0:0:
288,192,113258,1,0,0:0:0:0:
416,192,113258,1,0,0:0:0:0:
160,192,113432,1,0,0:0:0:0:
96,192,113432,1,0,0:0:0:0:
288,192,113605,1,0,0:0:0:0:
288,192,113778,5,0,0:0:0:0:
416,192,113778,1,0,0:0:0:0:
160,192,113778,1,0,0:0:0:0:
416,192,113952,1,0,0:0:0:0:
96,192,114125,1,0,0:0:0:0:
480,192,114125,1,0,0:0:0:0:
224,192,114125,1,0,0:0:0:0:
352,192,114212,1,0,0:0:0:0:
224,192,114299,1,0,0:0:0:0:
416,192,114472,1,0,0:0:0:0:
160,192,114472,1,0,0:0:0:0:
480,192,114472,1,0,0:0:0:0:
288,192,114559,1,0,0:0:0:0:
480,192,114645,1,0,0:0:0:0:
96,192,114819,1,0,0:0:0:0:
416,192,114819,1,0,0:0:0:0:
224,192,114819,1,0,0:0:0:0:
96,192,114992,1,0,0:0:0:0:
288,192,115166,1,0,0:0:0:0:
480,192,115166,1,0,0:0:0:0:
480,192,115339,1,0,0:0:0:0:
352,192,115339,1,0,0:0:0:0:
224,192,115513,1,0,0:0:0:0:
96,192,115513,1,0,0:0:0:0:
416,192,115599,1,0,0:0:0:0:
224,192,115686,1,0,0:0:0:0:
96,192,115686,1,0,0:0:0:0:
416,192,115859,1,0,0:0:0:0:
160,192,115859,1,0,0:0:0:0:
224,192,116033,1,0,0:0:0:0:
480,192,116033,1,0,0:0:0:0:
288,192,116206,1,0,0:0:0:0:
480,192,116206,1,0,0:0:0:0:
224,192,116380,1,0,0:0:0:0:
352,192,116553,1,0,0:0:0:0:
96,192,116726,1,0,0:0:0:0:
224,192,116726,1,0,0:0:0:0:
416,192,116726,1,0,0:0:0:0:
160,192,116900,1,0,0:0:0:0:
416,192,116900,1,0,0:0:0:0:
480,192,117073,1,0,0:0:0:0:
224,192,117073,1,0,0:0:0:0:
480,192,117247,1,0,0:0:0:0:
288,192,117247,1,0,0:0:0:0:
224,192,117420,1,0,0:0:0:0:
160,192,117593,1,0,0:0:0:0:
416,192,117593,1,0,0:0:0:0:
352,192,117767,1,0,0:0:0:0:
288,192,117940,5,0,0:0:0:0:
416,192,117940,1,0,0:0:0:0:
480,192,117940,1,0,0:0:0:0:
32,192,117940,1,0,0:0:0:0:
160,192,117940,1,0,0:0:0:0:
160,192,118114,1,0,0:0:0:0:
288,192,118114,1,0,0:0:0:0:
96,192,118287,1,0,0:0:0:0:
480,192,118287,1,0,0:0:0:0:
224,192,118287,1,0,0:0:0:0:
288,192,118374,1,0,0:0:0:0:
96,192,118461,1,0,0:0:0:0:
352,192,118461,1,0,0:0:0:0:
480,192,118461,1,0,0:0:0:0:
416,192,118634,1,0,0:0:0:0:
224,192,118634,1,0,0:0:0:0:
288,192,118721,1,0,0:0:0:0:
352,192,118807,1,0,0:0:0:0:
96,192,118807,1,0,0:0:0:0:
480,192,118807,1,0,0:0:0:0:
96,192,118981,1,0,0:0:0:0:
288,192,118981,1,0,0:0:0:0:
480,192,118981,1,0,0:0:0:0:
160,192,119154,1,0,0:0:0:0:
352,192,119154,1,0,0:0:0:0:
224,192,119328,1,0,0:0:0:0:
416,192,119328,1,0,0:0:0:0:
416,192,119501,1,0,0:0:0:0:
224,192,119501,1,0,0:0:0:0:
352,192,119674,1,0,0:0:0:0:
160,192,119674,1,0,0:0:0:0:
288,192,119761,1,0,0:0:0:0:
224,192,119848,1,0,0:0:0:0:
416,192,119848,1,0,0:0:0:0:
288,192,120021,1,0,0:0:0:0:
160,192,120021,1,0,0:0:0:0:
96,192,120195,1,0,0:0:0:0:
224,192,120195,1,0,0:0:0:0:
352,192,120368,1,0,0:0:0:0:
480,192,120368,1,0,0:0:0:0:
160,192,120541,1,0,0:0:0:0:
352,192,120715,1,0,0:0:0:0:
480,192,120715,1,0,0:0:0:0:
96,192,120715,1,0,0:0:0:0:
224,192,120888,1,0,0:0:0:0:
416,192,120888,1,0,0:0:0:0:
288,192,121062,1,0,0:0:0:0:
160,192,121062,1,0,0:0:0:0:
352,192,121235,1,0,0:0:0:0:
480,192,121235,1,0,0:0:0:0:
224,192,121409,1,0,0:0:0:0:
96,192,121409,1,0,0:0:0:0:
288,192,121582,1,0,0:0:0:0:
416,192,121582,1,0,0:0:0:0:
160,192,121755,1,0,0:0:0:0:
96,192,121755,1,0,0:0:0:0:
416,192,121929,1,0,0:0:0:0:
288,192,122102,5,0,0:0:0:0:
416,192,122102,1,0,0:0:0:0:
160,192,122102,1,0,0:0:0:0:
160,192,122276,1,0,0:0:0:0:
288,192,122276,1,0,0:0:0:0:
96,192,122449,1,0,0:0:0:0:
480,192,122449,1,0,0:0:0:0:
224,192,122449,1,0,0:0:0:0:
288,192,122536,1,0,0:0:0:0:
96,192,122622,1,0,0:0:0:0:
352,192,122622,1,0,0:0:0:0:
480,192,122622,1,0,0:0:0:0:
416,192,122796,1,0,0:0:0:0:
224,192,122796,1,0,0:0:0:0:
288,192,122882,1,0,0:0:0:0:
352,192,122969,1,0,0:0:0:0:
96,192,122969,1,0,0:0:0:0:
480,192,122969,1,0,0:0:0:0:
96,192,123143,1,0,0:0:0:0:
288,192,123143,1,0,0:0:0:0:
480,192,123143,1,0,0:0:0:0:
224,192,123316,1,0,0:0:0:0:
416,192,123316,1,0,0:0:0:0:
288,192,123489,1,0,0:0:0:0:
480,192,123489,1,0,0:0:0:0:
480,192,123663,1,0,0:0:0:0:
288,192,123663,1,0,0:0:0:0:
352,192,123836,1,0,0:0:0:0:
160,192,123836,1,0,0:0:0:0:
288,192,123923,1,0,0:0:0:0:
224,192,124010,1,0,0:0:0:0:
480,192,124010,1,0,0:0:0:0:
416,192,124183,1,0,0:0:0:0:
160,192,124183,1,0,0:0:0:0:
96,192,124356,1,0,0:0:0:0:
352,192,124356,1,0,0:0:0:0:
288,192,124530,1,0,0:0:0:0:
160,192,124530,1,0,0:0:0:0:
224,192,124703,1,0,0:0:0:0:
352,192,124877,1,0,0:0:0:0:
96,192,125050,1,0,0:0:0:0:
224,192,125050,1,0,0:0:0:0:
416,192,125050,1,0,0:0:0:0:
480,192,125224,1,0,0:0:0:0:
160,192,125224,1,0,0:0:0:0:
224,192,125397,1,0,0:0:0:0:
416,192,125397,1,0,0:0:0:0:
352,192,125570,1,0,0:0:0:0:
480,192,125570,1,0,0:0:0:0:
288,192,125744,1,0,0:0:0:0:
224,192,125917,1,0,0:0:0:0:
96,192,125917,1,0,0:0:0:0:
352,192,126091,1,0,0:0:0:0:
288,192,126264,5,0,0:0:0:0:
480,192,126264,1,0,0:0:0:0:
160,192,126264,1,0,0:0:0:0:
160,192,126437,1,0,0:0:0:0:
288,192,126437,1,0,0:0:0:0:
96,192,126611,1,0,0:0:0:0:
480,192,126611,1,0,0:0:0:0:
224,192,126611,1,0,0:0:0:0:
288,192,126698,1,0,0:0:0:0:
96,192,126784,1,0,0:0:0:0:
352,192,126784,1,0,0:0:0:0:
480,192,126784,1,0,0:0:0:0:
416,192,126958,1,0,0:0:0:0:
224,192,126958,1,0,0:0:0:0:
288,192,127044,1,0,0:0:0:0:
352,192,127131,1,0,0:0:0:0:
96,192,127131,1,0,0:0:0:0:
480,192,127131,1,0,0:0:0:0:
96,192,127304,1,0,0:0:0:0:
288,192,127304,1,0,0:0:0:0:
480,192,127304,1,0,0:0:0:0:
160,192,127478,1,0,0:0:0:0:
352,192,127478,1,0,0:0:0:0:
224,192,127651,1,0,0:0:0:0:
416,192,127651,1,0,0:0:0:0:
416,192,127825,1,0,0:0:0:0:
224,192,127825,1,0,0:0:0:0:
352,192,127998,1,0,0:0:0:0:
160,192,127998,1,0,0:0:0:0:
288,192,128085,1,0,0:0:0:0:
224,192,128172,1,0,0:0:0:0:
416,192,128172,1,0,0:0:0:0:
480,192,128345,1,0,0:0:0:0:
288,192,128345,1,0,0:0:0:0:
224,192,128518,1,0,0:0:0:0:
416,192,128518,1,0,0:0:0:0:
352,192,128692,1,0,0:0:0:0:
160,192,128692,1,0,0:0:0:0:
288,192,128865,1,0,0:0:0:0:
352,192,129039,1,0,0:0:0:0:
480,192,129039,1,0,0:0:0:0:
96,192,129039,1,0,0:0:0:0:
224,192,129212,1,0,0:0:0:0:
416,192,129212,1,0,0:0:0:0:
288,192,129385,1,0,0:0:0:0:
160,192,129385,1,0,0:0:0:0:
352,192,129559,1,0,0:0:0:0:
480,192,129559,1,0,0:0:0:0:
224,192,129732,1,0,0:0:0:0:
96,192,129732,1,0,0:0:0:0:
288,192,129906,1,0,0:0:0:0:
416,192,129906,1,0,0:0:0:0:
160,192,130079,1,0,0:0:0:0:
96,192,130079,1,0,0:0:0:0:
288,192,130426,5,0,0:0:0:0:
416,192,130426,1,0,0:0:0:0:
160,192,130426,1,0,0:0:0:0:
416,192,130599,1,0,0:0:0:0:
96,192,130773,1,0,0:0:0:0:
480,192,130773,1,0,0:0:0:0:
224,192,130773,1,0,0:0:0:0:
352,192,130859,1,0,0:0:0:0:
224,192,130946,1,0,0:0:0:0:
416,192,131119,1,0,0:0:0:0:
160,192,131119,1,0,0:0:0:0:
480,192,131119,1,0,0:0:0:0:
288,192,131206,1,0,0:0:0:0:
480,192,131293,1,0,0:0:0:0:
96,192,131466,1,0,0:0:0:0:
416,192,131466,1,0,0:0:0:0:
224,192,131466,1,0,0:0:0:0:
96,192,131640,1,0,0:0:0:0:
288,192,131813,1,0,0:0:0:0:
480,192,131813,1,0,0:0:0:0:
480,192,131987,1,0,0:0:0:0:
352,192,131987,1,0,0:0:0:0:
224,192,132160,1,0,0:0:0:0:
96,192,132160,1,0,0:0:0:0:
416,192,132247,1,0,0:0:0:0:
224,192,132333,1,0,0:0:0:0:
96,192,132333,1,0,0:0:0:0:
416,192,132507,1,0,0:0:0:0:
160,192,132507,1,0,0:0:0:0:
224,192,132680,1,0,0:0:0:0:
480,192,132680,1,0,0:0:0:0:
288,192,132854,1,0,0:0:0:0:
480,192,132854,1,0,0:0:0:0:
352,192,133374,128,0,134240:0:0:0:0:
224,192,133547,128,0,134240:0:0:0:0:
32,192,134588,5,0,0:0:0:0:
96,192,134588,1,0,0:0:0:0:
224,192,134588,1,0,0:0:0:0:
480,192,134588,1,0,0:0:0:0:
352,192,134588,1,0,0:0:0:0:
224,192,134761,1,0,0:0:0:0:
352,192,134761,1,0,0:0:0:0:
160,192,134934,1,0,0:0:0:0:
416,192,134934,1,0,0:0:0:0:
224,192,134978,1,0,0:0:0:0:
288,192,135021,1,0,0:0:0:0:
352,192,135108,1,0,0:0:0:0:
96,192,135108,1,0,0:0:0:0:
288,192,135281,1,0,0:0:0:0:
96,192,135281,1,0,0:0:0:0:
224,192,135455,1,0,0:0:0:0:
416,192,135455,1,0,0:0:0:0:
160,192,135498,1,0,0:0:0:0:
96,192,135541,1,0,0:0:0:0:
480,192,135628,1,0,0:0:0:0:
288,192,135628,1,0,0:0:0:0:
352,192,135801,1,0,0:0:0:0:
160,192,135801,1,0,0:0:0:0:
224,192,135975,1,0,0:0:0:0:
480,192,135975,1,0,0:0:0:0:
96,192,135975,1,0,0:0:0:0:
288,192,136018,1,0,0:0:0:0:
352,192,136061,1,0,0:0:0:0:
288,192,136148,1,0,0:0:0:0:
416,192,136148,1,0,0:0:0:0:
352,192,136322,1,0,0:0:0:0:
480,192,136322,1,0,0:0:0:0:
96,192,136322,1,0,0:0:0:0:
224,192,136365,1,0,0:0:0:0:
416,192,136408,1,0,0:0:0:0:
160,192,136495,1,0,0:0:0:0:
288,192,136495,1,0,0:0:0:0:
224,192,136668,1,0,0:0:0:0:
96,192,136668,1,0,0:0:0:0:
480,192,136668,1,0,0:0:0:0:
480,192,136842,1,0,0:0:0:0:
96,192,136842,1,0,0:0:0:0:
416,192,137015,1,0,0:0:0:0:
160,192,137015,1,0,0:0:0:0:
352,192,137059,1,0,0:0:0:0:
224,192,137102,1,0,0:0:0:0:
96,192,137189,1,0,0:0:0:0:
288,192,137189,1,0,0:0:0:0:
160,192,137362,1,0,0:0:0:0:
352,192,137362,1,0,0:0:0:0:
224,192,137535,1,0,0:0:0:0:
416,192,137535,1,0,0:0:0:0:
352,192,137579,1,0,0:0:0:0:
96,192,137622,1,0,0:0:0:0:
352,192,137709,1,0,0:0:0:0:
160,192,137709,1,0,0:0:0:0:
480,192,137709,1,0,0:0:0:0:
288,192,137882,1,0,0:0:0:0:
96,192,137882,1,0,0:0:0:0:
96,192,138056,1,0,0:0:0:0:
224,192,138056,1,0,0:0:0:0:
480,192,138056,1,0,0:0:0:0:
288,192,138099,1,0,0:0:0:0:
352,192,138142,1,0,0:0:0:0:
480,192,138229,1,0,0:0:0:0:
224,192,138229,1,0,0:0:0:0:
352,192,138316,1,0,0:0:0:0:
480,192,138403,1,0,0:0:0:0:
160,192,138403,1,0,0:0:0:0:
96,192,138403,1,0,0:0:0:0:
224,192,138446,1,0,0:0:0:0:
288,192,138489,1,0,0:0:0:0:
96,192,138576,1,0,0:0:0:0:
96,192,138749,1,0,0:0:0:0:
224,192,138749,1,0,0:0:0:0:
352,192,138749,1,0,0:0:0:0:
416,192,138793,1,0,0:0:0:0:
480,192,138836,1,0,0:0:0:0:
160,192,138923,1,0,0:0:0:0:
288,192,138923,1,0,0:0:0:0:
32,192,139096,1,0,0:0:0:0:
96,192,139096,1,0,0:0:0:0:
224,192,139096,1,0,0:0:0:0:
352,192,139096,1,0,0:0:0:0:
480,192,139096,1,0,0:0:0:0:
224,192,139270,1,0,0:0:0:0:
352,192,139270,1,0,0:0:0:0:
160,192,139443,1,0,0:0:0:0:
416,192,139443,1,0,0:0:0:0:
224,192,139486,1,0,0:0:0:0:
288,192,139530,1,0,0:0:0:0:
352,192,139616,1,0,0:0:0:0:
96,192,139616,1,0,0:0:0:0:
288,192,139790,1,0,0:0:0:0:
96,192,139790,1,0,0:0:0:0:
224,192,139963,1,0,0:0:0:0:
416,192,139963,1,0,0:0:0:0:
160,192,140007,1,0,0:0:0:0:
96,192,140050,1,0,0:0:0:0:
480,192,140137,1,0,0:0:0:0:
288,192,140137,1,0,0:0:0:0:
352,192,140310,1,0,0:0:0:0:
160,192,140310,1,0,0:0:0:0:
224,192,140483,1,0,0:0:0:0:
480,192,140483,1,0,0:0:0:0:
96,192,140483,1,0,0:0:0:0:
352,192,140527,1,0,0:0:0:0:
160,192,140570,1,0,0:0:0:0:
288,192,140657,1,0,0:0:0:0:
416,192,140657,1,0,0:0:0:0:
352,192,140830,1,0,0:0:0:0:
480,192,140830,1,0,0:0:0:0:
96,192,140830,1,0,0:0:0:0:
224,192,140874,1,0,0:0:0:0:
416,192,140917,1,0,0:0:0:0:
160,192,141004,1,0,0:0:0:0:
288,192,141004,1,0,0:0:0:0:
224,192,141177,1,0,0:0:0:0:
96,192,141177,1,0,0:0:0:0:
480,192,141177,1,0,0:0:0:0:
480,192,141351,1,0,0:0:0:0:
96,192,141351,1,0,0:0:0:0:
352,192,141524,1,0,0:0:0:0:
160,192,141524,1,0,0:0:0:0:
480,192,141524,1,0,0:0:0:0:
288,192,141567,1,0,0:0:0:0:
224,192,141611,1,0,0:0:0:0:
96,192,141697,1,0,0:0:0:0:
288,192,141697,1,0,0:0:0:0:
160,192,141871,1,0,0:0:0:0:
352,192,141871,1,0,0:0:0:0:
224,192,142044,1,0,0:0:0:0:
416,192,142044,1,0,0:0:0:0:
352,192,142088,1,0,0:0:0:0:
288,192,142131,1,0,0:0:0:0:
352,192,142218,1,0,0:0:0:0:
160,192,142218,1,0,0:0:0:0:
288,192,142391,1,0,0:0:0:0:
96,192,142391,1,0,0:0:0:0:
96,192,142564,1,0,0:0:0:0:
160,192,142564,1,0,0:0:0:0:
480,192,142564,1,0,0:0:0:0:
288,192,142608,1,0,0:0:0:0:
416,192,142651,1,0,0:0:0:0:
352,192,142738,1,0,0:0:0:0:
160,192,142738,1,0,0:0:0:0:
416,192,142824,1,0,0:0:0:0:
480,192,142911,1,0,0:0:0:0:
160,192,142911,1,0,0:0:0:0:
96,192,142911,1,0,0:0:0:0:
288,192,142955,1,0,0:0:0:0:
416,192,142998,1,0,0:0:0:0:
96,192,143085,1,0,0:0:0:0:
96,192,143258,1,0,0:0:0:0:
224,192,143258,1,0,0:0:0:0:
416,192,143258,1,0,0:0:0:0:
416,192,143431,1,0,0:0:0:0:
96,192,143605,1,0,0:0:0:0:
352,192,143605,1,0,0:0:0:0:
480,192,143605,1,0,0:0:0:0:
32,192,143605,1,0,0:0:0:0:
224,192,143605,1,0,0:0:0:0:
352,192,143778,1,0,0:0:0:0:
480,192,143778,1,0,0:0:0:0:
224,192,143952,1,0,0:0:0:0:
416,192,143952,1,0,0:0:0:0:
96,192,143952,1,0,0:0:0:0:
352,192,143995,1,0,0:0:0:0:
288,192,144038,1,0,0:0:0:0:
160,192,144125,1,0,0:0:0:0:
480,192,144125,1,0,0:0:0:0:
416,192,144298,1,0,0:0:0:0:
96,192,144298,1,0,0:0:0:0:
416,192,144472,1,0,0:0:0:0:
224,192,144472,1,0,0:0:0:0:
160,192,144515,1,0,0:0:0:0:
352,192,144559,1,0,0:0:0:0:
480,192,144645,1,0,0:0:0:0:
288,192,144645,1,0,0:0:0:0:
96,192,144732,1,0,0:0:0:0:
416,192,144732,1,0,0:0:0:0:
160,192,144819,1,0,0:0:0:0:
352,192,144819,1,0,0:0:0:0:
288,192,144992,1,0,0:0:0:0:
96,192,144992,1,0,0:0:0:0:
352,192,145035,1,0,0:0:0:0:
160,192,145079,1,0,0:0:0:0:
416,192,145166,1,0,0:0:0:0:
224,192,145166,1,0,0:0:0:0:
480,192,145339,1,0,0:0:0:0:
96,192,145339,1,0,0:0:0:0:
352,192,145339,1,0,0:0:0:0:
224,192,145382,1,0,0:0:0:0:
416,192,145426,1,0,0:0:0:0:
160,192,145512,1,0,0:0:0:0:
288,192,145512,1,0,0:0:0:0:
352,192,145599,1,0,0:0:0:0:
480,192,145686,1,0,0:0:0:0:
96,192,145686,1,0,0:0:0:0:
224,192,145686,1,0,0:0:0:0:
288,192,145859,1,0,0:0:0:0:
416,192,145859,1,0,0:0:0:0:
96,192,146033,1,0,0:0:0:0:
480,192,146033,1,0,0:0:0:0:
352,192,146033,1,0,0:0:0:0:
288,192,146076,1,0,0:0:0:0:
224,192,146119,1,0,0:0:0:0:
480,192,146206,1,0,0:0:0:0:
96,192,146206,1,0,0:0:0:0:
416,192,146379,1,0,0:0:0:0:
224,192,146379,1,0,0:0:0:0:
288,192,146466,1,0,0:0:0:0:
96,192,146466,1,0,0:0:0:0:
224,192,146553,1,0,0:0:0:0:
480,192,146553,1,0,0:0:0:0:
160,192,146553,1,0,0:0:0:0:
416,192,146596,1,0,0:0:0:0:
352,192,146640,1,0,0:0:0:0:
160,192,146726,1,0,0:0:0:0:
96,192,146726,1,0,0:0:0:0:
480,192,146726,1,0,0:0:0:0:
96,192,146900,1,0,0:0:0:0:
288,192,146900,1,0,0:0:0:0:
352,192,146900,1,0,0:0:0:0:
160,192,147073,1,0,0:0:0:0:
416,192,147073,1,0,0:0:0:0:
480,192,147073,1,0,0:0:0:0:
352,192,147116,1,0,0:0:0:0:
224,192,147160,1,0,0:0:0:0:
96,192,147160,1,0,0:0:0:0:
416,192,147246,1,0,0:0:0:0:
224,192,147333,1,0,0:0:0:0:
96,192,147420,1,0,0:0:0:0:
352,192,147420,1,0,0:0:0:0:
480,192,147420,1,0,0:0:0:0:
160,192,147420,1,0,0:0:0:0:
288,192,147593,1,0,0:0:0:0:
480,192,147767,1,0,0:0:0:0:
96,192,147767,1,0,0:0:0:0:
288,192,147767,1,0,0:0:0:0:
160,192,147767,1,0,0:0:0:0:
160,192,147940,1,0,0:0:0:0:
480,192,147940,1,0,0:0:0:0:
224,192,148114,1,0,0:0:0:0:
352,192,148114,1,0,0:0:0:0:
288,192,148287,1,0,0:0:0:0:
416,192,148287,1,0,0:0:0:0:
160,192,148287,1,0,0:0:0:0:
224,192,148460,1,0,0:0:0:0:
352,192,148460,1,0,0:0:0:0:
160,192,148504,1,0,0:0:0:0:
96,192,148547,1,0,0:0:0:0:
352,192,148547,1,0,0:0:0:0:
416,192,148634,1,0,0:0:0:0:
288,192,148634,1,0,0:0:0:0:
96,192,148807,1,0,0:0:0:0:
288,192,148807,1,0,0:0:0:0:
160,192,148807,1,0,0:0:0:0:
480,192,148981,1,0,0:0:0:0:
224,192,148981,1,0,0:0:0:0:
416,192,149024,1,0,0:0:0:0:
352,192,149067,1,0,0:0:0:0:
480,192,149154,1,0,0:0:0:0:
224,192,149154,1,0,0:0:0:0:
288,192,149154,1,0,0:0:0:0:
160,192,149327,1,0,0:0:0:0:
352,192,149327,1,0,0:0:0:0:
96,192,149327,1,0,0:0:0:0:
288,192,149501,1,0,0:0:0:0:
480,192,149501,1,0,0:0:0:0:
352,192,149544,1,0,0:0:0:0:
416,192,149588,1,0,0:0:0:0:
224,192,149674,1,0,0:0:0:0:
96,192,149674,1,0,0:0:0:0:
480,192,149848,1,0,0:0:0:0:
96,192,149848,1,0,0:0:0:0:
352,192,149848,1,0,0:0:0:0:
160,192,149891,1,0,0:0:0:0:
224,192,149934,1,0,0:0:0:0:
416,192,149934,1,0,0:0:0:0:
288,192,150021,1,0,0:0:0:0:
96,192,150108,1,0,0:0:0:0:
480,192,150194,1,0,0:0:0:0:
224,192,150194,1,0,0:0:0:0:
352,192,150194,1,0,0:0:0:0:
160,192,150194,1,0,0:0:0:0:
288,192,150368,1,0,0:0:0:0:
96,192,150368,1,0,0:0:0:0:
480,192,150368,1,0,0:0:0:0:
480,192,150541,1,0,0:0:0:0:
352,192,150541,1,0,0:0:0:0:
224,192,150541,1,0,0:0:0:0:
160,192,150585,1,0,0:0:0:0:
416,192,150628,1,0,0:0:0:0:
96,192,150715,1,0,0:0:0:0:
288,192,150715,1,0,0:0:0:0:
224,192,150715,1,0,0:0:0:0:
416,192,150888,1,0,0:0:0:0:
96,192,150888,1,0,0:0:0:0:
480,192,150888,1,0,0:0:0:0:
352,192,150888,1,0,0:0:0:0:
288,192,150975,1,0,0:0:0:0:
160,192,151061,1,0,0:0:0:0:
224,192,151061,1,0,0:0:0:0:
416,192,151061,1,0,0:0:0:0:
480,192,151105,1,0,0:0:0:0:
288,192,151148,1,0,0:0:0:0:
96,192,151235,1,0,0:0:0:0:
224,192,151235,1,0,0:0:0:0:
352,192,151235,1,0,0:0:0:0:
480,192,151235,1,0,0:0:0:0:
96,192,151408,1,0,0:0:0:0:
224,192,151408,1,0,0:0:0:0:
352,192,151582,1,0,0:0:0:0:
480,192,151582,1,0,0:0:0:0:
96,192,151582,1,0,0:0:0:0:
288,192,151625,1,0,0:0:0:0:
224,192,151668,1,0,0:0:0:0:
416,192,151668,1,0,0:0:0:0:
352,192,151755,1,0,0:0:0:0:
224,192,151842,1,0,0:0:0:0:
96,192,151929,1,0,0:0:0:0:
352,192,151929,1,0,0:0:0:0:
480,192,151929,1,0,0:0:0:0:
96,192,152275,1,0,0:0:0:0:
160,192,152275,1,0,0:0:0:0:
224,192,152275,1,0,0:0:0:0:
352,192,152275,1,0,0:0:0:0:
416,192,152275,1,0,0:0:0:0:
480,192,152275,1,0,0:0:0:0:
32,192,152623,5,0,0:0:0:0:
96,192,152623,1,0,0:0:0:0:
160,192,152623,1,0,0:0:0:0:
224,192,152623,1,0,0:0:0:0:
352,192,152623,1,0,0:0:0:0:
416,192,152623,1,0,0:0:0:0:
480,192,152623,1,0,0:0:0:0:
