osu file format v14

[General]
AudioFilename: audio.mp3
AudioLeadIn: 0
PreviewTime: 78066
Countdown: 0
SampleSet: Normal
StackLeniency: 0.2
Mode: 0
LetterboxInBreaks: 0
WidescreenStoryboard: 0

[Editor]
Bookmarks: 2100,18727,21848,22889,26010,42304,71270,71443,72310,72483,73350,74218,75085,75258,75605,75952,76298,76645,76992,77339,88784,89825,98793,99221,99993,133591,134191,152599,159798
DistanceSpacing: 0.9
BeatDivisor: 4
GridSize: 8
TimelineZoom: 2.3

[Metadata]
Title:AngelFalse
TitleUnicode:AngelFalse
Artist:Sakuzyo
ArtistUnicode:Sakuzyo
Creator:Linyx-sama
Version:Ari's Doomsday
Source:Deemo
Tags:Ari_Knight Syadow- Another_Lie lombit dionzz99 Unknown_Player MEGAtive Nixeria-sama chouyaa Ridho_2307
BeatmapID:1454144
BeatmapSetID:619596

[Difficulty]
HPDrainRate:3.6
CircleSize:3.8
OverallDifficulty:7.5
ApproachRate:9.5
SliderMultiplier:1.4
SliderTickRate:1

[Events]
//Background and Video events
0,0,"BG Ari.jpg",0,0
//Break Periods
//Storyboard Layer 0 (Background)
//Storyboard Layer 1 (Fail)
//Storyboard Layer 2 (Pass)
//Storyboard Layer 3 (Foreground)
//Storyboard Sound Samples

[TimingPoints]
0,346.820809248555,3,1,0,50,1,0
1734,-50,3,1,0,50,0,0
2080,346.820809248555,3,1,0,50,1,0
2080,-50,3,1,0,50,0,0
4854,-66.6666666666667,3,1,0,50,0,0
11964,-50,3,1,0,50,0,0
12311,-66.6666666666667,3,1,0,50,0,0
16126,-50,3,1,0,50,0,0
16473,-66.6666666666667,3,1,0,50,0,0
18727,-175.438596491228,3,1,0,50,0,0
22889,-151.515151515152,3,1,0,50,0,0
27051,-50,3,1,0,50,0,0
44045,346.820809248555,3,1,0,50,1,1
51501,-50,3,1,0,50,0,1
51848,-50,3,1,0,50,0,1
53062,-50,3,1,0,50,0,0
53409,-50,3,1,0,50,0,1
61039,-50,3,1,0,50,0,0
61386,346.820809248555,3,1,0,50,1,1
66068,-50,3,1,0,50,0,1
70403,346.820809248555,3,1,0,50,1,1
70403,-50,3,1,0,50,0,0
78380,346.820809248555,3,1,0,50,1,1
92946,-166.666666666667,3,1,0,50,0,1
95027,-50,3,1,0,50,0,0
101270,346.820809248555,3,1,0,50,1,1
111501,-50,3,1,0,50,0,1
132483,-50,3,1,0,50,0,0
134564,-50,3,1,0,50,0,1
152599,-100,3,1,0,50,0,0
156414,-100,3,1,0,1,0,0

[Colours]
Combo1 : 255,0,0
Combo2 : 255,255,255
Combo3 : 0,0,0

[HitObjects]
40,104,0,6,0,B|144:28|184:172|304:108,1,280
348,120,1040,2,0,L|340:132,1,11.6666666666667
384,144,1127,2,0,L|364:152,1,11.6666666666667
400,180,1213,2,0,L|384:184,1,11.6666666666667
400,220,1300,2,0,L|380:216,1,11.6666666666667
388,252,1387,2,0,L|372:248,1,11.6666666666667
360,284,1473,2,0,L|348:268,1,11.6666666666667
324,308,1560,2,0,L|316:288,1,11.6666666666667
288,320,1647,2,0,L|284:300,1,11.6666666666667
256,324,1734,2,0,B|196:232|332:184|252:48,1,280
356,288,3987,6,0,L|376:288,8,17.5
340,56,4854,2,0,B|288:24|288:24|152:116,1,210.000008010865
256,192,5548,12,0,6241,0:0:0:0:
256,192,8322,5,0,0:0:0:0:
176,292,9363,5,0,0:0:0:0:
448,248,9536,2,0,B|448:212|448:212|396:160,1,105.000004005432
144,296,9883,1,0,0:0:0:0:
352,92,10056,1,0,0:0:0:0:
340,308,10230,2,0,L|328:284,6,17.500000667572
128,80,10577,6,0,L|140:96,15,17.500000667572
104,212,11097,6,0,B|136:264|136:264|192:280,1,105.000004005432
164,128,11444,1,0,0:0:0:0:
432,64,11964,6,0,B|408:56|408:56|348:80,1,70
64,56,12311,6,0,L|160:128,1,105.000004005432
40,232,12658,6,0,L|52:244,6,17.500000667572
308,320,13004,6,0,B|368:324|368:324|408:304,1,105.000004005432
348,92,13351,6,0,L|264:168,1,105.000004005432
256,192,14045,12,0,14565,0:0:0:0:
456,196,14738,6,0,L|444:176,15,17.500000667572
428,56,15259,6,0,B|392:40|392:40|316:76,1,105.000004005432
292,140,15606,1,0,0:0:0:0:
52,64,16126,6,0,B|88:56|88:56|136:92,1,70
128,176,16473,6,0,P|112:232|156:280,1,105.000004005432
256,280,16819,6,0,L|272:260,6,17.500000667572
392,272,17166,6,0,P|408:215|364:167,1,105.000004005432
134,269,17513,5,0,0:0:0:0:
385,178,17686,1,0,0:0:0:0:
136,232,18727,2,0,B|48:156|88:68|224:52|252:236|252:236|276:60|408:60|456:152|372:240,1,718.19999123291
344,304,22195,5,0,0:0:0:0:
392,256,22369,1,0,0:0:0:0:
440,208,22542,1,0,0:0:0:0:
80,176,22715,1,0,0:0:0:0:
156,324,22889,6,0,B|256:40|256:40|368:336|368:336|156:336,1,830.374961988451
256,192,26184,5,0,0:0:0:0:
256,192,26357,12,0,27051,0:0:0:0:
92,124,27224,6,0,P|112:88|140:76,1,70
176,64,27397,1,0,0:0:0:0:
320,292,27571,1,0,0:0:0:0:
244,48,27744,1,0,0:0:0:0:
264,312,27918,1,0,0:0:0:0:
316,60,28091,1,0,0:0:0:0:
192,288,28264,6,0,L|212:264,3,23.3333333333333
388,224,28438,1,0,0:0:0:0:
140,160,28611,1,0,0:0:0:0:
352,280,28785,1,0,0:0:0:0:
188,108,28958,1,0,0:0:0:0:
64,280,29132,1,0,0:0:0:0:
168,320,29305,6,0,P|240:328|260:312,1,70
176,216,29478,1,0,0:0:0:0:
384,188,29652,2,0,P|360:228|320:244,2,70
288,144,29999,2,0,P|300:104|336:80,2,70
468,64,30345,6,0,L|448:96,6,23.3333333333333
220,76,30692,2,0,P|280:40|348:56,1,140
296,120,31039,2,0,P|240:164|164:160,1,140
44,152,31386,6,0,L|76:224,1,70
108,292,31559,1,0,0:0:0:0:
164,136,31733,1,0,0:0:0:0:
216,272,31906,1,0,0:0:0:0:
288,100,32080,2,0,L|344:156,2,70
436,240,32426,6,0,L|416:264,6,23.3333333333333
232,304,32773,2,0,P|148:336|88:304,1,140
60,244,33120,2,0,P|122:207|182:239,1,140
444,56,33467,6,0,L|384:116,1,70
392,200,33640,1,0,0:0:0:0:
184,104,33814,1,0,0:0:0:0:
312,260,33987,1,0,0:0:0:0:
264,68,34160,1,0,0:0:0:0:
212,256,34334,1,0,0:0:0:0:
56,64,34507,6,0,L|64:92,6,23.3333333333333
256,192,34854,12,0,35374,0:0:0:0:
108,92,37282,5,0,0:0:0:0:
108,92,37455,1,0,0:0:0:0:
256,188,39536,5,0,0:0:0:0:
400,88,41444,5,0,0:0:0:0:
400,88,41617,1,0,0:0:0:0:
256,192,42311,12,0,43004,0:0:0:0:
64,160,43351,6,0,P|108:104|192:84,2,140
156,164,43871,2,0,P|232:152|272:96,1,140
428,48,44218,5,0,0:0:0:0:
460,68,44305,1,0,0:0:0:0:
440,96,44391,1,0,0:0:0:0:
404,76,44478,1,0,0:0:0:0:
432,68,44565,1,0,0:0:0:0:
436,264,44738,2,0,L|408:292,2,35
70,163,45085,1,0,0:0:0:0:
254,88,45258,5,0,0:0:0:0:
56,332,45432,1,0,0:0:0:0:
92,320,45518,1,0,0:0:0:0:
80,284,45605,1,0,0:0:0:0:
36,296,45692,1,0,0:0:0:0:
64,308,45779,1,0,0:0:0:0:
273,305,45952,1,0,0:0:0:0:
393,179,46125,1,0,0:0:0:0:
190,51,46299,5,0,0:0:0:0:
145,91,46386,1,0,0:0:0:0:
99,133,46472,1,0,0:0:0:0:
53,177,46559,1,0,0:0:0:0:
8,222,46646,1,0,0:0:0:0:
199,120,46819,2,0,L|235:87,2,35
165,284,47166,1,0,0:0:0:0:
264,323,47339,6,0,B|379:239|297:97|454:41,1,350
310,271,47513,1,0,0:0:0:0:
326,238,47599,1,0,0:0:0:0:
335,205,47686,1,0,0:0:0:0:
344,171,47773,1,0,0:0:0:0:
354,137,47860,1,0,0:0:0:0:
92,55,48553,1,0,0:0:0:0:
252,42,48727,5,0,0:0:0:0:
293,81,48813,1,0,0:0:0:0:
334,120,48900,1,0,0:0:0:0:
376,158,48987,1,0,0:0:0:0:
419,201,49073,1,0,0:0:0:0:
377,247,49247,2,0,L|345:215,2,35
98,327,49594,1,0,0:0:0:0:
174,54,49767,6,0,B|157:219|349:175|331:341,1,350
181,123,49940,1,0,0:0:0:0:
200,152,50027,1,0,0:0:0:0:
225,177,50114,1,0,0:0:0:0:
254,198,50201,1,0,0:0:0:0:
281,218,50287,1,0,0:0:0:0:
325,274,50461,1,0,0:0:0:0:
450,37,50808,6,0,L|339:135,1,140
398,85,50981,1,0,0:0:0:0:
374,107,51068,1,0,0:0:0:0:
346,130,51154,1,0,0:0:0:0:
129,213,51328,1,0,0:0:0:0:
128,179,51414,1,0,0:0:0:0:
147,150,51501,2,0,P|128:213|182:250,1,140
256,189,51848,6,0,B|310:115|355:206|251:191,1,140
256,189,52021,2,0,B|184:119|167:205|261:191,1,140
253,191,52195,2,0,B|307:117|352:208|248:193,1,140,0|0,0:3|0:3,0:3:0:0:
256,324,52368,2,0,B|256:32|256:32|256:120|256:120|408:120|408:120|92:120,1,840
256,32,52715,1,0,0:0:0:0:
288,240,53582,5,0,0:0:0:0:
72,280,53755,2,0,B|168:244|168:128|168:128|288:200|300:48|424:212|424:212|376:316,1,560
88,80,53929,1,0,0:0:0:0:
252,148,54102,1,0,0:0:0:0:
320,132,54189,1,0,0:0:0:0:
380,164,54276,1,0,0:0:0:0:
72,280,54623,5,0,0:0:0:0:
260,292,54796,2,0,B|344:248|344:248|300:112|300:112|208:112|208:112|164:248|164:248|260:296,1,560
176,204,54969,1,0,0:0:0:0:
200,144,55056,1,0,0:0:0:0:
256,112,55143,1,0,0:0:0:0:
332,204,55316,1,0,0:0:0:0:
456,112,55663,5,0,0:0:0:0:
400,56,55750,1,0,0:0:0:0:
344,72,55836,1,0,0:0:0:0:
392,120,55923,1,0,0:0:0:0:
432,168,56010,1,0,0:0:0:0:
48,160,56183,1,0,0:0:0:0:
48,96,56270,1,0,0:0:0:0:
112,96,56357,1,0,0:0:0:0:
256,280,56530,6,0,B|360:192|360:192|256:88|256:88|152:192|152:192|264:288,1,560
256,88,56877,1,0,0:0:0:0:
256,280,57224,1,0,0:0:0:0:
464,192,57397,5,0,0:0:0:0:
336,40,57571,2,0,B|248:104|144:64|144:64|64:152|64:152|176:160|168:336,1,560
312,168,57744,1,0,0:0:0:0:
72,152,57917,1,0,0:0:0:0:
128,176,58004,1,0,0:0:0:0:
160,232,58091,1,0,0:0:0:0:
256,144,58438,5,0,0:0:0:0:
424,344,58611,2,0,B|288:288|408:168|408:168|272:-16|136:144,1,560
224,80,58784,1,0,0:0:0:0:
288,72,58871,1,0,0:0:0:0:
344,104,58958,1,0,0:0:0:0:
240,224,59131,1,0,0:0:0:0:
137,142,59305,1,0,0:0:0:0:
32,280,59478,5,0,0:0:0:0:
80,328,59565,1,0,0:0:0:0:
144,320,59651,1,0,0:0:0:0:
96,264,59738,1,0,0:0:0:0:
40,216,59825,1,0,0:0:0:0:
472,216,59998,5,0,0:0:0:0:
448,272,60085,1,0,0:0:0:0:
392,296,60172,1,0,0:0:0:0:
160,192,60345,2,0,B|168:72|344:72|352:184|352:184|344:72|168:72|160:192,1,560
352,184,60692,1,0,0:0:0:0:
256,192,61039,12,0,61386,0:0:0:0:
424,56,61386,6,0,L|392:88,1,35
80,64,61559,2,0,L|104:96,1,35
256,328,61732,2,0,L|256:288,1,35
80,64,61906,6,0,L|104:96,1,35
424,56,62079,2,0,L|392:88,1,35
256,328,62253,2,0,L|256:288,1,35
80,64,62426,6,0,L|104:96,1,35
424,56,62599,2,0,L|392:88,1,35
80,64,62773,2,0,L|104:96,1,35
256,328,62946,6,0,L|256:288,1,35
120,176,63120,1,0,0:0:0:0:
120,120,63206,1,0,0:0:0:0:
152,72,63293,1,0,0:0:0:0:
200,40,63380,1,0,0:0:0:0:
256,40,63466,1,0,0:0:0:0:
88,328,63640,6,0,L|120:296,1,35
432,320,63813,2,0,L|408:288,1,35
256,56,63986,2,0,L|256:96,1,35
432,320,64160,6,0,L|408:288,1,35
88,328,64333,2,0,L|120:296,1,35
256,56,64507,2,0,L|256:96,1,35
432,320,64680,6,0,L|408:288,1,35
424,104,64854,1,0,0:0:0:0:
376,136,64940,1,0,0:0:0:0:
328,168,65027,1,0,0:0:0:0:
280,200,65114,1,0,0:0:0:0:
240,232,65201,6,0,B|144:248|120:168|120:168|208:128|144:40,1,280
240,112,65374,5,0,0:0:0:0:
176,144,65461,1,0,0:0:0:0:
124,179,65547,1,0,0:0:0:0:
272,8,65721,37,0,0:0:0:0:
216,32,65807,1,0,0:0:0:0:
159,64,65894,1,0,0:0:0:0:
376,288,66068,6,0,B|376:240|320:288|376:288,1,70
128,288,66241,2,0,B|128:240|184:288|128:288,1,70
256,88,66414,2,0,B|289:54|216:48|256:88,1,70,0|0,0:3|0:3,0:0:0:0:
128,288,66588,6,0,B|128:240|184:288|128:288,1,70
376,288,66761,2,0,B|376:240|320:288|376:288,1,70
256,88,66935,2,0,B|289:54|216:48|256:88,1,70,0|0,0:3|0:3,0:0:0:0:
376,288,67108,6,0,B|376:240|320:288|376:288,1,70
128,288,67281,2,0,B|128:240|184:288|128:288,1,70
256,88,67455,2,0,B|289:54|216:48|256:88,1,70,0|0,0:3|0:3,0:0:0:0:
408,224,67628,1,0,0:0:0:0:
399,278,67714,1,0,0:0:0:0:
359,321,67801,1,0,0:0:0:0:
307,345,67888,1,0,0:0:0:0:
252,335,67974,1,0,0:0:0:0:
376,96,68149,6,0,B|376:144|320:96|376:96,1,70
128,96,68322,2,0,B|128:144|184:96|128:96,1,70
256,296,68495,2,0,B|289:330|216:336|256:296,1,70,0|0,0:3|0:3,0:0:0:0:
128,96,68669,6,0,B|128:144|184:96|128:96,1,70
376,96,68842,2,0,B|376:144|320:96|376:96,1,70
256,296,69016,2,0,B|289:330|216:336|256:296,1,70,0|0,0:3|0:3,0:0:0:0:
376,96,69189,6,0,B|376:144|320:96|376:96,1,70
88,104,69362,1,0,0:0:0:0:
136,136,69448,1,0,0:0:0:0:
184,168,69535,1,0,0:0:0:0:
232,200,69622,1,0,0:0:0:0:
272,232,69709,6,0,B|368:248|392:168|392:168|304:128|368:40,1,280
232,8,69882,1,0,0:0:0:0:
290,36,69969,1,0,0:0:0:0:
352,64,70055,1,0,0:0:0:0:
176,304,70229,5,0,0:0:0:0:
167,243,70315,1,0,0:0:0:0:
162,175,70403,2,0,B|273:197|298:96|298:96|399:91|393:195|393:195|270:244|349:351|349:351|478:256,1,700
48,64,71443,6,0,B|159:104|67:244|67:244|202:76|262:104|262:104|120:267|159:257|202:292,1,700
472,280,72483,6,0,B|529:165|395:48|296:119|282:235|401:302|486:182|373:21|373:21|247:29|226:141,1,700
47,191,73524,6,0,B|111:79|239:79|239:79|255:183|255:183|383:183|407:47,1,560
236,84,73871,1,0,0:0:0:0:
407,53,74218,6,0,B|488:184|432:272|432:272|320:248|320:248|224:320|176:176|176:176|120:280|56:304,1,700
320,248,74391,1,0,0:0:0:0:
376,256,74478,1,0,0:0:0:0:
432,272,74564,1,0,0:0:0:0:
456,216,74651,1,0,0:0:0:0:
466,83,74738,1,0,0:0:0:0:
81,291,74911,1,0,0:0:0:0:
128,248,74998,1,0,0:0:0:0:
168,200,75085,1,0,0:0:0:0:
160,56,75258,5,0,0:0:0:0:
208,56,75345,1,0,0:0:0:0:
256,56,75431,1,0,0:0:0:0:
304,56,75518,1,0,0:0:0:0:
352,56,75605,5,0,0:0:0:0:
376,96,75692,1,0,0:0:0:0:
408,136,75778,1,0,0:0:0:0:
440,176,75865,1,0,0:0:0:0:
464,216,75952,5,0,0:0:0:0:
432,248,76038,1,0,0:0:0:0:
392,272,76125,1,0,0:0:0:0:
360,296,76212,1,0,0:0:0:0:
328,320,76298,5,0,0:0:0:0:
288,312,76385,1,0,0:0:0:0:
240,296,76472,1,0,0:0:0:0:
200,272,76559,1,0,0:0:0:0:
160,248,76645,5,0,0:0:0:0:
184,208,76732,1,0,0:0:0:0:
216,168,76819,1,0,0:0:0:0:
248,128,76905,1,0,0:0:0:0:
272,88,76992,5,0,0:0:0:0:
232,64,77079,1,0,0:0:0:0:
184,64,77166,1,0,0:0:0:0:
136,64,77252,1,0,0:0:0:0:
80,112,77339,6,0,L|34:165,3,70
56,248,77686,2,0,L|108:194,3,70
256,192,78033,12,0,78379,0:0:0:0:
448,72,78380,5,0,0:0:0:0:
408,48,78466,1,0,0:0:0:0:
360,32,78553,1,0,0:0:0:0:
312,40,78640,1,0,0:0:0:0:
272,64,78726,5,0,0:0:0:0:
232,40,78813,1,0,0:0:0:0:
184,40,78900,1,0,0:0:0:0:
144,72,78986,1,0,0:0:0:0:
104,104,79073,5,0,0:0:0:0:
144,136,79160,1,0,0:0:0:0:
176,176,79247,1,0,0:0:0:0:
192,224,79333,1,0,0:0:0:0:
208,272,79420,5,0,0:0:0:0:
256,248,79507,1,0,0:0:0:0:
304,224,79593,1,0,0:0:0:0:
352,232,79680,1,0,0:0:0:0:
392,272,79767,5,0,0:0:0:0:
336,272,79853,1,0,0:0:0:0:
304,224,79940,1,0,0:0:0:0:
296,168,80027,1,0,0:0:0:0:
320,112,80114,5,0,0:0:0:0:
264,120,80200,1,0,0:0:0:0:
208,120,80287,1,0,0:0:0:0:
152,104,80374,1,0,0:0:0:0:
120,64,80460,5,0,0:0:0:0:
80,112,80547,1,0,0:0:0:0:
56,160,80634,1,0,0:0:0:0:
64,216,80721,1,0,0:0:0:0:
104,256,80807,5,0,0:0:0:0:
152,232,80894,1,0,0:0:0:0:
208,208,80981,1,0,0:0:0:0:
264,208,81067,1,0,0:0:0:0:
320,240,81154,5,0,0:0:0:0:
272,264,81241,1,0,0:0:0:0:
216,288,81327,1,0,0:0:0:0:
168,320,81414,1,0,0:0:0:0:
120,352,81501,5,0,0:0:0:0:
128,288,81588,1,0,0:0:0:0:
136,224,81674,1,0,0:0:0:0:
144,160,81761,1,0,0:0:0:0:
152,104,81848,5,0,0:0:0:0:
200,128,81934,1,0,0:0:0:0:
248,160,82021,1,0,0:0:0:0:
296,192,82108,1,0,0:0:0:0:
344,232,82195,5,0,0:0:0:0:
368,176,82281,1,0,0:0:0:0:
368,112,82368,1,0,0:0:0:0:
336,64,82455,1,0,0:0:0:0:
280,32,82541,5,0,0:0:0:0:
240,72,82628,1,0,0:0:0:0:
184,96,82715,1,0,0:0:0:0:
128,88,82801,1,0,0:0:0:0:
80,56,82888,5,0,0:0:0:0:
96,104,82975,1,0,0:0:0:0:
104,160,83062,1,0,0:0:0:0:
96,216,83148,1,0,0:0:0:0:
72,264,83235,5,0,0:0:0:0:
120,288,83322,1,0,0:0:0:0:
176,312,83408,1,0,0:0:0:0:
232,336,83495,1,0,0:0:0:0:
288,352,83582,5,0,0:0:0:0:
296,296,83669,1,0,0:0:0:0:
272,240,83755,1,0,0:0:0:0:
232,200,83842,1,0,0:0:0:0:
176,168,83929,5,0,0:0:0:0:
232,160,84015,1,0,0:0:0:0:
280,136,84102,1,0,0:0:0:0:
320,104,84189,1,0,0:0:0:0:
352,56,84275,5,0,0:0:0:0:
400,72,84362,1,0,0:0:0:0:
432,112,84449,1,0,0:0:0:0:
448,160,84536,1,0,0:0:0:0:
448,208,84622,1,0,0:0:0:0:
432,264,84709,1,0,0:0:0:0:
392,296,84796,1,0,0:0:0:0:
336,312,84882,1,0,0:0:0:0:
288,320,84969,1,0,0:0:0:0:
224,328,85056,1,0,0:0:0:0:
168,320,85143,1,0,0:0:0:0:
112,296,85229,1,0,0:0:0:0:
72,256,85316,1,0,0:0:0:0:
40,208,85403,1,0,0:0:0:0:
32,152,85489,1,0,0:0:0:0:
40,96,85576,1,0,0:0:0:0:
64,40,85663,5,0,0:0:0:0:
80,96,85749,1,0,0:0:0:0:
104,144,85836,1,0,0:0:0:0:
144,184,85923,1,0,0:0:0:0:
192,208,86010,5,0,0:0:0:0:
168,160,86096,1,0,0:0:0:0:
176,104,86183,1,0,0:0:0:0:
208,56,86270,1,0,0:0:0:0:
256,32,86356,5,0,0:0:0:0:
280,88,86443,1,0,0:0:0:0:
304,152,86530,1,0,0:0:0:0:
328,208,86616,1,0,0:0:0:0:
352,256,86703,1,0,0:0:0:0:
400,224,86790,1,0,0:0:0:0:
432,176,86877,1,0,0:0:0:0:
448,128,86963,1,0,0:0:0:0:
440,72,87050,1,0,0:0:0:0:
400,32,87137,1,0,0:0:0:0:
336,32,87223,1,0,0:0:0:0:
272,32,87310,1,0,0:0:0:0:
208,32,87397,5,0,0:0:0:0:
224,80,87484,1,0,0:0:0:0:
232,136,87570,1,0,0:0:0:0:
216,184,87657,1,0,0:0:0:0:
176,224,87744,5,0,0:0:0:0:
176,168,87830,1,0,0:0:0:0:
160,112,87917,1,0,0:0:0:0:
128,64,88004,1,0,0:0:0:0:
72,48,88090,1,0,0:0:0:0:
24,80,88177,1,0,0:0:0:0:
8,128,88264,1,0,0:0:0:0:
8,176,88351,1,0,0:0:0:0:
8,224,88437,1,0,0:0:0:0:
8,280,88524,1,0,0:0:0:0:
8,336,88611,1,0,0:0:0:0:
48,360,88697,1,0,0:0:0:0:
104,360,88784,5,0,0:0:0:0:
72,312,88871,1,0,0:0:0:0:
56,264,88958,1,0,0:0:0:0:
64,216,89044,1,0,0:0:0:0:
96,168,89131,5,0,0:0:0:0:
104,224,89218,1,0,0:0:0:0:
120,272,89304,1,0,0:0:0:0:
152,320,89391,1,0,0:0:0:0:
200,344,89478,5,0,0:0:0:0:
232,296,89564,1,0,0:0:0:0:
240,240,89651,1,0,0:0:0:0:
232,184,89738,1,0,0:0:0:0:
208,128,89825,5,0,0:0:0:0:
264,128,89911,1,0,0:0:0:0:
320,120,89998,1,0,0:0:0:0:
360,80,90085,1,0,0:0:0:0:
384,32,90171,5,0,0:0:0:0:
424,72,90258,1,0,0:0:0:0:
448,120,90345,1,0,0:0:0:0:
448,176,90432,1,0,0:0:0:0:
424,224,90518,5,0,0:0:0:0:
376,192,90605,1,0,0:0:0:0:
320,160,90692,1,0,0:0:0:0:
264,160,90778,1,0,0:0:0:0:
216,184,90865,5,0,0:0:0:0:
216,184,91038,1,0,0:0:0:0:
48,256,91385,5,0,0:0:0:0:
112,336,91559,1,0,0:0:0:0:
440,120,91906,5,0,0:0:0:0:
360,32,92079,1,0,0:0:0:0:
96,272,92426,5,0,0:0:0:0:
176,344,92599,2,0,P|216:344|240:304,1,70
216,240,92946,2,0,B|212:95|371:97|371:97|304:192|328:288|424:304,1,503.999984619141
256,192,95027,12,0,98842,0:0:0:0:
256,192,98842,12,0,99189,0:0:0:0:
256,192,99189,12,0,99275,0:0:0:0:
256,192,99275,12,0,99362,0:0:0:0:
256,192,99362,12,0,99449,0:0:0:0:
256,192,99449,12,0,99536,0:0:0:0:
256,192,99536,12,0,99709,0:0:0:0:
256,192,99882,12,0,100923,0:0:0:0:
104,88,101270,5,0,0:0:0:0:
160,216,101443,1,0,0:0:0:0:
280,72,101616,1,0,0:0:0:0:
320,64,101703,1,0,0:0:0:0:
360,88,101790,1,0,0:0:0:0:
440,208,101963,1,0,0:0:0:0:
408,232,102050,1,0,0:0:0:0:
368,240,102137,1,0,0:0:0:0:
88,192,102310,6,0,P|128:160|160:152,2,70
264,208,102830,1,0,0:0:0:0:
304,184,102917,1,0,0:0:0:0:
328,144,103004,1,0,0:0:0:0:
336,16,103177,1,0,0:0:0:0:
408,208,103350,5,0,0:0:0:0:
448,24,103524,1,0,0:0:0:0:
288,224,103697,1,0,0:0:0:0:
248,200,103784,1,0,0:0:0:0:
232,160,103871,1,0,0:0:0:0:
456,112,104044,1,0,0:0:0:0:
224,56,104217,1,0,0:0:0:0:
192,88,104304,1,0,0:0:0:0:
176,128,104391,1,0,0:0:0:0:
400,264,104564,5,0,0:0:0:0:
264,64,104738,1,0,0:0:0:0:
280,296,104911,1,0,0:0:0:0:
360,80,105085,1,0,0:0:0:0:
128,208,105258,2,0,P|128:168|136:144,2,35
280,48,105605,5,0,0:0:0:0:
384,288,105778,1,0,0:0:0:0:
408,248,105865,1,0,0:0:0:0:
416,200,105952,1,0,0:0:0:0:
416,152,106038,1,0,0:0:0:0:
168,40,106212,1,0,0:0:0:0:
144,72,106298,1,0,0:0:0:0:
120,304,106472,5,0,0:0:0:0:
320,48,106645,1,0,0:0:0:0:
320,320,106819,1,0,0:0:0:0:
120,112,106992,1,0,0:0:0:0:
144,72,107079,1,0,0:0:0:0:
184,48,107165,1,0,0:0:0:0:
416,232,107339,5,0,0:0:0:0:
128,184,107512,1,0,0:0:0:0:
384,96,107686,1,0,0:0:0:0:
192,312,107859,1,0,0:0:0:0:
232,336,107946,1,0,0:0:0:0:
280,336,108033,1,0,0:0:0:0:
280,40,108206,1,0,0:0:0:0:
328,40,108293,1,0,0:0:0:0:
368,56,108379,1,0,0:0:0:0:
128,232,108553,5,0,0:0:0:0:
416,160,108726,1,0,0:0:0:0:
128,80,108900,1,0,0:0:0:0:
400,264,109073,2,0,L|352:296,2,35
136,192,109420,1,0,0:0:0:0:
368,88,109593,5,0,0:0:0:0:
320,304,109767,1,0,0:0:0:0:
272,320,109853,1,0,0:0:0:0:
216,312,109940,1,0,0:0:0:0:
176,280,110027,1,0,0:0:0:0:
152,232,110113,1,0,0:0:0:0:
448,72,110287,1,0,0:0:0:0:
408,40,110374,1,0,0:0:0:0:
352,40,110460,1,0,0:0:0:0:
136,288,110634,5,0,0:0:0:0:
392,160,110807,1,0,0:0:0:0:
176,48,110980,1,0,0:0:0:0:
128,48,111067,1,0,0:0:0:0:
72,64,111154,1,0,0:0:0:0:
40,112,111241,1,0,0:0:0:0:
32,168,111327,1,0,0:0:0:0:
320,336,111501,6,0,B|336:280|336:280|368:272|400:232,1,140
176,32,111848,2,0,B|176:104|136:104|136:104|88:144,1,140
224,328,112194,1,0,0:0:0:0:
376,56,112368,1,0,0:0:0:0:
384,288,112541,5,0,0:0:0:0:
216,48,112715,1,0,0:0:0:0:
272,312,112888,1,0,0:0:0:0:
120,80,113061,1,0,0:0:0:0:
192,312,113235,1,0,0:0:0:0:
48,152,113408,1,0,0:0:0:0:
448,112,113582,5,0,0:0:0:0:
424,72,113668,1,0,0:0:0:0:
376,48,113755,1,0,0:0:0:0:
48,256,114102,2,0,B|72:136|176:152|176:152|296:248|376:224|456:80|312:40,1,560
256,200,114449,1,0,0:0:0:0:
325,44,114796,1,0,0:0:0:0:
176,64,115142,5,0,0:0:0:0:
56,144,115316,1,0,0:0:0:0:
152,304,115489,1,0,0:0:0:0:
280,224,115663,1,0,0:0:0:0:
240,32,115836,1,0,0:0:0:0:
136,32,116009,1,0,0:0:0:0:
48,80,116183,1,0,0:0:0:0:
256,224,116530,5,0,0:0:0:0:
320,192,116616,1,0,0:0:0:0:
344,128,116703,1,0,0:0:0:0:
232,40,116876,1,0,0:0:0:0:
304,296,117050,1,0,0:0:0:0:
112,112,117223,1,0,0:0:0:0:
64,152,117310,1,0,0:0:0:0:
40,200,117397,1,0,0:0:0:0:
32,256,117483,1,0,0:0:0:0:
40,312,117570,1,0,0:0:0:0:
416,168,117917,5,0,0:0:0:0:
192,96,118090,1,0,0:0:0:0:
88,328,118264,2,0,L|160:320,1,70
240,304,118437,1,0,0:0:0:0:
448,56,118611,2,0,L|368:72,1,70
304,88,118784,1,0,0:0:0:0:
120,88,118957,5,0,0:0:0:0:
216,288,119131,1,0,0:0:0:0:
400,280,119304,1,0,0:0:0:0:
432,232,119391,1,0,0:0:0:0:
456,184,119478,2,0,P|472:136|464:104,2,70
336,312,119824,5,0,0:0:0:0:
136,128,119998,1,0,0:0:0:0:
344,56,120171,1,0,0:0:0:0:
96,256,120345,2,0,L|152:312,1,70
224,336,120518,1,0,0:0:0:0:
456,96,120691,2,0,L|392:48,1,70
312,32,120865,1,0,0:0:0:0:
256,32,120952,1,0,0:0:0:0:
200,56,121038,1,0,0:0:0:0:
288,344,121212,5,0,0:0:0:0:
112,144,121385,1,0,0:0:0:0:
400,248,121559,1,0,0:0:0:0:
256,72,121732,1,0,0:0:0:0:
256,312,122079,5,0,0:0:0:0:
440,168,122252,1,0,0:0:0:0:
112,48,122426,2,0,P|56:80|56:120,1,70
40,160,122599,1,0,0:0:0:0:
304,352,122772,2,0,P|368:336|392:304,1,70
416,264,122946,1,0,0:0:0:0:
256,40,123119,5,0,0:0:0:0:
144,304,123293,1,0,0:0:0:0:
464,144,123466,1,0,0:0:0:0:
448,96,123553,1,0,0:0:0:0:
424,48,123639,2,0,P|392:16|360:16,2,70
448,256,123986,5,0,0:0:0:0:
160,112,124160,1,0,0:0:0:0:
288,320,124333,1,0,0:0:0:0:
344,88,124506,1,0,0:0:0:0:
296,56,124593,1,0,0:0:0:0:
248,48,124680,1,0,0:0:0:0:
96,216,124853,2,0,P|112:272|136:288,2,70
240,80,125200,5,0,0:0:0:0:
184,320,125374,1,0,0:0:0:0:
64,136,125547,2,0,B|80:190|176:176|176:176|293:186|304:235,1,280,0|0,0:0|0:0,0:3:0:0:
400,344,126067,1,0,0:0:0:0:
432,304,126154,1,0,0:0:0:0:
448,256,126241,1,0,0:0:0:0:
96,104,126414,6,0,P|57:166|75:194,2,70,0|0|0,0:3|0:3|0:3,0:3:0:0:
136,64,126674,1,0,0:0:0:0:
192,48,126761,1,0,0:0:0:0:
456,192,126934,2,0,P|456:264|424:280,1,70
408,312,127108,1,0,0:0:0:0:
176,288,127281,5,0,0:0:0:0:
328,104,127454,1,0,0:0:0:0:
32,184,127628,1,0,0:0:0:0:
56,144,127715,1,0,0:0:0:0:
112,104,127801,2,0,P|79:117|57:143,2,70
384,80,128148,5,0,0:0:0:0:
128,296,128322,1,0,0:0:0:0:
208,64,128495,1,0,0:0:0:0:
304,336,128668,2,0,P|352:312|368:280,1,70
392,232,128842,1,0,0:0:0:0:
136,40,129015,6,0,P|80:48|64:72,1,70
40,120,129189,1,0,0:0:0:0:
96,312,129362,1,0,0:0:0:0:
256,72,129535,1,0,0:0:0:0:
304,344,129709,1,0,0:0:0:0:
360,328,129796,1,0,0:0:0:0:
408,304,129882,1,0,0:0:0:0:
440,264,129969,1,0,0:0:0:0:
456,208,130056,1,0,0:0:0:0:
304,80,130402,6,0,B|168:40|112:144|112:144|192:176|256:272|160:336|40:352,1,560
160,176,130749,1,0,0:0:0:0:
384,352,131443,1,0,0:0:0:0:
152,184,131790,2,0,P|184:104|280:96,1,140
352,200,132137,2,0,P|333:265|273:297,1,140
232,48,132483,1,0,0:0:0:0:
184,312,132830,1,0,0:0:0:0:
392,88,133350,1,0,0:0:0:0:
256,192,133524,12,0,134217,0:0:0:0:
80,160,134564,6,0,P|112:88|208:64,1,140
320,56,134911,6,0,P|295:120|235:154,1,140
56,336,135258,1,0,0:0:0:0:
72,296,135345,1,0,0:0:0:0:
112,264,135431,1,0,0:0:0:0:
480,216,135605,6,0,P|455:280|395:314,1,140
239,320,135952,6,0,P|263:255|323:221,1,140
384,200,136212,1,0,0:0:0:0:
408,152,136298,1,0,0:0:0:0:
304,40,136472,1,0,0:0:0:0:
48,200,136645,6,0,B|31:271|31:271|101:316,1,140
216,336,136992,2,0,B|232:264|232:264|176:227,1,140
80,40,137339,1,0,0:0:0:0:
136,40,137426,1,0,0:0:0:0:
184,72,137512,1,0,0:0:0:0:
464,184,137686,6,0,B|480:112|480:112|410:67,1,140
296,48,138033,2,0,B|279:119|279:119|335:156,1,140
384,192,138293,1,0,0:0:0:0:
376,248,138379,1,0,0:0:0:0:
152,224,138553,1,0,0:0:0:0:
152,176,138639,1,0,0:0:0:0:
184,136,138726,1,0,0:0:0:0:
440,304,138900,1,0,0:0:0:0:
408,344,138986,1,0,0:0:0:0:
344,352,139073,6,0,P|284:318|259:253,1,140
83,189,139420,6,0,P|143:223|168:288,1,140
424,128,139767,1,0,0:0:0:0:
408,72,139853,1,0,0:0:0:0:
360,40,139940,1,0,0:0:0:0:
168,32,140113,6,0,P|227:65|252:129,1,140
428,194,140460,6,0,P|369:161|344:97,1,140
368,40,140720,1,0,0:0:0:0:
304,40,140807,1,0,0:0:0:0:
304,312,140980,1,0,0:0:0:0:
80,352,141154,6,0,B|117:281|117:281|225:248,1,140
184,88,141501,2,0,B|146:158|146:158|38:191,1,140
32,96,141848,1,0,0:0:0:0:
64,48,141934,1,0,0:0:0:0:
120,32,142021,1,0,0:0:0:0:
432,32,142194,6,0,B|394:102|394:102|337:120,1,140
328,296,142541,2,0,B|365:225|365:225|422:207,1,140
360,232,142801,1,0,0:0:0:0:
328,296,142888,1,0,0:0:0:0:
184,240,143061,1,0,0:0:0:0:
208,192,143148,1,0,0:0:0:0:
248,152,143235,1,0,0:0:0:0:
184,56,143408,1,0,0:0:0:0:
136,80,143495,1,0,0:0:0:0:
96,120,143582,1,0,0:0:0:0:
112,320,143755,5,0,0:0:0:0:
344,328,143928,1,0,0:0:0:0:
384,296,144015,1,0,0:0:0:0:
408,240,144102,1,0,0:0:0:0:
392,112,144275,1,0,0:0:0:0:
344,136,144362,1,0,0:0:0:0:
304,176,144449,1,0,0:0:0:0:
160,344,144622,5,0,0:0:0:0:
232,72,144796,1,0,0:0:0:0:
272,344,144969,1,0,0:0:0:0:
320,320,145056,1,0,0:0:0:0:
360,288,145142,1,0,0:0:0:0:
384,240,145229,1,0,0:0:0:0:
392,176,145316,1,0,0:0:0:0:
264,72,145489,1,0,0:0:0:0:
344,344,145663,5,0,0:0:0:0:
128,48,145836,1,0,0:0:0:0:
80,64,145923,1,0,0:0:0:0:
32,104,146009,1,0,0:0:0:0:
16,160,146096,1,0,0:0:0:0:
8,224,146183,1,0,0:0:0:0:
352,304,146356,2,0,P|394:271|430:207,2,70
368,64,146703,1,0,0:0:0:0:
176,280,146876,5,0,0:0:0:0:
440,232,147050,1,0,0:0:0:0:
456,176,147137,1,0,0:0:0:0:
456,120,147223,1,0,0:0:0:0:
440,64,147310,1,0,0:0:0:0:
400,24,147397,6,0,B|296:24|232:80|232:80|216:160|152:200,1,280
48,296,148090,5,0,0:0:0:0:
288,344,148264,1,0,0:0:0:0:
360,48,148437,2,0,P|400:64|432:136,2,70
80,176,148784,2,0,P|104:232|136:248,2,70
109,236,149044,1,0,0:0:0:0:
152,272,149131,5,0,0:0:0:0:
296,48,149304,1,0,0:0:0:0:
448,176,149478,1,0,0:0:0:0:
448,232,149564,1,0,0:0:0:0:
432,280,149651,2,0,P|416:320|368:336,2,70
128,328,149998,1,0,0:0:0:0:
352,80,150171,5,0,0:0:0:0:
336,304,150345,1,0,0:0:0:0:
48,320,150518,5,0,0:0:0:0:
64,272,150605,1,0,0:0:0:0:
96,232,150691,1,0,0:0:0:0:
152,248,150778,1,0,0:0:0:0:
200,216,150865,1,0,0:0:0:0:
232,168,150952,1,0,0:0:0:0:
200,112,151038,1,0,0:0:0:0:
232,64,151125,1,0,0:0:0:0:
288,40,151212,1,0,0:0:0:0:
456,336,151385,5,0,0:0:0:0:
232,344,151559,5,0,0:0:0:0:
224,272,151645,1,0,0:0:0:0:
200,208,151732,1,0,0:0:0:0:
160,152,151819,1,0,0:0:0:0:
112,120,151905,2,0,P|192:192|224:368,1,280
256,192,152599,12,0,152946,0:0:0:0:
256,192,154506,12,0,154680,0:0:0:0:
256,192,154680,12,0,155027,0:0:0:0:
256,192,155374,12,0,155720,0:0:0:0:
256,192,155894,12,0,156241,0:0:0:0:
