osu file format v14

[General]
AudioFilename: audio.mp3
AudioLeadIn: 0
PreviewTime: 78391
Countdown: 0
SampleSet: Soft
StackLeniency: 0.9
Mode: 3
LetterboxInBreaks: 0
SpecialStyle: 0
WidescreenStoryboard: 1

[Editor]
DistanceSpacing: 0.9
BeatDivisor: 4
GridSize: 4
TimelineZoom: 2.399999

[Metadata]
Title:AngelFalse
TitleUnicode:AngelFalse
Artist:Sakuzyo
ArtistUnicode:Sakuzyo
Creator:Linyx-sama
Version:2307's Heaven Genesis (NSV)
Source:Deemo
Tags:Ari_Knight Syadow- Another_Lie lombit dionzz99 Unknown_Player MEGAtive Nixeria-sama chouyaa Ridho_2307
BeatmapID:1416133
BeatmapSetID:619596

[Difficulty]
HPDrainRate:7.7
CircleSize:6
OverallDifficulty:8
ApproachRate:5
SliderMultiplier:1.4
SliderTickRate:1

[Events]
//Background and Video events
0,0,"BG Ridho.jpg",0,0
//Break Periods
//Storyboard Layer 0 (Background)
//Storyboard Layer 1 (Fail)
//Storyboard Layer 2 (Pass)
//Storyboard Layer 3 (Foreground)
//Storyboard Sound Samples

[TimingPoints]
19,346.820809248555,3,2,0,30,1,0
1059,346.820809248555,3,2,0,30,1,0
2100,346.820809248555,3,2,0,30,1,0
44065,346.820809248555,3,2,0,30,1,0
48572,346.820809248555,3,2,0,30,1,0
53427,346.820809248555,3,2,0,30,1,0
61403,346.820809248555,3,2,0,30,1,0
65911,346.820809248555,3,2,0,30,1,0
70417,346.820809248555,3,2,0,30,1,0
74230,346.820809248555,3,2,0,30,1,0
78391,346.820809248555,3,2,0,30,1,1
95038,-100,4,2,0,30,0,0
101281,346.820809248555,3,2,0,30,1,1
117581,-100,4,2,0,30,0,0
117928,346.820809248555,3,2,0,30,1,1
133534,-100,4,2,0,30,0,0
134575,346.820809248555,3,2,0,30,1,0
139081,346.820809248555,3,2,0,30,1,0
143589,346.820809248555,3,2,0,30,1,0
148096,346.820809248555,3,2,0,30,1,0
152604,346.820809248555,3,2,0,30,1,0

[HitObjects]
469,192,19,128,0,2099:0:0:0:0:
42,192,192,128,0,2099:0:0:0:0:
128,192,1059,1,0,0:0:0:0:
213,192,1145,1,0,0:0:0:0:
384,192,1232,1,0,0:0:0:0:
213,192,1319,1,0,0:0:0:0:
298,192,1405,1,0,0:0:0:0:
128,192,1492,1,0,0:0:0:0:
213,192,1579,1,0,0:0:0:0:
298,192,1665,1,0,0:0:0:0:
384,192,1752,128,0,2099:0:0:0:0:
128,192,1752,128,0,2099:0:0:0:0:
213,192,2099,1,0,0:0:0:0:
298,192,2099,1,0,0:0:0:0:
42,192,2446,128,0,2620:0:0:0:0:
213,192,2620,128,0,2793:0:0:0:0:
298,192,2793,128,0,2967:0:0:0:0:
469,192,2793,128,0,2967:0:0:0:0:
42,192,2967,128,0,3140:0:0:0:0:
213,192,2967,128,0,3140:0:0:0:0:
384,192,3140,1,0,0:0:0:0:
469,192,3487,128,0,3660:0:0:0:0:
298,192,3660,128,0,3834:0:0:0:0:
213,192,3834,128,0,4007:0:0:0:0:
42,192,3834,128,0,4007:0:0:0:0:
298,192,4007,128,0,4180:0:0:0:0:
469,192,4007,128,0,4180:0:0:0:0:
128,192,4180,1,0,0:0:0:0:
213,192,4527,128,0,4701:0:0:0:0:
384,192,4701,128,0,4874:0:0:0:0:
213,192,4874,128,0,5047:0:0:0:0:
42,192,4874,128,0,5047:0:0:0:0:
298,192,5047,128,0,5221:0:0:0:0:
469,192,5047,128,0,5221:0:0:0:0:
128,192,5221,1,0,0:0:0:0:
42,192,5568,128,0,6261:0:0:0:0:
384,192,5568,128,0,5741:0:0:0:0:
128,192,5741,128,0,5915:0:0:0:0:
213,192,5915,128,0,6088:0:0:0:0:
298,192,5915,128,0,6088:0:0:0:0:
384,192,6088,128,0,6261:0:0:0:0:
469,192,6088,128,0,6261:0:0:0:0:
128,192,6261,128,0,6608:0:0:0:0:
213,192,6261,128,0,6608:0:0:0:0:
298,192,6261,128,0,6608:0:0:0:0:
298,192,6955,128,0,7128:0:0:0:0:
469,192,6955,128,0,7128:0:0:0:0:
298,192,7302,128,0,7475:0:0:0:0:
469,192,7302,128,0,7475:0:0:0:0:
384,192,7995,128,0,8169:0:0:0:0:
128,192,7995,128,0,8169:0:0:0:0:
384,192,8342,128,0,8516:0:0:0:0:
128,192,8342,128,0,8516:0:0:0:0:
213,192,9036,128,0,9209:0:0:0:0:
42,192,9036,128,0,9209:0:0:0:0:
42,192,9383,128,0,9556:0:0:0:0:
213,192,9383,128,0,9556:0:0:0:0:
298,192,9556,128,0,9730:0:0:0:0:
384,192,9556,128,0,9730:0:0:0:0:
469,192,9556,128,0,9730:0:0:0:0:
128,192,9730,128,0,9903:0:0:0:0:
298,192,9903,128,0,10076:0:0:0:0:
213,192,9903,1,0,0:0:0:0:
469,192,10076,128,0,10423:0:0:0:0:
384,192,10076,1,0,0:0:0:0:
213,192,10423,1,0,0:0:0:0:
42,192,10423,1,0,0:0:0:0:
469,192,10640,1,0,0:0:0:0:
384,192,10683,1,0,0:0:0:0:
298,192,10727,1,0,0:0:0:0:
213,192,10770,1,0,0:0:0:0:
384,192,10813,1,0,0:0:0:0:
298,192,10857,1,0,0:0:0:0:
213,192,10900,1,0,0:0:0:0:
128,192,10943,1,0,0:0:0:0:
298,192,10987,1,0,0:0:0:0:
213,192,11030,1,0,0:0:0:0:
128,192,11073,1,0,0:0:0:0:
469,192,11117,1,0,0:0:0:0:
42,192,11117,1,0,0:0:0:0:
128,192,11290,128,0,11464:0:0:0:0:
298,192,11464,1,0,0:0:0:0:
469,192,11464,1,0,0:0:0:0:
384,192,11464,1,0,0:0:0:0:
213,192,11637,1,0,0:0:0:0:
384,192,11810,1,0,0:0:0:0:
42,192,11984,1,0,0:0:0:0:
128,192,11984,1,0,0:0:0:0:
213,192,12071,1,0,0:0:0:0:
298,192,12071,1,0,0:0:0:0:
384,192,12157,1,0,0:0:0:0:
469,192,12157,1,0,0:0:0:0:
128,192,12331,1,0,0:0:0:0:
42,192,12331,1,0,0:0:0:0:
298,192,12504,1,0,0:0:0:0:
384,192,12504,1,0,0:0:0:0:
469,192,12504,1,0,0:0:0:0:
128,192,12678,1,0,0:0:0:0:
213,192,12721,1,0,0:0:0:0:
298,192,12764,1,0,0:0:0:0:
384,192,12808,1,0,0:0:0:0:
469,192,12851,1,0,0:0:0:0:
42,192,12851,1,0,0:0:0:0:
42,192,13024,1,0,0:0:0:0:
128,192,13198,1,0,0:0:0:0:
128,192,13371,1,0,0:0:0:0:
298,192,13458,1,0,0:0:0:0:
384,192,13458,1,0,0:0:0:0:
213,192,13545,1,0,0:0:0:0:
42,192,13545,1,0,0:0:0:0:
128,192,13545,1,0,0:0:0:0:
469,192,13718,1,0,0:0:0:0:
469,192,13891,1,0,0:0:0:0:
128,192,14065,1,0,0:0:0:0:
128,192,14238,1,0,0:0:0:0:
384,192,14412,1,0,0:0:0:0:
298,192,14455,1,0,0:0:0:0:
213,192,14498,1,0,0:0:0:0:
128,192,14542,1,0,0:0:0:0:
298,192,14585,1,0,0:0:0:0:
384,192,14585,1,0,0:0:0:0:
469,192,14585,1,0,0:0:0:0:
128,192,14758,1,0,0:0:0:0:
213,192,14802,1,0,0:0:0:0:
298,192,14845,1,0,0:0:0:0:
384,192,14889,1,0,0:0:0:0:
469,192,14932,1,0,0:0:0:0:
42,192,14975,1,0,0:0:0:0:
128,192,15019,1,0,0:0:0:0:
213,192,15062,1,0,0:0:0:0:
298,192,15105,1,0,0:0:0:0:
384,192,15149,1,0,0:0:0:0:
42,192,15192,1,0,0:0:0:0:
128,192,15235,1,0,0:0:0:0:
213,192,15279,1,0,0:0:0:0:
469,192,15279,1,0,0:0:0:0:
384,192,15452,1,0,0:0:0:0:
213,192,15626,1,0,0:0:0:0:
42,192,15626,1,0,0:0:0:0:
469,192,15626,1,0,0:0:0:0:
384,192,15799,1,0,0:0:0:0:
384,192,15972,1,0,0:0:0:0:
128,192,16146,1,0,0:0:0:0:
128,192,16319,1,0,0:0:0:0:
298,192,16493,1,0,0:0:0:0:
469,192,16493,1,0,0:0:0:0:
42,192,16493,1,0,0:0:0:0:
213,192,16666,1,0,0:0:0:0:
128,192,16666,1,0,0:0:0:0:
384,192,16666,1,0,0:0:0:0:
469,192,16839,1,0,0:0:0:0:
298,192,16883,1,0,0:0:0:0:
213,192,16926,1,0,0:0:0:0:
42,192,16969,1,0,0:0:0:0:
384,192,17013,1,0,0:0:0:0:
384,192,17186,1,0,0:0:0:0:
128,192,17360,1,0,0:0:0:0:
128,192,17533,1,0,0:0:0:0:
469,192,17533,1,0,0:0:0:0:
384,192,17706,1,0,0:0:0:0:
213,192,17706,1,0,0:0:0:0:
42,192,17706,1,0,0:0:0:0:
298,192,17880,1,0,0:0:0:0:
298,192,18053,1,0,0:0:0:0:
128,192,18227,1,0,0:0:0:0:
384,192,18227,128,0,18747:0:0:0:0:
128,192,18400,1,0,0:0:0:0:
213,192,18573,1,0,0:0:0:0:
298,192,18747,1,0,0:0:0:0:
469,192,18747,1,0,0:0:0:0:
42,192,18747,128,0,19787:0:0:0:0:
128,192,18920,1,0,0:0:0:0:
128,192,19094,1,0,0:0:0:0:
298,192,19267,1,0,0:0:0:0:
298,192,19441,1,0,0:0:0:0:
384,192,19614,1,0,0:0:0:0:
128,192,19787,128,0,20828:0:0:0:0:
298,192,19787,1,0,0:0:0:0:
213,192,19787,1,0,0:0:0:0:
384,192,19961,1,0,0:0:0:0:
384,192,20134,1,0,0:0:0:0:
42,192,20308,1,0,0:0:0:0:
42,192,20481,1,0,0:0:0:0:
298,192,20654,1,0,0:0:0:0:
213,192,20828,128,0,21608:0:0:0:0:
384,192,20828,1,0,0:0:0:0:
469,192,20828,1,0,0:0:0:0:
42,192,21001,1,0,0:0:0:0:
42,192,21175,1,0,0:0:0:0:
384,192,21348,1,0,0:0:0:0:
384,192,21521,1,0,0:0:0:0:
213,192,21695,128,0,22735:0:0:0:0:
128,192,21695,1,0,0:0:0:0:
469,192,21868,1,0,0:0:0:0:
298,192,21868,1,0,0:0:0:0:
42,192,22042,1,0,0:0:0:0:
42,192,22215,1,0,0:0:0:0:
469,192,22389,1,0,0:0:0:0:
469,192,22562,1,0,0:0:0:0:
384,192,22735,128,0,24816:0:0:0:0:
42,192,22735,1,0,0:0:0:0:
128,192,22909,1,0,0:0:0:0:
298,192,22909,1,0,0:0:0:0:
213,192,23082,1,0,0:0:0:0:
213,192,23256,1,0,0:0:0:0:
42,192,23429,1,0,0:0:0:0:
42,192,23602,1,0,0:0:0:0:
298,192,23776,1,0,0:0:0:0:
128,192,23949,1,0,0:0:0:0:
469,192,23949,1,0,0:0:0:0:
298,192,24123,1,0,0:0:0:0:
42,192,24296,1,0,0:0:0:0:
42,192,24469,1,0,0:0:0:0:
213,192,24643,1,0,0:0:0:0:
469,192,24816,128,0,25857:0:0:0:0:
213,192,24816,1,0,0:0:0:0:
128,192,24990,1,0,0:0:0:0:
298,192,25163,1,0,0:0:0:0:
384,192,25336,1,0,0:0:0:0:
42,192,25336,1,0,0:0:0:0:
128,192,25510,1,0,0:0:0:0:
298,192,25683,1,0,0:0:0:0:
42,192,25857,128,0,27071:0:0:0:0:
298,192,25857,1,0,0:0:0:0:
128,192,26030,1,0,0:0:0:0:
128,192,26204,1,0,0:0:0:0:
469,192,26377,128,0,27071:0:0:0:0:
213,192,26377,1,0,0:0:0:0:
384,192,26377,1,0,0:0:0:0:
128,192,26724,128,0,27071:0:0:0:0:
384,192,26724,128,0,27071:0:0:0:0:
213,192,27071,1,0,0:0:0:0:
298,192,27071,1,0,0:0:0:0:
128,192,27244,1,0,0:0:0:0:
384,192,27244,1,0,0:0:0:0:
298,192,27331,1,0,0:0:0:0:
42,192,27417,1,0,0:0:0:0:
469,192,27417,1,0,0:0:0:0:
298,192,27591,1,0,0:0:0:0:
128,192,27591,1,0,0:0:0:0:
42,192,27678,1,0,0:0:0:0:
213,192,27764,1,0,0:0:0:0:
384,192,27764,1,0,0:0:0:0:
42,192,27938,1,0,0:0:0:0:
298,192,27938,1,0,0:0:0:0:
469,192,28024,1,0,0:0:0:0:
128,192,28111,1,0,0:0:0:0:
384,192,28111,1,0,0:0:0:0:
42,192,28111,1,0,0:0:0:0:
213,192,28284,1,0,0:0:0:0:
298,192,28328,1,0,0:0:0:0:
384,192,28371,1,0,0:0:0:0:
469,192,28415,1,0,0:0:0:0:
298,192,28458,1,0,0:0:0:0:
42,192,28458,1,0,0:0:0:0:
469,192,28631,1,0,0:0:0:0:
213,192,28631,1,0,0:0:0:0:
384,192,28718,1,0,0:0:0:0:
42,192,28805,1,0,0:0:0:0:
213,192,28805,1,0,0:0:0:0:
298,192,28978,1,0,0:0:0:0:
213,192,29021,1,0,0:0:0:0:
128,192,29065,1,0,0:0:0:0:
42,192,29108,1,0,0:0:0:0:
298,192,29152,1,0,0:0:0:0:
384,192,29152,1,0,0:0:0:0:
469,192,29152,1,0,0:0:0:0:
128,192,29325,1,0,0:0:0:0:
384,192,29325,1,0,0:0:0:0:
213,192,29412,1,0,0:0:0:0:
298,192,29412,1,0,0:0:0:0:
42,192,29498,1,0,0:0:0:0:
469,192,29498,1,0,0:0:0:0:
469,192,29672,1,0,0:0:0:0:
298,192,29672,1,0,0:0:0:0:
213,192,29758,1,0,0:0:0:0:
128,192,29845,1,0,0:0:0:0:
384,192,29845,1,0,0:0:0:0:
469,192,29845,1,0,0:0:0:0:
298,192,30019,1,0,0:0:0:0:
42,192,30019,1,0,0:0:0:0:
128,192,30105,1,0,0:0:0:0:
213,192,30192,1,0,0:0:0:0:
384,192,30192,1,0,0:0:0:0:
469,192,30192,1,0,0:0:0:0:
42,192,30365,1,0,0:0:0:0:
384,192,30365,1,0,0:0:0:0:
128,192,30409,1,0,0:0:0:0:
213,192,30452,1,0,0:0:0:0:
298,192,30495,1,0,0:0:0:0:
469,192,30539,1,0,0:0:0:0:
42,192,30539,1,0,0:0:0:0:
213,192,30712,1,0,0:0:0:0:
384,192,30712,1,0,0:0:0:0:
128,192,30799,1,0,0:0:0:0:
42,192,30886,1,0,0:0:0:0:
298,192,30886,1,0,0:0:0:0:
128,192,31059,1,0,0:0:0:0:
469,192,31059,1,0,0:0:0:0:
384,192,31102,1,0,0:0:0:0:
298,192,31146,1,0,0:0:0:0:
213,192,31189,1,0,0:0:0:0:
128,192,31232,1,0,0:0:0:0:
42,192,31232,1,0,0:0:0:0:
469,192,31232,1,0,0:0:0:0:
469,192,31406,1,0,0:0:0:0:
42,192,31406,1,0,0:0:0:0:
298,192,31493,1,0,0:0:0:0:
128,192,31579,1,0,0:0:0:0:
213,192,31753,1,0,0:0:0:0:
42,192,31753,1,0,0:0:0:0:
298,192,31839,1,0,0:0:0:0:
384,192,31926,1,0,0:0:0:0:
42,192,32100,1,0,0:0:0:0:
213,192,32100,1,0,0:0:0:0:
384,192,32186,1,0,0:0:0:0:
469,192,32273,1,0,0:0:0:0:
298,192,32273,1,0,0:0:0:0:
128,192,32273,1,0,0:0:0:0:
384,192,32446,1,0,0:0:0:0:
298,192,32490,1,0,0:0:0:0:
213,192,32533,1,0,0:0:0:0:
128,192,32576,1,0,0:0:0:0:
42,192,32620,1,0,0:0:0:0:
469,192,32620,1,0,0:0:0:0:
469,192,32793,1,0,0:0:0:0:
42,192,32967,1,0,0:0:0:0:
42,192,33140,1,0,0:0:0:0:
469,192,33140,1,0,0:0:0:0:
384,192,33183,1,0,0:0:0:0:
298,192,33227,1,0,0:0:0:0:
213,192,33270,1,0,0:0:0:0:
42,192,33313,1,0,0:0:0:0:
128,192,33313,1,0,0:0:0:0:
298,192,33487,1,0,0:0:0:0:
384,192,33573,1,0,0:0:0:0:
128,192,33660,1,0,0:0:0:0:
128,192,33834,1,0,0:0:0:0:
384,192,34007,1,0,0:0:0:0:
384,192,34180,1,0,0:0:0:0:
213,192,34267,1,0,0:0:0:0:
128,192,34354,1,0,0:0:0:0:
42,192,34354,1,0,0:0:0:0:
384,192,34527,1,0,0:0:0:0:
298,192,34571,1,0,0:0:0:0:
213,192,34614,1,0,0:0:0:0:
128,192,34657,1,0,0:0:0:0:
42,192,34701,1,0,0:0:0:0:
469,192,34701,1,0,0:0:0:0:
384,192,34874,1,0,0:0:0:0:
298,192,35047,1,0,0:0:0:0:
213,192,35221,1,0,0:0:0:0:
298,192,35264,1,0,0:0:0:0:
384,192,35308,1,0,0:0:0:0:
469,192,35351,1,0,0:0:0:0:
128,192,35394,1,0,0:0:0:0:
42,192,35394,1,0,0:0:0:0:
298,192,35394,1,0,0:0:0:0:
213,192,35394,1,0,0:0:0:0:
42,192,36088,1,0,0:0:0:0:
42,192,36782,1,0,0:0:0:0:
42,192,37302,1,0,0:0:0:0:
298,192,37302,1,0,0:0:0:0:
469,192,37302,1,0,0:0:0:0:
128,192,37475,1,0,0:0:0:0:
213,192,37475,1,0,0:0:0:0:
384,192,37475,1,0,0:0:0:0:
469,192,37475,1,0,0:0:0:0:
469,192,38169,1,0,0:0:0:0:
469,192,38863,1,0,0:0:0:0:
213,192,39556,1,0,0:0:0:0:
298,192,39556,1,0,0:0:0:0:
384,192,39556,1,0,0:0:0:0:
469,192,39556,1,0,0:0:0:0:
384,192,40250,1,0,0:0:0:0:
384,192,40943,1,0,0:0:0:0:
384,192,41464,1,0,0:0:0:0:
42,192,41464,1,0,0:0:0:0:
213,192,41464,1,0,0:0:0:0:
213,192,41637,1,0,0:0:0:0:
469,192,41637,1,0,0:0:0:0:
298,192,41637,1,0,0:0:0:0:
42,192,41637,1,0,0:0:0:0:
469,192,42331,128,0,43024:0:0:0:0:
213,192,42331,1,0,0:0:0:0:
469,192,43371,128,0,43718:0:0:0:0:
384,192,43545,128,0,43718:0:0:0:0:
42,192,43718,128,0,44065:0:0:0:0:
128,192,43891,128,0,44065:0:0:0:0:
213,192,44065,1,0,0:0:0:0:
298,192,44065,1,0,0:0:0:0:
469,192,44065,1,0,0:0:0:0:
384,192,44238,1,0,0:0:0:0:
213,192,44325,1,0,0:0:0:0:
128,192,44411,1,0,0:0:0:0:
42,192,44411,1,0,0:0:0:0:
469,192,44498,1,0,0:0:0:0:
384,192,44498,1,0,0:0:0:0:
298,192,44498,1,0,0:0:0:0:
213,192,44585,1,0,0:0:0:0:
42,192,44671,1,0,0:0:0:0:
298,192,44758,1,0,0:0:0:0:
128,192,44845,1,0,0:0:0:0:
469,192,44845,1,0,0:0:0:0:
298,192,44932,1,0,0:0:0:0:
213,192,44932,1,0,0:0:0:0:
42,192,44932,1,0,0:0:0:0:
128,192,45018,1,0,0:0:0:0:
298,192,45105,1,0,0:0:0:0:
213,192,45105,1,0,0:0:0:0:
384,192,45105,1,0,0:0:0:0:
469,192,45105,1,0,0:0:0:0:
42,192,45278,1,0,0:0:0:0:
213,192,45365,1,0,0:0:0:0:
128,192,45452,1,0,0:0:0:0:
469,192,45452,1,0,0:0:0:0:
298,192,45538,1,0,0:0:0:0:
213,192,45625,1,0,0:0:0:0:
42,192,45712,1,0,0:0:0:0:
128,192,45712,1,0,0:0:0:0:
469,192,45712,1,0,0:0:0:0:
384,192,45799,1,0,0:0:0:0:
298,192,45799,1,0,0:0:0:0:
213,192,45799,1,0,0:0:0:0:
42,192,45972,1,0,0:0:0:0:
128,192,45972,1,0,0:0:0:0:
213,192,45972,1,0,0:0:0:0:
298,192,46059,1,0,0:0:0:0:
213,192,46145,1,0,0:0:0:0:
384,192,46145,1,0,0:0:0:0:
469,192,46145,1,0,0:0:0:0:
42,192,46145,1,0,0:0:0:0:
298,192,46319,1,0,0:0:0:0:
213,192,46406,1,0,0:0:0:0:
384,192,46492,1,0,0:0:0:0:
128,192,46492,1,0,0:0:0:0:
213,192,46579,1,0,0:0:0:0:
298,192,46579,1,0,0:0:0:0:
469,192,46579,1,0,0:0:0:0:
42,192,46666,1,0,0:0:0:0:
128,192,46752,1,0,0:0:0:0:
213,192,46839,1,0,0:0:0:0:
298,192,46926,1,0,0:0:0:0:
469,192,46926,1,0,0:0:0:0:
213,192,47012,1,0,0:0:0:0:
128,192,47012,1,0,0:0:0:0:
42,192,47012,1,0,0:0:0:0:
384,192,47186,1,0,0:0:0:0:
469,192,47186,1,0,0:0:0:0:
298,192,47186,1,0,0:0:0:0:
213,192,47186,1,0,0:0:0:0:
128,192,47359,1,0,0:0:0:0:
298,192,47446,1,0,0:0:0:0:
469,192,47533,1,0,0:0:0:0:
42,192,47533,1,0,0:0:0:0:
213,192,47619,1,0,0:0:0:0:
128,192,47706,1,0,0:0:0:0:
384,192,47706,1,0,0:0:0:0:
298,192,47793,1,0,0:0:0:0:
213,192,47880,1,0,0:0:0:0:
128,192,47880,1,0,0:0:0:0:
42,192,47880,1,0,0:0:0:0:
298,192,47966,1,0,0:0:0:0:
128,192,48053,1,0,0:0:0:0:
213,192,48140,1,0,0:0:0:0:
298,192,48226,1,0,0:0:0:0:
384,192,48226,1,0,0:0:0:0:
469,192,48226,1,0,0:0:0:0:
213,192,48400,1,0,0:0:0:0:
42,192,48400,1,0,0:0:0:0:
298,192,48486,1,0,0:0:0:0:
213,192,48572,1,0,0:0:0:0:
128,192,48572,1,0,0:0:0:0:
42,192,48572,1,0,0:0:0:0:
469,192,48572,1,0,0:0:0:0:
384,192,48745,1,0,0:0:0:0:
213,192,48832,1,0,0:0:0:0:
42,192,48918,1,0,0:0:0:0:
469,192,48918,1,0,0:0:0:0:
298,192,49005,1,0,0:0:0:0:
213,192,49005,1,0,0:0:0:0:
128,192,49005,1,0,0:0:0:0:
384,192,49092,1,0,0:0:0:0:
128,192,49178,1,0,0:0:0:0:
298,192,49265,1,0,0:0:0:0:
384,192,49352,1,0,0:0:0:0:
469,192,49352,1,0,0:0:0:0:
42,192,49439,1,0,0:0:0:0:
128,192,49439,1,0,0:0:0:0:
213,192,49612,1,0,0:0:0:0:
298,192,49612,1,0,0:0:0:0:
469,192,49612,1,0,0:0:0:0:
384,192,49612,1,0,0:0:0:0:
128,192,49785,1,0,0:0:0:0:
298,192,49872,1,0,0:0:0:0:
213,192,49959,1,0,0:0:0:0:
42,192,49959,1,0,0:0:0:0:
384,192,50045,1,0,0:0:0:0:
298,192,50045,1,0,0:0:0:0:
128,192,50045,1,0,0:0:0:0:
469,192,50219,1,0,0:0:0:0:
384,192,50219,1,0,0:0:0:0:
128,192,50306,1,0,0:0:0:0:
213,192,50306,1,0,0:0:0:0:
298,192,50306,1,0,0:0:0:0:
42,192,50479,1,0,0:0:0:0:
128,192,50479,1,0,0:0:0:0:
213,192,50479,1,0,0:0:0:0:
298,192,50566,1,0,0:0:0:0:
42,192,50652,1,0,0:0:0:0:
469,192,50652,1,0,0:0:0:0:
384,192,50652,1,0,0:0:0:0:
128,192,50652,1,0,0:0:0:0:
213,192,50826,1,0,0:0:0:0:
384,192,50913,1,0,0:0:0:0:
42,192,50913,1,0,0:0:0:0:
128,192,50999,1,0,0:0:0:0:
213,192,50999,1,0,0:0:0:0:
469,192,50999,1,0,0:0:0:0:
128,192,51173,1,0,0:0:0:0:
384,192,51173,1,0,0:0:0:0:
298,192,51259,1,0,0:0:0:0:
213,192,51346,1,0,0:0:0:0:
42,192,51346,1,0,0:0:0:0:
384,192,51433,1,0,0:0:0:0:
469,192,51433,1,0,0:0:0:0:
298,192,51519,1,0,0:0:0:0:
213,192,51519,1,0,0:0:0:0:
42,192,51519,1,0,0:0:0:0:
128,192,51519,1,0,0:0:0:0:
469,192,51693,1,0,0:0:0:0:
384,192,51693,1,0,0:0:0:0:
42,192,51780,1,0,0:0:0:0:
128,192,51866,1,0,0:0:0:0:
384,192,51866,1,0,0:0:0:0:
213,192,51953,1,0,0:0:0:0:
298,192,52040,1,0,0:0:0:0:
42,192,52040,128,0,52300:0:0:0:0:
128,192,52126,128,0,52300:0:0:0:0:
384,192,52126,1,0,0:0:0:0:
469,192,52213,128,0,52647:0:0:0:0:
213,192,52300,1,0,0:0:0:0:
298,192,52300,128,0,52647:0:0:0:0:
384,192,52387,128,0,52647:0:0:0:0:
128,192,52387,1,0,0:0:0:0:
42,192,52560,1,0,0:0:0:0:
213,192,52560,128,0,52733:0:0:0:0:
298,192,52733,1,0,0:0:0:0:
384,192,52733,1,0,0:0:0:0:
469,192,52733,1,0,0:0:0:0:
42,192,52907,1,0,0:0:0:0:
469,192,52907,1,0,0:0:0:0:
128,192,52993,1,0,0:0:0:0:
384,192,52993,1,0,0:0:0:0:
213,192,53080,1,0,0:0:0:0:
298,192,53080,1,0,0:0:0:0:
42,192,53080,1,0,0:0:0:0:
469,192,53080,1,0,0:0:0:0:
42,192,53427,1,0,0:0:0:0:
128,192,53427,1,0,0:0:0:0:
298,192,53427,1,0,0:0:0:0:
469,192,53427,1,0,0:0:0:0:
298,192,53600,1,0,0:0:0:0:
128,192,53600,1,0,0:0:0:0:
384,192,53687,1,0,0:0:0:0:
213,192,53687,1,0,0:0:0:0:
42,192,53773,1,0,0:0:0:0:
298,192,53773,1,0,0:0:0:0:
469,192,53773,1,0,0:0:0:0:
128,192,53773,1,0,0:0:0:0:
298,192,53947,1,0,0:0:0:0:
469,192,53947,1,0,0:0:0:0:
128,192,54120,1,0,0:0:0:0:
42,192,54120,1,0,0:0:0:0:
213,192,54207,1,0,0:0:0:0:
384,192,54207,1,0,0:0:0:0:
298,192,54207,1,0,0:0:0:0:
469,192,54294,1,0,0:0:0:0:
42,192,54294,1,0,0:0:0:0:
128,192,54294,1,0,0:0:0:0:
213,192,54467,1,0,0:0:0:0:
42,192,54467,1,0,0:0:0:0:
384,192,54467,1,0,0:0:0:0:
384,192,54640,1,0,0:0:0:0:
298,192,54640,1,0,0:0:0:0:
128,192,54640,1,0,0:0:0:0:
213,192,54727,1,0,0:0:0:0:
469,192,54727,1,0,0:0:0:0:
298,192,54814,1,0,0:0:0:0:
128,192,54814,1,0,0:0:0:0:
42,192,54814,1,0,0:0:0:0:
384,192,54900,1,0,0:0:0:0:
469,192,54900,1,0,0:0:0:0:
42,192,54987,1,0,0:0:0:0:
128,192,54987,1,0,0:0:0:0:
213,192,55074,1,0,0:0:0:0:
298,192,55074,1,0,0:0:0:0:
469,192,55161,1,0,0:0:0:0:
384,192,55247,1,0,0:0:0:0:
128,192,55247,1,0,0:0:0:0:
213,192,55334,1,0,0:0:0:0:
298,192,55334,1,0,0:0:0:0:
42,192,55334,1,0,0:0:0:0:
469,192,55421,1,0,0:0:0:0:
384,192,55507,1,0,0:0:0:0:
213,192,55507,1,0,0:0:0:0:
42,192,55507,1,0,0:0:0:0:
128,192,55594,1,0,0:0:0:0:
469,192,55594,1,0,0:0:0:0:
213,192,55681,1,0,0:0:0:0:
384,192,55681,1,0,0:0:0:0:
298,192,55768,1,0,0:0:0:0:
42,192,55768,1,0,0:0:0:0:
384,192,55854,1,0,0:0:0:0:
128,192,55854,1,0,0:0:0:0:
298,192,55941,1,0,0:0:0:0:
469,192,55941,1,0,0:0:0:0:
213,192,56028,1,0,0:0:0:0:
42,192,56028,1,0,0:0:0:0:
384,192,56028,1,0,0:0:0:0:
128,192,56114,1,0,0:0:0:0:
42,192,56201,1,0,0:0:0:0:
298,192,56201,1,0,0:0:0:0:
213,192,56288,1,0,0:0:0:0:
469,192,56288,1,0,0:0:0:0:
384,192,56374,1,0,0:0:0:0:
128,192,56374,1,0,0:0:0:0:
42,192,56374,1,0,0:0:0:0:
42,192,56548,1,0,0:0:0:0:
298,192,56548,1,0,0:0:0:0:
469,192,56548,1,0,0:0:0:0:
384,192,56548,1,0,0:0:0:0:
128,192,56591,1,0,0:0:0:0:
213,192,56635,1,0,0:0:0:0:
298,192,56678,1,0,0:0:0:0:
384,192,56721,1,0,0:0:0:0:
128,192,56721,1,0,0:0:0:0:
213,192,56765,1,0,0:0:0:0:
298,192,56808,1,0,0:0:0:0:
384,192,56851,1,0,0:0:0:0:
298,192,56895,1,0,0:0:0:0:
42,192,56895,1,0,0:0:0:0:
469,192,56895,1,0,0:0:0:0:
128,192,56895,1,0,0:0:0:0:
469,192,57242,1,0,0:0:0:0:
384,192,57242,1,0,0:0:0:0:
213,192,57242,1,0,0:0:0:0:
42,192,57242,1,0,0:0:0:0:
128,192,57415,1,0,0:0:0:0:
384,192,57415,1,0,0:0:0:0:
298,192,57502,1,0,0:0:0:0:
213,192,57588,1,0,0:0:0:0:
42,192,57588,1,0,0:0:0:0:
469,192,57588,1,0,0:0:0:0:
213,192,57762,1,0,0:0:0:0:
42,192,57762,1,0,0:0:0:0:
469,192,57848,1,0,0:0:0:0:
384,192,57935,1,0,0:0:0:0:
298,192,57935,1,0,0:0:0:0:
128,192,57935,1,0,0:0:0:0:
213,192,58022,1,0,0:0:0:0:
42,192,58022,1,0,0:0:0:0:
298,192,58109,1,0,0:0:0:0:
384,192,58109,1,0,0:0:0:0:
469,192,58109,1,0,0:0:0:0:
128,192,58195,1,0,0:0:0:0:
213,192,58282,1,0,0:0:0:0:
42,192,58282,1,0,0:0:0:0:
384,192,58282,1,0,0:0:0:0:
469,192,58282,1,0,0:0:0:0:
213,192,58455,1,0,0:0:0:0:
42,192,58455,1,0,0:0:0:0:
384,192,58542,1,0,0:0:0:0:
298,192,58542,1,0,0:0:0:0:
213,192,58629,1,0,0:0:0:0:
42,192,58629,1,0,0:0:0:0:
469,192,58629,1,0,0:0:0:0:
128,192,58629,1,0,0:0:0:0:
298,192,58802,1,0,0:0:0:0:
469,192,58802,1,0,0:0:0:0:
213,192,58889,1,0,0:0:0:0:
42,192,58889,1,0,0:0:0:0:
469,192,58976,1,0,0:0:0:0:
298,192,59062,1,0,0:0:0:0:
42,192,59149,1,0,0:0:0:0:
213,192,59149,1,0,0:0:0:0:
298,192,59322,1,0,0:0:0:0:
469,192,59322,1,0,0:0:0:0:
128,192,59322,1,0,0:0:0:0:
128,192,59496,1,0,0:0:0:0:
384,192,59496,1,0,0:0:0:0:
469,192,59669,1,0,0:0:0:0:
298,192,59669,1,0,0:0:0:0:
384,192,59756,1,0,0:0:0:0:
213,192,59756,1,0,0:0:0:0:
128,192,59843,1,0,0:0:0:0:
42,192,59843,1,0,0:0:0:0:
469,192,59843,1,0,0:0:0:0:
298,192,60016,1,0,0:0:0:0:
42,192,60016,1,0,0:0:0:0:
384,192,60103,1,0,0:0:0:0:
469,192,60103,1,0,0:0:0:0:
298,192,60190,1,0,0:0:0:0:
128,192,60190,1,0,0:0:0:0:
42,192,60190,1,0,0:0:0:0:
42,192,60363,128,0,60623:0:0:0:0:
213,192,60363,128,0,60623:0:0:0:0:
384,192,60363,128,0,60623:0:0:0:0:
298,192,60710,128,0,61317:0:0:0:0:
469,192,60710,128,0,61317:0:0:0:0:
128,192,60710,128,0,61317:0:0:0:0:
213,192,61057,128,0,61317:0:0:0:0:
42,192,61057,128,0,61317:0:0:0:0:
384,192,61057,128,0,61317:0:0:0:0:
42,192,61403,1,0,0:0:0:0:
213,192,61403,1,0,0:0:0:0:
298,192,61403,1,0,0:0:0:0:
469,192,61403,1,0,0:0:0:0:
469,192,61576,1,0,0:0:0:0:
298,192,61576,1,0,0:0:0:0:
384,192,61663,1,0,0:0:0:0:
213,192,61663,1,0,0:0:0:0:
42,192,61749,1,0,0:0:0:0:
128,192,61749,1,0,0:0:0:0:
298,192,61749,1,0,0:0:0:0:
384,192,61836,1,0,0:0:0:0:
469,192,61836,1,0,0:0:0:0:
42,192,61923,1,0,0:0:0:0:
213,192,61923,1,0,0:0:0:0:
128,192,62096,1,0,0:0:0:0:
298,192,62096,1,0,0:0:0:0:
213,192,62270,1,0,0:0:0:0:
384,192,62270,1,0,0:0:0:0:
469,192,62443,1,0,0:0:0:0:
298,192,62443,1,0,0:0:0:0:
42,192,62443,1,0,0:0:0:0:
128,192,62616,1,0,0:0:0:0:
384,192,62616,1,0,0:0:0:0:
128,192,62790,1,0,0:0:0:0:
298,192,62790,1,0,0:0:0:0:
469,192,62790,1,0,0:0:0:0:
42,192,62963,1,0,0:0:0:0:
384,192,62963,1,0,0:0:0:0:
384,192,63137,1,0,0:0:0:0:
213,192,63137,1,0,0:0:0:0:
42,192,63137,1,0,0:0:0:0:
128,192,63310,1,0,0:0:0:0:
469,192,63310,1,0,0:0:0:0:
42,192,63483,1,0,0:0:0:0:
213,192,63483,1,0,0:0:0:0:
469,192,63483,1,0,0:0:0:0:
384,192,63657,1,0,0:0:0:0:
213,192,63657,1,0,0:0:0:0:
128,192,63744,1,0,0:0:0:0:
42,192,63744,1,0,0:0:0:0:
298,192,63830,1,0,0:0:0:0:
469,192,63830,1,0,0:0:0:0:
469,192,64004,1,0,0:0:0:0:
213,192,64004,1,0,0:0:0:0:
384,192,64177,1,0,0:0:0:0:
128,192,64177,1,0,0:0:0:0:
298,192,64350,1,0,0:0:0:0:
42,192,64350,1,0,0:0:0:0:
128,192,64524,1,0,0:0:0:0:
213,192,64524,1,0,0:0:0:0:
469,192,64524,1,0,0:0:0:0:
384,192,64697,1,0,0:0:0:0:
42,192,64697,1,0,0:0:0:0:
213,192,64784,1,0,0:0:0:0:
128,192,64784,1,0,0:0:0:0:
298,192,64871,1,0,0:0:0:0:
384,192,64871,1,0,0:0:0:0:
469,192,64871,128,0,65044:0:0:0:0:
213,192,64957,128,0,65131:0:0:0:0:
128,192,65044,128,0,65218:0:0:0:0:
42,192,65131,128,0,65218:0:0:0:0:
384,192,65218,1,0,0:0:0:0:
298,192,65218,1,0,0:0:0:0:
469,192,65218,1,0,0:0:0:0:
42,192,65391,1,0,0:0:0:0:
213,192,65391,1,0,0:0:0:0:
298,192,65564,1,0,0:0:0:0:
384,192,65564,1,0,0:0:0:0:
128,192,65564,1,0,0:0:0:0:
213,192,65738,1,0,0:0:0:0:
469,192,65738,1,0,0:0:0:0:
128,192,65911,1,0,0:0:0:0:
42,192,65911,1,0,0:0:0:0:
384,192,65911,1,0,0:0:0:0:
42,192,66084,1,0,0:0:0:0:
298,192,66084,1,0,0:0:0:0:
128,192,66171,1,0,0:0:0:0:
384,192,66171,1,0,0:0:0:0:
298,192,66257,1,0,0:0:0:0:
213,192,66257,1,0,0:0:0:0:
42,192,66257,1,0,0:0:0:0:
469,192,66344,1,0,0:0:0:0:
384,192,66344,1,0,0:0:0:0:
213,192,66431,1,0,0:0:0:0:
42,192,66431,1,0,0:0:0:0:
298,192,66604,1,0,0:0:0:0:
469,192,66604,1,0,0:0:0:0:
213,192,66778,1,0,0:0:0:0:
128,192,66778,1,0,0:0:0:0:
298,192,66951,1,0,0:0:0:0:
384,192,66951,1,0,0:0:0:0:
469,192,66951,1,0,0:0:0:0:
42,192,67124,1,0,0:0:0:0:
213,192,67124,1,0,0:0:0:0:
42,192,67298,1,0,0:0:0:0:
298,192,67298,1,0,0:0:0:0:
469,192,67298,1,0,0:0:0:0:
128,192,67471,1,0,0:0:0:0:
384,192,67471,1,0,0:0:0:0:
42,192,67645,1,0,0:0:0:0:
213,192,67645,1,0,0:0:0:0:
469,192,67645,1,0,0:0:0:0:
469,192,67818,1,0,0:0:0:0:
298,192,67818,1,0,0:0:0:0:
213,192,67991,1,0,0:0:0:0:
128,192,67991,1,0,0:0:0:0:
42,192,67991,1,0,0:0:0:0:
384,192,68165,1,0,0:0:0:0:
128,192,68165,1,0,0:0:0:0:
298,192,68252,1,0,0:0:0:0:
213,192,68252,1,0,0:0:0:0:
42,192,68338,1,0,0:0:0:0:
469,192,68338,1,0,0:0:0:0:
384,192,68338,1,0,0:0:0:0:
128,192,68512,1,0,0:0:0:0:
298,192,68512,1,0,0:0:0:0:
213,192,68685,1,0,0:0:0:0:
384,192,68685,1,0,0:0:0:0:
298,192,68858,1,0,0:0:0:0:
469,192,68858,1,0,0:0:0:0:
469,192,69032,1,0,0:0:0:0:
298,192,69032,1,0,0:0:0:0:
128,192,69032,1,0,0:0:0:0:
213,192,69205,1,0,0:0:0:0:
384,192,69205,1,0,0:0:0:0:
298,192,69292,1,0,0:0:0:0:
42,192,69379,1,0,0:0:0:0:
128,192,69465,1,0,0:0:0:0:
213,192,69552,1,0,0:0:0:0:
298,192,69639,1,0,0:0:0:0:
384,192,69726,1,0,0:0:0:0:
469,192,69726,1,0,0:0:0:0:
42,192,69726,1,0,0:0:0:0:
128,192,69769,1,0,0:0:0:0:
213,192,69812,1,0,0:0:0:0:
298,192,69856,1,0,0:0:0:0:
128,192,69899,1,0,0:0:0:0:
213,192,69942,1,0,0:0:0:0:
298,192,69986,1,0,0:0:0:0:
384,192,70029,1,0,0:0:0:0:
469,192,70072,1,0,0:0:0:0:
42,192,70072,1,0,0:0:0:0:
128,192,70072,1,0,0:0:0:0:
384,192,70159,1,0,0:0:0:0:
213,192,70246,1,0,0:0:0:0:
42,192,70332,1,0,0:0:0:0:
384,192,70417,1,0,0:0:0:0:
469,192,70417,1,0,0:0:0:0:
213,192,70474,1,0,0:0:0:0:
128,192,70532,1,0,0:0:0:0:
42,192,70590,1,0,0:0:0:0:
298,192,70648,1,0,0:0:0:0:
213,192,70706,1,0,0:0:0:0:
128,192,70763,1,0,0:0:0:0:
384,192,70821,1,0,0:0:0:0:
298,192,70879,1,0,0:0:0:0:
213,192,70937,1,0,0:0:0:0:
469,192,70995,1,0,0:0:0:0:
384,192,71052,1,0,0:0:0:0:
298,192,71110,1,0,0:0:0:0:
128,192,71110,1,0,0:0:0:0:
42,192,71110,1,0,0:0:0:0:
384,192,71284,1,0,0:0:0:0:
213,192,71284,1,0,0:0:0:0:
128,192,71457,1,0,0:0:0:0:
42,192,71457,1,0,0:0:0:0:
298,192,71457,1,0,0:0:0:0:
384,192,71515,1,0,0:0:0:0:
469,192,71573,1,0,0:0:0:0:
213,192,71630,1,0,0:0:0:0:
298,192,71688,1,0,0:0:0:0:
384,192,71746,1,0,0:0:0:0:
128,192,71804,1,0,0:0:0:0:
213,192,71862,1,0,0:0:0:0:
298,192,71919,1,0,0:0:0:0:
42,192,71977,1,0,0:0:0:0:
128,192,72035,1,0,0:0:0:0:
213,192,72093,1,0,0:0:0:0:
298,192,72151,1,0,0:0:0:0:
469,192,72151,1,0,0:0:0:0:
128,192,72208,1,0,0:0:0:0:
384,192,72266,1,0,0:0:0:0:
213,192,72324,1,0,0:0:0:0:
469,192,72382,1,0,0:0:0:0:
298,192,72440,1,0,0:0:0:0:
469,192,72497,1,0,0:0:0:0:
42,192,72497,1,0,0:0:0:0:
213,192,72497,1,0,0:0:0:0:
384,192,72555,1,0,0:0:0:0:
298,192,72613,1,0,0:0:0:0:
42,192,72671,1,0,0:0:0:0:
128,192,72729,1,0,0:0:0:0:
213,192,72786,1,0,0:0:0:0:
298,192,72844,1,0,0:0:0:0:
469,192,72902,1,0,0:0:0:0:
213,192,72960,1,0,0:0:0:0:
384,192,73018,1,0,0:0:0:0:
128,192,73075,1,0,0:0:0:0:
298,192,73133,1,0,0:0:0:0:
42,192,73191,1,0,0:0:0:0:
213,192,73249,1,0,0:0:0:0:
384,192,73307,1,0,0:0:0:0:
128,192,73364,1,0,0:0:0:0:
213,192,73538,1,0,0:0:0:0:
298,192,73538,1,0,0:0:0:0:
42,192,73538,1,0,0:0:0:0:
469,192,73538,1,0,0:0:0:0:
42,192,73711,1,0,0:0:0:0:
469,192,73711,1,0,0:0:0:0:
128,192,73885,1,0,0:0:0:0:
384,192,73885,1,0,0:0:0:0:
298,192,73885,1,0,0:0:0:0:
213,192,73885,1,0,0:0:0:0:
213,192,74058,1,0,0:0:0:0:
298,192,74058,1,0,0:0:0:0:
128,192,74230,1,0,0:0:0:0:
42,192,74230,1,0,0:0:0:0:
469,192,74230,1,0,0:0:0:0:
384,192,74230,1,0,0:0:0:0:
298,192,74287,1,0,0:0:0:0:
213,192,74345,1,0,0:0:0:0:
469,192,74403,1,0,0:0:0:0:
384,192,74461,1,0,0:0:0:0:
298,192,74519,1,0,0:0:0:0:
128,192,74576,1,0,0:0:0:0:
213,192,74634,1,0,0:0:0:0:
298,192,74692,1,0,0:0:0:0:
42,192,74750,1,0,0:0:0:0:
128,192,74808,1,0,0:0:0:0:
213,192,74865,1,0,0:0:0:0:
469,192,74923,1,0,0:0:0:0:
298,192,74981,1,0,0:0:0:0:
384,192,75039,1,0,0:0:0:0:
213,192,75097,1,0,0:0:0:0:
298,192,75154,1,0,0:0:0:0:
128,192,75212,1,0,0:0:0:0:
469,192,75270,1,0,0:0:0:0:
42,192,75270,1,0,0:0:0:0:
213,192,75270,1,0,0:0:0:0:
384,192,75328,1,0,0:0:0:0:
128,192,75386,1,0,0:0:0:0:
298,192,75443,1,0,0:0:0:0:
42,192,75501,1,0,0:0:0:0:
213,192,75559,1,0,0:0:0:0:
469,192,75617,1,0,0:0:0:0:
298,192,75675,1,0,0:0:0:0:
384,192,75732,1,0,0:0:0:0:
213,192,75790,1,0,0:0:0:0:
298,192,75848,1,0,0:0:0:0:
128,192,75906,1,0,0:0:0:0:
213,192,75964,1,0,0:0:0:0:
42,192,76021,1,0,0:0:0:0:
128,192,76079,1,0,0:0:0:0:
213,192,76137,1,0,0:0:0:0:
298,192,76195,1,0,0:0:0:0:
384,192,76253,1,0,0:0:0:0:
469,192,76310,1,0,0:0:0:0:
42,192,76310,1,0,0:0:0:0:
128,192,76310,1,0,0:0:0:0:
298,192,76368,1,0,0:0:0:0:
42,192,76426,1,0,0:0:0:0:
213,192,76484,1,0,0:0:0:0:
298,192,76542,1,0,0:0:0:0:
469,192,76599,1,0,0:0:0:0:
213,192,76657,1,0,0:0:0:0:
384,192,76715,1,0,0:0:0:0:
128,192,76773,1,0,0:0:0:0:
298,192,76831,1,0,0:0:0:0:
42,192,76888,1,0,0:0:0:0:
213,192,76946,1,0,0:0:0:0:
469,192,77004,1,0,0:0:0:0:
384,192,77062,1,0,0:0:0:0:
298,192,77120,1,0,0:0:0:0:
213,192,77177,1,0,0:0:0:0:
384,192,77235,1,0,0:0:0:0:
298,192,77293,1,0,0:0:0:0:
213,192,77351,1,0,0:0:0:0:
128,192,77409,1,0,0:0:0:0:
298,192,77466,1,0,0:0:0:0:
213,192,77524,1,0,0:0:0:0:
128,192,77582,1,0,0:0:0:0:
42,192,77640,1,0,0:0:0:0:
469,192,77698,1,0,0:0:0:0:
298,192,77784,1,0,0:0:0:0:
128,192,77871,1,0,0:0:0:0:
384,192,77958,1,0,0:0:0:0:
298,192,78045,1,0,0:0:0:0:
42,192,78045,1,0,0:0:0:0:
128,192,78391,128,0,78564:0:0:0:0:
42,192,78391,128,0,79431:0:0:0:0:
384,192,78391,128,0,78564:0:0:0:0:
469,192,78391,128,0,78651:0:0:0:0:
213,192,78477,128,0,78651:0:0:0:0:
298,192,78564,128,0,78737:0:0:0:0:
384,192,78651,128,0,78824:0:0:0:0:
469,192,78737,128,0,78911:0:0:0:0:
128,192,78737,128,0,79084:0:0:0:0:
213,192,78824,128,0,78997:0:0:0:0:
298,192,78911,128,0,79084:0:0:0:0:
384,192,78997,128,0,79171:0:0:0:0:
469,192,79084,128,0,79258:0:0:0:0:
213,192,79084,128,0,79431:0:0:0:0:
298,192,79171,128,0,79344:0:0:0:0:
384,192,79258,128,0,79431:0:0:0:0:
469,192,79344,128,0,79518:0:0:0:0:
298,192,79431,128,0,79778:0:0:0:0:
128,192,79431,128,0,80125:0:0:0:0:
213,192,79518,128,0,79691:0:0:0:0:
469,192,79604,128,0,79778:0:0:0:0:
384,192,79691,128,0,79864:0:0:0:0:
42,192,79778,128,0,80125:0:0:0:0:
213,192,79778,128,0,79951:0:0:0:0:
298,192,79864,128,0,80038:0:0:0:0:
384,192,79951,128,0,80125:0:0:0:0:
469,192,80038,128,0,80211:0:0:0:0:
213,192,80125,128,0,80471:0:0:0:0:
298,192,80125,128,0,80298:0:0:0:0:
128,192,80211,128,0,80385:0:0:0:0:
42,192,80298,128,0,80471:0:0:0:0:
384,192,80385,128,0,80558:0:0:0:0:
469,192,80471,128,0,81165:0:0:0:0:
298,192,80471,128,0,80818:0:0:0:0:
213,192,80558,128,0,80732:0:0:0:0:
128,192,80645,128,0,80818:0:0:0:0:
42,192,80732,128,0,80905:0:0:0:0:
384,192,80818,128,0,81165:0:0:0:0:
213,192,80818,128,0,80992:0:0:0:0:
298,192,80905,128,0,81078:0:0:0:0:
42,192,80992,128,0,81165:0:0:0:0:
128,192,81078,128,0,81252:0:0:0:0:
213,192,81165,128,0,81512:0:0:0:0:
298,192,81165,128,0,81338:0:0:0:0:
384,192,81252,128,0,81425:0:0:0:0:
469,192,81338,128,0,81512:0:0:0:0:
42,192,81425,128,0,81599:0:0:0:0:
128,192,81512,128,0,81859:0:0:0:0:
298,192,81512,128,0,81685:0:0:0:0:
469,192,81599,128,0,81772:0:0:0:0:
384,192,81685,128,0,81859:0:0:0:0:
298,192,81772,128,0,81945:0:0:0:0:
469,192,81859,128,0,82379:0:0:0:0:
42,192,81859,128,0,82206:0:0:0:0:
384,192,81945,128,0,82292:0:0:0:0:
298,192,82032,128,0,82206:0:0:0:0:
128,192,82032,128,0,82206:0:0:0:0:
213,192,82119,128,0,82292:0:0:0:0:
128,192,82292,128,0,82466:0:0:0:0:
298,192,82292,128,0,82466:0:0:0:0:
42,192,82379,128,0,82726:0:0:0:0:
384,192,82379,128,0,82552:0:0:0:0:
213,192,82466,128,0,82726:0:0:0:0:
469,192,82466,128,0,82639:0:0:0:0:
298,192,82552,128,0,82812:0:0:0:0:
128,192,82552,128,0,82812:0:0:0:0:
384,192,82639,128,0,82812:0:0:0:0:
469,192,82726,128,0,82812:0:0:0:0:
213,192,82812,128,0,82986:0:0:0:0:
42,192,82899,128,0,83593:0:0:0:0:
469,192,82899,128,0,83246:0:0:0:0:
128,192,82986,128,0,83159:0:0:0:0:
213,192,83073,128,0,83246:0:0:0:0:
298,192,83159,128,0,83333:0:0:0:0:
128,192,83246,128,0,83419:0:0:0:0:
384,192,83246,128,0,83593:0:0:0:0:
213,192,83333,128,0,83506:0:0:0:0:
298,192,83419,128,0,83593:0:0:0:0:
469,192,83506,128,0,83680:0:0:0:0:
213,192,83593,128,0,83940:0:0:0:0:
128,192,83593,128,0,83940:0:0:0:0:
298,192,83680,128,0,83853:0:0:0:0:
384,192,83766,128,0,83940:0:0:0:0:
469,192,83853,128,0,84026:0:0:0:0:
298,192,83940,128,0,84113:0:0:0:0:
42,192,83940,128,0,84286:0:0:0:0:
213,192,84026,128,0,84200:0:0:0:0:
128,192,84113,128,0,84286:0:0:0:0:
469,192,84200,128,0,84373:0:0:0:0:
384,192,84286,128,0,84460:0:0:0:0:
298,192,84286,128,0,84547:0:0:0:0:
213,192,84373,128,0,84633:0:0:0:0:
128,192,84460,128,0,84720:0:0:0:0:
42,192,84547,128,0,84807:0:0:0:0:
298,192,84633,128,0,84893:0:0:0:0:
469,192,84633,128,0,85587:0:0:0:0:
213,192,84720,128,0,84980:0:0:0:0:
128,192,84807,128,0,85067:0:0:0:0:
384,192,84893,128,0,85067:0:0:0:0:
298,192,84980,128,0,85154:0:0:0:0:
42,192,84980,128,0,85327:0:0:0:0:
213,192,85067,128,0,85240:0:0:0:0:
128,192,85154,128,0,85327:0:0:0:0:
384,192,85240,128,0,85414:0:0:0:0:
298,192,85327,128,0,85500:0:0:0:0:
213,192,85327,128,0,85674:0:0:0:0:
128,192,85414,128,0,85587:0:0:0:0:
42,192,85500,128,0,85674:0:0:0:0:
384,192,85587,128,0,85760:0:0:0:0:
128,192,85674,128,0,86021:0:0:0:0:
469,192,85674,128,0,85847:0:0:0:0:
298,192,85760,128,0,85934:0:0:0:0:
384,192,85847,128,0,86021:0:0:0:0:
213,192,85934,128,0,86107:0:0:0:0:
42,192,86021,128,0,86714:0:0:0:0:
298,192,86021,128,0,86194:0:0:0:0:
128,192,86107,128,0,86281:0:0:0:0:
213,192,86194,128,0,86367:0:0:0:0:
469,192,86194,128,0,86367:0:0:0:0:
298,192,86281,128,0,86454:0:0:0:0:
384,192,86367,128,0,86541:0:0:0:0:
128,192,86454,128,0,86627:0:0:0:0:
213,192,86454,128,0,86627:0:0:0:0:
298,192,86541,128,0,86714:0:0:0:0:
384,192,86627,128,0,86801:0:0:0:0:
469,192,86627,128,0,86801:0:0:0:0:
213,192,86714,128,0,87061:0:0:0:0:
128,192,86714,128,0,86888:0:0:0:0:
42,192,86801,128,0,86974:0:0:0:0:
384,192,86888,128,0,87061:0:0:0:0:
298,192,86974,128,0,87148:0:0:0:0:
469,192,87061,128,0,87755:0:0:0:0:
42,192,87061,128,0,87234:0:0:0:0:
128,192,87148,128,0,87321:0:0:0:0:
213,192,87234,128,0,87408:0:0:0:0:
298,192,87321,128,0,87495:0:0:0:0:
384,192,87408,128,0,87581:0:0:0:0:
213,192,87495,128,0,87668:0:0:0:0:
128,192,87495,128,0,87668:0:0:0:0:
42,192,87581,128,0,87841:0:0:0:0:
298,192,87668,128,0,87841:0:0:0:0:
384,192,87755,128,0,88795:0:0:0:0:
128,192,87755,128,0,87928:0:0:0:0:
213,192,87841,128,0,88015:0:0:0:0:
298,192,87928,128,0,88101:0:0:0:0:
42,192,87928,128,0,88188:0:0:0:0:
128,192,88015,128,0,88275:0:0:0:0:
213,192,88101,128,0,88362:0:0:0:0:
469,192,88101,128,0,88448:0:0:0:0:
298,192,88275,128,0,88535:0:0:0:0:
213,192,88448,128,0,88622:0:0:0:0:
42,192,88448,128,0,88795:0:0:0:0:
128,192,88535,128,0,88708:0:0:0:0:
298,192,88622,128,0,88795:0:0:0:0:
213,192,88708,128,0,88882:0:0:0:0:
469,192,88795,128,0,89575:0:0:0:0:
128,192,88795,128,0,88969:0:0:0:0:
384,192,88882,128,0,89489:0:0:0:0:
298,192,88969,128,0,89402:0:0:0:0:
213,192,89055,128,0,89315:0:0:0:0:
128,192,89142,128,0,89229:0:0:0:0:
42,192,89229,128,0,89662:0:0:0:0:
128,192,89315,128,0,89662:0:0:0:0:
213,192,89402,128,0,89749:0:0:0:0:
298,192,89489,128,0,89749:0:0:0:0:
384,192,89575,128,0,89749:0:0:0:0:
469,192,89662,128,0,89749:0:0:0:0:
128,192,89749,128,0,89836:0:0:0:0:
42,192,89836,128,0,90096:0:0:0:0:
469,192,89836,128,0,90443:0:0:0:0:
384,192,89922,128,0,90356:0:0:0:0:
298,192,90009,128,0,90269:0:0:0:0:
213,192,90096,128,0,90182:0:0:0:0:
128,192,90182,128,0,90269:0:0:0:0:
42,192,90182,128,0,90269:0:0:0:0:
213,192,90269,128,0,90356:0:0:0:0:
42,192,90356,128,0,90529:0:0:0:0:
128,192,90356,128,0,90529:0:0:0:0:
298,192,90443,128,0,90616:0:0:0:0:
384,192,90529,128,0,90703:0:0:0:0:
42,192,90616,128,0,90789:0:0:0:0:
469,192,90616,128,0,90789:0:0:0:0:
128,192,90703,128,0,90876:0:0:0:0:
213,192,90789,128,0,90963:0:0:0:0:
298,192,90789,128,0,90963:0:0:0:0:
469,192,90876,128,0,91917:0:0:0:0:
384,192,90876,128,0,91223:0:0:0:0:
42,192,90963,128,0,91136:0:0:0:0:
128,192,91049,128,0,91223:0:0:0:0:
213,192,91136,128,0,91310:0:0:0:0:
298,192,91223,128,0,91396:0:0:0:0:
42,192,91223,128,0,91570:0:0:0:0:
128,192,91310,128,0,91483:0:0:0:0:
384,192,91396,128,0,91570:0:0:0:0:
298,192,91483,128,0,91656:0:0:0:0:
213,192,91570,128,0,91743:0:0:0:0:
128,192,91570,128,0,91743:0:0:0:0:
298,192,91743,128,0,91917:0:0:0:0:
213,192,91830,128,0,92003:0:0:0:0:
128,192,91917,128,0,92090:0:0:0:0:
384,192,91917,128,0,92610:0:0:0:0:
298,192,92003,128,0,92177:0:0:0:0:
213,192,92090,128,0,92263:0:0:0:0:
128,192,92177,128,0,92350:0:0:0:0:
469,192,92263,128,0,92610:0:0:0:0:
42,192,92350,128,0,92523:0:0:0:0:
128,192,92437,128,0,92610:0:0:0:0:
213,192,92523,128,0,92697:0:0:0:0:
42,192,92610,128,0,92697:0:0:0:0:
298,192,92610,128,0,92957:0:0:0:0:
128,192,92697,128,0,92784:0:0:0:0:
213,192,92784,128,0,92870:0:0:0:0:
128,192,92870,128,0,92957:0:0:0:0:
384,192,92957,128,0,93130:0:0:0:0:
42,192,92957,128,0,93130:0:0:0:0:
469,192,92957,128,0,95038:0:0:0:0:
298,192,93044,128,0,93217:0:0:0:0:
128,192,93130,128,0,93304:0:0:0:0:
42,192,93217,128,0,93391:0:0:0:0:
384,192,93217,128,0,93391:0:0:0:0:
298,192,93304,128,0,93477:0:0:0:0:
213,192,93304,128,0,93477:0:0:0:0:
128,192,93391,128,0,93564:0:0:0:0:
42,192,93477,128,0,93651:0:0:0:0:
384,192,93477,128,0,93737:0:0:0:0:
298,192,93564,128,0,93737:0:0:0:0:
128,192,93651,128,0,93824:0:0:0:0:
213,192,93651,128,0,93824:0:0:0:0:
42,192,93737,128,0,93911:0:0:0:0:
298,192,93824,128,0,93911:0:0:0:0:
213,192,93911,128,0,93997:0:0:0:0:
384,192,93997,128,0,94691:0:0:0:0:
128,192,93997,128,0,95038:0:0:0:0:
298,192,94171,128,0,94344:0:0:0:0:
213,192,94258,128,0,94431:0:0:0:0:
213,192,94518,128,0,94691:0:0:0:0:
298,192,94518,128,0,94691:0:0:0:0:
213,192,94778,128,0,94864:0:0:0:0:
298,192,94778,128,0,94864:0:0:0:0:
213,192,94951,128,0,95038:0:0:0:0:
298,192,94951,128,0,95038:0:0:0:0:
42,192,95038,128,0,98853:0:0:0:0:
384,192,95038,128,0,98853:0:0:0:0:
128,192,98853,128,0,99200:0:0:0:0:
298,192,98853,128,0,99200:0:0:0:0:
469,192,98853,128,0,99200:0:0:0:0:
42,192,99373,1,0,0:0:0:0:
213,192,99460,1,0,0:0:0:0:
42,192,99547,1,0,0:0:0:0:
298,192,99720,1,0,0:0:0:0:
128,192,99893,1,0,0:0:0:0:
213,192,99937,1,0,0:0:0:0:
298,192,99980,1,0,0:0:0:0:
384,192,100023,1,0,0:0:0:0:
469,192,100067,128,0,100934:0:0:0:0:
469,192,101281,1,0,0:0:0:0:
298,192,101281,1,0,0:0:0:0:
42,192,101281,1,0,0:0:0:0:
128,192,101281,1,0,0:0:0:0:
213,192,101454,1,0,0:0:0:0:
384,192,101454,1,0,0:0:0:0:
42,192,101541,1,0,0:0:0:0:
128,192,101627,1,0,0:0:0:0:
298,192,101627,1,0,0:0:0:0:
213,192,101714,1,0,0:0:0:0:
384,192,101714,1,0,0:0:0:0:
469,192,101714,1,0,0:0:0:0:
42,192,101801,1,0,0:0:0:0:
298,192,101801,1,0,0:0:0:0:
469,192,101887,1,0,0:0:0:0:
128,192,101887,1,0,0:0:0:0:
384,192,101974,1,0,0:0:0:0:
213,192,101974,1,0,0:0:0:0:
42,192,102061,1,0,0:0:0:0:
298,192,102061,1,0,0:0:0:0:
128,192,102148,1,0,0:0:0:0:
469,192,102148,1,0,0:0:0:0:
384,192,102148,1,0,0:0:0:0:
213,192,102234,1,0,0:0:0:0:
298,192,102321,1,0,0:0:0:0:
384,192,102321,1,0,0:0:0:0:
469,192,102321,1,0,0:0:0:0:
42,192,102494,1,0,0:0:0:0:
213,192,102494,1,0,0:0:0:0:
298,192,102581,1,0,0:0:0:0:
384,192,102668,1,0,0:0:0:0:
469,192,102668,1,0,0:0:0:0:
128,192,102754,1,0,0:0:0:0:
213,192,102841,1,0,0:0:0:0:
384,192,102841,1,0,0:0:0:0:
298,192,102928,1,0,0:0:0:0:
42,192,103015,1,0,0:0:0:0:
128,192,103015,1,0,0:0:0:0:
213,192,103101,1,0,0:0:0:0:
298,192,103188,1,0,0:0:0:0:
469,192,103188,1,0,0:0:0:0:
42,192,103275,1,0,0:0:0:0:
213,192,103361,1,0,0:0:0:0:
384,192,103361,1,0,0:0:0:0:
469,192,103448,1,0,0:0:0:0:
298,192,103535,1,0,0:0:0:0:
128,192,103535,1,0,0:0:0:0:
384,192,103622,1,0,0:0:0:0:
213,192,103708,1,0,0:0:0:0:
42,192,103708,1,0,0:0:0:0:
469,192,103708,1,0,0:0:0:0:
298,192,103795,1,0,0:0:0:0:
128,192,103882,1,0,0:0:0:0:
469,192,103882,1,0,0:0:0:0:
213,192,103968,1,0,0:0:0:0:
384,192,103968,1,0,0:0:0:0:
42,192,104055,128,0,104402:0:0:0:0:
298,192,104055,128,0,104402:0:0:0:0:
213,192,104228,128,0,104402:0:0:0:0:
128,192,104402,128,0,104749:0:0:0:0:
384,192,104402,128,0,104749:0:0:0:0:
213,192,104575,128,0,104749:0:0:0:0:
298,192,104749,128,0,105096:0:0:0:0:
469,192,104749,128,0,105096:0:0:0:0:
42,192,104922,128,0,105096:0:0:0:0:
128,192,104922,128,0,105096:0:0:0:0:
213,192,105096,1,0,0:0:0:0:
384,192,105096,1,0,0:0:0:0:
128,192,105269,1,0,0:0:0:0:
384,192,105269,1,0,0:0:0:0:
213,192,105356,1,0,0:0:0:0:
298,192,105356,1,0,0:0:0:0:
384,192,105442,1,0,0:0:0:0:
42,192,105442,1,0,0:0:0:0:
469,192,105442,1,0,0:0:0:0:
128,192,105616,1,0,0:0:0:0:
213,192,105702,1,0,0:0:0:0:
298,192,105789,1,0,0:0:0:0:
469,192,105789,1,0,0:0:0:0:
128,192,105876,1,0,0:0:0:0:
384,192,105876,1,0,0:0:0:0:
298,192,105963,1,0,0:0:0:0:
42,192,105963,1,0,0:0:0:0:
213,192,106049,1,0,0:0:0:0:
469,192,106049,1,0,0:0:0:0:
298,192,106136,1,0,0:0:0:0:
384,192,106136,1,0,0:0:0:0:
42,192,106223,1,0,0:0:0:0:
469,192,106223,1,0,0:0:0:0:
128,192,106309,1,0,0:0:0:0:
298,192,106309,1,0,0:0:0:0:
384,192,106396,1,0,0:0:0:0:
469,192,106483,1,0,0:0:0:0:
213,192,106483,1,0,0:0:0:0:
42,192,106483,1,0,0:0:0:0:
128,192,106656,1,0,0:0:0:0:
384,192,106656,1,0,0:0:0:0:
213,192,106743,1,0,0:0:0:0:
298,192,106743,1,0,0:0:0:0:
128,192,106830,1,0,0:0:0:0:
42,192,106830,1,0,0:0:0:0:
469,192,106830,1,0,0:0:0:0:
384,192,107003,1,0,0:0:0:0:
128,192,107003,1,0,0:0:0:0:
213,192,107090,1,0,0:0:0:0:
42,192,107176,1,0,0:0:0:0:
469,192,107176,1,0,0:0:0:0:
298,192,107176,1,0,0:0:0:0:
128,192,107350,1,0,0:0:0:0:
384,192,107350,1,0,0:0:0:0:
213,192,107437,1,0,0:0:0:0:
469,192,107437,1,0,0:0:0:0:
298,192,107523,1,0,0:0:0:0:
384,192,107523,1,0,0:0:0:0:
42,192,107523,1,0,0:0:0:0:
128,192,107697,1,0,0:0:0:0:
469,192,107697,1,0,0:0:0:0:
298,192,107783,1,0,0:0:0:0:
128,192,107870,1,0,0:0:0:0:
384,192,107870,1,0,0:0:0:0:
42,192,107957,1,0,0:0:0:0:
213,192,108044,1,0,0:0:0:0:
298,192,108130,1,0,0:0:0:0:
384,192,108217,1,0,0:0:0:0:
469,192,108217,1,0,0:0:0:0:
213,192,108304,1,0,0:0:0:0:
42,192,108390,128,0,108737:0:0:0:0:
213,192,108564,128,0,108737:0:0:0:0:
384,192,108564,1,0,0:0:0:0:
469,192,108737,128,0,109084:0:0:0:0:
298,192,108911,128,0,109084:0:0:0:0:
128,192,108911,1,0,0:0:0:0:
384,192,109257,128,0,109431:0:0:0:0:
213,192,109257,128,0,109431:0:0:0:0:
42,192,109257,1,0,0:0:0:0:
298,192,109604,1,0,0:0:0:0:
128,192,109604,1,0,0:0:0:0:
469,192,109604,1,0,0:0:0:0:
213,192,109778,1,0,0:0:0:0:
384,192,109778,1,0,0:0:0:0:
42,192,109864,1,0,0:0:0:0:
128,192,109951,1,0,0:0:0:0:
298,192,109951,1,0,0:0:0:0:
213,192,110038,1,0,0:0:0:0:
384,192,110038,1,0,0:0:0:0:
469,192,110038,1,0,0:0:0:0:
42,192,110124,1,0,0:0:0:0:
298,192,110124,1,0,0:0:0:0:
469,192,110211,1,0,0:0:0:0:
128,192,110211,1,0,0:0:0:0:
384,192,110298,1,0,0:0:0:0:
213,192,110298,1,0,0:0:0:0:
42,192,110385,1,0,0:0:0:0:
298,192,110385,1,0,0:0:0:0:
128,192,110471,1,0,0:0:0:0:
469,192,110471,1,0,0:0:0:0:
384,192,110471,1,0,0:0:0:0:
213,192,110558,1,0,0:0:0:0:
298,192,110645,1,0,0:0:0:0:
384,192,110645,1,0,0:0:0:0:
469,192,110645,1,0,0:0:0:0:
42,192,110818,1,0,0:0:0:0:
213,192,110818,1,0,0:0:0:0:
298,192,110905,1,0,0:0:0:0:
384,192,110991,1,0,0:0:0:0:
469,192,110991,1,0,0:0:0:0:
128,192,111078,1,0,0:0:0:0:
213,192,111165,1,0,0:0:0:0:
384,192,111165,1,0,0:0:0:0:
298,192,111252,1,0,0:0:0:0:
42,192,111338,1,0,0:0:0:0:
128,192,111338,1,0,0:0:0:0:
213,192,111425,1,0,0:0:0:0:
298,192,111512,1,0,0:0:0:0:
469,192,111512,1,0,0:0:0:0:
42,192,111598,1,0,0:0:0:0:
213,192,111685,1,0,0:0:0:0:
384,192,111685,1,0,0:0:0:0:
469,192,111772,1,0,0:0:0:0:
298,192,111859,1,0,0:0:0:0:
128,192,111859,1,0,0:0:0:0:
384,192,111945,1,0,0:0:0:0:
213,192,112032,1,0,0:0:0:0:
42,192,112032,1,0,0:0:0:0:
469,192,112032,1,0,0:0:0:0:
298,192,112119,1,0,0:0:0:0:
128,192,112205,1,0,0:0:0:0:
469,192,112205,1,0,0:0:0:0:
213,192,112292,1,0,0:0:0:0:
384,192,112292,1,0,0:0:0:0:
42,192,112379,128,0,112726:0:0:0:0:
298,192,112379,128,0,112726:0:0:0:0:
213,192,112552,128,0,112726:0:0:0:0:
128,192,112726,128,0,113072:0:0:0:0:
384,192,112726,128,0,113072:0:0:0:0:
213,192,112899,128,0,113072:0:0:0:0:
298,192,113072,128,0,113419:0:0:0:0:
469,192,113072,128,0,113419:0:0:0:0:
42,192,113246,128,0,113419:0:0:0:0:
128,192,113246,128,0,113419:0:0:0:0:
213,192,113419,1,0,0:0:0:0:
384,192,113419,1,0,0:0:0:0:
128,192,113593,1,0,0:0:0:0:
384,192,113593,1,0,0:0:0:0:
213,192,113679,1,0,0:0:0:0:
298,192,113679,1,0,0:0:0:0:
384,192,113766,1,0,0:0:0:0:
42,192,113766,1,0,0:0:0:0:
469,192,113766,1,0,0:0:0:0:
128,192,113939,1,0,0:0:0:0:
298,192,113939,1,0,0:0:0:0:
213,192,114026,1,0,0:0:0:0:
384,192,114026,1,0,0:0:0:0:
298,192,114113,1,0,0:0:0:0:
42,192,114113,1,0,0:0:0:0:
469,192,114113,1,0,0:0:0:0:
128,192,114200,1,0,0:0:0:0:
213,192,114200,1,0,0:0:0:0:
384,192,114286,1,0,0:0:0:0:
42,192,114460,1,0,0:0:0:0:
213,192,114546,1,0,0:0:0:0:
384,192,114546,1,0,0:0:0:0:
298,192,114633,1,0,0:0:0:0:
128,192,114633,1,0,0:0:0:0:
42,192,114633,1,0,0:0:0:0:
213,192,114807,1,0,0:0:0:0:
384,192,114807,1,0,0:0:0:0:
128,192,114893,1,0,0:0:0:0:
298,192,114893,1,0,0:0:0:0:
42,192,114980,1,0,0:0:0:0:
213,192,114980,1,0,0:0:0:0:
469,192,115153,1,0,0:0:0:0:
298,192,115153,1,0,0:0:0:0:
128,192,115153,1,0,0:0:0:0:
469,192,115327,128,0,115674:0:0:0:0:
298,192,115500,128,0,115847:0:0:0:0:
128,192,115674,128,0,116020:0:0:0:0:
384,192,115847,128,0,116194:0:0:0:0:
213,192,116020,128,0,116367:0:0:0:0:
42,192,116194,128,0,116714:0:0:0:0:
469,192,116714,128,0,117581:0:0:0:0:
298,192,116887,128,0,117581:0:0:0:0:
128,192,117061,128,0,117581:0:0:0:0:
42,192,117234,128,0,117581:0:0:0:0:
213,192,117581,1,0,0:0:0:0:
384,192,117581,1,0,0:0:0:0:
384,192,117754,1,0,0:0:0:0:
128,192,117754,1,0,0:0:0:0:
213,192,117928,1,0,0:0:0:0:
298,192,117928,1,0,0:0:0:0:
469,192,117928,1,0,0:0:0:0:
42,192,117928,1,0,0:0:0:0:
298,192,118101,1,0,0:0:0:0:
128,192,118101,1,0,0:0:0:0:
469,192,118188,1,0,0:0:0:0:
384,192,118274,1,0,0:0:0:0:
213,192,118274,1,0,0:0:0:0:
298,192,118361,1,0,0:0:0:0:
128,192,118361,1,0,0:0:0:0:
42,192,118361,1,0,0:0:0:0:
469,192,118448,1,0,0:0:0:0:
213,192,118448,1,0,0:0:0:0:
42,192,118534,1,0,0:0:0:0:
384,192,118534,1,0,0:0:0:0:
128,192,118621,1,0,0:0:0:0:
298,192,118621,1,0,0:0:0:0:
469,192,118708,1,0,0:0:0:0:
213,192,118708,1,0,0:0:0:0:
384,192,118795,1,0,0:0:0:0:
42,192,118795,1,0,0:0:0:0:
128,192,118795,1,0,0:0:0:0:
298,192,118881,1,0,0:0:0:0:
213,192,118968,1,0,0:0:0:0:
128,192,118968,1,0,0:0:0:0:
42,192,118968,1,0,0:0:0:0:
469,192,119141,1,0,0:0:0:0:
298,192,119141,1,0,0:0:0:0:
213,192,119228,1,0,0:0:0:0:
128,192,119315,1,0,0:0:0:0:
42,192,119315,1,0,0:0:0:0:
384,192,119401,1,0,0:0:0:0:
298,192,119488,1,0,0:0:0:0:
128,192,119488,1,0,0:0:0:0:
213,192,119575,1,0,0:0:0:0:
469,192,119662,1,0,0:0:0:0:
384,192,119662,1,0,0:0:0:0:
298,192,119748,1,0,0:0:0:0:
213,192,119835,1,0,0:0:0:0:
42,192,119835,1,0,0:0:0:0:
469,192,119922,1,0,0:0:0:0:
298,192,120008,1,0,0:0:0:0:
128,192,120008,1,0,0:0:0:0:
42,192,120095,1,0,0:0:0:0:
213,192,120182,1,0,0:0:0:0:
384,192,120182,1,0,0:0:0:0:
128,192,120269,1,0,0:0:0:0:
298,192,120355,1,0,0:0:0:0:
469,192,120355,1,0,0:0:0:0:
42,192,120355,1,0,0:0:0:0:
213,192,120442,1,0,0:0:0:0:
384,192,120529,1,0,0:0:0:0:
42,192,120529,1,0,0:0:0:0:
298,192,120615,1,0,0:0:0:0:
128,192,120615,1,0,0:0:0:0:
469,192,120702,128,0,121049:0:0:0:0:
213,192,120702,128,0,121049:0:0:0:0:
298,192,120875,128,0,121049:0:0:0:0:
384,192,121049,128,0,121396:0:0:0:0:
128,192,121049,128,0,121396:0:0:0:0:
298,192,121222,128,0,121396:0:0:0:0:
213,192,121396,128,0,121743:0:0:0:0:
42,192,121396,128,0,121743:0:0:0:0:
469,192,121569,128,0,121743:0:0:0:0:
384,192,121569,128,0,121743:0:0:0:0:
298,192,121743,1,0,0:0:0:0:
128,192,121743,1,0,0:0:0:0:
384,192,121916,1,0,0:0:0:0:
128,192,121916,1,0,0:0:0:0:
298,192,122003,1,0,0:0:0:0:
213,192,122003,1,0,0:0:0:0:
128,192,122089,1,0,0:0:0:0:
469,192,122089,1,0,0:0:0:0:
42,192,122089,1,0,0:0:0:0:
384,192,122263,1,0,0:0:0:0:
298,192,122349,1,0,0:0:0:0:
213,192,122436,1,0,0:0:0:0:
42,192,122436,1,0,0:0:0:0:
384,192,122523,1,0,0:0:0:0:
128,192,122523,1,0,0:0:0:0:
213,192,122610,1,0,0:0:0:0:
469,192,122610,1,0,0:0:0:0:
298,192,122696,1,0,0:0:0:0:
42,192,122696,1,0,0:0:0:0:
213,192,122783,1,0,0:0:0:0:
128,192,122783,1,0,0:0:0:0:
469,192,122870,1,0,0:0:0:0:
42,192,122870,1,0,0:0:0:0:
384,192,122956,1,0,0:0:0:0:
213,192,122956,1,0,0:0:0:0:
128,192,123043,1,0,0:0:0:0:
42,192,123130,1,0,0:0:0:0:
298,192,123130,1,0,0:0:0:0:
469,192,123130,1,0,0:0:0:0:
384,192,123303,1,0,0:0:0:0:
128,192,123303,1,0,0:0:0:0:
298,192,123390,1,0,0:0:0:0:
213,192,123390,1,0,0:0:0:0:
384,192,123477,1,0,0:0:0:0:
469,192,123477,1,0,0:0:0:0:
42,192,123477,1,0,0:0:0:0:
128,192,123650,1,0,0:0:0:0:
384,192,123650,1,0,0:0:0:0:
298,192,123737,1,0,0:0:0:0:
469,192,123823,1,0,0:0:0:0:
42,192,123823,1,0,0:0:0:0:
213,192,123823,1,0,0:0:0:0:
384,192,123997,1,0,0:0:0:0:
128,192,123997,1,0,0:0:0:0:
298,192,124084,1,0,0:0:0:0:
42,192,124084,1,0,0:0:0:0:
213,192,124170,1,0,0:0:0:0:
128,192,124170,1,0,0:0:0:0:
469,192,124170,1,0,0:0:0:0:
384,192,124344,1,0,0:0:0:0:
42,192,124344,1,0,0:0:0:0:
213,192,124430,1,0,0:0:0:0:
384,192,124517,1,0,0:0:0:0:
128,192,124517,1,0,0:0:0:0:
469,192,124604,1,0,0:0:0:0:
298,192,124691,1,0,0:0:0:0:
213,192,124777,1,0,0:0:0:0:
128,192,124864,1,0,0:0:0:0:
42,192,124864,1,0,0:0:0:0:
298,192,124951,1,0,0:0:0:0:
469,192,125037,128,0,125384:0:0:0:0:
298,192,125211,128,0,125384:0:0:0:0:
128,192,125211,1,0,0:0:0:0:
42,192,125384,128,0,125731:0:0:0:0:
213,192,125558,128,0,125731:0:0:0:0:
384,192,125558,1,0,0:0:0:0:
128,192,125904,128,0,126078:0:0:0:0:
298,192,125904,128,0,126078:0:0:0:0:
469,192,125904,1,0,0:0:0:0:
213,192,126251,1,0,0:0:0:0:
384,192,126251,1,0,0:0:0:0:
42,192,126251,1,0,0:0:0:0:
298,192,126425,1,0,0:0:0:0:
128,192,126425,1,0,0:0:0:0:
469,192,126511,1,0,0:0:0:0:
384,192,126598,1,0,0:0:0:0:
213,192,126598,1,0,0:0:0:0:
298,192,126685,1,0,0:0:0:0:
128,192,126685,1,0,0:0:0:0:
42,192,126685,1,0,0:0:0:0:
469,192,126771,1,0,0:0:0:0:
213,192,126771,1,0,0:0:0:0:
42,192,126858,1,0,0:0:0:0:
384,192,126858,1,0,0:0:0:0:
128,192,126945,1,0,0:0:0:0:
298,192,126945,1,0,0:0:0:0:
469,192,127032,1,0,0:0:0:0:
213,192,127032,1,0,0:0:0:0:
384,192,127118,1,0,0:0:0:0:
42,192,127118,1,0,0:0:0:0:
128,192,127118,1,0,0:0:0:0:
298,192,127205,1,0,0:0:0:0:
213,192,127292,1,0,0:0:0:0:
128,192,127292,1,0,0:0:0:0:
42,192,127292,1,0,0:0:0:0:
469,192,127465,1,0,0:0:0:0:
298,192,127465,1,0,0:0:0:0:
213,192,127552,1,0,0:0:0:0:
128,192,127638,1,0,0:0:0:0:
42,192,127638,1,0,0:0:0:0:
384,192,127725,1,0,0:0:0:0:
298,192,127812,1,0,0:0:0:0:
128,192,127812,1,0,0:0:0:0:
213,192,127899,1,0,0:0:0:0:
469,192,127985,1,0,0:0:0:0:
384,192,127985,1,0,0:0:0:0:
298,192,128072,1,0,0:0:0:0:
213,192,128159,1,0,0:0:0:0:
42,192,128159,1,0,0:0:0:0:
469,192,128245,1,0,0:0:0:0:
298,192,128332,1,0,0:0:0:0:
128,192,128332,1,0,0:0:0:0:
42,192,128419,1,0,0:0:0:0:
213,192,128506,1,0,0:0:0:0:
384,192,128506,1,0,0:0:0:0:
128,192,128592,1,0,0:0:0:0:
298,192,128679,1,0,0:0:0:0:
469,192,128679,1,0,0:0:0:0:
42,192,128679,1,0,0:0:0:0:
213,192,128766,1,0,0:0:0:0:
384,192,128852,1,0,0:0:0:0:
42,192,128852,1,0,0:0:0:0:
298,192,128939,1,0,0:0:0:0:
128,192,128939,1,0,0:0:0:0:
469,192,129026,128,0,129373:0:0:0:0:
213,192,129026,128,0,129373:0:0:0:0:
298,192,129199,128,0,129373:0:0:0:0:
384,192,129373,128,0,129719:0:0:0:0:
128,192,129373,128,0,129719:0:0:0:0:
298,192,129546,128,0,129719:0:0:0:0:
213,192,129719,128,0,130066:0:0:0:0:
42,192,129719,128,0,130066:0:0:0:0:
469,192,129893,128,0,130066:0:0:0:0:
384,192,129893,128,0,130066:0:0:0:0:
298,192,130066,1,0,0:0:0:0:
128,192,130066,1,0,0:0:0:0:
384,192,130240,1,0,0:0:0:0:
128,192,130240,1,0,0:0:0:0:
298,192,130326,1,0,0:0:0:0:
213,192,130326,1,0,0:0:0:0:
128,192,130413,1,0,0:0:0:0:
469,192,130413,1,0,0:0:0:0:
42,192,130413,1,0,0:0:0:0:
384,192,130586,1,0,0:0:0:0:
213,192,130586,1,0,0:0:0:0:
298,192,130673,1,0,0:0:0:0:
128,192,130673,1,0,0:0:0:0:
213,192,130760,1,0,0:0:0:0:
469,192,130760,1,0,0:0:0:0:
42,192,130760,1,0,0:0:0:0:
384,192,130847,1,0,0:0:0:0:
298,192,130847,1,0,0:0:0:0:
128,192,130933,1,0,0:0:0:0:
469,192,131107,1,0,0:0:0:0:
298,192,131193,1,0,0:0:0:0:
128,192,131193,1,0,0:0:0:0:
213,192,131280,1,0,0:0:0:0:
384,192,131280,1,0,0:0:0:0:
469,192,131280,1,0,0:0:0:0:
298,192,131454,1,0,0:0:0:0:
128,192,131454,1,0,0:0:0:0:
384,192,131540,1,0,0:0:0:0:
213,192,131540,1,0,0:0:0:0:
469,192,131627,1,0,0:0:0:0:
298,192,131627,1,0,0:0:0:0:
42,192,131800,1,0,0:0:0:0:
213,192,131800,1,0,0:0:0:0:
384,192,131800,1,0,0:0:0:0:
42,192,131974,128,0,132321:0:0:0:0:
213,192,132147,128,0,132494:0:0:0:0:
384,192,132321,128,0,132667:0:0:0:0:
128,192,132494,128,0,134228:0:0:0:0:
298,192,132841,128,0,134228:0:0:0:0:
469,192,133361,128,0,134228:0:0:0:0:
42,192,133534,128,0,133881:0:0:0:0:
213,192,133708,128,0,134228:0:0:0:0:
384,192,133881,128,0,134228:0:0:0:0:
42,192,134055,128,0,134228:0:0:0:0:
298,192,134575,1,0,0:0:0:0:
213,192,134575,1,0,0:0:0:0:
42,192,134575,1,0,0:0:0:0:
469,192,134575,1,0,0:0:0:0:
128,192,134748,1,0,0:0:0:0:
298,192,134835,1,0,0:0:0:0:
384,192,134921,1,0,0:0:0:0:
469,192,134921,1,0,0:0:0:0:
42,192,135008,1,0,0:0:0:0:
128,192,135008,1,0,0:0:0:0:
213,192,135008,1,0,0:0:0:0:
298,192,135095,1,0,0:0:0:0:
469,192,135181,1,0,0:0:0:0:
213,192,135268,1,0,0:0:0:0:
384,192,135355,1,0,0:0:0:0:
42,192,135355,1,0,0:0:0:0:
213,192,135442,1,0,0:0:0:0:
298,192,135442,1,0,0:0:0:0:
469,192,135442,1,0,0:0:0:0:
384,192,135528,1,0,0:0:0:0:
213,192,135615,1,0,0:0:0:0:
298,192,135615,1,0,0:0:0:0:
128,192,135615,1,0,0:0:0:0:
42,192,135615,1,0,0:0:0:0:
469,192,135788,1,0,0:0:0:0:
298,192,135875,1,0,0:0:0:0:
384,192,135962,1,0,0:0:0:0:
42,192,135962,1,0,0:0:0:0:
213,192,136048,1,0,0:0:0:0:
298,192,136135,1,0,0:0:0:0:
469,192,136222,1,0,0:0:0:0:
384,192,136222,1,0,0:0:0:0:
42,192,136222,1,0,0:0:0:0:
128,192,136309,1,0,0:0:0:0:
213,192,136309,1,0,0:0:0:0:
298,192,136309,1,0,0:0:0:0:
469,192,136482,1,0,0:0:0:0:
384,192,136482,1,0,0:0:0:0:
298,192,136482,1,0,0:0:0:0:
213,192,136569,1,0,0:0:0:0:
298,192,136655,1,0,0:0:0:0:
128,192,136655,1,0,0:0:0:0:
42,192,136655,1,0,0:0:0:0:
469,192,136655,1,0,0:0:0:0:
213,192,136829,1,0,0:0:0:0:
298,192,136916,1,0,0:0:0:0:
128,192,137002,1,0,0:0:0:0:
384,192,137002,1,0,0:0:0:0:
298,192,137089,1,0,0:0:0:0:
213,192,137089,1,0,0:0:0:0:
42,192,137089,1,0,0:0:0:0:
469,192,137176,1,0,0:0:0:0:
384,192,137262,1,0,0:0:0:0:
298,192,137349,1,0,0:0:0:0:
213,192,137436,1,0,0:0:0:0:
42,192,137436,1,0,0:0:0:0:
298,192,137522,1,0,0:0:0:0:
384,192,137522,1,0,0:0:0:0:
469,192,137522,1,0,0:0:0:0:
128,192,137696,1,0,0:0:0:0:
42,192,137696,1,0,0:0:0:0:
213,192,137696,1,0,0:0:0:0:
298,192,137696,1,0,0:0:0:0:
384,192,137869,1,0,0:0:0:0:
213,192,137956,1,0,0:0:0:0:
42,192,138043,1,0,0:0:0:0:
469,192,138043,1,0,0:0:0:0:
298,192,138129,1,0,0:0:0:0:
384,192,138216,1,0,0:0:0:0:
128,192,138216,1,0,0:0:0:0:
213,192,138303,1,0,0:0:0:0:
298,192,138390,1,0,0:0:0:0:
384,192,138390,1,0,0:0:0:0:
469,192,138390,1,0,0:0:0:0:
213,192,138476,1,0,0:0:0:0:
384,192,138563,1,0,0:0:0:0:
298,192,138650,1,0,0:0:0:0:
213,192,138736,1,0,0:0:0:0:
128,192,138736,1,0,0:0:0:0:
42,192,138736,1,0,0:0:0:0:
298,192,138910,1,0,0:0:0:0:
469,192,138910,1,0,0:0:0:0:
128,192,138910,1,0,0:0:0:0:
213,192,138996,1,0,0:0:0:0:
298,192,139081,1,0,0:0:0:0:
384,192,139081,1,0,0:0:0:0:
469,192,139081,1,0,0:0:0:0:
42,192,139081,1,0,0:0:0:0:
128,192,139254,1,0,0:0:0:0:
298,192,139341,1,0,0:0:0:0:
469,192,139427,1,0,0:0:0:0:
42,192,139427,1,0,0:0:0:0:
213,192,139514,1,0,0:0:0:0:
298,192,139514,1,0,0:0:0:0:
384,192,139514,1,0,0:0:0:0:
128,192,139601,1,0,0:0:0:0:
384,192,139687,1,0,0:0:0:0:
213,192,139774,1,0,0:0:0:0:
128,192,139861,1,0,0:0:0:0:
42,192,139861,1,0,0:0:0:0:
469,192,139948,1,0,0:0:0:0:
384,192,139948,1,0,0:0:0:0:
298,192,140121,1,0,0:0:0:0:
213,192,140121,1,0,0:0:0:0:
42,192,140121,1,0,0:0:0:0:
128,192,140121,1,0,0:0:0:0:
384,192,140294,1,0,0:0:0:0:
213,192,140381,1,0,0:0:0:0:
298,192,140468,1,0,0:0:0:0:
469,192,140468,1,0,0:0:0:0:
128,192,140554,1,0,0:0:0:0:
213,192,140554,1,0,0:0:0:0:
384,192,140554,1,0,0:0:0:0:
42,192,140728,1,0,0:0:0:0:
128,192,140728,1,0,0:0:0:0:
384,192,140815,1,0,0:0:0:0:
298,192,140815,1,0,0:0:0:0:
213,192,140815,1,0,0:0:0:0:
469,192,140988,1,0,0:0:0:0:
384,192,140988,1,0,0:0:0:0:
298,192,140988,1,0,0:0:0:0:
213,192,141075,1,0,0:0:0:0:
469,192,141161,1,0,0:0:0:0:
42,192,141161,1,0,0:0:0:0:
128,192,141161,1,0,0:0:0:0:
384,192,141161,1,0,0:0:0:0:
298,192,141335,1,0,0:0:0:0:
128,192,141422,1,0,0:0:0:0:
469,192,141422,1,0,0:0:0:0:
384,192,141508,1,0,0:0:0:0:
298,192,141508,1,0,0:0:0:0:
42,192,141508,1,0,0:0:0:0:
384,192,141682,1,0,0:0:0:0:
128,192,141682,1,0,0:0:0:0:
213,192,141768,1,0,0:0:0:0:
298,192,141855,1,0,0:0:0:0:
469,192,141855,1,0,0:0:0:0:
128,192,141942,1,0,0:0:0:0:
42,192,141942,1,0,0:0:0:0:
213,192,142028,1,0,0:0:0:0:
298,192,142028,1,0,0:0:0:0:
469,192,142028,1,0,0:0:0:0:
384,192,142028,1,0,0:0:0:0:
42,192,142202,1,0,0:0:0:0:
128,192,142202,1,0,0:0:0:0:
469,192,142289,1,0,0:0:0:0:
384,192,142375,1,0,0:0:0:0:
128,192,142375,1,0,0:0:0:0:
298,192,142462,1,0,0:0:0:0:
42,192,142549,1,0,0:0:0:0:
213,192,142549,1,0,0:0:0:0:
469,192,142549,128,0,142809:0:0:0:0:
384,192,142635,128,0,142809:0:0:0:0:
298,192,142722,128,0,142896:0:0:0:0:
42,192,142722,128,0,143156:0:0:0:0:
128,192,142809,128,0,143156:0:0:0:0:
384,192,142896,1,0,0:0:0:0:
469,192,142896,1,0,0:0:0:0:
213,192,142896,128,0,143156:0:0:0:0:
384,192,143069,128,0,143242:0:0:0:0:
469,192,143069,128,0,143242:0:0:0:0:
213,192,143242,1,0,0:0:0:0:
298,192,143242,1,0,0:0:0:0:
128,192,143242,1,0,0:0:0:0:
42,192,143242,1,0,0:0:0:0:
469,192,143416,1,0,0:0:0:0:
42,192,143416,1,0,0:0:0:0:
213,192,143416,1,0,0:0:0:0:
384,192,143502,1,0,0:0:0:0:
128,192,143502,1,0,0:0:0:0:
298,192,143589,1,0,0:0:0:0:
213,192,143589,1,0,0:0:0:0:
469,192,143589,1,0,0:0:0:0:
42,192,143589,1,0,0:0:0:0:
384,192,143762,1,0,0:0:0:0:
128,192,143762,1,0,0:0:0:0:
469,192,143935,1,0,0:0:0:0:
384,192,143935,1,0,0:0:0:0:
213,192,143935,1,0,0:0:0:0:
42,192,143935,1,0,0:0:0:0:
213,192,144109,1,0,0:0:0:0:
384,192,144109,1,0,0:0:0:0:
128,192,144195,1,0,0:0:0:0:
298,192,144195,1,0,0:0:0:0:
469,192,144282,1,0,0:0:0:0:
213,192,144282,1,0,0:0:0:0:
42,192,144282,1,0,0:0:0:0:
384,192,144282,1,0,0:0:0:0:
213,192,144456,1,0,0:0:0:0:
42,192,144456,1,0,0:0:0:0:
384,192,144629,1,0,0:0:0:0:
469,192,144629,1,0,0:0:0:0:
298,192,144716,1,0,0:0:0:0:
128,192,144716,1,0,0:0:0:0:
213,192,144716,1,0,0:0:0:0:
42,192,144802,1,0,0:0:0:0:
469,192,144802,1,0,0:0:0:0:
384,192,144802,1,0,0:0:0:0:
298,192,144976,1,0,0:0:0:0:
469,192,144976,1,0,0:0:0:0:
128,192,144976,1,0,0:0:0:0:
128,192,145149,1,0,0:0:0:0:
213,192,145149,1,0,0:0:0:0:
384,192,145149,1,0,0:0:0:0:
298,192,145236,1,0,0:0:0:0:
42,192,145236,1,0,0:0:0:0:
213,192,145323,1,0,0:0:0:0:
384,192,145323,1,0,0:0:0:0:
469,192,145323,1,0,0:0:0:0:
128,192,145409,1,0,0:0:0:0:
42,192,145409,1,0,0:0:0:0:
469,192,145496,1,0,0:0:0:0:
384,192,145496,1,0,0:0:0:0:
298,192,145583,1,0,0:0:0:0:
213,192,145583,1,0,0:0:0:0:
42,192,145669,1,0,0:0:0:0:
128,192,145756,1,0,0:0:0:0:
384,192,145756,1,0,0:0:0:0:
298,192,145843,1,0,0:0:0:0:
213,192,145843,1,0,0:0:0:0:
469,192,145843,1,0,0:0:0:0:
42,192,145930,1,0,0:0:0:0:
128,192,146016,1,0,0:0:0:0:
298,192,146016,1,0,0:0:0:0:
469,192,146016,1,0,0:0:0:0:
384,192,146103,1,0,0:0:0:0:
42,192,146103,1,0,0:0:0:0:
298,192,146190,1,0,0:0:0:0:
128,192,146190,1,0,0:0:0:0:
213,192,146276,1,0,0:0:0:0:
469,192,146276,1,0,0:0:0:0:
128,192,146363,1,0,0:0:0:0:
384,192,146363,1,0,0:0:0:0:
213,192,146450,1,0,0:0:0:0:
42,192,146450,1,0,0:0:0:0:
298,192,146536,1,0,0:0:0:0:
469,192,146536,1,0,0:0:0:0:
128,192,146536,1,0,0:0:0:0:
384,192,146623,1,0,0:0:0:0:
469,192,146710,1,0,0:0:0:0:
213,192,146710,1,0,0:0:0:0:
298,192,146797,1,0,0:0:0:0:
42,192,146797,1,0,0:0:0:0:
128,192,146883,1,0,0:0:0:0:
384,192,146883,1,0,0:0:0:0:
469,192,146883,1,0,0:0:0:0:
42,192,147057,1,0,0:0:0:0:
213,192,147057,128,0,147230:0:0:0:0:
298,192,147143,128,0,147317:0:0:0:0:
469,192,147143,1,0,0:0:0:0:
384,192,147230,128,0,147404:0:0:0:0:
469,192,147317,128,0,147490:0:0:0:0:
42,192,147317,1,0,0:0:0:0:
213,192,147404,128,0,147577:0:0:0:0:
128,192,147404,1,0,0:0:0:0:
298,192,147490,128,0,147664:0:0:0:0:
384,192,147577,128,0,147750:0:0:0:0:
42,192,147577,1,0,0:0:0:0:
469,192,147664,128,0,147837:0:0:0:0:
128,192,147664,1,0,0:0:0:0:
213,192,147750,1,0,0:0:0:0:
298,192,147750,1,0,0:0:0:0:
384,192,147924,1,0,0:0:0:0:
128,192,147924,1,0,0:0:0:0:
213,192,148010,1,0,0:0:0:0:
298,192,148096,1,0,0:0:0:0:
469,192,148096,1,0,0:0:0:0:
42,192,148096,1,0,0:0:0:0:
128,192,148269,1,0,0:0:0:0:
298,192,148269,1,0,0:0:0:0:
469,192,148269,1,0,0:0:0:0:
42,192,148356,1,0,0:0:0:0:
128,192,148442,1,0,0:0:0:0:
213,192,148442,1,0,0:0:0:0:
384,192,148442,1,0,0:0:0:0:
298,192,148529,1,0,0:0:0:0:
469,192,148529,1,0,0:0:0:0:
213,192,148616,1,0,0:0:0:0:
128,192,148616,1,0,0:0:0:0:
42,192,148616,1,0,0:0:0:0:
384,192,148702,1,0,0:0:0:0:
298,192,148789,1,0,0:0:0:0:
469,192,148789,1,0,0:0:0:0:
128,192,148789,1,0,0:0:0:0:
42,192,148789,1,0,0:0:0:0:
298,192,148963,1,0,0:0:0:0:
469,192,148963,1,0,0:0:0:0:
128,192,149049,1,0,0:0:0:0:
213,192,149049,1,0,0:0:0:0:
298,192,149136,1,0,0:0:0:0:
469,192,149136,1,0,0:0:0:0:
42,192,149136,1,0,0:0:0:0:
384,192,149136,1,0,0:0:0:0:
213,192,149309,1,0,0:0:0:0:
42,192,149309,1,0,0:0:0:0:
298,192,149396,1,0,0:0:0:0:
469,192,149396,1,0,0:0:0:0:
42,192,149483,1,0,0:0:0:0:
469,192,149569,1,0,0:0:0:0:
213,192,149569,1,0,0:0:0:0:
128,192,149656,1,0,0:0:0:0:
469,192,149656,1,0,0:0:0:0:
298,192,149656,1,0,0:0:0:0:
213,192,149830,1,0,0:0:0:0:
42,192,149830,1,0,0:0:0:0:
384,192,149830,1,0,0:0:0:0:
298,192,149916,1,0,0:0:0:0:
469,192,150003,1,0,0:0:0:0:
384,192,150003,1,0,0:0:0:0:
128,192,150003,1,0,0:0:0:0:
298,192,150090,1,0,0:0:0:0:
42,192,150176,1,0,0:0:0:0:
213,192,150176,1,0,0:0:0:0:
128,192,150263,1,0,0:0:0:0:
298,192,150263,1,0,0:0:0:0:
384,192,150350,1,0,0:0:0:0:
469,192,150350,1,0,0:0:0:0:
42,192,150350,1,0,0:0:0:0:
298,192,150437,1,0,0:0:0:0:
213,192,150523,1,0,0:0:0:0:
469,192,150523,1,0,0:0:0:0:
128,192,150610,1,0,0:0:0:0:
42,192,150610,1,0,0:0:0:0:
213,192,150697,1,0,0:0:0:0:
384,192,150697,1,0,0:0:0:0:
469,192,150697,1,0,0:0:0:0:
42,192,150870,1,0,0:0:0:0:
298,192,150870,1,0,0:0:0:0:
469,192,150870,1,0,0:0:0:0:
42,192,151043,1,0,0:0:0:0:
298,192,151043,1,0,0:0:0:0:
384,192,151217,1,0,0:0:0:0:
469,192,151217,1,0,0:0:0:0:
128,192,151217,1,0,0:0:0:0:
213,192,151390,1,0,0:0:0:0:
298,192,151390,1,0,0:0:0:0:
42,192,151390,1,0,0:0:0:0:
128,192,151564,1,0,0:0:0:0:
384,192,151564,1,0,0:0:0:0:
469,192,151564,1,0,0:0:0:0:
213,192,151650,1,0,0:0:0:0:
298,192,151737,1,0,0:0:0:0:
42,192,151737,1,0,0:0:0:0:
384,192,151824,1,0,0:0:0:0:
128,192,151824,1,0,0:0:0:0:
213,192,151911,1,0,0:0:0:0:
42,192,151911,1,0,0:0:0:0:
469,192,151911,1,0,0:0:0:0:
298,192,152084,1,0,0:0:0:0:
469,192,152084,1,0,0:0:0:0:
128,192,152257,1,0,0:0:0:0:
384,192,152257,1,0,0:0:0:0:
213,192,152604,128,0,152950:0:0:0:0:
128,192,152604,128,0,152950:0:0:0:0:
42,192,152604,128,0,152950:0:0:0:0:
298,192,152604,128,0,152950:0:0:0:0:
384,192,152604,128,0,152950:0:0:0:0:
469,192,152604,128,0,152950:0:0:0:0:
