osu file format v14

[General]
AudioFilename: audio.mp3
AudioLeadIn: 0
PreviewTime: 56911
Countdown: 0
SampleSet: Soft
StackLeniency: 0.2
Mode: 0
LetterboxInBreaks: 0
EpilepsyWarning: 1
WidescreenStoryboard: 1

[Editor]
Bookmarks: 17137,29524,41911,57007,69782,82169,102298,108491,120878
DistanceSpacing: 0.4
BeatDivisor: 4
GridSize: 32
TimelineZoom: 2

[Metadata]
Title:Amenohoakari
TitleUnicode:天火明命
Artist:Sakuzyo
ArtistUnicode:削除
Creator:Firis Mistlud
Version:Fiura's Miyabi
Source:maimai MURASAKi
Tags:∀rkadia Arkadia オンゲキ Ongeki Miura Kurantemelodii krt Kyle_y how2miss Minorsonek M2Usonek
BeatmapID:1419003
BeatmapSetID:671056

[Difficulty]
HPDrainRate:7
CircleSize:4
OverallDifficulty:9
ApproachRate:9
SliderMultiplier:2
SliderTickRate:1

[Events]
//Background and Video events
0,0,"amenohoa.jpg",0,0
//Break Periods
2,96287,100732
//Storyboard Layer 0 (Background)
Sprite,Background,Centre,"sb\dot2.png",320,240 F,0,16362,,1 S,0,16362,,5 M,0,16362,16749,259.2,102.4,263.4667,196.2667
//Storyboard Layer 1 (Fail)
//Storyboard Layer 2 (Pass)
//Storyboard Layer 3 (Foreground)
Sprite,Foreground,Centre,"sb\q.png",320,240 F,0,69782,,1 S,0,69782,,1.928 C,0,69782,,254,121,1 M,0,69782,70040,795.7333,78.93334,491.7333,89.60001 R,0,69782,70040,3.157334,4.266667 M,0,70040,81781,491.7333,89.60001 R,0,70040,81781,4.266667,7.232 M,0,81781,82040,491.7333,89.60001,803.2,88.53334 R,0,81781,82040,7.232,8.746667
Sprite,Foreground,Centre,"sb\FM.png",320,240 S,0,3975,,0.7760001 M,0,3975,4233,445.8667,-99.19999,389.3333,341.3333 R,0,3975,4233,0.08533325,-0.06400025 M,0,4233,16362,389.3333,341.3333 R,0,4233,16362,-0.06400025,-0.1279999 M,0,16362,16620,389.3333,341.3333,448,603.7333 R,0,16362,16620,-0.1279999,-0.32
Sprite,Foreground,Centre,"sb\Ring.png",320,240 M,0,16749,,268.8,203.7333 F,0,16749,16943,0,1 S,0,16749,16943,0.1573335,0.4240002 F,0,16943,17137,1,0 S,0,16943,17137,0.4240002,0.8080003
Sprite,Foreground,Centre,"sb\miura.png",320,240 M,0,17137,17395,151.4666,578.1334,217.6,109.8668 R,0,17137,17395,0.2133331,-0.06400024 M,0,17395,29136,217.6,109.8668 R,0,17395,29136,-0.06400024,-0.2122587 M,0,29136,29395,217.6,109.8668,171.7333,-137.5999 R,0,29136,29395,-0.2122587,-0.3829256
Sprite,Foreground,Centre,"sb\q.png",320,240 S,0,29524,,2.098667 C,0,29524,,0,255,255 M,2,29524,29782,-120.5333,361.6,84.26666,341.3333 R,0,29524,29782,-2.090666,-0.8106658 M,0,29782,41524,84.26666,341.3333 R,0,29782,41524,-0.8106658,2.4318 R,0,41524,,2.4318 M,0,41524,41782,84.26666,341.3333,-142.9333,347.7333 R,0,41524,41782,2.4318,3.434467
Sprite,Foreground,Centre,"sb\FM.png",320,240 S,0,29524,,0.7760001 M,0,29524,29782,445.8667,-99.19999,389.3333,341.3333 R,0,29524,29782,0.08533325,-0.06400025 R,0,29782,,-0.06400025 M,0,29782,41524,389.3333,341.3333,389.7716,337.9184 R,0,29782,41524,-0.06400025,-0.1493341 M,0,41524,41782,389.7716,337.9184,408.9716,587.5184 R,0,41524,41782,-0.1493341,-0.256001
Sprite,Foreground,Centre,"sb\miura.png",320,240 M,0,41911,42169,151.4666,578.1334,217.6,109.8668 R,0,41911,42169,0.2133331,-0.06400024 M,0,42169,53910,217.6,109.8668 R,0,42169,56620,-0.06400024,-0.4053337 M,0,53910,56620,217.6,109.8668 M,0,56620,56814,217.6,109.8668,122.6667,-108.7999 R,0,56620,56814,-0.4053337,-0.5333336
Sprite,Foreground,Centre,"sb\q.png",320,240 S,0,108491,,2.098667 C,0,108491,,0,255,255 M,2,108491,108749,-120.5333,361.6,84.26666,341.3333 R,0,108491,108749,-2.090666,-0.8106658 M,0,108749,120491,84.26666,341.3333 R,0,108749,120491,-0.8106658,2.4318 R,0,120491,,2.4318 M,0,120491,120749,84.26666,341.3333,-142.9333,347.7333 R,0,120491,120749,2.4318,3.434467
Sprite,Foreground,Centre,"sb\FM.png",320,240 S,0,108491,,0.7760001 M,0,108491,108749,445.8667,-99.19999,389.3333,341.3333 R,0,108491,108749,0.08533325,-0.06400025 R,0,108749,120394,-0.06400025,-0.1919995 M,0,108749,120491,389.3333,341.3333 R,0,120394,120491,-0.1919995 M,0,120491,120684,389.3333,341.3333,393.6,615.4667 R,0,120491,120684,-0.1919995,-0.3413324
Sprite,Foreground,Centre,"sb\dot2.png",320,240 S,0,108491,,4.776 C,0,108491,,255,128,255 M,0,108491,108496,323.2,412.8,325.3333,411.7333 M,0,108496,108499,325.3333,411.7333 M,0,108499,108501,325.3333,411.7333,326.4,411.7333 M,0,108501,108504,326.4,411.7333,327.4666,410.6667 M,0,108504,108507,327.4666,410.6667,329.6,409.6 M,0,108507,108511,329.6,409.6,331.7333,409.6 M,0,108511,108514,331.7333,409.6 M,0,108514,108518,331.7333,409.6,332.8,408.5333 M,0,108518,108522,332.8,408.5333 M,0,108522,108527,332.8,408.5333,337.0667,408.5333 M,0,108527,108532,337.0667,408.5333 M,0,108532,108536,337.0667,408.5333,338.1333,408.5333 M,0,108536,108542,338.1333,408.5333,340.2667,408.5333 M,0,108542,108546,340.2667,408.5333 M,0,108546,108552,340.2667,408.5333,341.3333,408.5333 M,0,108552,108558,341.3333,408.5333,343.4666,407.4666 M,0,108558,108564,343.4666,407.4666 M,0,108564,108570,343.4666,407.4666,347.7333,407.4666 M,0,108570,108576,347.7333,407.4666 M,0,108576,108579,347.7333,407.4666,349.8666,407.4666 M,0,108579,108586,349.8666,407.4666,353.0667,407.4666 M,0,108586,108593,353.0667,407.4666 M,0,108593,108597,353.0667,407.4666,356.2666,406.4 M,0,108597,108602,356.2666,406.4,364.8,406.4 M,0,108602,108608,364.8,406.4 M,0,108608,108613,364.8,406.4 M,0,108613,108619,364.8,406.4,373.3333,406.4 M,0,108619,108625,373.3333,406.4 M,0,108625,108631,373.3333,406.4,378.6667,406.4 M,0,108631,108637,378.6667,406.4,382.9333,407.4666 M,0,108637,108644,382.9333,407.4666 M,0,108644,108648,382.9333,407.4666,388.2666,407.4666 M,0,108648,108655,388.2666,407.4666,396.8,407.4666 M,0,108655,108661,396.8,407.4666 M,0,108661,108666,396.8,407.4666 M,0,108666,108672,396.8,407.4666,404.2667,406.4 M,0,108672,108679,404.2667,406.4 M,0,108679,108685,404.2667,406.4,410.6667,403.2 M,0,108685,108692,410.6667,403.2 M,0,108692,108697,410.6667,403.2,413.8666,401.0667 M,0,108697,108703,413.8666,401.0667,418.1333,397.8667 M,0,108703,108710,418.1333,397.8667 M,0,108710,108715,418.1333,397.8667,421.3333,393.6 M,0,108715,108721,421.3333,393.6,425.6,389.3333 M,0,108721,108727,425.6,389.3333,429.8666,385.0667 M,0,108727,108733,429.8666,385.0667,434.1333,379.7333 M,0,108733,108741,434.1333,379.7333 M,0,108741,108745,434.1333,379.7333,438.4,373.3333 M,0,108745,108752,438.4,373.3333,448,357.3333 M,0,108752,108758,448,357.3333 M,0,108758,108762,448,357.3333 M,0,108762,108769,448,357.3333,457.6,340.2667 M,0,108769,108775,457.6,340.2667 M,0,108775,108781,457.6,340.2667,464,330.6667 M,0,108781,108787,464,330.6667,469.3333,322.1333 M,0,108787,108794,469.3333,322.1333 M,0,108794,108799,469.3333,322.1333,475.7333,314.6667 M,0,108799,108806,475.7333,314.6667,487.4666,301.8667 M,0,108806,108813,487.4666,301.8667 M,0,108813,108818,487.4666,301.8667,492.8,295.4666 M,0,108818,108825,492.8,295.4666 M,0,108825,108830,492.8,295.4666,497.0667,290.1333 M,0,108830,108837,497.0667,290.1333,505.6,281.6 M,0,108837,108843,505.6,281.6 M,0,108843,108847,505.6,281.6,508.8,278.4 M,0,108847,108853,508.8,278.4,510.9333,275.2 M,0,108853,108860,510.9333,275.2 M,0,108860,108865,510.9333,275.2,513.0667,273.0667 M,0,108865,108871,513.0667,273.0667,514.1334,270.9333 M,0,108871,108877,514.1334,270.9333,515.2,269.8667 M,0,108877,108882,515.2,269.8667 M,0,108882,108888,515.2,269.8667,516.2666,268.8 M,0,108888,108895,516.2666,268.8 M,0,108895,108900,516.2666,268.8,516.2666,267.7333 M,0,108900,108907,516.2666,267.7333,517.3333,267.7333 M,0,108907,108911,517.3333,267.7333 M,0,108911,108918,517.3333,267.7333 M,0,108918,108924,517.3333,267.7333 M,0,108924,108929,517.3333,267.7333 M,0,108929,108936,517.3333,267.7333 M,0,108936,108942,517.3333,267.7333 M,0,108942,108946,517.3333,267.7333,517.3333,268.8 M,0,108946,108952,517.3333,268.8,518.4,269.8667 M,0,108952,108959,518.4,269.8667,519.4666,270.9333 M,0,108959,108964,519.4666,270.9333 M,0,108964,108970,519.4666,270.9333,520.5333,275.2 M,0,108970,108976,520.5333,275.2 M,0,108976,108981,520.5333,275.2 M,0,108981,108988,520.5333,275.2,521.6,280.5333 M,0,108988,108994,521.6,280.5333 M,0,108994,108999,521.6,280.5333,521.6,282.6667 M,0,108999,109006,521.6,282.6667,521.6,285.8666 M,0,109006,109012,521.6,285.8666 M,0,109012,109017,521.6,285.8666,521.6,290.1333 M,0,109017,109024,521.6,290.1333 M,0,109024,109028,521.6,290.1333,521.6,292.2666 M,0,109028,109033,521.6,292.2666 M,0,109033,109040,521.6,292.2666,521.6,293.3333 M,0,109040,109046,521.6,293.3333 M,0,109046,109051,521.6,293.3333,520.5333,294.4 M,0,109051,109057,520.5333,294.4 M,0,109057,109062,520.5333,294.4 M,0,109062,109068,520.5333,294.4,518.4,293.3333 M,0,109068,109075,518.4,293.3333 M,0,109075,109080,518.4,293.3333,515.2,291.2 M,0,109080,109087,515.2,291.2,513.0667,288 M,0,109087,109093,513.0667,288 M,0,109093,109097,513.0667,288,508.8,283.7333 M,0,109097,109104,508.8,283.7333,496,269.8667 M,0,109104,109111,496,269.8667 M,0,109111,109115,496,269.8667 M,0,109115,109121,496,269.8667,480,251.7333 M,0,109121,109127,480,251.7333 M,0,109127,109132,480,251.7333,460.8,229.3333 M,0,109132,109140,460.8,229.3333 M,0,109140,109144,460.8,229.3333 M,0,109144,109150,460.8,229.3333,441.6,203.7333 M,0,109150,109156,441.6,203.7333 M,0,109156,109161,441.6,203.7333 M,0,109161,109168,441.6,203.7333,425.6,180.2666 M,0,109168,109174,425.6,180.2666 M,0,109174,109179,425.6,180.2666,418.1333,168.5333 M,0,109179,109186,418.1333,168.5333,412.8,158.9333 M,0,109186,109193,412.8,158.9333,408.5333,149.3333 M,0,109193,109197,408.5333,149.3333 M,0,109197,109203,408.5333,149.3333,403.2,138.6667 M,0,109203,109210,403.2,138.6667 M,0,109210,109214,403.2,138.6667,402.1333,134.4 M,0,109214,109220,402.1333,134.4,402.1333,133.3333 M,0,109220,109227,402.1333,133.3333 M,0,109227,109231,402.1333,133.3333,405.3333,131.2 M,0,109231,109239,405.3333,131.2 M,0,109239,109243,405.3333,131.2 M,0,109243,109249,405.3333,131.2,408.5333,130.1333 M,0,109249,109256,408.5333,130.1333,418.1333,130.1333 M,0,109256,109263,418.1333,130.1333 M,0,109263,109268,418.1333,130.1333,423.4667,131.2 M,0,109268,109275,423.4667,131.2,429.8666,133.3333 M,0,109275,109280,429.8666,133.3333 M,0,109280,109287,429.8666,133.3333,443.7333,136.5333 M,0,109287,109294,443.7333,136.5333 M,0,109294,109298,443.7333,136.5333,451.2,138.6667 M,0,109298,109305,451.2,138.6667,459.7333,140.8 M,0,109305,109312,459.7333,140.8 M,0,109312,109318,459.7333,140.8,475.7333,144 M,0,109318,109325,475.7333,144 M,0,109325,109330,475.7333,144,483.2,146.1333 M,0,109330,109337,483.2,146.1333,491.7333,147.2 M,0,109337,109344,491.7333,147.2,499.2,149.3333 M,0,109344,109348,499.2,149.3333 M,0,109348,109355,499.2,149.3333,513.0667,152.5333 M,0,109355,109362,513.0667,152.5333 M,0,109362,109367,513.0667,152.5333,518.4,153.6 M,0,109367,109373,518.4,153.6,522.6666,154.6667 M,0,109373,109380,522.6666,154.6667,526.9333,155.7333 M,0,109380,109387,526.9333,155.7333,530.1333,156.8 M,0,109387,109393,530.1333,156.8 M,0,109393,109398,530.1333,156.8,532.2667,156.8 M,0,109398,109405,532.2667,156.8,536.5333,157.8667 M,0,109405,109412,536.5333,157.8667 M,0,109412,109416,536.5333,157.8667 M,0,109416,109423,536.5333,157.8667,538.6667,157.8667 M,0,109423,109430,538.6667,157.8667 M,0,109430,109436,538.6667,157.8667,539.7333,157.8667 M,0,109436,109444,539.7333,157.8667 M,0,109444,109448,539.7333,157.8667 M,0,109448,109455,539.7333,157.8667 M,0,109455,109463,539.7333,157.8667 M,0,109463,109469,539.7333,157.8667,536.5333,158.9333 M,0,109469,109476,536.5333,158.9333 M,0,109476,109481,536.5333,158.9333,532.2667,161.0667 M,0,109481,109488,532.2667,161.0667,526.9333,162.1333 M,0,109488,109495,526.9333,162.1333,520.5333,164.2666 M,0,109495,109499,520.5333,164.2666,512,165.3333 M,0,109499,109506,512,165.3333,502.4,167.4666 M,0,109506,109513,502.4,167.4666 M,0,109513,109519,502.4,167.4666,480,171.7333 M,0,109519,109526,480,171.7333 M,0,109526,109531,480,171.7333,468.2666,173.8667 M,0,109531,109538,468.2666,173.8667,456.5333,176 M,0,109538,109545,456.5333,176 M,0,109545,109550,456.5333,176,443.7333,178.1333 M,0,109550,109557,443.7333,178.1333,421.3333,181.3333 M,0,109557,109564,421.3333,181.3333 M,0,109564,109570,421.3333,181.3333,402.1333,185.6 M,0,109570,109577,402.1333,185.6 M,0,109577,109582,402.1333,185.6 M,0,109582,109589,402.1333,185.6,386.1333,189.8667 M,0,109589,109595,386.1333,189.8667 M,0,109595,109601,386.1333,189.8667,376.5333,192 M,0,109601,109608,376.5333,192 M,0,109608,109613,376.5333,192,374.4,193.0667 M,0,109613,109620,374.4,193.0667,372.2667,193.0667 M,0,109620,109626,372.2667,193.0667 M,0,109626,109632,372.2667,193.0667 M,0,109632,109639,372.2667,193.0667,372.2667,190.9333 M,0,109639,109645,372.2667,190.9333 M,0,109645,109651,372.2667,190.9333,371.2,186.6667 M,0,109651,109659,371.2,186.6667 M,0,109659,109664,371.2,186.6667,371.2,184.5333 M,0,109664,109671,371.2,184.5333,370.1333,181.3333 M,0,109671,109677,370.1333,181.3333,369.0667,178.1333 M,0,109677,109683,369.0667,178.1333,366.9333,174.9333 M,0,109683,109691,366.9333,174.9333 M,0,109691,109696,366.9333,174.9333,365.8667,169.6 M,0,109696,109702,365.8667,169.6,363.7333,164.2666 M,0,109702,109710,363.7333,164.2666,360.5333,157.8667 M,0,109710,109714,360.5333,157.8667 M,0,109714,109721,360.5333,157.8667,356.2666,142.9333 M,0,109721,109727,356.2666,142.9333 M,0,109727,109733,356.2666,142.9333,348.8,125.8667 M,0,109733,109741,348.8,125.8667 M,0,109741,109745,348.8,125.8667 M,0,109745,109752,348.8,125.8667,339.2,108.8 M,0,109752,109760,339.2,108.8 M,0,109760,109764,339.2,108.8,334.9333,100.2667 M,0,109764,109771,334.9333,100.2667,324.2666,86.39999 M,0,109771,109777,324.2666,86.39999 M,0,109777,109783,324.2666,86.39999,320,79.99999 M,0,109783,109791,320,79.99999 M,0,109791,109796,320,79.99999,316.8,75.73331 M,0,109796,109802,316.8,75.73331,311.4666,69.33331 M,0,109802,109810,311.4666,69.33331 M,0,109810,109814,311.4666,69.33331,310.4,68.26665 M,0,109814,109821,310.4,68.26665,310.4,67.19999 M,0,109821,109827,310.4,67.19999 M,0,109827,109834,310.4,67.19999,310.4,68.26665 M,0,109834,109842,310.4,68.26665 M,0,109842,109846,310.4,68.26665,310.4,71.46665 M,0,109846,109854,310.4,71.46665,313.6,84.26665 M,0,109854,109862,313.6,84.26665 M,0,109862,109868,313.6,84.26665,315.7333,92.79999 M,0,109868,109875,315.7333,92.79999,318.9333,103.4667 M,0,109875,109881,318.9333,103.4667 M,0,109881,109888,318.9333,103.4667,325.3333,126.9333 M,0,109888,109895,325.3333,126.9333 M,0,109895,109900,325.3333,126.9333,328.5333,140.8 M,0,109900,109907,328.5333,140.8,331.7333,156.8 M,0,109907,109914,331.7333,156.8,334.9333,173.8667 M,0,109914,109920,334.9333,173.8667,338.1333,192 M,0,109920,109927,338.1333,192,341.3333,209.0667 M,0,109927,109932,341.3333,209.0667 M,0,109932,109939,341.3333,209.0667,347.7333,237.8667 M,0,109939,109946,347.7333,237.8667 M,0,109946,109951,347.7333,237.8667,352,259.2 M,0,109951,109959,352,259.2 M,0,109959,109964,352,259.2 M,0,109964,109971,352,259.2,354.1333,274.1333 M,0,109971,109978,354.1333,274.1333,354.1333,280.5333 M,0,109978,109984,354.1333,280.5333,354.1333,285.8666 M,0,109984,109992,354.1333,285.8666 M,0,109992,109996,354.1333,285.8666,354.1333,290.1333 M,0,109996,110004,354.1333,290.1333,353.0667,295.4666 M,0,110004,110011,353.0667,295.4666 M,0,110011,110016,353.0667,295.4666 M,0,110016,110023,353.0667,295.4666,350.9333,297.6 M,0,110023,110030,350.9333,297.6 M,0,110030,110036,350.9333,297.6,346.6667,298.6667 M,0,110036,110044,346.6667,298.6667 M,0,110044,110050,346.6667,298.6667,344.5333,298.6667 M,0,110050,110057,344.5333,298.6667,341.3333,298.6667 M,0,110057,110064,341.3333,298.6667,338.1333,298.6667 M,0,110064,110070,338.1333,298.6667,334.9333,297.6 M,0,110070,110077,334.9333,297.6,331.7333,297.6 M,0,110077,110083,331.7333,297.6 M,0,110083,110090,331.7333,297.6,325.3333,296.5333 M,0,110090,110096,325.3333,296.5333 M,0,110096,110102,325.3333,296.5333,317.8666,293.3333 M,0,110102,110110,317.8666,293.3333 M,0,110110,110115,317.8666,293.3333,314.6667,291.2 M,0,110115,110122,314.6667,291.2,310.4,289.0667 M,0,110122,110130,310.4,289.0667,306.1333,285.8666 M,0,110130,110136,306.1333,285.8666,301.8666,282.6667 M,0,110136,110143,301.8666,282.6667 M,0,110143,110148,301.8666,282.6667,297.6,278.4 M,0,110148,110156,297.6,278.4,289.0667,269.8667 M,0,110156,110163,289.0667,269.8667 M,0,110163,110169,289.0667,269.8667,284.8,264.5333 M,0,110169,110176,284.8,264.5333,281.6,259.2 M,0,110176,110182,281.6,259.2 M,0,110182,110189,281.6,259.2,277.3333,248.5333 M,0,110189,110196,277.3333,248.5333 M,0,110196,110201,277.3333,248.5333,277.3333,237.8667 M,0,110201,110210,277.3333,237.8667 M,0,110210,110215,277.3333,237.8667,279.4666,234.6666 M,0,110215,110221,279.4666,234.6666,288,227.2 M,0,110221,110229,288,227.2 M,0,110229,110236,288,227.2,294.4,224 M,0,110236,110244,294.4,224,300.8,220.8 M,0,110244,110250,300.8,220.8,309.3333,218.6667 M,0,110250,110258,309.3333,218.6667,318.9333,216.5333 M,0,110258,110265,318.9333,216.5333 M,0,110265,110271,318.9333,216.5333,338.1333,215.4667 M,0,110271,110278,338.1333,215.4667 M,0,110278,110283,338.1333,215.4667,348.8,215.4667 M,0,110283,110290,348.8,215.4667,366.9333,219.7333 M,0,110290,110297,366.9333,219.7333 M,0,110297,110304,366.9333,219.7333,386.1333,226.1333 M,0,110304,110312,386.1333,226.1333 M,0,110312,110318,386.1333,226.1333,394.6667,230.4 M,0,110318,110326,394.6667,230.4,403.2,233.6 M,0,110326,110331,403.2,233.6 M,0,110331,110339,403.2,233.6,416,243.2 M,0,110339,110346,416,243.2 M,0,110346,110352,416,243.2,424.5333,252.8 M,0,110352,110360,424.5333,252.8 M,0,110360,110365,424.5333,252.8,426.6667,257.0667 M,0,110365,110372,426.6667,257.0667,429.8666,262.4 M,0,110372,110380,429.8666,262.4 M,0,110380,110387,429.8666,262.4,429.8666,265.6 M,0,110387,110395,429.8666,265.6 M,0,110395,110401,429.8666,265.6,429.8666,267.7333 M,0,110401,110408,429.8666,267.7333,428.8,268.8 M,0,110408,110416,428.8,268.8,427.7333,269.8667 M,0,110416,110421,427.7333,269.8667,424.5333,272 M,0,110421,110428,424.5333,272,421.3333,274.1333 M,0,110428,110435,421.3333,274.1333,417.0667,276.2667 M,0,110435,110443,417.0667,276.2667 M,0,110443,110448,417.0667,276.2667,410.6667,280.5333 M,0,110448,110456,410.6667,280.5333,394.6667,291.2 M,0,110456,110464,394.6667,291.2 M,0,110464,110469,394.6667,291.2,373.3333,308.2667 M,0,110469,110477,373.3333,308.2667 M,0,110477,110482,373.3333,308.2667,360.5333,317.8666 M,0,110482,110490,360.5333,317.8666,346.6667,328.5333 M,0,110490,110497,346.6667,328.5333,332.8,339.2 M,0,110497,110504,332.8,339.2,318.9333,352 M,0,110504,110513,318.9333,352,305.0667,363.7333 M,0,110513,110518,305.0667,363.7333,293.3333,375.4666 M,0,110518,110525,293.3333,375.4666 M,0,110525,110531,293.3333,375.4666,281.6,387.2 M,0,110531,110539,281.6,387.2,263.4666,407.4666 M,0,110539,110546,263.4666,407.4666 M,0,110546,110552,263.4666,407.4666,250.6667,420.2667 M,0,110552,110560,250.6667,420.2667 M,0,110560,110565,250.6667,420.2667,247.4667,423.4666 M,0,110565,110572,247.4667,423.4666,245.3333,425.6 M,0,110572,110580,245.3333,425.6 M,0,110580,110586,245.3333,425.6,245.3333,423.4666 M,0,110586,110594,245.3333,423.4666 M,0,110594,110600,245.3333,423.4666,246.4,419.2 M,0,110600,110608,246.4,419.2,250.6667,407.4666 M,0,110608,110615,250.6667,407.4666 M,0,110615,110621,250.6667,407.4666,258.1333,394.6667 M,0,110621,110628,258.1333,394.6667 M,0,110628,110635,258.1333,394.6667,269.8666,381.8666 M,0,110635,110644,269.8666,381.8666 M,0,110644,110650,269.8666,381.8666,276.2667,376.5333 M,0,110650,110658,276.2667,376.5333,293.3333,368 M,0,110658,110665,293.3333,368 M,0,110665,110671,293.3333,368,313.6,360.5333 M,0,110671,110678,313.6,360.5333 M,0,110678,110685,313.6,360.5333,325.3333,359.4667 M,0,110685,110693,325.3333,359.4667 M,0,110693,110698,325.3333,359.4667,338.1333,358.4 M,0,110698,110706,338.1333,358.4,364.8,358.4 M,0,110706,110714,364.8,358.4 M,0,110714,110720,364.8,358.4,390.4,363.7333 M,0,110720,110727,390.4,363.7333 M,0,110727,110733,390.4,363.7333,402.1333,366.9333 M,0,110733,110740,402.1333,366.9333,422.4,372.2667 M,0,110740,110747,422.4,372.2667 M,0,110747,110754,422.4,372.2667,437.3333,377.6 M,0,110754,110762,437.3333,377.6 M,0,110762,110769,437.3333,377.6,442.6666,379.7333 M,0,110769,110776,442.6666,379.7333,448,381.8666 M,0,110776,110782,448,381.8666 M,0,110782,110789,448,381.8666,455.4666,385.0667 M,0,110789,110797,455.4666,385.0667,457.6,386.1333 M,0,110797,110803,457.6,386.1333,458.6667,386.1333 M,0,110803,110812,458.6667,386.1333 M,0,110812,110817,458.6667,386.1333,459.7333,387.2 M,0,110817,110825,459.7333,387.2 M,0,110825,110833,459.7333,387.2 M,0,110833,110839,459.7333,387.2,458.6667,388.2667 M,0,110839,110846,458.6667,388.2667 M,0,110846,110852,458.6667,388.2667,455.4666,390.4 M,0,110852,110861,455.4666,390.4 M,0,110861,110866,455.4666,390.4,452.2666,390.4 M,0,110866,110872,452.2666,390.4,448,391.4667 M,0,110872,110880,448,391.4667,443.7333,391.4667 M,0,110880,110886,443.7333,391.4667,438.4,391.4667 M,0,110886,110893,438.4,391.4667 M,0,110893,110898,438.4,391.4667,433.0667,391.4667 M,0,110898,110905,433.0667,391.4667,421.3333,391.4667 M,0,110905,110913,421.3333,391.4667 M,0,110913,110918,421.3333,391.4667,414.9333,390.4 M,0,110918,110926,414.9333,390.4 M,0,110926,110931,414.9333,390.4,407.4666,390.4 M,0,110931,110938,407.4666,390.4,390.4,388.2667 M,0,110938,110945,390.4,388.2667 M,0,110945,110950,390.4,388.2667,380.8,387.2 M,0,110950,110958,380.8,387.2,370.1333,386.1333 M,0,110958,110965,370.1333,386.1333,359.4666,385.0667 M,0,110965,110970,359.4666,385.0667,347.7333,384 M,0,110970,110977,347.7333,384,336,381.8666 M,0,110977,110982,336,381.8666 M,0,110982,110988,336,381.8666,309.3333,377.6 M,0,110988,110996,309.3333,377.6 M,0,110996,111001,309.3333,377.6,295.4666,375.4666 M,0,111001,111008,295.4666,375.4666,281.6,372.2667 M,0,111008,111013,281.6,372.2667 M,0,111013,111019,281.6,372.2667,252.8,365.8667 M,0,111019,111026,252.8,365.8667 M,0,111026,111032,252.8,365.8667,238.9333,362.6667 M,0,111032,111039,238.9333,362.6667,211.2,355.2 M,0,111039,111046,211.2,355.2 M,0,111046,111051,211.2,355.2,198.4,350.9333 M,0,111051,111059,198.4,350.9333,186.6666,347.7333 M,0,111059,111064,186.6666,347.7333 M,0,111064,111070,186.6666,347.7333,164.2666,339.2 M,0,111070,111077,164.2666,339.2 M,0,111077,111084,164.2666,339.2,146.1333,332.8 M,0,111084,111091,146.1333,332.8 M,0,111091,111096,146.1333,332.8,137.6,329.6 M,0,111096,111103,137.6,329.6,131.2,327.4667 M,0,111103,111111,131.2,327.4667 M,0,111111,111116,131.2,327.4667,125.8666,325.3333 M,0,111116,111122,125.8666,325.3333,118.4,322.1333 M,0,111122,111130,118.4,322.1333 M,0,111130,111136,118.4,322.1333,116.2666,321.0667 M,0,111136,111143,116.2666,321.0667 M,0,111143,111147,116.2666,321.0667,115.2,321.0667 M,0,111147,111154,115.2,321.0667 M,0,111154,111162,115.2,321.0667 M,0,111162,111166,115.2,321.0667 M,0,111166,111173,115.2,321.0667,116.2666,321.0667 M,0,111173,111180,116.2666,321.0667,117.3333,321.0667 M,0,111180,111186,117.3333,321.0667,119.4667,322.1333 M,0,111186,111193,119.4667,322.1333 M,0,111193,111198,119.4667,322.1333,122.6666,323.2 M,0,111198,111205,122.6666,323.2,129.0666,326.4 M,0,111205,111212,129.0666,326.4 M,0,111212,111217,129.0666,326.4 M,0,111217,111223,129.0666,326.4,136.5333,329.6 M,0,111223,111230,136.5333,329.6 M,0,111230,111236,136.5333,329.6,145.0667,333.8667 M,0,111236,111243,145.0667,333.8667 M,0,111243,111247,145.0667,333.8667,149.3333,336 M,0,111247,111253,149.3333,336,154.6666,338.1333 M,0,111253,111260,154.6666,338.1333 M,0,111260,111265,154.6666,338.1333,160,340.2667 M,0,111265,111271,160,340.2667,165.3333,342.4 M,0,111271,111277,165.3333,342.4,170.6666,344.5333 M,0,111277,111282,170.6666,344.5333,174.9333,344.5333 M,0,111282,111290,174.9333,344.5333 M,0,111290,111294,174.9333,344.5333,180.2666,345.6 M,0,111294,111300,180.2666,345.6,185.6,345.6 M,0,111300,111306,185.6,345.6,189.8667,344.5333 M,0,111306,111312,189.8667,344.5333 M,0,111312,111318,189.8667,344.5333,198.4,341.3333 M,0,111318,111325,198.4,341.3333 M,0,111325,111330,198.4,341.3333,202.6666,340.2667 M,0,111330,111336,202.6666,340.2667,206.9333,338.1333 M,0,111336,111343,206.9333,338.1333 M,0,111343,111347,206.9333,338.1333,210.1333,337.0667 M,0,111347,111354,210.1333,337.0667,216.5333,333.8667 M,0,111354,111361,216.5333,333.8667 M,0,111361,111367,216.5333,333.8667,219.7333,332.8 M,0,111367,111374,219.7333,332.8 M,0,111374,111378,219.7333,332.8,221.8667,330.6667 M,0,111378,111385,221.8667,330.6667,226.1333,325.3333 M,0,111385,111392,226.1333,325.3333 M,0,111392,111396,226.1333,325.3333 M,0,111396,111402,226.1333,325.3333,230.4,318.9333 M,0,111402,111410,230.4,318.9333 M,0,111410,111414,230.4,318.9333,232.5333,314.6667 M,0,111414,111420,232.5333,314.6667,234.6666,310.4 M,0,111420,111427,234.6666,310.4,237.8666,306.1333 M,0,111427,111432,237.8666,306.1333 M,0,111432,111438,237.8666,306.1333,242.1333,296.5333 M,0,111438,111445,242.1333,296.5333 M,0,111445,111450,242.1333,296.5333,245.3333,292.2666 M,0,111450,111456,245.3333,292.2666,248.5333,288 M,0,111456,111462,248.5333,288 M,0,111462,111468,248.5333,288,252.8,278.4 M,0,111468,111475,252.8,278.4 M,0,111475,111480,252.8,278.4,254.9333,273.0667 M,0,111480,111486,254.9333,273.0667,257.0667,268.8 M,0,111486,111493,257.0667,268.8 M,0,111493,111497,257.0667,268.8,259.2,264.5333 M,0,111497,111504,259.2,264.5333,261.3333,254.9333 M,0,111504,111511,261.3333,254.9333 M,0,111511,111516,261.3333,254.9333 M,0,111516,111521,261.3333,254.9333,264.5333,245.3333 M,0,111521,111528,264.5333,245.3333 M,0,111528,111534,264.5333,245.3333,266.6666,240 M,0,111534,111541,266.6666,240 M,0,111541,111545,266.6666,240 M,0,111545,111551,266.6666,240,268.8,237.8667 M,0,111551,111558,268.8,237.8667 M,0,111558,111562,268.8,237.8667,268.8,236.8 M,0,111562,111568,268.8,236.8,269.8666,236.8 M,0,111568,111575,269.8666,236.8 M,0,111575,111580,269.8666,236.8 M,0,111580,111587,269.8666,236.8 M,0,111587,111594,269.8666,236.8 M,0,111594,111599,269.8666,236.8,269.8666,237.8667 M,0,111599,111607,269.8666,237.8667,268.8,240 M,0,111607,111613,268.8,240 M,0,111613,111619,268.8,240,267.7333,245.3333 M,0,111619,111626,267.7333,245.3333 M,0,111626,111631,267.7333,245.3333,266.6666,249.6 M,0,111631,111638,266.6666,249.6,265.6,252.8 M,0,111638,111645,265.6,252.8 M,0,111645,111650,265.6,252.8,264.5333,257.0667 M,0,111650,111657,264.5333,257.0667,261.3333,266.6667 M,0,111657,111664,261.3333,266.6667 M,0,111664,111669,261.3333,266.6667,260.2666,272 M,0,111669,111676,260.2666,272,259.2,278.4 M,0,111676,111681,259.2,278.4 M,0,111681,111688,259.2,278.4,258.1333,292.2666 M,0,111688,111695,258.1333,292.2666 M,0,111695,111699,258.1333,292.2666,257.0667,298.6667 M,0,111699,111706,257.0667,298.6667,257.0667,306.1333 M,0,111706,111713,257.0667,306.1333 M,0,111713,111718,257.0667,306.1333,256,318.9333 M,0,111718,111725,256,318.9333 M,0,111725,111731,256,318.9333,256,324.2666 M,0,111731,111737,256,324.2666,256,329.6 M,0,111737,111745,256,329.6,257.0667,333.8667 M,0,111745,111748,257.0667,333.8667 M,0,111748,111755,257.0667,333.8667,261.3333,343.4666 M,0,111755,111763,261.3333,343.4666 M,0,111763,111768,261.3333,343.4666,264.5333,346.6667 M,0,111768,111775,264.5333,346.6667,267.7333,349.8666 M,0,111775,111781,267.7333,349.8666,270.9333,350.9333 M,0,111781,111787,270.9333,350.9333,275.2,352 M,0,111787,111795,275.2,352 M,0,111795,111800,275.2,352,279.4666,352 M,0,111800,111807,279.4666,352,286.9333,347.7333 M,0,111807,111814,286.9333,347.7333 M,0,111814,111820,286.9333,347.7333,290.1333,342.4 M,0,111820,111826,290.1333,342.4,294.4,337.0667 M,0,111826,111832,294.4,337.0667 M,0,111832,111838,294.4,337.0667,302.9333,320 M,0,111838,111846,302.9333,320 M,0,111846,111849,302.9333,320,308.2667,309.3333 M,0,111849,111856,308.2667,309.3333,313.6,298.6667 M,0,111856,111863,313.6,298.6667 M,0,111863,111869,313.6,298.6667,325.3333,276.2667 M,0,111869,111875,325.3333,276.2667 M,0,111875,111881,325.3333,276.2667,331.7333,264.5333 M,0,111881,111887,331.7333,264.5333,337.0667,252.8 M,0,111887,111894,337.0667,252.8,342.4,243.2 M,0,111894,111898,342.4,243.2 M,0,111898,111905,342.4,243.2,349.8666,227.2 M,0,111905,111912,349.8666,227.2 M,0,111912,111918,349.8666,227.2,352,221.8667 M,0,111918,111925,352,221.8667,354.1333,218.6667 M,0,111925,111929,354.1333,218.6667,355.2,217.6 M,0,111929,111935,355.2,217.6,356.2666,216.5333 M,0,111935,111942,356.2666,216.5333 M,0,111942,111947,356.2666,216.5333,356.2666,215.4667 M,0,111947,111953,356.2666,215.4667,357.3333,215.4667 M,0,111953,111960,357.3333,215.4667 M,0,111960,111965,357.3333,215.4667 M,0,111965,111971,357.3333,215.4667 M,0,111971,111977,357.3333,215.4667 M,0,111977,111982,357.3333,215.4667,356.2666,215.4667 M,0,111982,111990,356.2666,215.4667 M,0,111990,111994,356.2666,215.4667 M,0,111994,112000,356.2666,215.4667,352,213.3333 M,0,112000,112007,352,213.3333 M,0,112007,112012,352,213.3333,347.7333,212.2666 M,0,112012,112018,347.7333,212.2666,342.4,210.1333 M,0,112018,112025,342.4,210.1333,336,206.9333 M,0,112025,112030,336,206.9333 M,0,112030,112037,336,206.9333,318.9333,197.3333 M,0,112037,112044,318.9333,197.3333 M,0,112044,112049,318.9333,197.3333,309.3333,189.8667 M,0,112049,112056,309.3333,189.8667,299.7333,181.3333 M,0,112056,112061,299.7333,181.3333 M,0,112061,112067,299.7333,181.3333,278.4,163.2 M,0,112067,112074,278.4,163.2 M,0,112074,112080,278.4,163.2,266.6666,153.6 M,0,112080,112086,266.6666,153.6,254.9333,145.0667 M,0,112086,112094,254.9333,145.0667 M,0,112094,112098,254.9333,145.0667,243.2,136.5333 M,0,112098,112105,243.2,136.5333,221.8667,123.7333 M,0,112105,112112,221.8667,123.7333 M,0,112112,112118,221.8667,123.7333,212.2666,118.4 M,0,112118,112124,212.2666,118.4 M,0,112124,112128,212.2666,118.4,205.8667,114.1333 M,0,112128,112135,205.8667,114.1333,197.3333,109.8667 M,0,112135,112142,197.3333,109.8667 M,0,112142,112147,197.3333,109.8667,196.2666,108.8 M,0,112147,112152,196.2666,108.8,197.3333,107.7333 M,0,112152,112160,197.3333,107.7333 M,0,112160,112165,197.3333,107.7333,200.5333,107.7333 M,0,112165,112171,200.5333,107.7333,212.2666,107.7333 M,0,112171,112177,212.2666,107.7333 M,0,112177,112182,212.2666,107.7333,220.8,107.7333 M,0,112182,112189,220.8,107.7333 M,0,112189,112195,220.8,107.7333,230.4,107.7333 M,0,112195,112201,230.4,107.7333,251.7333,108.8 M,0,112201,112207,251.7333,108.8 M,0,112207,112212,251.7333,108.8 M,0,112212,112218,251.7333,108.8,278.4,110.9333 M,0,112218,112226,278.4,110.9333 M,0,112226,112231,278.4,110.9333,292.2666,110.9333 M,0,112231,112237,292.2666,110.9333,320,112 M,0,112237,112245,320,112 M,0,112245,112250,320,112,333.8667,112 M,0,112250,112258,333.8667,112,346.6667,110.9333 M,0,112258,112263,346.6667,110.9333 M,0,112263,112269,346.6667,110.9333,372.2667,105.6 M,0,112269,112276,372.2667,105.6 M,0,112276,112281,372.2667,105.6 M,0,112281,112287,372.2667,105.6,397.8667,98.13332 M,0,112287,112294,397.8667,98.13332 M,0,112294,112300,397.8667,98.13332,420.2666,90.66666 M,0,112300,112306,420.2666,90.66666 M,0,112306,112311,420.2666,90.66666 M,0,112311,112318,420.2666,90.66666,439.4666,84.26665 M,0,112318,112324,439.4666,84.26665 M,0,112324,112330,439.4666,84.26665,446.9333,83.19999 M,0,112330,112336,446.9333,83.19999,453.3333,83.19999 M,0,112336,112344,453.3333,83.19999,458.6667,83.19999 M,0,112344,112348,458.6667,83.19999,461.8666,84.26665 M,0,112348,112354,461.8666,84.26665,465.0667,86.39999 M,0,112354,112362,465.0667,86.39999 M,0,112362,112367,465.0667,86.39999,467.2,89.59999 M,0,112367,112374,467.2,89.59999,469.3333,93.86665 M,0,112374,112380,469.3333,93.86665,470.4,99.19998 M,0,112380,112386,470.4,99.19998,471.4666,103.4667 M,0,112386,112394,471.4666,103.4667 M,0,112394,112398,471.4666,103.4667,473.6,109.8667 M,0,112398,112405,473.6,109.8667,475.7333,121.6 M,0,112405,112412,475.7333,121.6 M,0,112412,112416,475.7333,121.6 M,0,112416,112422,475.7333,121.6,475.7333,133.3333 M,0,112422,112430,475.7333,133.3333 M,0,112430,112436,475.7333,133.3333,475.7333,146.1333 M,0,112436,112443,475.7333,146.1333 M,0,112443,112447,475.7333,146.1333,475.7333,151.4666 M,0,112447,112453,475.7333,151.4666,474.6666,156.8 M,0,112453,112461,474.6666,156.8 M,0,112461,112465,474.6666,156.8,472.5333,162.1333 M,0,112465,112471,472.5333,162.1333,469.3333,172.8 M,0,112471,112478,469.3333,172.8 M,0,112478,112484,469.3333,172.8,467.2,179.2 M,0,112484,112491,467.2,179.2 M,0,112491,112496,467.2,179.2,465.0667,186.6667 M,0,112496,112502,465.0667,186.6667,459.7333,200.5333 M,0,112502,112509,459.7333,200.5333 M,0,112509,112514,459.7333,200.5333 M,0,112514,112520,459.7333,200.5333,452.2666,213.3333 M,0,112520,112527,452.2666,213.3333 M,0,112527,112532,452.2666,213.3333,449.0667,218.6667 M,0,112532,112538,449.0667,218.6667,445.8666,221.8667 M,0,112538,112545,445.8666,221.8667,443.7333,224 M,0,112545,112550,443.7333,224,442.6666,225.0667 M,0,112550,112557,442.6666,225.0667 M,0,112557,112562,442.6666,225.0667,441.6,226.1333 M,0,112562,112569,441.6,226.1333 M,0,112569,112575,441.6,226.1333 M,0,112575,112581,441.6,226.1333 M,0,112581,112587,441.6,226.1333,441.6,227.2 M,0,112587,112595,441.6,227.2 M,0,112595,112600,441.6,227.2,443.7333,228.2666 M,0,112600,112606,443.7333,228.2666 M,0,112606,112612,443.7333,228.2666,444.8,228.2666 M,0,112612,112618,444.8,228.2666,446.9333,228.2666 M,0,112618,112625,446.9333,228.2666 M,0,112625,112631,446.9333,228.2666,448,229.3333 M,0,112631,112637,448,229.3333,452.2666,229.3333 M,0,112637,112645,452.2666,229.3333 M,0,112645,112650,452.2666,229.3333,453.3333,229.3333 M,0,112650,112657,453.3333,229.3333,455.4666,229.3333 M,0,112657,112662,455.4666,229.3333 M,0,112662,112668,455.4666,229.3333,457.6,229.3333 M,0,112668,112675,457.6,229.3333 M,0,112675,112681,457.6,229.3333,458.6667,230.4 M,0,112681,112687,458.6667,230.4,459.7333,230.4 M,0,112687,112694,459.7333,230.4 M,0,112694,112700,459.7333,230.4 M,0,112700,112706,459.7333,230.4 M,0,112706,112712,459.7333,230.4 M,0,112712,112718,459.7333,230.4 M,0,112718,112725,459.7333,230.4 M,0,112725,112730,459.7333,230.4 M,0,112730,112737,459.7333,230.4,457.6,229.3333 M,0,112737,112744,457.6,229.3333 M,0,112744,112750,457.6,229.3333,450.1333,224 M,0,112750,112756,450.1333,224 M,0,112756,112762,450.1333,224 M,0,112762,112768,450.1333,224,436.2667,215.4667 M,0,112768,112775,436.2667,215.4667 M,0,112775,112780,436.2667,215.4667,427.7333,209.0667 M,0,112780,112787,427.7333,209.0667,406.4,194.1333 M,0,112787,112794,406.4,194.1333 M,0,112794,112799,406.4,194.1333,393.6,185.6 M,0,112799,112806,393.6,185.6,381.8666,177.0667 M,0,112806,112813,381.8666,177.0667 M,0,112813,112819,381.8666,177.0667,358.4,160 M,0,112819,112825,358.4,160 M,0,112825,112831,358.4,160,347.7333,152.5333 M,0,112831,112837,347.7333,152.5333,338.1333,146.1333 M,0,112837,112844,338.1333,146.1333 M,0,112844,112848,338.1333,146.1333,328.5333,139.7333 M,0,112848,112855,328.5333,139.7333,314.6667,131.2 M,0,112855,112863,314.6667,131.2 M,0,112863,112868,314.6667,131.2,310.4,129.0667 M,0,112868,112875,310.4,129.0667 M,0,112875,112879,310.4,129.0667,307.2,126.9333 M,0,112879,112886,307.2,126.9333,305.0667,125.8667 M,0,112886,112893,305.0667,125.8667 M,0,112893,112897,305.0667,125.8667 M,0,112897,112903,305.0667,125.8667 M,0,112903,112910,305.0667,125.8667 M,0,112910,112915,305.0667,125.8667,307.2,125.8667 M,0,112915,112921,307.2,125.8667,310.4,125.8667 M,0,112921,112929,310.4,125.8667 M,0,112929,112935,310.4,125.8667,312.5333,125.8667 M,0,112935,112942,312.5333,125.8667 M,0,112942,112947,312.5333,125.8667,314.6667,126.9333 M,0,112947,112954,314.6667,126.9333,316.8,130.1333 M,0,112954,112962,316.8,130.1333 M,0,112962,112968,316.8,130.1333,316.8,133.3333 M,0,112968,112975,316.8,133.3333,316.8,136.5333 M,0,112975,112981,316.8,136.5333,314.6667,140.8 M,0,112981,112987,314.6667,140.8,311.4666,145.0667 M,0,112987,112994,311.4666,145.0667 M,0,112994,112999,311.4666,145.0667,307.2,149.3333 M,0,112999,113006,307.2,149.3333,295.4666,158.9333 M,0,113006,113014,295.4666,158.9333 M,0,113014,113019,295.4666,158.9333,288,163.2 M,0,113019,113026,288,163.2,279.4666,168.5333 M,0,113026,113031,279.4666,168.5333 M,0,113031,113038,279.4666,168.5333,260.2666,179.2 M,0,113038,113045,260.2666,179.2 M,0,113045,113051,260.2666,179.2,250.6667,185.6 M,0,113051,113058,250.6667,185.6,241.0666,193.0667 M,0,113058,113065,241.0666,193.0667,231.4666,200.5333 M,0,113065,113070,231.4666,200.5333,222.9333,209.0667 M,0,113070,113077,222.9333,209.0667 M,0,113077,113083,222.9333,209.0667,214.4,216.5333 M,0,113083,113089,214.4,216.5333,200.5333,229.3333 M,0,113089,113096,200.5333,229.3333 M,0,113096,113102,200.5333,229.3333,194.1333,235.7333 M,0,113102,113109,194.1333,235.7333 M,0,113109,113114,194.1333,235.7333 M,0,113114,113121,194.1333,235.7333,192,237.8667 M,0,113121,113129,192,237.8667,193.0667,237.8667 M,0,113129,113134,193.0667,237.8667,195.2,237.8667 M,0,113134,113141,195.2,237.8667 M,0,113141,113146,195.2,237.8667,197.3333,237.8667 M,0,113146,113152,197.3333,237.8667,201.6,236.8 M,0,113152,113160,201.6,236.8,205.8667,235.7333 M,0,113160,113165,205.8667,235.7333 M,0,113165,113171,205.8667,235.7333,214.4,234.6666 M,0,113171,113179,214.4,234.6666 M,0,113179,113185,214.4,234.6666,222.9333,233.6 M,0,113185,113192,222.9333,233.6 M,0,113192,113197,222.9333,233.6,227.2,233.6 M,0,113197,113203,227.2,233.6,231.4666,233.6 M,0,113203,113211,231.4666,233.6 M,0,113211,113215,231.4666,233.6,234.6666,233.6 M,0,113215,113222,234.6666,233.6,245.3333,234.6666 M,0,113222,113230,245.3333,234.6666 M,0,113230,113236,245.3333,234.6666,251.7333,235.7333 M,0,113236,113243,251.7333,235.7333 M,0,113243,113247,251.7333,235.7333,260.2666,236.8 M,0,113247,113255,260.2666,236.8,277.3333,238.9333 M,0,113255,113262,277.3333,238.9333 M,0,113262,113267,277.3333,238.9333,285.8666,241.0667 M,0,113267,113273,285.8666,241.0667,304,246.4 M,0,113273,113281,304,246.4 M,0,113281,113286,304,246.4,312.5333,249.6 M,0,113286,113293,312.5333,249.6 M,0,113293,113298,312.5333,249.6,322.1333,251.7333 M,0,113298,113305,322.1333,251.7333,341.3333,254.9333 M,0,113305,113313,341.3333,254.9333 M,0,113313,113318,341.3333,254.9333,350.9333,254.9333 M,0,113318,113326,350.9333,254.9333,360.5333,254.9333 M,0,113326,113331,360.5333,254.9333 M,0,113331,113338,360.5333,254.9333,380.8,253.8666 M,0,113338,113345,380.8,253.8666 M,0,113345,113351,380.8,253.8666,391.4666,251.7333 M,0,113351,113358,391.4666,251.7333,402.1333,250.6667 M,0,113358,113365,402.1333,250.6667,412.8,248.5333 M,0,113365,113370,412.8,248.5333,423.4667,245.3333 M,0,113370,113377,423.4667,245.3333,433.0667,243.2 M,0,113377,113383,433.0667,243.2 M,0,113383,113389,433.0667,243.2,451.2,237.8667 M,0,113389,113396,451.2,237.8667 M,0,113396,113402,451.2,237.8667,465.0667,232.5333 M,0,113402,113409,465.0667,232.5333 M,0,113409,113415,465.0667,232.5333,470.4,229.3333 M,0,113415,113421,470.4,229.3333,475.7333,228.2666 M,0,113421,113429,475.7333,228.2666,480,227.2 M,0,113429,113435,480,227.2,484.2667,226.1333 M,0,113435,113442,484.2667,226.1333 M,0,113442,113448,484.2667,226.1333,486.4,226.1333 M,0,113448,113455,486.4,226.1333,490.6667,227.2 M,0,113455,113462,490.6667,227.2 M,0,113462,113469,490.6667,227.2,491.7333,229.3333 M,0,113469,113475,491.7333,229.3333 M,0,113475,113481,491.7333,229.3333,492.8,230.4 M,0,113481,113488,492.8,230.4,493.8666,235.7333 M,0,113488,113495,493.8666,235.7333 M,0,113495,113500,493.8666,235.7333,493.8666,238.9333 M,0,113500,113507,493.8666,238.9333,493.8666,241.0667 M,0,113507,113514,493.8666,241.0667 M,0,113514,113520,493.8666,241.0667,491.7333,248.5333 M,0,113520,113526,491.7333,248.5333 M,0,113526,113532,491.7333,248.5333,489.6,251.7333 M,0,113532,113538,489.6,251.7333,488.5333,254.9333 M,0,113538,113545,488.5333,254.9333,486.4,258.1333 M,0,113545,113549,486.4,258.1333 M,0,113549,113556,486.4,258.1333,483.2,263.4666 M,0,113556,113563,483.2,263.4666 M,0,113563,113568,483.2,263.4666,481.0667,266.6667 M,0,113568,113575,481.0667,266.6667,478.9333,269.8667 M,0,113575,113580,478.9333,269.8667,476.8,273.0667 M,0,113580,113587,476.8,273.0667,473.6,276.2667 M,0,113587,113593,473.6,276.2667 M,0,113593,113598,473.6,276.2667,471.4666,279.4666 M,0,113598,113603,471.4666,279.4666,468.2666,282.6667 M,0,113603,113611,468.2666,282.6667,466.1333,285.8666 M,0,113611,113615,466.1333,285.8666 M,0,113615,113621,466.1333,285.8666,458.6667,293.3333 M,0,113621,113627,458.6667,293.3333 M,0,113627,113632,458.6667,293.3333 M,0,113632,113638,458.6667,293.3333,451.2,300.8 M,0,113638,113645,451.2,300.8 M,0,113645,113650,451.2,300.8,442.6666,307.2 M,0,113650,113656,442.6666,307.2 M,0,113656,113662,442.6666,307.2 M,0,113662,113668,442.6666,307.2,430.9333,314.6667 M,0,113668,113674,430.9333,314.6667 M,0,113674,113680,430.9333,314.6667,424.5333,317.8666 M,0,113680,113686,424.5333,317.8666,417.0667,321.0667 M,0,113686,113694,417.0667,321.0667,408.5333,324.2666 M,0,113694,113697,408.5333,324.2666 M,0,113697,113703,408.5333,324.2666,390.4,332.8 M,0,113703,113710,390.4,332.8 M,0,113710,113715,390.4,332.8,379.7333,338.1333 M,0,113715,113721,379.7333,338.1333,368,343.4666 M,0,113721,113728,368,343.4666,356.2666,348.8 M,0,113728,113734,356.2666,348.8,345.6,354.1333 M,0,113734,113741,345.6,354.1333 M,0,113741,113746,345.6,354.1333,334.9333,359.4667 M,0,113746,113752,334.9333,359.4667,325.3333,363.7333 M,0,113752,113758,325.3333,363.7333 M,0,113758,113763,325.3333,363.7333,315.7333,368 M,0,113763,113769,315.7333,368,307.2,372.2667 M,0,113769,113775,307.2,372.2667,300.8,375.4666 M,0,113775,113780,300.8,375.4666 M,0,113780,113787,300.8,375.4666,289.0667,379.7333 M,0,113787,113793,289.0667,379.7333 M,0,113793,113798,289.0667,379.7333,285.8666,381.8666 M,0,113798,113805,285.8666,381.8666,282.6667,381.8666 M,0,113805,113811,282.6667,381.8666 M,0,113811,113816,282.6667,381.8666,280.5333,382.9333 M,0,113816,113822,280.5333,382.9333,279.4666,382.9333 M,0,113822,113827,279.4666,382.9333 M,0,113827,113834,279.4666,382.9333 M,0,113834,113841,279.4666,382.9333 M,0,113841,113846,279.4666,382.9333 M,0,113846,113851,279.4666,382.9333,280.5333,379.7333 M,0,113851,113857,280.5333,379.7333 M,0,113857,113863,280.5333,379.7333 M,0,113863,113869,280.5333,379.7333,282.6667,374.4 M,0,113869,113875,282.6667,374.4 M,0,113875,113880,282.6667,374.4,284.8,371.2 M,0,113880,113887,284.8,371.2,286.9333,369.0667 M,0,113887,113893,286.9333,369.0667 M,0,113893,113899,286.9333,369.0667,288,365.8667 M,0,113899,113905,288,365.8667,291.2,360.5333 M,0,113905,113912,291.2,360.5333 M,0,113912,113918,291.2,360.5333,292.2666,358.4 M,0,113918,113925,292.2666,358.4 M,0,113925,113930,292.2666,358.4,292.2666,356.2667 M,0,113930,113936,292.2666,356.2667,293.3333,349.8666 M,0,113936,113943,293.3333,349.8666 M,0,113943,113947,293.3333,349.8666,293.3333,345.6 M,0,113947,113953,293.3333,345.6,294.4,340.2667 M,0,113953,113959,294.4,340.2667 M,0,113959,113964,294.4,340.2667,294.4,336 M,0,113964,113970,294.4,336,295.4666,330.6667 M,0,113970,113976,295.4666,330.6667,296.5333,325.3333 M,0,113976,113981,296.5333,325.3333 M,0,113981,113987,296.5333,325.3333,300.8,315.7333 M,0,113987,113994,300.8,315.7333 M,0,113994,113999,300.8,315.7333,302.9333,311.4666 M,0,113999,114006,302.9333,311.4666,305.0667,307.2 M,0,114006,114012,305.0667,307.2 M,0,114012,114018,305.0667,307.2,307.2,302.9333 M,0,114018,114025,307.2,302.9333,309.3333,299.7333 M,0,114025,114028,309.3333,299.7333 M,0,114028,114034,309.3333,299.7333,313.6,290.1333 M,0,114034,114040,313.6,290.1333 M,0,114040,114045,313.6,290.1333,314.6667,284.8 M,0,114045,114051,314.6667,284.8,316.8,277.3333 M,0,114051,114057,316.8,277.3333 M,0,114057,114062,316.8,277.3333,317.8666,270.9333 M,0,114062,114068,317.8666,270.9333,318.9333,262.4 M,0,114068,114074,318.9333,262.4,318.9333,253.8666 M,0,114074,114080,318.9333,253.8666 M,0,114080,114086,318.9333,253.8666,318.9333,234.6666 M,0,114086,114093,318.9333,234.6666 M,0,114093,114097,318.9333,234.6666,318.9333,222.9333 M,0,114097,114104,318.9333,222.9333,318.9333,211.2 M,0,114104,114111,318.9333,211.2 M,0,114111,114116,318.9333,211.2,317.8666,199.4667 M,0,114116,114122,317.8666,199.4667,317.8666,174.9333 M,0,114122,114129,317.8666,174.9333 M,0,114129,114135,317.8666,174.9333,317.8666,163.2 M,0,114135,114142,317.8666,163.2 M,0,114142,114147,317.8666,163.2,317.8666,151.4666 M,0,114147,114152,317.8666,151.4666,317.8666,129.0667 M,0,114152,114159,317.8666,129.0667 M,0,114159,114164,317.8666,129.0667 M,0,114164,114170,317.8666,129.0667,318.9333,107.7333 M,0,114170,114176,318.9333,107.7333 M,0,114176,114182,318.9333,107.7333,318.9333,98.13332 M,0,114182,114188,318.9333,98.13332,318.9333,89.59999 M,0,114188,114195,318.9333,89.59999,318.9333,81.06665 M,0,114195,114200,318.9333,81.06665,317.8666,74.66665 M,0,114200,114206,317.8666,74.66665 M,0,114206,114212,317.8666,74.66665,317.8666,69.33331 M,0,114212,114218,317.8666,69.33331,316.8,65.06665 M,0,114218,114224,316.8,65.06665,316.8,61.86665 M,0,114224,114230,316.8,61.86665 M,0,114230,114237,316.8,61.86665,317.8666,56.53332 M,0,114237,114243,317.8666,56.53332 M,0,114243,114248,317.8666,56.53332,320,55.46665 M,0,114248,114255,320,55.46665,322.1333,53.33332 M,0,114255,114262,322.1333,53.33332 M,0,114262,114268,322.1333,53.33332,327.4666,53.33332 M,0,114268,114274,327.4666,53.33332 M,0,114274,114280,327.4666,53.33332,329.6,53.33332 M,0,114280,114286,329.6,53.33332,331.7333,55.46665 M,0,114286,114293,331.7333,55.46665 M,0,114293,114298,331.7333,55.46665,334.9333,58.66665 M,0,114298,114305,334.9333,58.66665,339.2,70.39999 M,0,114305,114312,339.2,70.39999 M,0,114312,114317,339.2,70.39999,341.3333,79.99999 M,0,114317,114323,341.3333,79.99999,344.5333,90.66666 M,0,114323,114330,344.5333,90.66666,348.8,102.4 M,0,114330,114336,348.8,102.4,354.1333,116.2667 M,0,114336,114343,354.1333,116.2667 M,0,114343,114347,354.1333,116.2667,359.4666,130.1333 M,0,114347,114353,359.4666,130.1333,366.9333,145.0667 M,0,114353,114360,366.9333,145.0667,374.4,161.0667 M,0,114360,114365,374.4,161.0667 M,0,114365,114370,374.4,161.0667,389.3333,187.7333 M,0,114370,114376,389.3333,187.7333 M,0,114376,114382,389.3333,187.7333 M,0,114382,114388,389.3333,187.7333,402.1333,209.0667 M,0,114388,114394,402.1333,209.0667 M,0,114394,114400,402.1333,209.0667,407.4666,216.5333 M,0,114400,114406,407.4666,216.5333,411.7333,222.9333 M,0,114406,114413,411.7333,222.9333 M,0,114413,114418,411.7333,222.9333,417.0667,230.4 M,0,114418,114425,417.0667,230.4 M,0,114425,114429,417.0667,230.4,418.1333,233.6 M,0,114429,114435,418.1333,233.6,419.2,235.7333 M,0,114435,114442,419.2,235.7333 M,0,114442,114446,419.2,235.7333,419.2,237.8667 M,0,114446,114452,419.2,237.8667,419.2,240 M,0,114452,114458,419.2,240 M,0,114458,114463,419.2,240 M,0,114463,114469,419.2,240,416,243.2 M,0,114469,114475,416,243.2 M,0,114475,114481,416,243.2,412.8,244.2667 M,0,114481,114487,412.8,244.2667,408.5333,245.3333 M,0,114487,114494,408.5333,245.3333 M,0,114494,114499,408.5333,245.3333,404.2667,246.4 M,0,114499,114506,404.2667,246.4,389.3333,247.4666 M,0,114506,114513,389.3333,247.4666 M,0,114513,114519,389.3333,247.4666,380.8,247.4666 M,0,114519,114525,380.8,247.4666 M,0,114525,114530,380.8,247.4666,371.2,246.4 M,0,114530,114537,371.2,246.4,348.8,243.2 M,0,114537,114543,348.8,243.2 M,0,114543,114548,348.8,243.2,337.0667,241.0667 M,0,114548,114553,337.0667,241.0667,324.2666,236.8 M,0,114553,114560,324.2666,236.8 M,0,114560,114565,324.2666,236.8,312.5333,232.5333 M,0,114565,114571,312.5333,232.5333,300.8,228.2666 M,0,114571,114577,300.8,228.2666,290.1333,221.8667 M,0,114577,114583,290.1333,221.8667,280.5333,215.4667 M,0,114583,114590,280.5333,215.4667 M,0,114590,114595,280.5333,215.4667,270.9333,209.0667 M,0,114595,114600,270.9333,209.0667,263.4666,203.7333 M,0,114600,114607,263.4666,203.7333,257.0667,197.3333 M,0,114607,114612,257.0667,197.3333 M,0,114612,114618,257.0667,197.3333,247.4667,187.7333 M,0,114618,114625,247.4667,187.7333 M,0,114625,114630,247.4667,187.7333,244.2667,182.4 M,0,114630,114637,244.2667,182.4,242.1333,178.1333 M,0,114637,114643,242.1333,178.1333 M,0,114643,114650,242.1333,178.1333,240,174.9333 M,0,114650,114656,240,174.9333,240,166.4 M,0,114656,114663,240,166.4 M,0,114663,114669,240,166.4,241.0666,162.1333 M,0,114669,114675,241.0666,162.1333,242.1333,157.8667 M,0,114675,114681,242.1333,157.8667 M,0,114681,114687,242.1333,157.8667,247.4667,148.2666 M,0,114687,114694,247.4667,148.2666 M,0,114694,114698,247.4667,148.2666,251.7333,141.8667 M,0,114698,114705,251.7333,141.8667,256,136.5333 M,0,114705,114712,256,136.5333 M,0,114712,114718,256,136.5333,267.7333,122.6666 M,0,114718,114724,267.7333,122.6666 M,0,114724,114730,267.7333,122.6666,275.2,116.2667 M,0,114730,114736,275.2,116.2667,282.6667,109.8667 M,0,114736,114743,282.6667,109.8667 M,0,114743,114747,282.6667,109.8667,291.2,104.5333 M,0,114747,114753,291.2,104.5333,308.2667,95.99998 M,0,114753,114760,308.2667,95.99998 M,0,114760,114765,308.2667,95.99998 M,0,114765,114771,308.2667,95.99998,328.5333,90.66666 M,0,114771,114777,328.5333,90.66666 M,0,114777,114782,328.5333,90.66666,338.1333,89.59999 M,0,114782,114788,338.1333,89.59999,347.7333,88.53332 M,0,114788,114795,347.7333,88.53332,356.2666,88.53332 M,0,114795,114800,356.2666,88.53332,364.8,88.53332 M,0,114800,114806,364.8,88.53332 M,0,114806,114812,364.8,88.53332,373.3333,89.59999 M,0,114812,114818,373.3333,89.59999,381.8666,91.73331 M,0,114818,114825,381.8666,91.73331,389.3333,93.86665 M,0,114825,114830,389.3333,93.86665 M,0,114830,114837,389.3333,93.86665,401.0667,99.19998 M,0,114837,114843,401.0667,99.19998 M,0,114843,114848,401.0667,99.19998,405.3333,102.4 M,0,114848,114855,405.3333,102.4,408.5333,105.6 M,0,114855,114862,408.5333,105.6 M,0,114862,114866,408.5333,105.6,409.6,107.7333 M,0,114866,114872,409.6,107.7333,408.5333,115.2 M,0,114872,114879,408.5333,115.2 M,0,114879,114886,408.5333,115.2,406.4,118.4 M,0,114886,114892,406.4,118.4 M,0,114892,114897,406.4,118.4,403.2,123.7333 M,0,114897,114903,403.2,123.7333,392.5333,134.4 M,0,114903,114910,392.5333,134.4 M,0,114910,114915,392.5333,134.4,385.0667,139.7333 M,0,114915,114921,385.0667,139.7333,377.6,146.1333 M,0,114921,114927,377.6,146.1333,370.1333,152.5333 M,0,114927,114934,370.1333,152.5333,362.6667,160 M,0,114934,114941,362.6667,160 M,0,114941,114946,362.6667,160,355.2,168.5333 M,0,114946,114952,355.2,168.5333,347.7333,178.1333 M,0,114952,114959,347.7333,178.1333,339.2,189.8667 M,0,114959,114964,339.2,189.8667 M,0,114964,114970,339.2,189.8667,324.2666,214.4 M,0,114970,114977,324.2666,214.4 M,0,114977,114982,324.2666,214.4,316.8,225.0667 M,0,114982,114988,316.8,225.0667,310.4,234.6666 M,0,114988,114995,310.4,234.6666 M,0,114995,115000,310.4,234.6666,300.8,249.6 M,0,115000,115007,300.8,249.6 M,0,115007,115012,300.8,249.6,298.6666,253.8666 M,0,115012,115018,298.6666,253.8666,296.5333,258.1333 M,0,115018,115025,296.5333,258.1333 M,0,115025,115030,296.5333,258.1333,295.4666,260.2666 M,0,115030,115037,295.4666,260.2666,295.4666,263.4666 M,0,115037,115044,295.4666,263.4666,295.4666,264.5333 M,0,115044,115050,295.4666,264.5333,296.5333,266.6667 M,0,115050,115056,296.5333,266.6667,298.6666,267.7333 M,0,115056,115063,298.6666,267.7333 M,0,115063,115069,298.6666,267.7333,304,268.8 M,0,115069,115075,304,268.8 M,0,115075,115081,304,268.8,308.2667,269.8667 M,0,115081,115087,308.2667,269.8667,312.5333,269.8667 M,0,115087,115094,312.5333,269.8667 M,0,115094,115100,312.5333,269.8667,316.8,269.8667 M,0,115100,115106,316.8,269.8667,327.4666,268.8 M,0,115106,115113,327.4666,268.8 M,0,115113,115119,327.4666,268.8,332.8,268.8 M,0,115119,115125,332.8,268.8 M,0,115125,115129,332.8,268.8,339.2,268.8 M,0,115129,115136,339.2,268.8,352,268.8 M,0,115136,115143,352,268.8 M,0,115143,115147,352,268.8,359.4666,268.8 M,0,115147,115153,359.4666,268.8,365.8667,270.9333 M,0,115153,115160,365.8667,270.9333 M,0,115160,115165,365.8667,270.9333,373.3333,272 M,0,115165,115171,373.3333,272,380.8,274.1333 M,0,115171,115177,380.8,274.1333,388.2666,276.2667 M,0,115177,115182,388.2666,276.2667,395.7333,278.4 M,0,115182,115189,395.7333,278.4 M,0,115189,115194,395.7333,278.4,402.1333,280.5333 M,0,115194,115200,402.1333,280.5333,408.5333,281.6 M,0,115200,115206,408.5333,281.6,413.8666,282.6667 M,0,115206,115211,413.8666,282.6667 M,0,115211,115218,413.8666,282.6667,421.3333,285.8666 M,0,115218,115224,421.3333,285.8666 M,0,115224,115230,421.3333,285.8666,424.5333,286.9333 M,0,115230,115236,424.5333,286.9333,426.6667,289.0667 M,0,115236,115243,426.6667,289.0667 M,0,115243,115247,426.6667,289.0667,427.7333,292.2666 M,0,115247,115253,427.7333,292.2666,428.8,297.6 M,0,115253,115260,428.8,297.6 M,0,115260,115264,428.8,297.6 M,0,115264,115270,428.8,297.6,426.6667,302.9333 M,0,115270,115276,426.6667,302.9333 M,0,115276,115282,426.6667,302.9333,423.4667,307.2 M,0,115282,115289,423.4667,307.2,419.2,311.4666 M,0,115289,115293,419.2,311.4666 M,0,115293,115300,419.2,311.4666,407.4666,321.0667 M,0,115300,115306,407.4666,321.0667 M,0,115306,115311,407.4666,321.0667,400,326.4 M,0,115311,115317,400,326.4,390.4,332.8 M,0,115317,115324,390.4,332.8 M,0,115324,115329,390.4,332.8,381.8666,338.1333 M,0,115329,115336,381.8666,338.1333,371.2,345.6 M,0,115336,115342,371.2,345.6 M,0,115342,115347,371.2,345.6,360.5333,352 M,0,115347,115352,360.5333,352,339.2,365.8667 M,0,115352,115359,339.2,365.8667 M,0,115359,115364,339.2,365.8667,329.6,371.2 M,0,115364,115370,329.6,371.2,318.9333,377.6 M,0,115370,115376,318.9333,377.6 M,0,115376,115381,318.9333,377.6,310.4,382.9333 M,0,115381,115388,310.4,382.9333,301.8666,387.2 M,0,115388,115394,301.8666,387.2,295.4666,391.4667 M,0,115394,115399,295.4666,391.4667,289.0667,394.6667 M,0,115399,115406,289.0667,394.6667 M,0,115406,115410,289.0667,394.6667,284.8,396.8 M,0,115410,115417,284.8,396.8,281.6,397.8667 M,0,115417,115424,281.6,397.8667,278.4,398.9333 M,0,115424,115428,278.4,398.9333 M,0,115428,115435,278.4,398.9333,276.2667,398.9333 M,0,115435,115441,276.2667,398.9333 M,0,115441,115446,276.2667,398.9333 M,0,115446,115452,276.2667,398.9333,275.2,397.8667 M,0,115452,115459,275.2,397.8667 M,0,115459,115464,275.2,397.8667,275.2,394.6667 M,0,115464,115470,275.2,394.6667,274.1333,390.4 M,0,115470,115477,274.1333,390.4,273.0667,386.1333 M,0,115477,115481,273.0667,386.1333,269.8666,381.8666 M,0,115481,115489,269.8666,381.8666 M,0,115489,115493,269.8666,381.8666,266.6666,376.5333 M,0,115493,115500,266.6666,376.5333,262.4,371.2 M,0,115500,115506,262.4,371.2,257.0667,364.8 M,0,115506,115513,257.0667,364.8 M,0,115513,115518,257.0667,364.8,241.0666,348.8 M,0,115518,115525,241.0666,348.8 M,0,115525,115530,241.0666,348.8,230.4,340.2667 M,0,115530,115536,230.4,340.2667,217.6,329.6 M,0,115536,115543,217.6,329.6 M,0,115543,115547,217.6,329.6,203.7333,320 M,0,115547,115552,203.7333,320,188.8,309.3333 M,0,115552,115560,188.8,309.3333,172.8,299.7333 M,0,115560,115564,172.8,299.7333 M,0,115564,115570,172.8,299.7333,140.8,282.6667 M,0,115570,115576,140.8,282.6667 M,0,115576,115581,140.8,282.6667 M,0,115581,115587,140.8,282.6667,114.1333,266.6667 M,0,115587,115594,114.1333,266.6667 M,0,115594,115599,114.1333,266.6667,103.4666,259.2 M,0,115599,115606,103.4666,259.2,93.86665,253.8666 M,0,115606,115612,93.86665,253.8666 M,0,115612,115618,93.86665,253.8666,81.06664,244.2667 M,0,115618,115624,81.06664,244.2667 M,0,115624,115628,81.06664,244.2667,77.86665,241.0667 M,0,115628,115634,77.86665,241.0667 M,0,115634,115640,77.86665,241.0667,77.86665,236.8 M,0,115640,115646,77.86665,236.8 M,0,115646,115651,77.86665,236.8,78.93331,234.6666 M,0,115651,115657,78.93331,234.6666,81.06664,233.6 M,0,115657,115662,81.06664,233.6 M,0,115662,115668,81.06664,233.6,87.46664,231.4666 M,0,115668,115675,87.46664,231.4666 M,0,115675,115680,87.46664,231.4666,91.73331,231.4666 M,0,115680,115686,91.73331,231.4666,95.99998,232.5333 M,0,115686,115693,95.99998,232.5333 M,0,115693,115697,95.99998,232.5333,99.19998,234.6666 M,0,115697,115703,99.19998,234.6666,103.4666,236.8 M,0,115703,115710,103.4666,236.8,107.7333,240 M,0,115710,115714,107.7333,240 M,0,115714,115720,107.7333,240,116.2666,246.4 M,0,115720,115726,116.2666,246.4 M,0,115726,115731,116.2666,246.4 M,0,115731,115737,116.2666,246.4,123.7333,252.8 M,0,115737,115744,123.7333,252.8 M,0,115744,115749,123.7333,252.8,128,256 M,0,115749,115756,128,256,133.3333,258.1333 M,0,115756,115762,133.3333,258.1333 M,0,115762,115768,133.3333,258.1333,145.0667,262.4 M,0,115768,115774,145.0667,262.4 M,0,115774,115778,145.0667,262.4,151.4666,265.6 M,0,115778,115783,151.4666,265.6 M,0,115783,115789,151.4666,265.6,163.2,269.8667 M,0,115789,115796,163.2,269.8667 M,0,115796,115801,163.2,269.8667,169.6,272 M,0,115801,115806,169.6,272,173.8666,273.0667 M,0,115806,115811,173.8666,273.0667 M,0,115811,115817,173.8666,273.0667,181.3333,274.1333 M,0,115817,115824,181.3333,274.1333 M,0,115824,115829,181.3333,274.1333,184.5333,274.1333 M,0,115829,115836,184.5333,274.1333,187.7333,274.1333 M,0,115836,115842,187.7333,274.1333 M,0,115842,115847,187.7333,274.1333,190.9333,273.0667 M,0,115847,115853,190.9333,273.0667,194.1333,272 M,0,115853,115860,194.1333,272,197.3333,269.8667 M,0,115860,115864,197.3333,269.8667 M,0,115864,115870,197.3333,269.8667,203.7333,264.5333 M,0,115870,115876,203.7333,264.5333 M,0,115876,115881,203.7333,264.5333 M,0,115881,115887,203.7333,264.5333,211.2,262.4 M,0,115887,115894,211.2,262.4 M,0,115894,115899,211.2,262.4,215.4666,261.3333 M,0,115899,115905,215.4666,261.3333,217.6,260.2666 M,0,115905,115912,217.6,260.2666 M,0,115912,115918,217.6,260.2666,222.9333,258.1333 M,0,115918,115924,222.9333,258.1333 M,0,115924,115927,222.9333,258.1333,225.0667,256 M,0,115927,115933,225.0667,256 M,0,115933,115939,225.0667,256,228.2666,251.7333 M,0,115939,115945,228.2666,251.7333 M,0,115945,115950,228.2666,251.7333,229.3333,249.6 M,0,115950,115956,229.3333,249.6,231.4666,246.4 M,0,115956,115961,231.4666,246.4 M,0,115961,115967,231.4666,246.4,232.5333,243.2 M,0,115967,115974,232.5333,243.2,233.6,238.9333 M,0,115974,115977,233.6,238.9333 M,0,115977,115984,233.6,238.9333,236.8,231.4666 M,0,115984,115991,236.8,231.4666 M,0,115991,115995,236.8,231.4666,237.8666,227.2 M,0,115995,116001,237.8666,227.2,238.9333,224 M,0,116001,116007,238.9333,224,241.0666,219.7333 M,0,116007,116011,241.0666,219.7333 M,0,116011,116017,241.0666,219.7333,242.1333,216.5333 M,0,116017,116023,242.1333,216.5333 M,0,116023,116028,242.1333,216.5333,242.1333,212.2666 M,0,116028,116034,242.1333,212.2666,243.2,206.9333 M,0,116034,116041,243.2,206.9333 M,0,116041,116044,243.2,206.9333 M,0,116044,116050,243.2,206.9333,244.2667,201.6 M,0,116050,116056,244.2667,201.6 M,0,116056,116061,244.2667,201.6 M,0,116061,116067,244.2667,201.6,245.3333,196.2666 M,0,116067,116073,245.3333,196.2666 M,0,116073,116077,245.3333,196.2666,246.4,194.1333 M,0,116077,116083,246.4,194.1333,246.4,192 M,0,116083,116090,246.4,192 M,0,116090,116094,246.4,192,246.4,189.8667 M,0,116094,116100,246.4,189.8667,246.4,188.8 M,0,116100,116106,246.4,188.8,246.4,186.6667 M,0,116106,116111,246.4,186.6667 M,0,116111,116117,246.4,186.6667,246.4,185.6 M,0,116117,116123,246.4,185.6 M,0,116123,116127,246.4,185.6 M,0,116127,116132,246.4,185.6,246.4,184.5333 M,0,116132,116139,246.4,184.5333 M,0,116139,116143,246.4,184.5333 M,0,116143,116150,246.4,184.5333 M,0,116150,116156,246.4,184.5333 M,0,116156,116160,246.4,184.5333,246.4,183.4667 M,0,116160,116167,246.4,183.4667 M,0,116167,116173,246.4,183.4667 M,0,116173,116177,246.4,183.4667 M,0,116177,116184,246.4,183.4667 M,0,116184,116190,246.4,183.4667 M,0,116190,116194,246.4,183.4667 M,0,116194,116200,246.4,183.4667 M,0,116200,116206,246.4,183.4667 M,0,116206,116211,246.4,183.4667 M,0,116211,116217,246.4,183.4667,248.5333,185.6 M,0,116217,116223,248.5333,185.6 M,0,116223,116227,248.5333,185.6,249.6,188.8 M,0,116227,116234,249.6,188.8,252.8,193.0667 M,0,116234,116241,252.8,193.0667 M,0,116241,116245,252.8,193.0667,257.0667,198.4 M,0,116245,116251,257.0667,198.4,269.8666,215.4667 M,0,116251,116257,269.8666,215.4667 M,0,116257,116262,269.8666,215.4667 M,0,116262,116268,269.8666,215.4667,291.2,237.8667 M,0,116268,116274,291.2,237.8667 M,0,116274,116279,291.2,237.8667,304,251.7333 M,0,116279,116286,304,251.7333,318.9333,267.7333 M,0,116286,116292,318.9333,267.7333 M,0,116292,116296,318.9333,267.7333,334.9333,284.8 M,0,116296,116302,334.9333,284.8,350.9333,301.8667 M,0,116302,116309,350.9333,301.8667,365.8667,317.8666 M,0,116309,116313,365.8667,317.8666 M,0,116313,116319,365.8667,317.8666,379.7333,331.7333 M,0,116319,116325,379.7333,331.7333,392.5333,344.5333 M,0,116325,116330,392.5333,344.5333 M,0,116330,116336,392.5333,344.5333,411.7333,365.8667 M,0,116336,116343,411.7333,365.8667 M,0,116343,116347,411.7333,365.8667,419.2,374.4 M,0,116347,116352,419.2,374.4,426.6667,381.8666 M,0,116352,116359,426.6667,381.8666 M,0,116359,116364,426.6667,381.8666,434.1333,388.2667 M,0,116364,116370,434.1333,388.2667,440.5333,393.6 M,0,116370,116376,440.5333,393.6,446.9333,396.8 M,0,116376,116381,446.9333,396.8 M,0,116381,116387,446.9333,396.8,452.2666,400 M,0,116387,116393,452.2666,400,455.4666,401.0667 M,0,116393,116397,455.4666,401.0667 M,0,116397,116402,455.4666,401.0667,459.7333,402.1333 M,0,116402,116409,459.7333,402.1333 M,0,116409,116414,459.7333,402.1333,460.8,402.1333 M,0,116414,116420,460.8,402.1333,461.8666,401.0667 M,0,116420,116426,461.8666,401.0667 M,0,116426,116431,461.8666,401.0667,461.8666,397.8667 M,0,116431,116437,461.8666,397.8667,460.8,392.5333 M,0,116437,116443,460.8,392.5333 M,0,116443,116449,460.8,392.5333,457.6,386.1333 M,0,116449,116455,457.6,386.1333,449.0667,365.8667 M,0,116455,116462,449.0667,365.8667 M,0,116462,116466,449.0667,365.8667 M,0,116466,116471,449.0667,365.8667,437.3333,341.3333 M,0,116471,116477,437.3333,341.3333 M,0,116477,116482,437.3333,341.3333,429.8666,326.4 M,0,116482,116488,429.8666,326.4,422.4,311.4666 M,0,116488,116495,422.4,311.4666 M,0,116495,116499,422.4,311.4666,414.9333,295.4666 M,0,116499,116505,414.9333,295.4666,408.5333,279.4666 M,0,116505,116510,408.5333,279.4666 M,0,116510,116515,408.5333,279.4666,402.1333,263.4666 M,0,116515,116521,402.1333,263.4666,392.5333,233.6 M,0,116521,116527,392.5333,233.6 M,0,116527,116532,392.5333,233.6,388.2666,220.8 M,0,116532,116539,388.2666,220.8 M,0,116539,116543,388.2666,220.8,385.0667,209.0667 M,0,116543,116549,385.0667,209.0667,381.8666,199.4667 M,0,116549,116555,381.8666,199.4667,379.7333,192 M,0,116555,116562,379.7333,192 M,0,116562,116567,379.7333,192,377.6,186.6667 M,0,116567,116574,377.6,186.6667,375.4666,184.5333 M,0,116574,116577,375.4666,184.5333 M,0,116577,116583,375.4666,184.5333,373.3333,183.4667 M,0,116583,116589,373.3333,183.4667,370.1333,183.4667 M,0,116589,116595,370.1333,183.4667,366.9333,183.4667 M,0,116595,116600,366.9333,183.4667,362.6667,185.6 M,0,116600,116606,362.6667,185.6 M,0,116606,116610,362.6667,185.6,359.4666,186.6667 M,0,116610,116617,359.4666,186.6667,355.2,189.8667 M,0,116617,116623,355.2,189.8667 M,0,116623,116627,355.2,189.8667,349.8666,193.0667 M,0,116627,116634,349.8666,193.0667,338.1333,203.7333 M,0,116634,116641,338.1333,203.7333 M,0,116641,116645,338.1333,203.7333 M,0,116645,116651,338.1333,203.7333,322.1333,220.8 M,0,116651,116657,322.1333,220.8 M,0,116657,116662,322.1333,220.8,312.5333,232.5333 M,0,116662,116668,312.5333,232.5333,301.8666,246.4 M,0,116668,116675,301.8666,246.4 M,0,116675,116679,301.8666,246.4,290.1333,262.4 M,0,116679,116686,290.1333,262.4,276.2667,279.4666 M,0,116686,116693,276.2667,279.4666,262.4,296.5333 M,0,116693,116696,262.4,296.5333 M,0,116696,116702,262.4,296.5333,233.6,327.4667 M,0,116702,116709,233.6,327.4667 M,0,116709,116713,233.6,327.4667 M,0,116713,116720,233.6,327.4667,206.9333,348.8 M,0,116720,116726,206.9333,348.8 M,0,116726,116730,206.9333,348.8,195.2,356.2667 M,0,116730,116737,195.2,356.2667,185.6,362.6667 M,0,116737,116743,185.6,362.6667 M,0,116743,116747,185.6,362.6667,177.0667,366.9333 M,0,116747,116753,177.0667,366.9333,166.4,371.2 M,0,116753,116760,166.4,371.2 M,0,116760,116764,166.4,371.2 M,0,116764,116770,166.4,371.2,162.1333,372.2667 M,0,116770,116776,162.1333,372.2667 M,0,116776,116781,162.1333,372.2667 M,0,116781,116787,162.1333,372.2667,163.2,365.8667 M,0,116787,116793,163.2,365.8667 M,0,116793,116797,163.2,365.8667,165.3333,358.4 M,0,116797,116804,165.3333,358.4,169.6,350.9333 M,0,116804,116810,169.6,350.9333 M,0,116810,116815,169.6,350.9333,172.8,341.3333 M,0,116815,116821,172.8,341.3333,178.1333,329.6 M,0,116821,116827,178.1333,329.6,184.5333,316.8 M,0,116827,116831,184.5333,316.8,190.9333,302.9333 M,0,116831,116839,190.9333,302.9333 M,0,116839,116843,190.9333,302.9333,199.4666,289.0667 M,0,116843,116849,199.4666,289.0667,206.9333,274.1333 M,0,116849,116855,206.9333,274.1333,215.4666,259.2 M,0,116855,116862,215.4666,259.2 M,0,116862,116867,215.4666,259.2,224,244.2667 M,0,116867,116874,224,244.2667,231.4666,230.4 M,0,116874,116877,231.4666,230.4 M,0,116877,116883,231.4666,230.4,240,216.5333 M,0,116883,116889,240,216.5333,247.4667,202.6667 M,0,116889,116895,247.4667,202.6667,256,190.9333 M,0,116895,116900,256,190.9333,263.4666,179.2 M,0,116900,116906,263.4666,179.2 M,0,116906,116910,263.4666,179.2,270.9333,168.5333 M,0,116910,116916,270.9333,168.5333 M,0,116916,116921,270.9333,168.5333,284.8,150.4 M,0,116921,116927,284.8,150.4 M,0,116927,116932,284.8,150.4,291.2,142.9333 M,0,116932,116939,291.2,142.9333,296.5333,136.5333 M,0,116939,116943,296.5333,136.5333 M,0,116943,116949,296.5333,136.5333,300.8,131.2 M,0,116949,116955,300.8,131.2,304,128 M,0,116955,116962,304,128 M,0,116962,116967,304,128,310.4,124.8 M,0,116967,116973,310.4,124.8 M,0,116973,116977,310.4,124.8,312.5333,123.7333 M,0,116977,116983,312.5333,123.7333 M,0,116983,116988,312.5333,123.7333,317.8666,124.8 M,0,116988,116995,317.8666,124.8 M,0,116995,117000,317.8666,124.8,321.0667,126.9333 M,0,117000,117006,321.0667,126.9333 M,0,117006,117010,321.0667,126.9333,324.2666,131.2 M,0,117010,117015,324.2666,131.2,328.5333,136.5333 M,0,117015,117021,328.5333,136.5333,333.8667,142.9333 M,0,117021,117027,333.8667,142.9333 M,0,117027,117032,333.8667,142.9333,346.6667,162.1333 M,0,117032,117039,346.6667,162.1333 M,0,117039,117043,346.6667,162.1333 M,0,117043,117050,346.6667,162.1333,354.1333,172.8 M,0,117050,117056,354.1333,172.8,372.2667,197.3333 M,0,117056,117062,372.2667,197.3333 M,0,117062,117068,372.2667,197.3333,381.8666,211.2 M,0,117068,117074,381.8666,211.2 M,0,117074,117078,381.8666,211.2,391.4666,225.0667 M,0,117078,117085,391.4666,225.0667,408.5333,250.6667 M,0,117085,117091,408.5333,250.6667 M,0,117091,117095,408.5333,250.6667 M,0,117095,117101,408.5333,250.6667,421.3333,270.9333 M,0,117101,117107,421.3333,270.9333 M,0,117107,117111,421.3333,270.9333 M,0,117111,117118,421.3333,270.9333,428.8,283.7333 M,0,117118,117124,428.8,283.7333 M,0,117124,117129,428.8,283.7333,430.9333,288 M,0,117129,117136,430.9333,288,433.0667,291.2 M,0,117136,117142,433.0667,291.2 M,0,117142,117146,433.0667,291.2,434.1333,293.3333 M,0,117146,117152,434.1333,293.3333,435.2,293.3333 M,0,117152,117157,435.2,293.3333,436.2667,294.4 M,0,117157,117162,436.2667,294.4 M,0,117162,117168,436.2667,294.4 M,0,117168,117174,436.2667,294.4 M,0,117174,117179,436.2667,294.4 M,0,117179,117186,436.2667,294.4,435.2,293.3333 M,0,117186,117192,435.2,293.3333 M,0,117192,117196,435.2,293.3333,433.0667,291.2 M,0,117196,117202,433.0667,291.2,428.8,288 M,0,117202,117208,428.8,288,424.5333,282.6667 M,0,117208,117212,424.5333,282.6667 M,0,117212,117219,424.5333,282.6667,418.1333,275.2 M,0,117219,117225,418.1333,275.2,411.7333,267.7333 M,0,117225,117230,411.7333,267.7333 M,0,117230,117236,411.7333,267.7333,396.8,248.5333 M,0,117236,117243,396.8,248.5333 M,0,117243,117246,396.8,248.5333,389.3333,237.8667 M,0,117246,117252,389.3333,237.8667,381.8666,225.0667 M,0,117252,117259,381.8666,225.0667 M,0,117259,117263,381.8666,225.0667,375.4666,212.2666 M,0,117263,117270,375.4666,212.2666,369.0667,199.4667 M,0,117270,117276,369.0667,199.4667,362.6667,186.6667 M,0,117276,117280,362.6667,186.6667 M,0,117280,117287,362.6667,186.6667,357.3333,173.8667 M,0,117287,117293,357.3333,173.8667,353.0667,162.1333 M,0,117293,117297,353.0667,162.1333 M,0,117297,117303,353.0667,162.1333,345.6,144 M,0,117303,117310,345.6,144 M,0,117310,117314,345.6,144,342.4,136.5333 M,0,117314,117320,342.4,136.5333,339.2,131.2 M,0,117320,117326,339.2,131.2 M,0,117326,117331,339.2,131.2,337.0667,128 M,0,117331,117337,337.0667,128,334.9333,125.8667 M,0,117337,117344,334.9333,125.8667,331.7333,125.8667 M,0,117344,117349,331.7333,125.8667,329.6,125.8667 M,0,117349,117355,329.6,125.8667 M,0,117355,117360,329.6,125.8667,326.4,125.8667 M,0,117360,117365,326.4,125.8667,324.2666,126.9333 M,0,117365,117371,324.2666,126.9333,321.0667,128 M,0,117371,117378,321.0667,128 M,0,117378,117383,321.0667,128,314.6667,131.2 M,0,117383,117390,314.6667,131.2 M,0,117390,117394,314.6667,131.2 M,0,117394,117400,314.6667,131.2,307.2,137.6 M,0,117400,117406,307.2,137.6 M,0,117406,117411,307.2,137.6 M,0,117411,117418,307.2,137.6,298.6666,148.2666 M,0,117418,117424,298.6666,148.2666 M,0,117424,117429,298.6666,148.2666,294.4,155.7333 M,0,117429,117436,294.4,155.7333,288,165.3333 M,0,117436,117442,288,165.3333 M,0,117442,117446,288,165.3333,281.6,176 M,0,117446,117453,281.6,176,266.6666,204.8 M,0,117453,117460,266.6666,204.8 M,0,117460,117464,266.6666,204.8,258.1333,220.8 M,0,117464,117470,258.1333,220.8,249.6,235.7333 M,0,117470,117476,249.6,235.7333 M,0,117476,117481,249.6,235.7333,242.1333,250.6667 M,0,117481,117488,242.1333,250.6667,234.6666,263.4666 M,0,117488,117494,234.6666,263.4666,229.3333,273.0667 M,0,117494,117499,229.3333,273.0667,224,280.5333 M,0,117499,117506,224,280.5333 M,0,117506,117510,224,280.5333,219.7333,285.8666 M,0,117510,117516,219.7333,285.8666,216.5333,289.0667 M,0,117516,117521,216.5333,289.0667,214.4,290.1333 M,0,117521,117528,214.4,290.1333 M,0,117528,117534,214.4,290.1333,213.3333,290.1333 M,0,117534,117541,213.3333,290.1333 M,0,117541,117545,213.3333,290.1333 M,0,117545,117551,213.3333,290.1333,213.3333,282.6667 M,0,117551,117557,213.3333,282.6667 M,0,117557,117562,213.3333,282.6667,213.3333,277.3333 M,0,117562,117568,213.3333,277.3333,213.3333,270.9333 M,0,117568,117575,213.3333,270.9333 M,0,117575,117579,213.3333,270.9333,214.4,264.5333 M,0,117579,117586,214.4,264.5333,214.4,257.0667 M,0,117586,117593,214.4,257.0667,213.3333,249.6 M,0,117593,117597,213.3333,249.6 M,0,117597,117603,213.3333,249.6,209.0667,234.6666 M,0,117603,117610,209.0667,234.6666 M,0,117610,117614,209.0667,234.6666,205.8667,227.2 M,0,117614,117620,205.8667,227.2,200.5333,218.6667 M,0,117620,117626,200.5333,218.6667 M,0,117626,117631,200.5333,218.6667,195.2,210.1333 M,0,117631,117638,195.2,210.1333,188.8,201.6 M,0,117638,117644,188.8,201.6,181.3333,192 M,0,117644,117649,181.3333,192,172.8,183.4667 M,0,117649,117656,172.8,183.4667 M,0,117656,117660,172.8,183.4667,164.2666,176 M,0,117660,117667,164.2666,176,155.7333,168.5333 M,0,117667,117674,155.7333,168.5333 M,0,117674,117677,155.7333,168.5333,147.2,161.0667 M,0,117677,117684,147.2,161.0667,132.2666,149.3333 M,0,117684,117691,132.2666,149.3333 M,0,117691,117695,132.2666,149.3333 M,0,117695,117701,132.2666,149.3333,120.5333,140.8 M,0,117701,117707,120.5333,140.8 M,0,117707,117712,120.5333,140.8,116.2666,135.4666 M,0,117712,117718,116.2666,135.4666,113.0667,131.2 M,0,117718,117724,113.0667,131.2 M,0,117724,117729,113.0667,131.2,112,126.9333 M,0,117729,117736,112,126.9333,112,122.6666 M,0,117736,117742,112,122.6666 M,0,117742,117746,112,122.6666,112,118.4 M,0,117746,117752,112,118.4,115.2,113.0667 M,0,117752,117759,115.2,113.0667 M,0,117759,117763,115.2,113.0667 M,0,117763,117770,115.2,113.0667,119.4667,110.9333 M,0,117770,117776,119.4667,110.9333 M,0,117776,117780,119.4667,110.9333,120.5333,110.9333 M,0,117780,117787,120.5333,110.9333,121.6,110.9333 M,0,117787,117794,121.6,110.9333 M,0,117794,117797,121.6,110.9333,123.7333,110.9333 M,0,117797,117804,123.7333,110.9333,125.8666,112 M,0,117804,117811,125.8666,112 M,0,117811,117815,125.8666,112 M,0,117815,117821,125.8666,112,131.2,116.2667 M,0,117821,117827,131.2,116.2667 M,0,117827,117832,131.2,116.2667,140.8,124.8 M,0,117832,117839,140.8,124.8 M,0,117839,117844,140.8,124.8 M,0,117844,117850,140.8,124.8,158.9333,137.6 M,0,117850,117856,158.9333,137.6 M,0,117856,117861,158.9333,137.6 M,0,117861,117868,158.9333,137.6,182.4,156.8 M,0,117868,117874,182.4,156.8 M,0,117874,117879,182.4,156.8,196.2666,168.5333 M,0,117879,117886,196.2666,168.5333,211.2,181.3333 M,0,117886,117892,211.2,181.3333,227.2,195.2 M,0,117892,117896,227.2,195.2 M,0,117896,117902,227.2,195.2,259.2,220.8 M,0,117902,117909,259.2,220.8 M,0,117909,117913,259.2,220.8 M,0,117913,117920,259.2,220.8,288,241.0667 M,0,117920,117926,288,241.0667 M,0,117926,117930,288,241.0667,300.8,249.6 M,0,117930,117937,300.8,249.6,311.4666,257.0667 M,0,117937,117943,311.4666,257.0667 M,0,117943,117947,311.4666,257.0667,320,263.4666 M,0,117947,117954,320,263.4666,333.8667,274.1333 M,0,117954,117961,333.8667,274.1333 M,0,117961,117965,333.8667,274.1333 M,0,117965,117971,333.8667,274.1333,341.3333,280.5333 M,0,117971,117977,341.3333,280.5333 M,0,117977,117982,341.3333,280.5333,343.4666,282.6667 M,0,117982,117989,343.4666,282.6667,344.5333,283.7333 M,0,117989,117993,344.5333,283.7333 M,0,117993,117999,344.5333,283.7333 M,0,117999,118006,344.5333,283.7333 M,0,118006,118013,344.5333,283.7333 M,0,118013,118018,344.5333,283.7333 M,0,118018,118024,344.5333,283.7333 M,0,118024,118028,344.5333,283.7333,343.4666,283.7333 M,0,118028,118035,343.4666,283.7333,341.3333,282.6667 M,0,118035,118042,341.3333,282.6667,339.2,280.5333 M,0,118042,118046,339.2,280.5333 M,0,118046,118052,339.2,280.5333,331.7333,274.1333 M,0,118052,118057,331.7333,274.1333 M,0,118057,118062,331.7333,274.1333 M,0,118062,118068,331.7333,274.1333,323.2,265.6 M,0,118068,118075,323.2,265.6 M,0,118075,118079,323.2,265.6,320,261.3333 M,0,118079,118086,320,261.3333,316.8,257.0667 M,0,118086,118093,316.8,257.0667 M,0,118093,118096,316.8,257.0667,312.5333,251.7333 M,0,118096,118102,312.5333,251.7333,308.2667,246.4 M,0,118102,118109,308.2667,246.4,301.8666,242.1333 M,0,118109,118114,301.8666,242.1333 M,0,118114,118120,301.8666,242.1333,282.6667,233.6 M,0,118120,118126,282.6667,233.6 M,0,118126,118130,282.6667,233.6,269.8666,230.4 M,0,118130,118137,269.8666,230.4,253.8666,228.2666 M,0,118137,118143,253.8666,228.2666 M,0,118143,118147,253.8666,228.2666,236.8,226.1333 M,0,118147,118154,236.8,226.1333,218.6666,226.1333 M,0,118154,118161,218.6666,226.1333 M,0,118161,118165,218.6666,226.1333,201.6,225.0667 M,0,118165,118171,201.6,225.0667,169.6,225.0667 M,0,118171,118177,169.6,225.0667 M,0,118177,118182,169.6,225.0667,156.8,225.0667 M,0,118182,118189,156.8,225.0667 M,0,118189,118193,156.8,225.0667,147.2,222.9333 M,0,118193,118199,147.2,222.9333,139.7333,220.8 M,0,118199,118206,139.7333,220.8,135.4666,217.6 M,0,118206,118213,135.4666,217.6 M,0,118213,118218,135.4666,217.6,135.4666,209.0667 M,0,118218,118225,135.4666,209.0667 M,0,118225,118229,135.4666,209.0667,139.7333,204.8 M,0,118229,118236,139.7333,204.8,147.2,200.5333 M,0,118236,118243,147.2,200.5333 M,0,118243,118246,147.2,200.5333,155.7333,196.2666 M,0,118246,118253,155.7333,196.2666,167.4666,190.9333 M,0,118253,118260,167.4666,190.9333,182.4,186.6667 M,0,118260,118264,182.4,186.6667 M,0,118264,118270,182.4,186.6667,215.4666,176 M,0,118270,118276,215.4666,176 M,0,118276,118281,215.4666,176 M,0,118281,118288,215.4666,176,252.8,164.2666 M,0,118288,118294,252.8,164.2666 M,0,118294,118298,252.8,164.2666,270.9333,158.9333 M,0,118298,118305,270.9333,158.9333,290.1333,152.5333 M,0,118305,118311,290.1333,152.5333 M,0,118311,118315,290.1333,152.5333,307.2,146.1333 M,0,118315,118321,307.2,146.1333,324.2666,140.8 M,0,118321,118327,324.2666,140.8,339.2,134.4 M,0,118327,118332,339.2,134.4,354.1333,129.0667 M,0,118332,118339,354.1333,129.0667 M,0,118339,118343,354.1333,129.0667,366.9333,123.7333 M,0,118343,118349,366.9333,123.7333,378.6667,118.4 M,0,118349,118356,378.6667,118.4,388.2666,114.1333 M,0,118356,118362,388.2666,114.1333 M,0,118362,118368,388.2666,114.1333,395.7333,110.9333 M,0,118368,118375,395.7333,110.9333,401.0667,108.8 M,0,118375,118378,401.0667,108.8 M,0,118378,118385,401.0667,108.8,405.3333,104.5333 M,0,118385,118392,405.3333,104.5333 M,0,118392,118396,405.3333,104.5333,405.3333,102.4 M,0,118396,118402,405.3333,102.4,404.2667,101.3333 M,0,118402,118407,404.2667,101.3333 M,0,118407,118412,404.2667,101.3333,401.0667,99.19998 M,0,118412,118418,401.0667,99.19998,396.8,97.06665 M,0,118418,118425,396.8,97.06665,390.4,94.93332 M,0,118425,118429,390.4,94.93332 M,0,118429,118436,390.4,94.93332,373.3333,92.79999 M,0,118436,118443,373.3333,92.79999 M,0,118443,118446,373.3333,92.79999,362.6667,92.79999 M,0,118446,118452,362.6667,92.79999,352,91.73331 M,0,118452,118459,352,91.73331 M,0,118459,118464,352,91.73331,338.1333,91.73331 M,0,118464,118470,338.1333,91.73331,324.2666,90.66666 M,0,118470,118476,324.2666,90.66666,309.3333,90.66666 M,0,118476,118480,309.3333,90.66666 M,0,118480,118487,309.3333,90.66666,293.3333,91.73331 M,0,118487,118494,293.3333,91.73331,278.4,92.79999 M,0,118494,118497,278.4,92.79999 M,0,118497,118503,278.4,92.79999,248.5333,95.99998 M,0,118503,118510,248.5333,95.99998 M,0,118510,118514,248.5333,95.99998,235.7333,97.06665 M,0,118514,118520,235.7333,97.06665,224,98.13332 M,0,118520,118526,224,98.13332 M,0,118526,118530,224,98.13332,214.4,98.13332 M,0,118530,118536,214.4,98.13332,206.9333,99.19998 M,0,118536,118543,206.9333,99.19998 M,0,118543,118546,206.9333,99.19998,201.6,99.19998 M,0,118546,118552,201.6,99.19998,198.4,99.19998 M,0,118552,118559,198.4,99.19998,196.2666,99.19998 M,0,118559,118563,196.2666,99.19998 M,0,118563,118569,196.2666,99.19998 M,0,118569,118575,196.2666,99.19998,198.4,99.19998 M,0,118575,118580,198.4,99.19998 M,0,118580,118586,198.4,99.19998,206.9333,99.19998 M,0,118586,118593,206.9333,99.19998 M,0,118593,118596,206.9333,99.19998,213.3333,100.2667 M,0,118596,118602,213.3333,100.2667,221.8667,103.4667 M,0,118602,118609,221.8667,103.4667 M,0,118609,118613,221.8667,103.4667,230.4,106.6667 M,0,118613,118619,230.4,106.6667,241.0666,109.8667 M,0,118619,118625,241.0666,109.8667 M,0,118625,118630,241.0666,109.8667,252.8,114.1333 M,0,118630,118636,252.8,114.1333,265.6,119.4666 M,0,118636,118643,265.6,119.4666 M,0,118643,118646,265.6,119.4666,279.4666,125.8667 M,0,118646,118652,279.4666,125.8667,311.4666,140.8 M,0,118652,118658,311.4666,140.8 M,0,118658,118662,311.4666,140.8 M,0,118662,118669,311.4666,140.8,345.6,158.9333 M,0,118669,118675,345.6,158.9333 M,0,118675,118679,345.6,158.9333,362.6667,168.5333 M,0,118679,118686,362.6667,168.5333,379.7333,177.0667 M,0,118686,118692,379.7333,177.0667 M,0,118692,118696,379.7333,177.0667,394.6667,185.6 M,0,118696,118702,394.6667,185.6,408.5333,193.0667 M,0,118702,118709,408.5333,193.0667,422.4,198.4 M,0,118709,118713,422.4,198.4 M,0,118713,118719,422.4,198.4,434.1333,203.7333 M,0,118719,118725,434.1333,203.7333,443.7333,208 M,0,118725,118729,443.7333,208 M,0,118729,118736,443.7333,208,458.6667,214.4 M,0,118736,118742,458.6667,214.4 M,0,118742,118746,458.6667,214.4 M,0,118746,118751,458.6667,214.4,465.0667,218.6667 M,0,118751,118758,465.0667,218.6667 M,0,118758,118762,465.0667,218.6667 M,0,118762,118768,465.0667,218.6667,466.1333,219.7333 M,0,118768,118774,466.1333,219.7333 M,0,118774,118779,466.1333,219.7333,465.0667,220.8 M,0,118779,118785,465.0667,220.8,460.8,221.8667 M,0,118785,118792,460.8,221.8667,455.4666,222.9333 M,0,118792,118796,455.4666,222.9333 M,0,118796,118801,455.4666,222.9333,446.9333,225.0667 M,0,118801,118807,446.9333,225.0667,436.2667,227.2 M,0,118807,118811,436.2667,227.2 M,0,118811,118817,436.2667,227.2,423.4667,229.3333 M,0,118817,118824,423.4667,229.3333,409.6,231.4666 M,0,118824,118827,409.6,231.4666 M,0,118827,118834,409.6,231.4666,377.6,236.8 M,0,118834,118841,377.6,236.8 M,0,118841,118845,377.6,236.8,360.5333,241.0667 M,0,118845,118850,360.5333,241.0667,342.4,244.2667 M,0,118850,118857,342.4,244.2667 M,0,118857,118861,342.4,244.2667,324.2666,248.5333 M,0,118861,118867,324.2666,248.5333,308.2667,251.7333 M,0,118867,118874,308.2667,251.7333 M,0,118874,118877,308.2667,251.7333,292.2666,254.9333 M,0,118877,118882,292.2666,254.9333,265.6,259.2 M,0,118882,118890,265.6,259.2 M,0,118890,118894,265.6,259.2 M,0,118894,118899,265.6,259.2,254.9333,260.2666 M,0,118899,118906,254.9333,260.2666,247.4667,261.3333 M,0,118906,118912,247.4667,261.3333 M,0,118912,118917,247.4667,261.3333,240,262.4 M,0,118917,118924,240,262.4 M,0,118924,118927,240,262.4 M,0,118927,118933,240,262.4 M,0,118933,118939,240,262.4,244.2667,258.1333 M,0,118939,118945,244.2667,258.1333 M,0,118945,118950,244.2667,258.1333,250.6667,254.9333 M,0,118950,118956,250.6667,254.9333,259.2,250.6667 M,0,118956,118960,259.2,250.6667 M,0,118960,118965,259.2,250.6667,269.8666,245.3333 M,0,118965,118971,269.8666,245.3333,281.6,240 M,0,118971,118977,281.6,240,295.4666,233.6 M,0,118977,118981,295.4666,233.6,310.4,227.2 M,0,118981,118989,310.4,227.2 M,0,118989,118993,310.4,227.2 M,0,118993,118999,310.4,227.2,326.4,219.7333 M,0,118999,119005,326.4,219.7333,360.5333,204.8 M,0,119005,119012,360.5333,204.8 M,0,119012,119017,360.5333,204.8,378.6667,196.2666 M,0,119017,119023,378.6667,196.2666 M,0,119023,119027,378.6667,196.2666,395.7333,187.7333 M,0,119027,119032,395.7333,187.7333,413.8666,179.2 M,0,119032,119039,413.8666,179.2,432,171.7333 M,0,119039,119045,432,171.7333 M,0,119045,119049,432,171.7333,462.9333,161.0667 M,0,119049,119056,462.9333,161.0667 M,0,119056,119061,462.9333,161.0667 M,0,119061,119066,462.9333,161.0667,475.7333,156.8 M,0,119066,119071,475.7333,156.8,496,151.4666 M,0,119071,119079,496,151.4666 M,0,119079,119084,496,151.4666,502.4,148.2666 M,0,119084,119091,502.4,148.2666 M,0,119091,119095,502.4,148.2666,507.7333,146.1333 M,0,119095,119100,507.7333,146.1333,510.9333,144 M,0,119100,119107,510.9333,144,513.0667,140.8 M,0,119107,119111,513.0667,140.8 M,0,119111,119117,513.0667,140.8,513.0667,137.6 M,0,119117,119124,513.0667,137.6,513.0667,134.4 M,0,119124,119127,513.0667,134.4 M,0,119127,119133,513.0667,134.4,503.4666,124.8 M,0,119133,119140,503.4666,124.8 M,0,119140,119144,503.4666,124.8,496,120.5333 M,0,119144,119150,496,120.5333,485.3333,115.2 M,0,119150,119156,485.3333,115.2 M,0,119156,119161,485.3333,115.2,473.6,108.8 M,0,119161,119167,473.6,108.8,460.8,102.4 M,0,119167,119174,460.8,102.4 M,0,119174,119177,460.8,102.4,446.9333,94.93332 M,0,119177,119182,446.9333,94.93332,418.1333,81.06665 M,0,119182,119190,418.1333,81.06665 M,0,119190,119193,418.1333,81.06665 M,0,119193,119199,418.1333,81.06665,388.2666,67.19999 M,0,119199,119206,388.2666,67.19999 M,0,119206,119210,388.2666,67.19999,374.4,60.79999 M,0,119210,119216,374.4,60.79999,361.6,54.39999 M,0,119216,119223,361.6,54.39999 M,0,119223,119227,361.6,54.39999,349.8666,49.06665 M,0,119227,119232,349.8666,49.06665,338.1333,44.79999 M,0,119232,119240,338.1333,44.79999,328.5333,40.53332 M,0,119240,119243,328.5333,40.53332 M,0,119243,119249,328.5333,40.53332,320,37.33332 M,0,119249,119256,320,37.33332,312.5333,36.26665 M,0,119256,119260,312.5333,36.26665 M,0,119260,119266,312.5333,36.26665,307.2,36.26665 M,0,119266,119273,307.2,36.26665,301.8666,37.33332 M,0,119273,119277,301.8666,37.33332 M,0,119277,119283,301.8666,37.33332,296.5333,41.59999 M,0,119283,119290,296.5333,41.59999 M,0,119290,119294,296.5333,41.59999,295.4666,44.79999 M,0,119294,119300,295.4666,44.79999,294.4,46.93332 M,0,119300,119306,294.4,46.93332 M,0,119306,119311,294.4,46.93332,294.4,49.06665 M,0,119311,119317,294.4,49.06665,294.4,51.19999 M,0,119317,119323,294.4,51.19999 M,0,119323,119327,294.4,51.19999,295.4666,53.33332 M,0,119327,119334,295.4666,53.33332,296.5333,57.59999 M,0,119334,119341,296.5333,57.59999 M,0,119341,119344,296.5333,57.59999 M,0,119344,119350,296.5333,57.59999,297.6,60.79999 M,0,119350,119356,297.6,60.79999,297.6,62.93332 M,0,119356,119363,297.6,62.93332 M,0,119363,119367,297.6,62.93332,298.6666,69.33331 M,0,119367,119374,298.6666,69.33331 M,0,119374,119377,298.6666,69.33331,299.7333,72.53332 M,0,119377,119382,299.7333,72.53332 M,0,119382,119388,299.7333,72.53332,300.8,76.79999 M,0,119388,119394,300.8,76.79999,300.8,79.99999 M,0,119394,119397,300.8,79.99999 M,0,119397,119403,300.8,79.99999,301.8666,84.26665 M,0,119403,119410,301.8666,84.26665 M,0,119410,119413,301.8666,84.26665 M,0,119413,119419,301.8666,84.26665,302.9333,89.59999 M,0,119419,119425,302.9333,89.59999 M,0,119425,119430,302.9333,89.59999,302.9333,92.79999 M,0,119430,119436,302.9333,92.79999,302.9333,94.93332 M,0,119436,119443,302.9333,94.93332 M,0,119443,119446,302.9333,94.93332,304,99.19998 M,0,119446,119451,304,99.19998,304,102.4 M,0,119451,119459,304,102.4,305.0667,106.6667 M,0,119459,119463,305.0667,106.6667 M,0,119463,119469,305.0667,106.6667,306.1333,110.9333 M,0,119469,119475,306.1333,110.9333,307.2,114.1333 M,0,119475,119480,307.2,114.1333 M,0,119480,119486,307.2,114.1333,309.3333,120.5333 M,0,119486,119493,309.3333,120.5333 M,0,119493,119496,309.3333,120.5333 M,0,119496,119501,309.3333,120.5333,312.5333,126.9333 M,0,119501,119507,312.5333,126.9333 M,0,119507,119511,312.5333,126.9333,313.6,130.1333 M,0,119511,119518,313.6,130.1333,314.6667,132.2666 M,0,119518,119524,314.6667,132.2666 M,0,119524,119527,314.6667,132.2666,315.7333,135.4666 M,0,119527,119532,315.7333,135.4666,316.8,138.6667 M,0,119532,119540,316.8,138.6667 M,0,119540,119543,316.8,138.6667,316.8,141.8667 M,0,119543,119549,316.8,141.8667,317.8666,145.0667 M,0,119549,119556,317.8666,145.0667,318.9333,148.2666 M,0,119556,119562,318.9333,148.2666 M,0,119562,119567,318.9333,148.2666,320,151.4666 M,0,119567,119573,320,151.4666,321.0667,153.6 M,0,119573,119577,321.0667,153.6 M,0,119577,119582,321.0667,153.6,322.1333,155.7333 M,0,119582,119588,322.1333,155.7333,324.2666,156.8 M,0,119588,119594,324.2666,156.8 M,0,119594,119597,324.2666,156.8,326.4,158.9333 M,0,119597,119603,326.4,158.9333,329.6,160 M,0,119603,119610,329.6,160,332.8,162.1333 M,0,119610,119613,332.8,162.1333 M,0,119613,119619,332.8,162.1333,336,164.2666 M,0,119619,119626,336,164.2666,339.2,166.4 M,0,119626,119630,339.2,166.4 M,0,119630,119636,339.2,166.4,344.5333,171.7333 M,0,119636,119643,344.5333,171.7333 M,0,119643,119646,344.5333,171.7333,347.7333,173.8667 M,0,119646,119651,347.7333,173.8667,349.8666,177.0667 M,0,119651,119657,349.8666,177.0667 M,0,119657,119661,349.8666,177.0667,352,179.2 M,0,119661,119667,352,179.2,354.1333,181.3333 M,0,119667,119674,354.1333,181.3333 M,0,119674,119678,354.1333,181.3333,356.2666,183.4667 M,0,119678,119683,356.2666,183.4667,358.4,185.6 M,0,119683,119691,358.4,185.6 M,0,119691,119694,358.4,185.6,360.5333,186.6667 M,0,119694,119700,360.5333,186.6667,361.6,188.8 M,0,119700,119706,361.6,188.8,362.6667,190.9333 M,0,119706,119710,362.6667,190.9333 M,0,119710,119715,362.6667,190.9333,363.7333,193.0667 M,0,119715,119721,363.7333,193.0667,363.7333,195.2 M,0,119721,119728,363.7333,195.2,364.8,196.2666 M,0,119728,119732,364.8,196.2666,364.8,198.4 M,0,119732,119737,364.8,198.4 M,0,119737,119742,364.8,198.4 M,0,119742,119747,364.8,198.4,364.8,200.5333 M,0,119747,119753,364.8,200.5333,363.7333,203.7333 M,0,119753,119760,363.7333,203.7333 M,0,119760,119764,363.7333,203.7333 M,0,119764,119770,363.7333,203.7333,361.6,208 M,0,119770,119776,361.6,208 M,0,119776,119780,361.6,208 M,0,119780,119786,361.6,208,360.5333,212.2666 M,0,119786,119793,360.5333,212.2666 M,0,119793,119796,360.5333,212.2666,359.4666,215.4667 M,0,119796,119801,359.4666,215.4667,359.4666,217.6 M,0,119801,119809,359.4666,217.6 M,0,119809,119813,359.4666,217.6,358.4,220.8 M,0,119813,119819,358.4,220.8,358.4,222.9333 M,0,119819,119825,358.4,222.9333 M,0,119825,119829,358.4,222.9333,358.4,226.1333 M,0,119829,119835,358.4,226.1333,357.3333,228.2666 M,0,119835,119842,357.3333,228.2666 M,0,119842,119846,357.3333,228.2666,357.3333,231.4666 M,0,119846,119851,357.3333,231.4666,356.2666,236.8 M,0,119851,119858,356.2666,236.8 M,0,119858,119862,356.2666,236.8 M,0,119862,119868,356.2666,236.8,354.1333,243.2 M,0,119868,119874,354.1333,243.2 M,0,119874,119877,354.1333,243.2,353.0667,245.3333 M,0,119877,119884,353.0667,245.3333,350.9333,248.5333 M,0,119884,119891,350.9333,248.5333 M,0,119891,119895,350.9333,248.5333,349.8666,251.7333 M,0,119895,119900,349.8666,251.7333,347.7333,253.8666 M,0,119900,119906,347.7333,253.8666 M,0,119906,119911,347.7333,253.8666,345.6,257.0667 M,0,119911,119917,345.6,257.0667,344.5333,259.2 M,0,119917,119924,344.5333,259.2 M,0,119924,119927,344.5333,259.2,342.4,261.3333 M,0,119927,119934,342.4,261.3333,338.1333,266.6667 M,0,119934,119941,338.1333,266.6667 M,0,119941,119945,338.1333,266.6667 M,0,119945,119950,338.1333,266.6667,333.8667,270.9333 M,0,119950,119957,333.8667,270.9333 M,0,119957,119961,333.8667,270.9333 M,0,119961,119967,333.8667,270.9333,329.6,275.2 M,0,119967,119973,329.6,275.2 M,0,119973,119977,329.6,275.2,327.4666,277.3333 M,0,119977,119982,327.4666,277.3333,325.3333,279.4666 M,0,119982,119989,325.3333,279.4666 M,0,119989,119993,325.3333,279.4666,323.2,281.6 M,0,119993,119999,323.2,281.6,321.0667,282.6667 M,0,119999,120005,321.0667,282.6667 M,0,120005,120010,321.0667,282.6667,318.9333,284.8 M,0,120010,120015,318.9333,284.8,316.8,285.8666 M,0,120015,120021,316.8,285.8666,313.6,288 M,0,120021,120026,313.6,288 M,0,120026,120031,313.6,288,309.3333,291.2 M,0,120031,120038,309.3333,291.2 M,0,120038,120042,309.3333,291.2 M,0,120042,120048,309.3333,291.2,306.1333,293.3333 M,0,120048,120055,306.1333,293.3333,302.9333,296.5333 M,0,120055,120061,302.9333,296.5333 M,0,120061,120065,302.9333,296.5333 M,0,120065,120071,302.9333,296.5333,299.7333,300.8 M,0,120071,120076,299.7333,300.8 M,0,120076,120081,299.7333,300.8 M,0,120081,120087,299.7333,300.8,297.6,305.0667 M,0,120087,120093,297.6,305.0667 M,0,120093,120097,297.6,305.0667,297.6,307.2 M,0,120097,120102,297.6,307.2,296.5333,309.3333 M,0,120102,120109,296.5333,309.3333 M,0,120109,120113,296.5333,309.3333,296.5333,312.5333 M,0,120113,120119,296.5333,312.5333,296.5333,314.6667 M,0,120119,120125,296.5333,314.6667 M,0,120125,120130,296.5333,314.6667,295.4666,317.8666 M,0,120130,120136,295.4666,317.8666,295.4666,321.0667 M,0,120136,120143,295.4666,321.0667,295.4666,325.3333 M,0,120143,120146,295.4666,325.3333 M,0,120146,120151,295.4666,325.3333,295.4666,333.8667 M,0,120151,120157,295.4666,333.8667 M,0,120157,120161,295.4666,333.8667 M,0,120161,120167,295.4666,333.8667,297.6,343.4666 M,0,120167,120174,297.6,343.4666 M,0,120174,120177,297.6,343.4666 M,0,120177,120182,297.6,343.4666,298.6666,350.9333 M,0,120182,120189,298.6666,350.9333 M,0,120189,120192,298.6666,350.9333 M,0,120192,120198,298.6666,350.9333,299.7333,355.2 M,0,120198,120203,299.7333,355.2,301.8666,362.6667 M,0,120203,120210,301.8666,362.6667 M,0,120210,120213,301.8666,362.6667 M,0,120213,120219,301.8666,362.6667,304,365.8667 M,0,120219,120225,304,365.8667,305.0667,370.1333 M,0,120225,120229,305.0667,370.1333 M,0,120229,120235,305.0667,370.1333,307.2,376.5333 M,0,120235,120242,307.2,376.5333 M,0,120242,120245,307.2,376.5333 M,0,120245,120250,307.2,376.5333,309.3333,382.9333 M,0,120250,120256,309.3333,382.9333 M,0,120256,120261,309.3333,382.9333 M,0,120261,120266,309.3333,382.9333,311.4666,387.2 M,0,120266,120273,311.4666,387.2 M,0,120273,120276,311.4666,387.2,312.5333,389.3333 M,0,120276,120281,312.5333,389.3333 M,0,120281,120287,312.5333,389.3333,314.6667,390.4 M,0,120287,120293,314.6667,390.4,316.8,390.4 M,0,120293,120296,316.8,390.4 M,0,120296,120301,316.8,390.4,322.1333,391.4667 M,0,120301,120307,322.1333,391.4667 M,0,120307,120311,322.1333,391.4667 M,0,120311,120317,322.1333,391.4667,325.3333,392.5333 M,0,120317,120323,325.3333,392.5333,329.6,393.6 M,0,120323,120326,329.6,393.6 M,0,120326,120331,329.6,393.6,332.8,395.7333 M,0,120331,120337,332.8,395.7333,336,396.8 M,0,120337,120343,336,396.8 M,0,120343,120346,336,396.8,339.2,398.9333 M,0,120346,120351,339.2,398.9333,342.4,401.0667 M,0,120351,120358,342.4,401.0667,343.4666,402.1333 M,0,120358,120362,343.4666,402.1333 M,0,120362,120368,343.4666,402.1333,344.5333,404.2667 M,0,120368,120374,344.5333,404.2667,345.6,404.2667 M,0,120374,120377,345.6,404.2667 M,0,120377,120382,345.6,404.2667,345.6,405.3333 M,0,120382,120388,345.6,405.3333 M,0,120388,120392,345.6,405.3333 M,0,120392,120397,345.6,405.3333 M,0,120397,120402,345.6,405.3333 M,0,120402,120409,345.6,405.3333 M,0,120409,120412,345.6,405.3333 M,0,120412,120418,345.6,405.3333,344.5333,405.3333 M,0,120418,120424,344.5333,405.3333 M,0,120424,120427,344.5333,405.3333,342.4,405.3333 M,0,120427,120432,342.4,405.3333,340.2667,404.2667 M,0,120432,120438,340.2667,404.2667 M,0,120438,120442,340.2667,404.2667,338.1333,403.2 M,0,120442,120447,338.1333,403.2,334.9333,402.1333 M,0,120447,120451,334.9333,402.1333,331.7333,401.0667 M,0,120451,120458,331.7333,401.0667 M,0,120458,120462,331.7333,401.0667 M,0,120462,120468,331.7333,401.0667,324.2666,397.8667 M,0,120468,120474,324.2666,397.8667 M,0,120474,120477,324.2666,397.8667,321.0667,395.7333 M,0,120477,120482,321.0667,395.7333,316.8,394.6667 M,0,120482,120488,316.8,394.6667 M,0,120488,120492,316.8,394.6667 M,0,120492,120498,316.8,394.6667,313.6,393.6 M,0,120498,120502,313.6,393.6,306.1333,393.6 M,0,120502,120509,306.1333,393.6 M,0,120509,120513,306.1333,393.6 M,0,120513,120518,306.1333,393.6,304,393.6 M,0,120518,120525,304,393.6,300.8,393.6 M,0,120525,120527,300.8,393.6 M,0,120527,120532,300.8,393.6,295.4666,393.6 M,0,120532,120539,295.4666,393.6 M,0,120539,120543,295.4666,393.6 M,0,120543,120548,295.4666,393.6,292.2666,394.6667 M,0,120548,120553,292.2666,394.6667,290.1333,394.6667 M,0,120553,120560,290.1333,394.6667,286.9333,394.6667 M,0,120560,120563,286.9333,394.6667 M,0,120563,120569,286.9333,394.6667,283.7333,394.6667 M,0,120569,120575,283.7333,394.6667 M,0,120575,120579,283.7333,394.6667,280.5333,394.6667 M,0,120579,120584,280.5333,394.6667,276.2667,395.7333 M,0,120584,120590,276.2667,395.7333 M,0,120590,120594,276.2667,395.7333,273.0667,395.7333 M,0,120594,120599,273.0667,395.7333,268.8,396.8 M,0,120599,120605,268.8,396.8 M,0,120605,120609,268.8,396.8,265.6,396.8 M,0,120609,120614,265.6,396.8,261.3333,397.8667 M,0,120614,120619,261.3333,397.8667,259.2,397.8667 M,0,120619,120625,259.2,397.8667 M,0,120625,120629,259.2,397.8667,256,398.9333 M,0,120629,120634,256,398.9333,253.8666,398.9333 M,0,120634,120640,253.8666,398.9333 M,0,120640,120644,253.8666,398.9333,252.8,400 M,0,120644,120649,252.8,400,251.7333,400 M,0,120649,120655,251.7333,400 M,0,120655,120660,251.7333,400,250.6667,400 M,0,120660,120664,250.6667,400 M,0,120664,120669,250.6667,400 M,0,120669,120675,250.6667,400 M,0,120675,120679,250.6667,400 M,0,120679,120684,250.6667,400 M,0,120684,120690,250.6667,400 M,0,120690,120694,250.6667,400 M,0,120694,120699,250.6667,400 M,0,120699,120705,250.6667,400 M,0,120705,120709,250.6667,400 M,0,120709,120714,250.6667,400 M,0,120714,120719,250.6667,400 M,0,120719,120726,250.6667,400 M,0,120726,120729,250.6667,400 M,0,120729,120735,250.6667,400 M,0,120735,120742,250.6667,400 M,0,120742,120745,250.6667,400 M,0,120745,120750,250.6667,400,251.7333,398.9333 M,0,120750,120756,251.7333,398.9333,253.8666,397.8667 M,0,120756,120760,253.8666,397.8667 M,0,120760,120765,253.8666,397.8667,254.9333,396.8 M,0,120765,120770,254.9333,396.8,257.0667,396.8 M,0,120770,120776,257.0667,396.8 M,0,120776,120780,257.0667,396.8
Sprite,Foreground,Centre,"sb\q.png",320,240 S,0,120878,,1.928 C,0,120878,,254,121,1 M,0,120878,121136,795.7333,78.93334,491.7333,89.60001 R,0,120878,121136,3.157334,4.266667 M,0,121136,132877,491.7333,89.60001 R,0,121136,132877,4.266667,7.232 M,0,132877,133136,491.7333,89.60001,803.2,88.53334 R,0,132877,133136,7.232,8.746667
Sprite,Foreground,Centre,"sb\q.png",320,240 S,0,82169,,2.098667 C,0,82169,,0,255,255 M,2,82169,82427,-120.5333,361.6,84.26666,341.3333 R,0,82169,82427,-2.090666,-0.8106658 M,0,82427,94169,84.26666,341.3333 R,0,82427,94169,-0.8106658,2.4318 R,0,94169,,2.4318 M,0,94169,94427,84.26666,341.3333,-142.9333,347.7333 R,0,94169,94427,2.4318,3.434467
Sprite,Foreground,Centre,"sb\miura.png",320,240 M,0,120878,121136,151.4666,578.1334,217.6,109.8668 R,0,120878,121136,0.2133331,-0.06400024 M,0,121136,132877,217.6,109.8668 R,0,121136,132878,-0.06400024,-0.1920003 M,0,132877,133072,217.6,109.8668,86.40002,-111.9999 R,0,132878,133072,-0.1920003,-0.4053335
Sprite,Foreground,Centre,"sb\Ring.png",320,240 M,0,82169,,408.5333,258.1333 F,0,82169,82363,0,1 S,0,82169,82363,0.1573335,0.4240002 F,0,82363,82557,1,0 S,0,82363,82557,0.4240002,0.8080003
Sprite,Foreground,Centre,"sb\Ring.png",320,240 M,0,82749,,381.8667,337.0667 F,0,82749,82943,0,1 S,0,82749,82943,0.1573335,0.4240002 F,0,82943,83137,1,0 S,0,82943,83137,0.4240002,0.8080003
Sprite,Foreground,Centre,"sb\Ring.png",320,240 M,0,83330,,324.2667,272 F,0,83330,83524,0,1 S,0,83330,83524,0.1573335,0.4240002 F,0,83524,83718,1,0 S,0,83524,83718,0.4240002,0.8080003
Sprite,Foreground,Centre,"sb\Ring.png",320,240 M,0,83911,,407.4667,258.1333 F,0,83911,84105,0,1 S,0,83911,84105,0.1573335,0.4240002 F,0,84105,84299,1,0 S,0,84105,84299,0.4240002,0.8080003
Sprite,Foreground,Centre,"sb\Ring.png",320,240 M,0,84491,,153.6,333.8666 F,0,84491,84685,0,1 S,0,84491,84685,0.1573335,0.4240002 F,0,84685,84879,1,0 S,0,84685,84879,0.4240002,0.8080003
Sprite,Foreground,Centre,"sb\Ring.png",320,240 M,0,84878,,406.4,259.2 F,0,84878,85072,0,1 S,0,84878,85072,0.1573335,0.4240002 F,0,85072,85266,1,0 S,0,85072,85266,0.4240002,0.8080003
Sprite,Foreground,Centre,"sb\Ring.png",320,240 M,0,85266,,202.6667,162.1333 F,0,85266,85460,0,1 S,0,85266,85460,0.1573335,0.4240002 F,0,85460,85654,1,0 S,0,85460,85654,0.4240002,0.8080003
Sprite,Foreground,Centre,"sb\Ring.png",320,240 M,0,85846,,280.5334,187.7333 F,0,85846,86040,0,1 S,0,85846,86040,0.1573335,0.4240002 F,0,86040,86234,1,0 S,0,86040,86234,0.4240002,0.8080003
Sprite,Foreground,Centre,"sb\Ring.png",320,240 M,0,86427,,216.5333,245.3333 F,0,86427,86621,0,1 S,0,86427,86621,0.1573335,0.4240002 F,0,86621,86815,1,0 S,0,86621,86815,0.4240002,0.8080003
Sprite,Foreground,Centre,"sb\Ring.png",320,240 M,0,87007,,202.6666,163.2 F,0,87007,87201,0,1 S,0,87007,87201,0.1573335,0.4240002 F,0,87201,87395,1,0 S,0,87201,87395,0.4240002,0.8080003
Sprite,Foreground,Centre,"sb\Ring.png",320,240 M,0,87588,87592,422.4,332.8 F,0,87588,87782,0,1 S,0,87588,87782,0.1573335,0.4240002 M,0,87592,87595,422.4,332.8 M,0,87595,87598,422.4,332.8 F,0,87782,87976,1,0 S,0,87782,87976,0.4240002,0.8080003
Sprite,Foreground,Centre,"sb\Ring.png",320,240 M,0,91459,,100.2666,294.4 F,0,91459,91653,0,1 S,0,91459,91653,0.1573335,0.4240002 F,0,91653,91847,1,0 S,0,91653,91847,0.4240002,0.8080003
Sprite,Foreground,Centre,"sb\Ring.png",320,240 M,0,92233,,532.2667,293.3333 F,0,92233,92427,0,1 S,0,92233,92427,0.1573335,0.4240002 F,0,92427,92621,1,0 S,0,92427,92621,0.4240002,0.8080003
Sprite,Foreground,Centre,"sb\Ring.png",320,240 M,0,93007,,451.2,211.2 F,0,93007,93201,0,1 S,0,93007,93201,0.1573335,0.4240002 F,0,93201,93395,1,0 S,0,93201,93395,0.4240002,0.8080003
Sprite,Foreground,Centre,"sb\Ring.png",320,240 M,0,93395,,181.3334,211.2 F,0,93395,93589,0,1 S,0,93395,93589,0.1573335,0.4240002 F,0,93589,93783,1,0 S,0,93589,93783,0.4240002,0.8080003
Sprite,Foreground,Centre,"sb\Ring.png",320,240 M,0,93782,,376.5333,184.5333 F,0,93782,93976,0,1 S,0,93782,93976,0.1573335,0.4240002 F,0,93976,94170,1,0 S,0,93976,94170,0.4240002,0.8080003
Sprite,Foreground,Centre,"sb\Ring.png",320,240 M,0,120878,,97.0667,376.5334 F,0,120878,121072,0,1 S,0,120878,121072,0.1573335,0.4240002 F,0,121072,121266,1,0 S,0,121072,121266,0.4240002,0.8080003
Sprite,Foreground,Centre,"sb\Ring.png",320,240 M,0,121459,,208,229.3334 F,0,121459,121653,0,1 S,0,121459,121653,0.1573335,0.4240002 F,0,121653,121847,1,0 S,0,121653,121847,0.4240002,0.8080003
Sprite,Foreground,Centre,"sb\Ring.png",320,240 M,0,122040,,320,376.5334 F,0,122040,122234,0,1 S,0,122040,122234,0.1573335,0.4240002 F,0,122234,122428,1,0 S,0,122234,122428,0.4240002,0.8080003
Sprite,Foreground,Centre,"sb\Ring.png",320,240 M,0,122620,,430.9334,225.0667 F,0,122620,122814,0,1 S,0,122620,122814,0.1573335,0.4240002 F,0,122814,123008,1,0 S,0,122814,123008,0.4240002,0.8080003
Sprite,Foreground,Centre,"sb\Ring.png",320,240 M,0,123201,,553.6001,313.6 F,0,123201,123395,0,1 S,0,123201,123395,0.1573335,0.4240002 F,0,123395,123589,1,0 S,0,123395,123589,0.4240002,0.8080003
Sprite,Foreground,Centre,"sb\Ring.png",320,240 M,0,123588,,323.2,192.0001 F,0,123588,123782,0,1 S,0,123588,123782,0.1573335,0.4240002 F,0,123782,123976,1,0 S,0,123782,123976,0.4240002,0.8080003
Sprite,Foreground,Centre,"sb\Ring.png",320,240 M,0,123975,,96.00001,253.8667 F,0,123975,124169,0,1 S,0,123975,124169,0.1573335,0.4240002 F,0,124169,124363,1,0 S,0,124169,124363,0.4240002,0.8080003
Sprite,Foreground,Centre,"sb\Ring.png",320,240 M,0,124556,,206.9334,174.9334 F,0,124556,124750,0,1 S,0,124556,124750,0.1573335,0.4240002 F,0,124750,124944,1,0 S,0,124750,124944,0.4240002,0.8080003
Sprite,Foreground,Centre,"sb\Ring.png",320,240 M,0,125136,,320,250.6667 F,0,125136,125330,0,1 S,0,125136,125330,0.1573335,0.4240002 F,0,125330,125524,1,0 S,0,125330,125524,0.4240002,0.8080003
Sprite,Foreground,Centre,"sb\Ring.png",320,240 M,0,125717,,433.0667,178.1334 F,0,125717,125911,0,1 S,0,125717,125911,0.1573335,0.4240002 F,0,125911,126105,1,0 S,0,125911,126105,0.4240002,0.8080003
Sprite,Foreground,Centre,"sb\Ring.png",320,240 M,0,126298,,551.4667,192 F,0,126298,126492,0,1 S,0,126298,126492,0.1573335,0.4240002 F,0,126492,126686,1,0 S,0,126492,126686,0.4240002,0.8080003
Sprite,Foreground,Centre,"sb\Ring.png",320,240 M,0,130169,,114.1334,208 F,0,130169,130363,0,1 S,0,130169,130363,0.1573335,0.4240002 F,0,130363,130557,1,0 S,0,130363,130557,0.4240002,0.8080003
Sprite,Foreground,Centre,"sb\Ring.png",320,240 M,0,130943,,516.2667,211.2001 F,0,130943,131137,0,1 S,0,130943,131137,0.1573335,0.4240002 F,0,131137,131331,1,0 S,0,131137,131331,0.4240002,0.8080003
Sprite,Foreground,Centre,"sb\Ring.png",320,240 M,0,131717,,112,230.4001 F,0,131717,131911,0,1 S,0,131717,131911,0.1573335,0.4240002 F,0,131911,132105,1,0 S,0,131911,132105,0.4240002,0.8080003
Sprite,Foreground,Centre,"sb\Ring.png",320,240 M,0,132104,,520.5333,229.3334 F,0,132104,132298,0,1 S,0,132104,132298,0.1573335,0.4240002 F,0,132298,132492,1,0 S,0,132298,132492,0.4240002,0.8080003
Sprite,Foreground,Centre,"sb\Ring.png",320,240 M,0,132491,,317.8667,121.6 F,0,132491,132685,0,1 S,0,132491,132685,0.1573335,0.4240002 F,0,132685,132879,1,0 S,0,132685,132879,0.4240002,0.8080003
Sprite,Foreground,Centre,"sb\q.png",320,240 S,0,57395,,2.098667 C,0,57395,,0,255,255 M,2,57395,57653,-120.5333,361.6,84.26666,341.3333 R,0,57395,57653,-2.090666,-0.8106658 M,0,57653,69395,84.26666,341.3333 R,0,57653,69395,-0.8106658,2.4318 R,0,69395,,2.4318 M,0,69395,69653,84.26666,341.3333,-142.9333,347.7333 R,0,69395,69653,2.4318,3.434467
Sprite,Foreground,Centre,"sb\q.png",320,240 S,0,41911,,1.928 C,0,41911,,254,121,1 M,0,41911,42169,795.7333,78.93334,491.7333,89.60001 R,0,41911,42169,3.157334,4.266667 M,0,42169,53910,491.7333,89.60001 R,0,42169,53910,4.266667,7.232 M,0,53910,56620,491.7333,89.60001 R,0,53910,56620,7.232,8.448 M,0,56620,56814,491.7333,89.60001,760.5333,96.00002 R,0,56620,56814,8.448,7.893333
Sprite,Foreground,Centre,"sb\q.png",320,240 S,0,17137,,1.928 C,0,17137,,254,121,1 M,0,17137,17395,795.7333,78.93334,491.7333,89.60001 R,0,17137,17395,3.157334,4.266667 M,0,17395,29136,491.7333,89.60001 R,0,17395,29136,4.266667,7.232 M,0,29136,29395,491.7333,89.60001,803.2,88.53334 R,0,29136,29395,7.232,8.746667
Sprite,Foreground,Centre,"sb\FM.png",320,240 S,0,57395,,0.7760001 M,0,57395,57653,445.8667,-99.19999,389.3333,341.3333 R,0,57395,57653,0.08533325,-0.06400025 R,0,57653,69298,-0.06400025,-0.1919995 M,0,57653,69395,389.3333,341.3333 R,0,69298,69395,-0.1919995 M,0,69395,69588,389.3333,341.3333,393.6,615.4667 R,0,69395,69588,-0.1919995,-0.3413324
Sprite,Foreground,Centre,"sb\miura.png",320,240 M,0,69782,70040,151.4666,578.1334,217.6,109.8668 R,0,69782,70040,0.2133331,-0.06400024 M,0,70040,81781,217.6,109.8668 R,0,70040,81781,-0.06400024,-0.2122587 M,0,81781,82040,217.6,109.8668,171.7333,-137.5999 R,0,81781,82040,-0.2122587,-0.3829256
Sprite,Foreground,Centre,"sb\FM.png",320,240 S,0,82169,,0.7760001 M,0,82169,82427,445.8667,-99.19999,389.3333,341.3333 R,0,82169,82427,0.08533325,-0.06400025 R,0,82427,,-0.06400025 M,0,82427,94169,389.3333,341.3333,389.7716,337.9184 R,0,82427,94169,-0.06400025,-0.1493341 M,0,94169,94427,389.7716,337.9184,408.9716,587.5184 R,0,94169,94427,-0.1493341,-0.256001
Sprite,Foreground,Centre,"sb\miura.png",320,240 M,0,102298,102556,151.4666,578.1334,217.6,109.8668 R,0,102298,102556,0.2133331,-0.06400024 M,0,102556,108104,217.6,109.8668 R,0,102556,108104,-0.06400024,-0.297592 M,0,108104,108298,217.6,109.8668,117.3333,-122.6665 R,0,108104,108298,-0.297592,-0.5322587
Sprite,Foreground,Centre,"sb\FM.png",320,240 S,0,134814,,0.3919998 M,0,134814,140460,441.5999,139.7333
Sprite,Foreground,Centre,"sb\miura.png",320,240 S,0,134814,,0.4453332 M,0,134814,140524,388.2667,188.8
Sprite,Foreground,Centre,"sb\dot2.png",320,240 S,0,54298,,4.936 C,0,54298,,255,128,255 M,0,54298,54301,186.6667,395.7334 M,0,54301,54303,186.6667,395.7334 M,0,54303,54306,186.6667,395.7334,187.7333,395.7334 M,0,54306,54308,187.7333,395.7334 M,0,54308,54311,187.7333,395.7334,188.8,394.6667 M,0,54311,54313,188.8,394.6667 M,0,54313,54316,188.8,394.6667,189.8667,393.6 M,0,54316,54318,189.8667,393.6 M,0,54318,54320,189.8667,393.6,190.9333,393.6 M,0,54320,54324,190.9333,393.6 M,0,54324,54326,190.9333,393.6,192,391.4667 M,0,54326,54331,192,391.4667,194.1333,390.4 M,0,54331,54334,194.1333,390.4 M,0,54334,54337,194.1333,390.4,195.2,389.3334 M,0,54337,54342,195.2,389.3334,197.3333,387.2 M,0,54342,54344,197.3333,387.2 M,0,54344,54349,197.3333,387.2 M,0,54349,54352,197.3333,387.2,199.4667,385.0667 M,0,54352,54356,199.4667,385.0667,201.6,384 M,0,54356,54360,201.6,384 M,0,54360,54364,201.6,384 M,0,54364,54369,201.6,384,202.6667,380.8 M,0,54369,54372,202.6667,380.8,204.8,378.6667 M,0,54372,54377,204.8,378.6667 M,0,54377,54380,204.8,378.6667,206.9333,376.5334 M,0,54380,54384,206.9333,376.5334 M,0,54384,54388,206.9333,376.5334,209.0667,374.4 M,0,54388,54392,209.0667,374.4 M,0,54392,54397,209.0667,374.4,210.1333,372.2667 M,0,54397,54401,210.1333,372.2667,211.2,370.1334 M,0,54401,54406,211.2,370.1334,213.3333,368 M,0,54406,54409,213.3333,368 M,0,54409,54414,213.3333,368 M,0,54414,54418,213.3333,368,213.3333,365.8667 M,0,54418,54422,213.3333,365.8667,214.4,363.7334 M,0,54422,54427,214.4,363.7334 M,0,54427,54431,214.4,363.7334,214.4,362.6667 M,0,54431,54436,214.4,362.6667 M,0,54436,54440,214.4,362.6667,214.4,360.5334 M,0,54440,54444,214.4,360.5334 M,0,54444,54448,214.4,360.5334,214.4,358.4 M,0,54448,54452,214.4,358.4 M,0,54452,54456,214.4,358.4,214.4,356.2667 M,0,54456,54460,214.4,356.2667,214.4,354.1334 M,0,54460,54465,214.4,354.1334 M,0,54465,54469,214.4,354.1334,214.4,350.9333 M,0,54469,54472,214.4,350.9333 M,0,54472,54477,214.4,350.9333,214.4,348.8 M,0,54477,54480,214.4,348.8 M,0,54480,54486,214.4,348.8,214.4,346.6667 M,0,54486,54490,214.4,346.6667,214.4,344.5334 M,0,54490,54493,214.4,344.5334 M,0,54493,54498,214.4,344.5334,214.4,342.4001 M,0,54498,54502,214.4,342.4001 M,0,54502,54506,214.4,342.4001,214.4,340.2667 M,0,54506,54510,214.4,340.2667 M,0,54510,54515,214.4,340.2667,214.4,338.1334 M,0,54515,54519,214.4,338.1334,214.4,337.0667 M,0,54519,54524,214.4,337.0667 M,0,54524,54528,214.4,337.0667,214.4,333.8667 M,0,54528,54532,214.4,333.8667 M,0,54532,54537,214.4,333.8667,214.4,331.7334 M,0,54537,54540,214.4,331.7334 M,0,54540,54544,214.4,331.7334,214.4,329.6 M,0,54544,54548,214.4,329.6 M,0,54548,54552,214.4,329.6,214.4,327.4667 M,0,54552,54556,214.4,327.4667,214.4,325.3333 M,0,54556,54560,214.4,325.3333 M,0,54560,54565,214.4,325.3333,213.3333,323.2 M,0,54565,54569,213.3333,323.2 M,0,54569,54574,213.3333,323.2,213.3333,320 M,0,54574,54578,213.3333,320 M,0,54578,54583,213.3333,320,212.2667,317.8667 M,0,54583,54587,212.2667,317.8667 M,0,54587,54590,212.2667,317.8667,211.2,315.7334 M,0,54590,54594,211.2,315.7334 M,0,54594,54598,211.2,315.7334,211.2,313.6 M,0,54598,54602,211.2,313.6 M,0,54602,54606,211.2,313.6,210.1333,311.4667 M,0,54606,54610,210.1333,311.4667,209.0667,308.2667 M,0,54610,54615,209.0667,308.2667 M,0,54615,54619,209.0667,308.2667,208,306.1334 M,0,54619,54622,208,306.1334 M,0,54622,54627,208,306.1334,205.8667,304 M,0,54627,54631,205.8667,304,203.7333,301.8667 M,0,54631,54635,203.7333,301.8667 M,0,54635,54640,203.7333,301.8667,201.6,300.8 M,0,54640,54643,201.6,300.8 M,0,54643,54648,201.6,300.8,199.4667,299.7334 M,0,54648,54652,199.4667,299.7334 M,0,54652,54656,199.4667,299.7334,196.2667,298.6667 M,0,54656,54660,196.2667,298.6667 M,0,54660,54665,196.2667,298.6667,193.0667,297.6 M,0,54665,54669,193.0667,297.6,189.8667,297.6 M,0,54669,54673,189.8667,297.6 M,0,54673,54678,189.8667,297.6,186.6667,296.5334 M,0,54678,54682,186.6667,296.5334 M,0,54682,54687,186.6667,296.5334,183.4667,295.4667 M,0,54687,54690,183.4667,295.4667 M,0,54690,54693,183.4667,295.4667,179.2,294.4 M,0,54693,54697,179.2,294.4 M,0,54697,54701,179.2,294.4,176,294.4 M,0,54701,54705,176,294.4,172.8,293.3333 M,0,54705,54709,172.8,293.3333 M,0,54709,54715,172.8,293.3333,170.6667,292.2667 M,0,54715,54719,170.6667,292.2667 M,0,54719,54724,170.6667,292.2667,167.4667,292.2667 M,0,54724,54728,167.4667,292.2667 M,0,54728,54732,167.4667,292.2667,165.3333,291.2 M,0,54732,54737,165.3333,291.2 M,0,54737,54741,165.3333,291.2,163.2,291.2 M,0,54741,54744,163.2,291.2 M,0,54744,54748,163.2,291.2,161.0667,291.2 M,0,54748,54752,161.0667,291.2,160,291.2 M,0,54752,54756,160,291.2 M,0,54756,54760,160,291.2,157.8667,291.2 M,0,54760,54764,157.8667,291.2 M,0,54764,54769,157.8667,291.2,156.8,291.2 M,0,54769,54773,156.8,291.2 M,0,54773,54777,156.8,291.2,155.7333,291.2 M,0,54777,54782,155.7333,291.2 M,0,54782,54786,155.7333,291.2,153.6,292.2667 M,0,54786,54790,153.6,292.2667,152.5334,292.2667 M,0,54790,54795,152.5334,292.2667 M,0,54795,54799,152.5334,292.2667,150.4,293.3333 M,0,54799,54803,150.4,293.3333 M,0,54803,54807,150.4,293.3333,149.3333,294.4 M,0,54807,54812,149.3333,294.4 M,0,54812,54815,149.3333,294.4,147.2,295.4667 M,0,54815,54820,147.2,295.4667,146.1333,297.6 M,0,54820,54824,146.1333,297.6 M,0,54824,54830,146.1333,297.6,145.0667,298.6667 M,0,54830,54832,145.0667,298.6667 M,0,54832,54836,145.0667,298.6667,142.9333,299.7334 M,0,54836,54841,142.9333,299.7334,141.8667,300.8 M,0,54841,54843,141.8667,300.8 M,0,54843,54848,141.8667,300.8,140.8,302.9334 M,0,54848,54852,140.8,302.9334 M,0,54852,54856,140.8,302.9334,139.7334,305.0667 M,0,54856,54861,139.7334,305.0667 M,0,54861,54865,139.7334,305.0667,138.6667,307.2 M,0,54865,54869,138.6667,307.2 M,0,54869,54874,138.6667,307.2,138.6667,310.4001 M,0,54874,54880,138.6667,310.4001,136.5333,313.6 M,0,54880,54882,136.5333,313.6 M,0,54882,54886,136.5333,313.6 M,0,54886,54891,136.5333,313.6,136.5333,316.8 M,0,54891,54895,136.5333,316.8,135.4667,320 M,0,54895,54900,135.4667,320 M,0,54900,54904,135.4667,320,134.4,324.2667 M,0,54904,54909,134.4,324.2667 M,0,54909,54912,134.4,324.2667,133.3333,328.5334 M,0,54912,54916,133.3333,328.5334 M,0,54916,54920,133.3333,328.5334,132.2667,332.8 M,0,54920,54923,132.2667,332.8 M,0,54923,54929,132.2667,332.8,131.2,337.0667 M,0,54929,54931,131.2,337.0667 M,0,54931,54937,131.2,337.0667,130.1333,341.3334 M,0,54937,54940,130.1333,341.3334,130.1333,346.6667 M,0,54940,54947,130.1333,346.6667,129.0667,350.9333 M,0,54947,54949,129.0667,350.9333 M,0,54949,54954,129.0667,350.9333 M,0,54954,54958,129.0667,350.9333,128,356.2667 M,0,54958,54964,128,356.2667,125.8667,360.5334 M,0,54964,54966,125.8667,360.5334 M,0,54966,54970,125.8667,360.5334,124.8,364.8 M,0,54970,54974,124.8,364.8 M,0,54974,54978,124.8,364.8,123.7333,369.0667 M,0,54978,54982,123.7333,369.0667 M,0,54982,54986,123.7333,369.0667,122.6667,371.2 M,0,54986,54990,122.6667,371.2 M,0,54990,54995,122.6667,371.2,121.6,373.3334 M,0,54995,54999,121.6,373.3334,120.5333,375.4667 M,0,54999,55004,120.5333,375.4667 M,0,55004,55008,120.5333,375.4667,119.4667,376.5334 M,0,55008,55015,119.4667,376.5334 M,0,55015,55017,119.4667,376.5334,118.4,377.6 M,0,55017,55021,118.4,377.6 M,0,55021,55026,118.4,377.6,117.3333,377.6 M,0,55026,55031,117.3333,377.6 M,0,55031,55034,117.3333,377.6 M,0,55034,55038,117.3333,377.6,116.2667,377.6 M,0,55038,55042,116.2667,377.6 M,0,55042,55046,116.2667,377.6 M,0,55046,55050,116.2667,377.6 M,0,55050,55054,116.2667,377.6,115.2,377.6 M,0,55054,55059,115.2,377.6,114.1333,377.6 M,0,55059,55064,114.1333,377.6 M,0,55064,55068,114.1333,377.6,114.1333,376.5334 M,0,55068,55071,114.1333,376.5334 M,0,55071,55076,114.1333,376.5334,113.0667,374.4 M,0,55076,55079,113.0667,374.4 M,0,55079,55084,113.0667,374.4,113.0667,372.2667 M,0,55084,55089,113.0667,372.2667,112,369.0667 M,0,55089,55092,112,369.0667 M,0,55092,55097,112,369.0667,112,365.8667 M,0,55097,55101,112,365.8667 M,0,55101,55105,112,365.8667,112,362.6667 M,0,55105,55109,112,362.6667 M,0,55109,55113,112,362.6667,112,358.4 M,0,55113,55117,112,358.4 M,0,55117,55120,112,358.4,112,354.1334 M,0,55120,55126,112,354.1334 M,0,55126,55130,112,354.1334,112,350.9333 M,0,55130,55133,112,350.9333 M,0,55133,55138,112,350.9333,112,346.6667 M,0,55138,55144,112,346.6667,113.0667,343.4667 M,0,55144,55147,113.0667,343.4667 M,0,55147,55152,113.0667,343.4667,113.0667,340.2667 M,0,55152,55156,113.0667,340.2667,114.1333,337.0667 M,0,55156,55160,114.1333,337.0667 M,0,55160,55166,114.1333,337.0667,115.2,334.9334 M,0,55166,55169,115.2,334.9334 M,0,55169,55174,115.2,334.9334,115.2,332.8 M,0,55174,55178,115.2,332.8 M,0,55178,55182,115.2,332.8,116.2667,330.6667 M,0,55182,55186,116.2667,330.6667 M,0,55186,55190,116.2667,330.6667,117.3333,328.5334 M,0,55190,55194,117.3333,328.5334 M,0,55194,55197,117.3333,328.5334,117.3333,326.4 M,0,55197,55202,117.3333,326.4 M,0,55202,55206,117.3333,326.4,118.4,324.2667 M,0,55206,55210,118.4,324.2667,118.4,322.1334 M,0,55210,55215,118.4,322.1334 M,0,55215,55219,118.4,322.1334,119.4667,321.0667 M,0,55219,55223,119.4667,321.0667 M,0,55223,55227,119.4667,321.0667,120.5333,317.8667 M,0,55227,55232,120.5333,317.8667 M,0,55232,55236,120.5333,317.8667,121.6,315.7334 M,0,55236,55240,121.6,315.7334,122.6667,313.6 M,0,55240,55244,122.6667,313.6 M,0,55244,55249,122.6667,313.6,123.7333,311.4667 M,0,55249,55252,123.7333,311.4667 M,0,55252,55256,123.7333,311.4667,124.8,308.2667 M,0,55256,55260,124.8,308.2667 M,0,55260,55264,124.8,308.2667,124.8,306.1334 M,0,55264,55269,124.8,306.1334,125.8667,304 M,0,55269,55272,125.8667,304 M,0,55272,55276,125.8667,304,126.9333,301.8667 M,0,55276,55280,126.9333,301.8667 M,0,55280,55285,126.9333,301.8667,128,299.7334 M,0,55285,55289,128,299.7334 M,0,55289,55294,128,299.7334,128,297.6 M,0,55294,55298,128,297.6 M,0,55298,55302,128,297.6,129.0667,295.4667 M,0,55302,55306,129.0667,295.4667 M,0,55306,55310,129.0667,295.4667,130.1333,293.3333 M,0,55310,55316,130.1333,293.3333,130.1333,292.2667 M,0,55316,55320,130.1333,292.2667 M,0,55320,55323,130.1333,292.2667,131.2,290.1334 M,0,55323,55327,131.2,290.1334 M,0,55327,55331,131.2,290.1334,132.2667,288 M,0,55331,55335,132.2667,288 M,0,55335,55339,132.2667,288,133.3333,285.8667 M,0,55339,55345,133.3333,285.8667 M,0,55345,55348,133.3333,285.8667,133.3333,283.7334 M,0,55348,55352,133.3333,283.7334 M,0,55352,55357,133.3333,283.7334,134.4,282.6667 M,0,55357,55361,134.4,282.6667,135.4667,280.5334 M,0,55361,55365,135.4667,280.5334 M,0,55365,55369,135.4667,280.5334,136.5333,279.4667 M,0,55369,55372,136.5333,279.4667 M,0,55372,55378,136.5333,279.4667,136.5333,278.4001 M,0,55378,55381,136.5333,278.4001,137.6,277.3334 M,0,55381,55386,137.6,277.3334 M,0,55386,55389,137.6,277.3334,138.6667,276.2667 M,0,55389,55393,138.6667,276.2667 M,0,55393,55398,138.6667,276.2667,139.7334,275.2 M,0,55398,55402,139.7334,275.2 M,0,55402,55406,139.7334,275.2,140.8,274.1334 M,0,55406,55410,140.8,274.1334 M,0,55410,55414,140.8,274.1334,141.8667,274.1334 M,0,55414,55419,141.8667,274.1334,142.9333,273.0667 M,0,55419,55423,142.9333,273.0667 M,0,55423,55428,142.9333,273.0667,145.0667,272 M,0,55428,55431,145.0667,272 M,0,55431,55436,145.0667,272,146.1333,270.9334 M,0,55436,55440,146.1333,270.9334 M,0,55440,55444,146.1333,270.9334,148.2667,269.8667 M,0,55444,55449,148.2667,269.8667,150.4,268.8 M,0,55449,55453,150.4,268.8 M,0,55453,55457,150.4,268.8,152.5334,267.7334 M,0,55457,55461,152.5334,267.7334 M,0,55461,55466,152.5334,267.7334,154.6667,266.6667 M,0,55466,55470,154.6667,266.6667 M,0,55470,55473,154.6667,266.6667,156.8,265.6 M,0,55473,55477,156.8,265.6 M,0,55477,55481,156.8,265.6,158.9333,264.5334 M,0,55481,55487,158.9333,264.5334,161.0667,263.4667 M,0,55487,55490,161.0667,263.4667 M,0,55490,55496,161.0667,263.4667,163.2,262.4 M,0,55496,55499,163.2,262.4 M,0,55499,55504,163.2,262.4,165.3333,261.3333 M,0,55504,55508,165.3333,261.3333,168.5333,261.3333 M,0,55508,55515,168.5333,261.3333 M,0,55515,55517,168.5333,261.3333 M,0,55517,55521,168.5333,261.3333,170.6667,261.3333 M,0,55521,55525,170.6667,261.3333 M,0,55525,55530,170.6667,261.3333,172.8,261.3333 M,0,55530,55536,172.8,261.3333,176,261.3333 M,0,55536,55539,176,261.3333,178.1333,261.3333 M,0,55539,55543,178.1333,261.3333 M,0,55543,55547,178.1333,261.3333 M,0,55547,55551,178.1333,261.3333,181.3333,261.3333 M,0,55551,55555,181.3333,261.3333,184.5333,261.3333 M,0,55555,55559,184.5333,261.3333 M,0,55559,55564,184.5333,261.3333,187.7333,262.4 M,0,55564,55568,187.7333,262.4 M,0,55568,55571,187.7333,262.4,189.8667,262.4 M,0,55571,55576,189.8667,262.4 M,0,55576,55580,189.8667,262.4,193.0667,263.4667 M,0,55580,55583,193.0667,263.4667 M,0,55583,55587,193.0667,263.4667,197.3333,264.5334 M,0,55587,55593,197.3333,264.5334,200.5333,265.6 M,0,55593,55596,200.5333,265.6 M,0,55596,55601,200.5333,265.6,203.7333,267.7334 M,0,55601,55605,203.7333,267.7334 M,0,55605,55609,203.7333,267.7334,206.9333,269.8667 M,0,55609,55615,206.9333,269.8667 M,0,55615,55619,206.9333,269.8667,211.2,272 M,0,55619,55622,211.2,272,214.4,275.2 M,0,55622,55626,214.4,275.2 M,0,55626,55631,214.4,275.2,217.6,278.4001 M,0,55631,55636,217.6,278.4001 M,0,55636,55640,217.6,278.4001,221.8667,282.6667 M,0,55640,55643,221.8667,282.6667 M,0,55643,55647,221.8667,282.6667,225.0667,286.9333 M,0,55647,55651,225.0667,286.9333 M,0,55651,55655,225.0667,286.9333,228.2667,290.1334 M,0,55655,55659,228.2667,290.1334,230.4,294.4 M,0,55659,55665,230.4,294.4 M,0,55665,55669,230.4,294.4,232.5333,298.6667 M,0,55669,55672,232.5333,298.6667 M,0,55672,55677,232.5333,298.6667,234.6667,301.8667 M,0,55677,55680,234.6667,301.8667 M,0,55680,55685,234.6667,301.8667,236.8,306.1334 M,0,55685,55689,236.8,306.1334 M,0,55689,55693,236.8,306.1334,237.8667,311.4667 M,0,55693,55697,237.8667,311.4667 M,0,55697,55701,237.8667,311.4667,238.9333,316.8 M,0,55701,55706,238.9333,316.8,238.9333,323.2 M,0,55706,55710,238.9333,323.2 M,0,55710,55715,238.9333,323.2,238.9333,329.6 M,0,55715,55719,238.9333,329.6 M,0,55719,55722,238.9333,329.6,238.9333,338.1334 M,0,55722,55727,238.9333,338.1334 M,0,55727,55731,238.9333,338.1334,238.9333,346.6667 M,0,55731,55736,238.9333,346.6667,238.9333,355.2 M,0,55736,55740,238.9333,355.2 M,0,55740,55745,238.9333,355.2,237.8667,363.7334 M,0,55745,55748,237.8667,363.7334 M,0,55748,55753,237.8667,363.7334,236.8,371.2 M,0,55753,55757,236.8,371.2 M,0,55757,55761,236.8,371.2,235.7333,377.6 M,0,55761,55766,235.7333,377.6,233.6,382.9333 M,0,55766,55770,233.6,382.9333 M,0,55770,55773,233.6,382.9333,232.5333,387.2 M,0,55773,55777,232.5333,387.2 M,0,55777,55781,232.5333,387.2,231.4667,390.4 M,0,55781,55785,231.4667,390.4 M,0,55785,55790,231.4667,390.4,230.4,392.5334 M,0,55790,55795,230.4,392.5334 M,0,55795,55798,230.4,392.5334,229.3333,393.6 M,0,55798,55802,229.3333,393.6,228.2667,394.6667 M,0,55802,55807,228.2667,394.6667 M,0,55807,55810,228.2667,394.6667 M,0,55810,55815,228.2667,394.6667 M,0,55815,55820,228.2667,394.6667 M,0,55820,55823,228.2667,394.6667 M,0,55823,55827,228.2667,394.6667 M,0,55827,55831,228.2667,394.6667 M,0,55831,55836,228.2667,394.6667 M,0,55836,55841,228.2667,394.6667 M,0,55841,55846,228.2667,394.6667 M,0,55846,55849,228.2667,394.6667 M,0,55849,55853,228.2667,394.6667 M,0,55853,55857,228.2667,394.6667 M,0,55857,55863,228.2667,394.6667 M,0,55863,55866,228.2667,394.6667 M,0,55866,55870,228.2667,394.6667,227.2,393.6 M,0,55870,55874,227.2,393.6 M,0,55874,55879,227.2,393.6,226.1333,392.5334 M,0,55879,55882,226.1333,392.5334 M,0,55882,55886,226.1333,392.5334,226.1333,391.4667 M,0,55886,55891,226.1333,391.4667 M,0,55891,55897,226.1333,391.4667,225.0667,389.3334 M,0,55897,55900,225.0667,389.3334,224,388.2667 M,0,55900,55904,224,388.2667 M,0,55904,55908,224,388.2667,224,387.2 M,0,55908,55912,224,387.2 M,0,55912,55916,224,387.2,224,385.0667 M,0,55916,55921,224,385.0667 M,0,55921,55925,224,385.0667,224,382.9333 M,0,55925,55931,224,382.9333,224,380.8 M,0,55931,55933,224,380.8 M,0,55933,55937,224,380.8,224,377.6 M,0,55937,55940,224,377.6 M,0,55940,55946,224,377.6,225.0667,374.4 M,0,55946,55950,225.0667,374.4 M,0,55950,55955,225.0667,374.4,226.1333,371.2 M,0,55955,55959,226.1333,371.2 M,0,55959,55963,226.1333,371.2,227.2,369.0667 M,0,55963,55967,227.2,369.0667,229.3333,365.8667 M,0,55967,55971,229.3333,365.8667 M,0,55971,55975,229.3333,365.8667,231.4667,363.7334 M,0,55975,55980,231.4667,363.7334 M,0,55980,55984,231.4667,363.7334,233.6,361.6 M,0,55984,55988,233.6,361.6,235.7333,359.4667 M,0,55988,55991,235.7333,359.4667 M,0,55991,55997,235.7333,359.4667,237.8667,357.3334 M,0,55997,56000,237.8667,357.3334 M,0,56000,56005,237.8667,357.3334,241.0667,355.2 M,0,56005,56009,241.0667,355.2 M,0,56009,56014,241.0667,355.2,244.2667,353.0667 M,0,56014,56018,244.2667,353.0667 M,0,56018,56022,244.2667,353.0667,248.5333,350.9333 M,0,56022,56026,248.5333,350.9333 M,0,56026,56030,248.5333,350.9333,253.8667,348.8 M,0,56030,56035,253.8667,348.8 M,0,56035,56039,253.8667,348.8,258.1333,346.6667 M,0,56039,56043,258.1333,346.6667,263.4667,345.6 M,0,56043,56047,263.4667,345.6 M,0,56047,56051,263.4667,345.6,268.8,344.5334 M,0,56051,56055,268.8,344.5334 M,0,56055,56059,268.8,344.5334,275.2,343.4667 M,0,56059,56065,275.2,343.4667,280.5333,343.4667 M,0,56065,56068,280.5333,343.4667 M,0,56068,56072,280.5333,343.4667,286.9333,343.4667 M,0,56072,56077,286.9333,343.4667 M,0,56077,56081,286.9333,343.4667,292.2667,343.4667 M,0,56081,56085,292.2667,343.4667 M,0,56085,56090,292.2667,343.4667,298.6667,344.5334 M,0,56090,56093,298.6667,344.5334 M,0,56093,56097,298.6667,344.5334,305.0667,345.6 M,0,56097,56101,305.0667,345.6 M,0,56101,56106,305.0667,345.6,311.4667,346.6667 M,0,56106,56109,311.4667,346.6667,317.8667,348.8 M,0,56109,56115,317.8667,348.8 M,0,56115,56119,317.8667,348.8,325.3333,350.9333 M,0,56119,56123,325.3333,350.9333 M,0,56123,56128,325.3333,350.9333,331.7333,354.1334 M,0,56128,56131,331.7333,354.1334,338.1333,357.3334 M,0,56131,56136,338.1333,357.3334 M,0,56136,56140,338.1333,357.3334,344.5333,360.5334 M,0,56140,56143,344.5333,360.5334 M,0,56143,56147,344.5333,360.5334,350.9333,364.8 M,0,56147,56152,350.9333,364.8 M,0,56152,56157,350.9333,364.8,356.2667,369.0667 M,0,56157,56161,356.2667,369.0667 M,0,56161,56165,356.2667,369.0667,360.5334,373.3334 M,0,56165,56169,360.5334,373.3334,364.8,377.6 M,0,56169,56173,364.8,377.6 M,0,56173,56178,364.8,377.6,368,381.8667 M,0,56178,56181,368,381.8667 M,0,56181,56186,368,381.8667,371.2,386.1334 M,0,56186,56190,371.2,386.1334 M,0,56190,56195,371.2,386.1334,374.4,390.4 M,0,56195,56199,374.4,390.4,376.5333,394.6667 M,0,56199,56202,376.5333,394.6667 M,0,56202,56207,376.5333,394.6667,379.7333,398.9334 M,0,56207,56211,379.7333,398.9334 M,0,56211,56216,379.7333,398.9334,381.8667,402.1334 M,0,56216,56220,381.8667,402.1334 M,0,56220,56224,381.8667,402.1334,384,405.3334 M,0,56224,56228,384,405.3334 M,0,56228,56232,384,405.3334,386.1334,408.5334 M,0,56232,56236,386.1334,408.5334 M,0,56236,56240,386.1334,408.5334,388.2667,410.6667 M,0,56240,56246,388.2667,410.6667,389.3333,411.7334 M,0,56246,56249,389.3333,411.7334 M,0,56249,56253,389.3333,411.7334,390.4,412.8 M,0,56253,56257,390.4,412.8,391.4667,413.8667 M,0,56257,56263,391.4667,413.8667 M,0,56263,56266,391.4667,413.8667 M,0,56266,56270,391.4667,413.8667,392.5334,413.8667 M,0,56270,56275,392.5334,413.8667,393.6,413.8667 M,0,56275,56280,393.6,413.8667 M,0,56280,56283,393.6,413.8667,394.6667,413.8667 M,0,56283,56287,394.6667,413.8667,395.7333,413.8667 M,0,56287,56291,395.7333,413.8667 M,0,56291,56296,395.7333,413.8667 M,0,56296,56300,395.7333,413.8667,396.8,412.8 M,0,56300,56305,396.8,412.8,397.8667,411.7334 M,0,56305,56309,397.8667,411.7334 M,0,56309,56313,397.8667,411.7334,400,409.6 M,0,56313,56317,400,409.6 M,0,56317,56321,400,409.6,402.1333,407.4667 M,0,56321,56325,402.1333,407.4667 M,0,56325,56331,402.1333,407.4667,404.2667,404.2667 M,0,56331,56333,404.2667,404.2667 M,0,56333,56337,404.2667,404.2667,406.4,401.0667 M,0,56337,56341,406.4,401.0667,408.5333,397.8667 M,0,56341,56347,408.5333,397.8667 M,0,56347,56350,408.5333,397.8667,411.7333,393.6 M,0,56350,56355,411.7333,393.6,413.8667,389.3334 M,0,56355,56359,413.8667,389.3334 M,0,56359,56362,413.8667,389.3334 M,0,56362,56367,413.8667,389.3334,417.0667,385.0667 M,0,56367,56371,417.0667,385.0667,419.2,378.6667 M,0,56371,56375,419.2,378.6667 M,0,56375,56380,419.2,378.6667,422.4,372.2667 M,0,56380,56384,422.4,372.2667 M,0,56384,56388,422.4,372.2667,426.6667,363.7334 M,0,56388,56392,426.6667,363.7334 M,0,56392,56397,426.6667,363.7334,430.9333,354.1334 M,0,56397,56401,430.9333,354.1334,435.2,343.4667 M,0,56401,56406,435.2,343.4667 M,0,56406,56410,435.2,343.4667,440.5333,331.7334 M,0,56410,56415,440.5333,331.7334 M,0,56415,56419,440.5333,331.7334,445.8667,318.9333 M,0,56419,56422,445.8667,318.9333 M,0,56422,56427,445.8667,318.9333,452.2667,304 M,0,56427,56430,452.2667,304 M,0,56430,56436,452.2667,304,459.7333,289.0667 M,0,56436,56440,459.7333,289.0667,468.2667,274.1334 M,0,56440,56443,468.2667,274.1334 M,0,56443,56448,468.2667,274.1334,475.7334,260.2667 M,0,56448,56452,475.7334,260.2667 M,0,56452,56456,475.7334,260.2667,484.2667,246.4 M,0,56456,56460,484.2667,246.4,491.7334,234.6667 M,0,56460,56465,491.7334,234.6667 M,0,56465,56469,491.7334,234.6667,499.2,222.9334 M,0,56469,56473,499.2,222.9334 M,0,56473,56477,499.2,222.9334,505.6,211.2 M,0,56477,56482,505.6,211.2 M,0,56482,56486,505.6,211.2,512,200.5334 M,0,56486,56490,512,200.5334,518.4,190.9334 M,0,56490,56495,518.4,190.9334 M,0,56495,56498,518.4,190.9334 M,0,56498,56503,518.4,190.9334,522.6667,182.4 M,0,56503,56508,522.6667,182.4,528,173.8667 M,0,56508,56512,528,173.8667 M,0,56512,56517,528,173.8667,532.2667,167.4667 M,0,56517,56521,532.2667,167.4667,536.5333,161.0667 M,0,56521,56525,536.5333,161.0667 M,0,56525,56529,536.5333,161.0667,538.6667,156.8 M,0,56529,56532,538.6667,156.8 M,0,56532,56538,538.6667,156.8,541.8667,152.5334 M,0,56538,56541,541.8667,152.5334 M,0,56541,56546,541.8667,152.5334,542.9333,149.3334 M,0,56546,56549,542.9333,149.3334 M,0,56549,56554,542.9333,149.3334,544,147.2 M,0,56554,56558,544,147.2,545.0667,145.0667 M,0,56558,56563,545.0667,145.0667 M,0,56563,56567,545.0667,145.0667,546.1333,144 M,0,56567,56570,546.1333,144 M,0,56570,56575,546.1333,144 M,0,56575,56579,546.1333,144 M,0,56579,56585,546.1333,144 M,0,56585,56589,546.1333,144 M,0,56589,56592,546.1333,144 M,0,56592,56596,546.1333,144 M,0,56596,56600,546.1333,144 M,0,56600,56605,546.1333,144 M,0,56605,56609,546.1333,144 M,0,56609,56613,546.1333,144,546.1333,146.1334 M,0,56613,56617,546.1333,146.1334 M,0,56617,56621,546.1333,146.1334,546.1333,148.2667 M,0,56621,56626,546.1333,148.2667 M,0,56626,56630,546.1333,148.2667,545.0667,151.4667 M,0,56630,56635,545.0667,151.4667,545.0667,154.6667 M,0,56635,56639,545.0667,154.6667 M,0,56639,56643,545.0667,154.6667,544,158.9334 M,0,56643,56647,544,158.9334 M,0,56647,56651,544,158.9334,544,163.2 M,0,56651,56656,544,163.2,542.9333,166.4 M,0,56656,56660,542.9333,166.4 M,0,56660,56663,542.9333,166.4 M,0,56663,56667,542.9333,166.4,542.9333,170.6667 M,0,56667,56671,542.9333,170.6667,541.8667,173.8667 M,0,56671,56675,541.8667,173.8667 M,0,56675,56680,541.8667,173.8667,541.8667,177.0667 M,0,56680,56685,541.8667,177.0667 M,0,56685,56690,541.8667,177.0667,541.8667,180.2667 M,0,56690,56692,541.8667,180.2667 M,0,56692,56697,541.8667,180.2667,540.8,184.5334 M,0,56697,56701,540.8,184.5334 M,0,56701,56705,540.8,184.5334,540.8,187.7334 M,0,56705,56709,540.8,187.7334,540.8,192 M,0,56709,56715,540.8,192 M,0,56715,56719,540.8,192,539.7333,195.2 M,0,56719,56722,539.7333,195.2 M,0,56722,56727,539.7333,195.2,539.7333,198.4 M,0,56727,56730,539.7333,198.4 M,0,56730,56735,539.7333,198.4,539.7333,201.6 M,0,56735,56739,539.7333,201.6,539.7333,205.8667 M,0,56739,56743,539.7333,205.8667 M,0,56743,56747,539.7333,205.8667,539.7333,210.1334 M,0,56747,56751,539.7333,210.1334 M,0,56751,56756,539.7333,210.1334,540.8,213.3334 M,0,56756,56760,540.8,213.3334,541.8667,217.6 M,0,56760,56764,541.8667,217.6 M,0,56764,56768,541.8667,217.6,542.9333,221.8667 M,0,56768,56771,542.9333,221.8667 M,0,56771,56776,542.9333,221.8667,542.9333,225.0667 M,0,56776,56781,542.9333,225.0667 M,0,56781,56784,542.9333,225.0667,544,228.2667 M,0,56784,56789,544,228.2667 M,0,56789,56793,544,228.2667,544,232.5334 M,0,56793,56798,544,232.5334,545.0667,235.7334 M,0,56798,56801,545.0667,235.7334 M,0,56801,56806,545.0667,235.7334,545.0667,238.9334 M,0,56806,56810,545.0667,238.9334 M,0,56810,56812,545.0667,238.9334 M,0,56812,56817,545.0667,238.9334,545.0667,242.1334 M,0,56817,56821,545.0667,242.1334,545.0667,245.3334 M,0,56821,56826,545.0667,245.3334 M,0,56826,56830,545.0667,245.3334,545.0667,249.6 M,0,56830,56835,545.0667,249.6 M,0,56835,56839,545.0667,249.6,545.0667,253.8667 M,0,56839,56844,545.0667,253.8667,544,258.1334 M,0,56844,56848,544,258.1334 M,0,56848,56852,544,258.1334,544,263.4667 M,0,56852,56856,544,263.4667 M,0,56856,56861,544,263.4667,542.9333,267.7334 M,0,56861,56865,542.9333,267.7334 M,0,56865,56869,542.9333,267.7334,542.9333,270.9334 M,0,56869,56873,542.9333,270.9334 M,0,56873,56877,542.9333,270.9334,541.8667,275.2 M,0,56877,56881,541.8667,275.2,540.8,278.4001 M,0,56881,56886,540.8,278.4001 M,0,56886,56890,540.8,278.4001,540.8,281.6 M,0,56890,56895,540.8,281.6 M,0,56895,56899,540.8,281.6,539.7333,282.6667 M,0,56899,56902,539.7333,282.6667 M,0,56902,56906,539.7333,282.6667,539.7333,284.8 M,0,56906,56911,539.7333,284.8,539.7333,285.8667 M,0,56911,56915,539.7333,285.8667 M,0,56915,56919,539.7333,285.8667,539.7333,286.9333 M,0,56919,56923,539.7333,286.9333 M,0,56923,56927,539.7333,286.9333,539.7333,288 M,0,56927,56931,539.7333,288 M,0,56931,56935,539.7333,288,539.7333,289.0667 M,0,56935,56939,539.7333,289.0667 M,0,56939,56943,539.7333,289.0667,539.7333,290.1334 M,0,56943,56948,539.7333,290.1334 M,0,56948,56951,539.7333,290.1334 M,0,56951,56956,539.7333,290.1334 M,0,56956,56960,539.7333,290.1334 M,0,56960,56965,539.7333,290.1334 M,0,56965,56969,539.7333,290.1334 M,0,56969,56973,539.7333,290.1334 M,0,56973,56978,539.7333,290.1334 M,0,56978,56981,539.7333,290.1334 M,0,56981,56986,539.7333,290.1334 M,0,56986,56990,539.7333,290.1334 M,0,56990,56994,539.7333,290.1334 M,0,56994,56999,539.7333,290.1334 M,0,56999,57003,539.7333,290.1334 M,0,57003,57008,539.7333,290.1334 M,0,57008,57011,539.7333,290.1334 M,0,57011,57016,539.7333,290.1334 M,0,57016,57020,539.7333,290.1334 M,0,57020,57024,539.7333,290.1334 M,0,57024,57028,539.7333,290.1334 M,0,57028,57033,539.7333,290.1334 M,0,57033,57037,539.7333,290.1334 M,0,57037,57041,539.7333,290.1334 M,0,57041,57045,539.7333,290.1334 M,0,57045,57049,539.7333,290.1334 M,0,57049,57054,539.7333,290.1334 M,0,57054,57059,539.7333,290.1334 M,0,57059,57063,539.7333,290.1334 M,0,57063,57067,539.7333,290.1334 M,0,57067,57071,539.7333,290.1334 M,0,57071,57075,539.7333,290.1334 M,0,57075,57080,539.7333,290.1334,538.6667,290.1334 M,0,57080,57083,538.6667,290.1334 M,0,57083,57087,538.6667,290.1334,537.6,289.0667 M,0,57087,57091,537.6,289.0667,536.5333,288 M,0,57091,57096,536.5333,288 M,0,57096,57100,536.5333,288,535.4667,285.8667 M,0,57100,57105,535.4667,285.8667 M,0,57105,57109,535.4667,285.8667,533.3333,283.7334 M,0,57109,57113,533.3333,283.7334 M,0,57113,57117,533.3333,283.7334,532.2667,281.6 M,0,57117,57121,532.2667,281.6,530.1333,278.4001 M,0,57121,57125,530.1333,278.4001 M,0,57125,57130,530.1333,278.4001,528,275.2 M,0,57130,57135,528,275.2 M,0,57135,57138,528,275.2,525.8667,272 M,0,57138,57142,525.8667,272 M,0,57142,57146,525.8667,272 M,0,57146,57150,525.8667,272,519.4667,264.5334 M,0,57150,57155,519.4667,264.5334 M,0,57155,57160,519.4667,264.5334,515.2,261.3333 M,0,57160,57163,515.2,261.3333 M,0,57163,57168,515.2,261.3333,512,257.0667 M,0,57168,57172,512,257.0667 M,0,57172,57176,512,257.0667,506.6667,253.8667 M,0,57176,57180,506.6667,253.8667,501.3334,250.6667 M,0,57180,57185,501.3334,250.6667 M,0,57185,57188,501.3334,250.6667 M,0,57188,57192,501.3334,250.6667,496,247.4667 M,0,57192,57197,496,247.4667,489.6,244.2667 M,0,57197,57200,489.6,244.2667 M,0,57200,57206,489.6,244.2667,482.1333,241.0667 M,0,57206,57209,482.1333,241.0667 M,0,57209,57215,482.1333,241.0667,475.7334,237.8667 M,0,57215,57219,475.7334,237.8667,469.3333,234.6667 M,0,57219,57223,469.3333,234.6667 M,0,57223,57227,469.3333,234.6667,462.9333,231.4667 M,0,57227,57231,462.9333,231.4667 M,0,57231,57235,462.9333,231.4667,456.5334,229.3334 M,0,57235,57239,456.5334,229.3334 M,0,57239,57243,456.5334,229.3334,450.1334,227.2 M,0,57243,57247,450.1334,227.2 M,0,57247,57251,450.1334,227.2,444.8,225.0667 M,0,57251,57256,444.8,225.0667 M,0,57256,57260,444.8,225.0667,440.5333,224 M,0,57260,57265,440.5333,224,435.2,222.9334 M,0,57265,57269,435.2,222.9334 M,0,57269,57273,435.2,222.9334,430.9333,221.8667 M,0,57273,57277,430.9333,221.8667 M,0,57277,57281,430.9333,221.8667,426.6667,221.8667 M,0,57281,57286,426.6667,221.8667 M,0,57286,57289,426.6667,221.8667,422.4,221.8667 M,0,57289,57293,422.4,221.8667 M,0,57293,57298,422.4,221.8667,418.1334,221.8667 M,0,57298,57302,418.1334,221.8667,413.8667,221.8667 M,0,57302,57306,413.8667,221.8667 M,0,57306,57310,413.8667,221.8667,409.6,222.9334 M,0,57310,57314,409.6,222.9334 M,0,57314,57319,409.6,222.9334,405.3333,224 M,0,57319,57323,405.3333,224 M,0,57323,57327,405.3333,224,400,226.1334 M,0,57327,57330,400,226.1334,395.7333,227.2 M,0,57330,57335,395.7333,227.2 M,0,57335,57339,395.7333,227.2,390.4,229.3334 M,0,57339,57345,390.4,229.3334 M,0,57345,57349,390.4,229.3334,384,231.4667 M,0,57349,57353,384,231.4667 M,0,57353,57357,384,231.4667,378.6667,233.6 M,0,57357,57360,378.6667,233.6 M,0,57360,57364,378.6667,233.6,373.3333,235.7334 M,0,57364,57370,373.3333,235.7334,368,237.8667 M,0,57370,57373,368,237.8667 M,0,57373,57377,368,237.8667,361.6,240 M,0,57377,57381,361.6,240 M,0,57381,57386,361.6,240,355.2,242.1334 M,0,57386,57391,355.2,242.1334,349.8667,243.2 M,0,57391,57395,349.8667,243.2 M,0,57395,57399,349.8667,243.2,343.4667,244.2667 M,0,57399,57404,343.4667,244.2667 M,0,57404,57409,343.4667,244.2667,336,245.3334 M,0,57409,57413,336,245.3334 M,0,57413,57417,336,245.3334,329.6,246.4 M,0,57417,57422,329.6,246.4,323.2,246.4 M,0,57422,57427,323.2,246.4 M,0,57427,57431,323.2,246.4,316.8,246.4 M,0,57431,57436,316.8,246.4 M,0,57436,57440,316.8,246.4,310.4,246.4 M,0,57440,57447,310.4,246.4,304,245.3334 M,0,57447,57449,304,245.3334 M,0,57449,57452,304,245.3334,299.7333,244.2667 M,0,57452,57456,299.7333,244.2667,294.4,242.1334 M,0,57456,57462,294.4,242.1334 M,0,57462,57465,294.4,242.1334 M,0,57465,57469,294.4,242.1334,291.2,240 M,0,57469,57474,291.2,240,286.9333,236.8 M,0,57474,57480,286.9333,236.8 M,0,57480,57482,286.9333,236.8,283.7333,233.6 M,0,57482,57486,283.7333,233.6 M,0,57486,57490,283.7333,233.6,280.5333,230.4 M,0,57490,57496,280.5333,230.4 M,0,57496,57499,280.5333,230.4,277.3333,226.1334 M,0,57499,57503,277.3333,226.1334 M,0,57503,57509,277.3333,226.1334,270.9333,217.6 M,0,57509,57512,270.9333,217.6 M,0,57512,57516,270.9333,217.6 M,0,57516,57519,270.9333,217.6,268.8,213.3334 M,0,57519,57526,268.8,213.3334,265.6,209.0667 M,0,57526,57530,265.6,209.0667 M,0,57530,57535,265.6,209.0667,263.4667,205.8667 M,0,57535,57539,263.4667,205.8667,262.4,201.6 M,0,57539,57546,262.4,201.6 M,0,57546,57550,262.4,201.6,260.2667,197.3334 M,0,57550,57552,260.2667,197.3334 M,0,57552,57556,260.2667,197.3334,259.2,193.0667 M,0,57556,57563,259.2,193.0667 M,0,57563,57567,259.2,193.0667,259.2,188.8 M,0,57567,57573,259.2,188.8,259.2,184.5334 M,0,57573,57578,259.2,184.5334 M,0,57578,57582,259.2,184.5334,259.2,180.2667 M,0,57582,57586,259.2,180.2667 M,0,57586,57590,259.2,180.2667,259.2,176 M,0,57590,57594,259.2,176 M,0,57594,57599,259.2,176,259.2,170.6667 M,0,57599,57602,259.2,170.6667,260.2667,165.3334 M,0,57602,57607,260.2667,165.3334 M,0,57607,57611,260.2667,165.3334,262.4,158.9334 M,0,57611,57616,262.4,158.9334,264.5334,151.4667 M,0,57616,57620,264.5334,151.4667 M,0,57620,57625,264.5334,151.4667,267.7333,142.9334 M,0,57625,57630,267.7333,142.9334 M,0,57630,57635,267.7333,142.9334,272,135.4667 M,0,57635,57639,272,135.4667,275.2,126.9334 M,0,57639,57643,275.2,126.9334 M,0,57643,57648,275.2,126.9334,279.4667,118.4 M,0,57648,57651,279.4667,118.4 M,0,57651,57656,279.4667,118.4,283.7333,110.9334 M,0,57656,57660,283.7333,110.9334,289.0667,103.4667 M,0,57660,57665,289.0667,103.4667 M,0,57665,57670,289.0667,103.4667,293.3333,97.0667 M,0,57670,57674,293.3333,97.0667 M,0,57674,57679,293.3333,97.0667,298.6667,90.6667 M,0,57679,57683,298.6667,90.6667 M,0,57683,57687,298.6667,90.6667,304,85.33337 M,0,57687,57691,304,85.33337,310.4,81.0667 M,0,57691,57697,310.4,81.0667 M,0,57697,57701,310.4,81.0667,315.7333,75.73336 M,0,57701,57705,315.7333,75.73336 M,0,57705,57709,315.7333,75.73336,321.0667,71.4667 M,0,57709,57714,321.0667,71.4667 M,0,57714,57718,321.0667,71.4667,325.3333,68.2667 M,0,57718,57722,325.3333,68.2667,329.6,65.0667 M,0,57722,57726,329.6,65.0667 M,0,57726,57731,329.6,65.0667,333.8667,62.93336 M,0,57731,57735,333.8667,62.93336 M,0,57735,57739,333.8667,62.93336,338.1333,60.80003 M,0,57739,57745,338.1333,60.80003,341.3333,59.73336 M,0,57745,57749,341.3333,59.73336 M,0,57749,57753,341.3333,59.73336,345.6,58.6667 M,0,57753,57758,345.6,58.6667 M,0,57758,57761,345.6,58.6667,348.8,58.6667 M,0,57761,57766,348.8,58.6667,350.9333,58.6667 M,0,57766,57770,350.9333,58.6667 M,0,57770,57775,350.9333,58.6667,354.1333,58.6667 M,0,57775,57780,354.1333,58.6667 M,0,57780,57785,354.1333,58.6667,356.2667,59.73336 M,0,57785,57790,356.2667,59.73336,359.4667,61.8667 M,0,57790,57793,359.4667,61.8667 M,0,57793,57799,359.4667,61.8667,361.6,64.00003 M,0,57799,57803,361.6,64.00003 M,0,57803,57809,361.6,64.00003,363.7333,67.20003 M,0,57809,57815,363.7333,67.20003,365.8667,71.4667 M,0,57815,57818,365.8667,71.4667 M,0,57818,57824,365.8667,71.4667,366.9333,75.73336 M,0,57824,57827,366.9333,75.73336,369.0667,80.00003 M,0,57827,57832,369.0667,80.00003 M,0,57832,57836,369.0667,80.00003,369.0667,84.2667 M,0,57836,57840,369.0667,84.2667 M,0,57840,57846,369.0667,84.2667,370.1333,88.53336 M,0,57846,57850,370.1333,88.53336,370.1333,92.80003 M,0,57850,57855,370.1333,92.80003 M,0,57855,57860,370.1333,92.80003,370.1333,98.13336 M,0,57860,57864,370.1333,98.13336 M,0,57864,57868,370.1333,98.13336,370.1333,102.4 M,0,57868,57872,370.1333,102.4,370.1333,108.8 M,0,57872,57877,370.1333,108.8 M,0,57877,57882,370.1333,108.8,370.1333,115.2 M,0,57882,57886,370.1333,115.2,370.1333,121.6 M,0,57886,57890,370.1333,121.6 M,0,57890,57896,370.1333,121.6,368,130.1334 M,0,57896,57900,368,130.1334,365.8667,137.6 M,0,57900,57905,365.8667,137.6 M,0,57905,57909,365.8667,137.6,362.6667,146.1334 M,0,57909,57915,362.6667,146.1334 M,0,57915,57919,362.6667,146.1334,358.4,153.6 M,0,57919,57923,358.4,153.6 M,0,57923,57927,358.4,153.6,352,162.1334 M,0,57927,57932,352,162.1334,344.5333,170.6667 M,0,57932,57936,344.5333,170.6667 M,0,57936,57941,344.5333,170.6667,336,180.2667 M,0,57941,57946,336,180.2667 M,0,57946,57950,336,180.2667,326.4,189.8667 M,0,57950,57955,326.4,189.8667,315.7333,200.5334 M,0,57955,57959,315.7333,200.5334 M,0,57959,57963,315.7333,200.5334,304,211.2 M,0,57963,57967,304,211.2 M,0,57967,57971,304,211.2,292.2667,221.8667 M,0,57971,57976,292.2667,221.8667 M,0,57976,57981,292.2667,221.8667,280.5333,232.5334 M,0,57981,57985,280.5333,232.5334,268.8,243.2 M,0,57985,57989,268.8,243.2,258.1333,252.8 M,0,57989,57997,258.1333,252.8 M,0,57997,58000,258.1333,252.8,248.5333,261.3333 M,0,58000,58006,248.5333,261.3333,241.0667,268.8 M,0,58006,58010,241.0667,268.8 M,0,58010,58013,241.0667,268.8 M,0,58013,58017,241.0667,268.8,234.6667,274.1334 M,0,58017,58024,234.6667,274.1334,229.3333,277.3334 M,0,58024,58029,229.3333,277.3334,226.1333,280.5334 M,0,58029,58033,226.1333,280.5334 M,0,58033,58037,226.1333,280.5334,224,281.6 M,0,58037,58041,224,281.6 M,0,58041,58047,224,281.6,222.9333,282.6667 M,0,58047,58051,222.9333,282.6667 M,0,58051,58056,222.9333,282.6667,221.8667,282.6667 M,0,58056,58060,221.8667,282.6667,221.8667,283.7334 M,0,58060,58065,221.8667,283.7334 M,0,58065,58070,221.8667,283.7334,220.8,283.7334 M,0,58070,58075,220.8,283.7334 M,0,58075,58081,220.8,283.7334 M,0,58081,58084,220.8,283.7334 M,0,58084,58089,220.8,283.7334 M,0,58089,58093,220.8,283.7334 M,0,58093,58097,220.8,283.7334 M,0,58097,58101,220.8,283.7334 M,0,58101,58106,220.8,283.7334 M,0,58106,58115,220.8,283.7334 M,0,58115,58117,220.8,283.7334 M,0,58117,58121,220.8,283.7334 M,0,58121,58127,220.8,283.7334 M,0,58127,58131,220.8,283.7334 M,0,58131,58135,220.8,283.7334,220.8,284.8 M,0,58135,58139,220.8,284.8 M,0,58139,58146,220.8,284.8 M,0,58146,58148,220.8,284.8 M,0,58148,58152,220.8,284.8 M,0,58152,58157,220.8,284.8 M,0,58157,58161,220.8,284.8,219.7333,284.8 M,0,58161,58166,219.7333,284.8 M,0,58166,58170,219.7333,284.8 M,0,58170,58173,219.7333,284.8,218.6667,284.8 M,0,58173,58178,218.6667,284.8 M,0,58178,58182,218.6667,284.8,216.5333,285.8667 M,0,58182,58187,216.5333,285.8667,213.3333,285.8667 M,0,58187,58191,213.3333,285.8667 M,0,58191,58196,213.3333,285.8667,209.0667,285.8667 M,0,58196,58200,209.0667,285.8667,203.7333,285.8667 M,0,58200,58205,203.7333,285.8667 M,0,58205,58209,203.7333,285.8667,198.4,285.8667 M,0,58209,58213,198.4,285.8667 M,0,58213,58218,198.4,285.8667,190.9333,283.7334 M,0,58218,58222,190.9333,283.7334 M,0,58222,58226,190.9333,283.7334,183.4667,281.6 M,0,58226,58231,183.4667,281.6,173.8667,278.4001 M,0,58231,58235,173.8667,278.4001 M,0,58235,58241,173.8667,278.4001,164.2667,274.1334 M,0,58241,58243,164.2667,274.1334 M,0,58243,58248,164.2667,274.1334,154.6667,268.8 M,0,58248,58251,154.6667,268.8 M,0,58251,58256,154.6667,268.8,145.0667,262.4 M,0,58256,58260,145.0667,262.4,134.4,256 M,0,58260,58265,134.4,256 M,0,58265,58269,134.4,256,125.8667,249.6 M,0,58269,58273,125.8667,249.6 M,0,58273,58278,125.8667,249.6,117.3333,242.1334 M,0,58278,58281,117.3333,242.1334 M,0,58281,58286,117.3333,242.1334,109.8667,235.7334 M,0,58286,58290,109.8667,235.7334,103.4667,229.3334 M,0,58290,58295,103.4667,229.3334 M,0,58295,58299,103.4667,229.3334,98.13335,222.9334 M,0,58299,58304,98.13335,222.9334 M,0,58304,58308,98.13335,222.9334,93.86668,217.6 M,0,58308,58312,93.86668,217.6 M,0,58312,58317,93.86668,217.6,91.73335,212.2667 M,0,58317,58322,91.73335,212.2667,90.66667,209.0667 M,0,58322,58325,90.66667,209.0667 M,0,58325,58330,90.66667,209.0667,90.66667,205.8667 M,0,58330,58334,90.66667,205.8667 M,0,58334,58339,90.66667,205.8667,90.66667,202.6667 M,0,58339,58342,90.66667,202.6667 M,0,58342,58347,90.66667,202.6667,91.73335,199.4667 M,0,58347,58351,91.73335,199.4667 M,0,58351,58355,91.73335,199.4667,93.86668,197.3334 M,0,58355,58360,93.86668,197.3334,96.00001,195.2 M,0,58360,58365,96.00001,195.2 M,0,58365,58369,96.00001,195.2,99.20001,193.0667 M,0,58369,58375,99.20001,193.0667,102.4,192 M,0,58375,58381,102.4,192,105.6,189.8667 M,0,58381,58383,105.6,189.8667 M,0,58383,58388,105.6,189.8667,108.8,187.7334 M,0,58388,58392,108.8,187.7334 M,0,58392,58398,108.8,187.7334,113.0667,185.6 M,0,58398,58400,113.0667,185.6 M,0,58400,58406,113.0667,185.6,117.3333,184.5334 M,0,58406,58411,117.3333,184.5334,122.6667,182.4 M,0,58411,58414,122.6667,182.4 M,0,58414,58418,122.6667,182.4 M,0,58418,58424,122.6667,182.4,126.9333,181.3334 M,0,58424,58430,126.9333,181.3334,132.2667,180.2667 M,0,58430,58434,132.2667,180.2667 M,0,58434,58439,132.2667,180.2667,138.6667,180.2667 M,0,58439,58442,138.6667,180.2667,145.0667,179.2 M,0,58442,58447,145.0667,179.2 M,0,58447,58451,145.0667,179.2,152.5334,179.2 M,0,58451,58456,152.5334,179.2,160,179.2 M,0,58456,58465,160,179.2,169.6,181.3334 M,0,58465,58467,169.6,181.3334 M,0,58467,58471,169.6,181.3334,180.2667,182.4 M,0,58471,58477,180.2667,182.4 M,0,58477,58481,180.2667,182.4,189.8667,184.5334 M,0,58481,58485,189.8667,184.5334 M,0,58485,58489,189.8667,184.5334,199.4667,186.6667 M,0,58489,58497,199.4667,186.6667,208,189.8667 M,0,58497,58500,208,189.8667 M,0,58500,58505,208,189.8667,216.5333,192 M,0,58505,58510,216.5333,192,224,196.2667 M,0,58510,58514,224,196.2667 M,0,58514,58518,224,196.2667,232.5333,200.5334 M,0,58518,58523,232.5333,200.5334,240,205.8667 M,0,58523,58531,240,205.8667 M,0,58531,58533,240,205.8667,246.4,213.3334 M,0,58533,58536,246.4,213.3334 M,0,58536,58540,246.4,213.3334,253.8667,220.8 M,0,58540,58547,253.8667,220.8,260.2667,230.4 M,0,58547,58550,260.2667,230.4 M,0,58550,58555,260.2667,230.4,266.6667,241.0667 M,0,58555,58560,266.6667,241.0667 M,0,58560,58564,266.6667,241.0667,272,251.7334 M,0,58564,58568,272,251.7334 M,0,58568,58572,272,251.7334,276.2667,263.4667 M,0,58572,58577,276.2667,263.4667,281.6,275.2 M,0,58577,58582,281.6,275.2 M,0,58582,58586,281.6,275.2,284.8,286.9333 M,0,58586,58591,284.8,286.9333,288,297.6 M,0,58591,58598,288,297.6 M,0,58598,58600,288,297.6,291.2,307.2 M,0,58600,58605,291.2,307.2,293.3333,316.8 M,0,58605,58610,293.3333,316.8 M,0,58610,58615,293.3333,316.8,295.4667,325.3333 M,0,58615,58619,295.4667,325.3333 M,0,58619,58624,295.4667,325.3333,297.6,331.7334 M,0,58624,58632,297.6,331.7334,298.6667,339.2 M,0,58632,58634,298.6667,339.2 M,0,58634,58638,298.6667,339.2,299.7333,344.5334 M,0,58638,58643,299.7333,344.5334 M,0,58643,58647,299.7333,344.5334,299.7333,349.8667 M,0,58647,58650,299.7333,349.8667,300.8,355.2 M,0,58650,58655,300.8,355.2 M,0,58655,58661,300.8,355.2,300.8,358.4 M,0,58661,58663,300.8,358.4 M,0,58663,58667,300.8,358.4,300.8,362.6667 M,0,58667,58672,300.8,362.6667,300.8,365.8667 M,0,58672,58680,300.8,365.8667 M,0,58680,58682,300.8,365.8667,299.7333,369.0667 M,0,58682,58687,299.7333,369.0667,298.6667,372.2667 M,0,58687,58691,298.6667,372.2667 M,0,58691,58695,298.6667,372.2667 M,0,58695,58701,298.6667,372.2667,296.5334,374.4 M,0,58701,58705,296.5334,374.4,294.4,377.6 M,0,58705,58710,294.4,377.6 M,0,58710,58714,294.4,377.6,292.2667,379.7334 M,0,58714,58718,292.2667,379.7334 M,0,58718,58724,292.2667,379.7334,290.1333,381.8667 M,0,58724,58732,290.1333,381.8667,286.9333,382.9333 M,0,58732,58733,286.9333,382.9333 M,0,58733,58738,286.9333,382.9333,284.8,385.0667 M,0,58738,58742,284.8,385.0667,281.6,386.1334 M,0,58742,58747,281.6,386.1334 M,0,58747,58750,281.6,386.1334,279.4667,387.2 M,0,58750,58755,279.4667,387.2,276.2667,388.2667 M,0,58755,58761,276.2667,388.2667 M,0,58761,58766,276.2667,388.2667 M,0,58766,58770,276.2667,388.2667,273.0667,388.2667 M,0,58770,58775,273.0667,388.2667,269.8667,389.3334 M,0,58775,58780,269.8667,389.3334,265.6,390.4 M,0,58780,58782,265.6,390.4 M,0,58782,58788,265.6,390.4,261.3333,390.4 M,0,58788,58794,261.3333,390.4,257.0667,390.4 M,0,58794,58798,257.0667,390.4 M,0,58798,58802,257.0667,390.4,250.6667,390.4 M,0,58802,58807,250.6667,390.4 M,0,58807,58816,250.6667,390.4,245.3333,390.4 M,0,58816,58818,245.3333,390.4,238.9333,390.4 M,0,58818,58822,238.9333,390.4 M,0,58822,58827,238.9333,390.4,232.5333,390.4 M,0,58827,58830,232.5333,390.4 M,0,58830,58833,232.5333,390.4,226.1333,390.4 M,0,58833,58838,226.1333,390.4,220.8,389.3334 M,0,58838,58843,220.8,389.3334 M,0,58843,58848,220.8,389.3334,214.4,388.2667 M,0,58848,58851,214.4,388.2667 M,0,58851,58856,214.4,388.2667,209.0667,387.2 M,0,58856,58865,209.0667,387.2,203.7333,385.0667 M,0,58865,58868,203.7333,385.0667 M,0,58868,58872,203.7333,385.0667,198.4,384 M,0,58872,58877,198.4,384,192,381.8667 M,0,58877,58881,192,381.8667 M,0,58881,58885,192,381.8667,186.6667,378.6667 M,0,58885,58890,186.6667,378.6667,181.3333,375.4667 M,0,58890,58897,181.3333,375.4667 M,0,58897,58900,181.3333,375.4667,174.9333,371.2 M,0,58900,58905,174.9333,371.2 M,0,58905,58910,174.9333,371.2,168.5333,365.8667 M,0,58910,58913,168.5333,365.8667 M,0,58913,58917,168.5333,365.8667,162.1333,358.4 M,0,58917,58920,162.1333,358.4,155.7333,350.9333 M,0,58920,58927,155.7333,350.9333 M,0,58927,58930,155.7333,350.9333,148.2667,342.4001 M,0,58930,58933,148.2667,342.4001 M,0,58933,58937,148.2667,342.4001,141.8667,333.8667 M,0,58937,58943,141.8667,333.8667 M,0,58943,58948,141.8667,333.8667,135.4667,324.2667 M,0,58948,58951,135.4667,324.2667,129.0667,313.6 M,0,58951,58956,129.0667,313.6,122.6667,302.9334 M,0,58956,58965,122.6667,302.9334 M,0,58965,58967,122.6667,302.9334,117.3333,292.2667 M,0,58967,58971,117.3333,292.2667 M,0,58971,58976,117.3333,292.2667,110.9333,280.5334 M,0,58976,58981,110.9333,280.5334,105.6,269.8667 M,0,58981,58985,105.6,269.8667 M,0,58985,58990,105.6,269.8667,101.3333,259.2 M,0,58990,58998,101.3333,259.2,96.00001,250.6667 M,0,58998,59000,96.00001,250.6667 M,0,59000,59005,96.00001,250.6667,91.73335,242.1334 M,0,59005,59009,91.73335,242.1334 M,0,59009,59013,91.73335,242.1334,87.46667,234.6667 M,0,59013,59017,87.46667,234.6667 M,0,59017,59022,87.46667,234.6667,83.2,228.2667 M,0,59022,59026,83.2,228.2667 M,0,59026,59031,83.2,228.2667,81.06667,221.8667 M,0,59031,59035,81.06667,221.8667,77.86667,216.5334 M,0,59035,59040,77.86667,216.5334,75.73335,211.2 M,0,59040,59047,75.73335,211.2 M,0,59047,59050,75.73335,211.2,74.66667,208 M,0,59050,59055,74.66667,208 M,0,59055,59059,74.66667,208,73.60001,204.8 M,0,59059,59062,73.60001,204.8 M,0,59062,59068,73.60001,204.8,73.60001,202.6667 M,0,59068,59072,73.60001,202.6667,73.60001,201.6 M,0,59072,59077,73.60001,201.6 M,0,59077,59080,73.60001,201.6,73.60001,200.5334 M,0,59080,59086,73.60001,200.5334 M,0,59086,59090,73.60001,200.5334,75.73335,200.5334 M,0,59090,59097,75.73335,200.5334,78.93334,199.4667 M,0,59097,59100,78.93334,199.4667 M,0,59100,59105,78.93334,199.4667,83.2,199.4667 M,0,59105,59109,83.2,199.4667,88.53335,198.4 M,0,59109,59112,88.53335,198.4 M,0,59112,59118,88.53335,198.4,96.00001,198.4 M,0,59118,59121,96.00001,198.4 M,0,59121,59127,96.00001,198.4,103.4667,197.3334 M,0,59127,59131,103.4667,197.3334 M,0,59131,59133,103.4667,197.3334,113.0667,196.2667 M,0,59133,59139,113.0667,196.2667,122.6667,195.2 M,0,59139,59143,122.6667,195.2 M,0,59143,59147,122.6667,195.2,132.2667,195.2 M,0,59147,59151,132.2667,195.2 M,0,59151,59156,132.2667,195.2,142.9333,195.2 M,0,59156,59164,142.9333,195.2,155.7333,195.2 M,0,59164,59167,155.7333,195.2 M,0,59167,59171,155.7333,195.2,168.5333,197.3334 M,0,59171,59176,168.5333,197.3334 M,0,59176,59180,168.5333,197.3334,182.4,199.4667 M,0,59180,59185,182.4,199.4667,197.3333,202.6667 M,0,59185,59189,197.3333,202.6667,212.2667,206.9334 M,0,59189,59193,212.2667,206.9334 M,0,59193,59197,212.2667,206.9334 M,0,59197,59201,212.2667,206.9334,227.2,211.2 M,0,59201,59206,227.2,211.2,244.2667,215.4667 M,0,59206,59210,244.2667,215.4667 M,0,59210,59215,244.2667,215.4667 M,0,59215,59219,244.2667,215.4667,259.2,219.7334 M,0,59219,59224,259.2,219.7334,274.1334,224 M,0,59224,59231,274.1334,224,288,227.2 M,0,59231,59233,288,227.2 M,0,59233,59238,288,227.2,298.6667,230.4 M,0,59238,59242,298.6667,230.4 M,0,59242,59246,298.6667,230.4,308.2667,233.6 M,0,59246,59250,308.2667,233.6,315.7333,235.7334 M,0,59250,59255,315.7333,235.7334 M,0,59255,59259,315.7333,235.7334,322.1333,237.8667 M,0,59259,59262,322.1333,237.8667 M,0,59262,59267,322.1333,237.8667,325.3333,240 M,0,59267,59272,325.3333,240 M,0,59272,59276,325.3333,240,327.4667,241.0667 M,0,59276,59281,327.4667,241.0667 M,0,59281,59285,327.4667,241.0667,327.4667,242.1334 M,0,59285,59289,327.4667,242.1334,327.4667,243.2 M,0,59289,59293,327.4667,243.2 M,0,59293,59297,327.4667,243.2,325.3333,244.2667 M,0,59297,59302,325.3333,244.2667 M,0,59302,59306,325.3333,244.2667,321.0667,246.4 M,0,59306,59315,321.0667,246.4,315.7333,247.4667 M,0,59315,59317,315.7333,247.4667 M,0,59317,59322,315.7333,247.4667,309.3333,249.6 M,0,59322,59326,309.3333,249.6 M,0,59326,59330,309.3333,249.6,301.8667,251.7334 M,0,59330,59336,301.8667,251.7334,292.2667,253.8667 M,0,59336,59340,292.2667,253.8667,282.6667,257.0667 M,0,59340,59348,282.6667,257.0667 M,0,59348,59351,282.6667,257.0667,272,260.2667 M,0,59351,59356,272,260.2667,259.2,263.4667 M,0,59356,59360,259.2,263.4667 M,0,59360,59364,259.2,263.4667 M,0,59364,59368,259.2,263.4667,246.4,268.8 M,0,59368,59373,246.4,268.8,231.4667,274.1334 M,0,59373,59381,231.4667,274.1334,217.6,279.4667 M,0,59381,59383,217.6,279.4667 M,0,59383,59387,217.6,279.4667,202.6667,285.8667 M,0,59387,59391,202.6667,285.8667 M,0,59391,59396,202.6667,285.8667,188.8,292.2667 M,0,59396,59400,188.8,292.2667,174.9333,297.6 M,0,59400,59405,174.9333,297.6 M,0,59405,59409,174.9333,297.6,162.1333,301.8667 M,0,59409,59412,162.1333,301.8667 M,0,59412,59417,162.1333,301.8667,151.4667,305.0667 M,0,59417,59423,151.4667,305.0667 M,0,59423,59427,151.4667,305.0667,141.8667,307.2 M,0,59427,59432,141.8667,307.2 M,0,59432,59436,141.8667,307.2,133.3333,308.2667 M,0,59436,59441,133.3333,308.2667,126.9333,308.2667 M,0,59441,59447,126.9333,308.2667 M,0,59447,59450,126.9333,308.2667,121.6,308.2667 M,0,59450,59455,121.6,308.2667,116.2667,307.2 M,0,59455,59459,116.2667,307.2 M,0,59459,59463,116.2667,307.2,113.0667,305.0667 M,0,59463,59467,113.0667,305.0667 M,0,59467,59471,113.0667,305.0667,110.9333,302.9334 M,0,59471,59476,110.9333,302.9334 M,0,59476,59480,110.9333,302.9334,108.8,299.7334 M,0,59480,59483,108.8,299.7334 M,0,59483,59488,108.8,299.7334,108.8,296.5334 M,0,59488,59492,108.8,296.5334,108.8,292.2667 M,0,59492,59496,108.8,292.2667 M,0,59496,59500,108.8,292.2667,108.8,288 M,0,59500,59505,108.8,288,110.9333,281.6 M,0,59505,59510,110.9333,281.6 M,0,59510,59513,110.9333,281.6 M,0,59513,59518,110.9333,281.6,114.1333,276.2667 M,0,59518,59523,114.1333,276.2667,117.3333,268.8 M,0,59523,59530,117.3333,268.8,121.6,261.3333 M,0,59530,59532,121.6,261.3333 M,0,59532,59537,121.6,261.3333,125.8667,253.8667 M,0,59537,59541,125.8667,253.8667 M,0,59541,59545,125.8667,253.8667,131.2,245.3334 M,0,59545,59550,131.2,245.3334,136.5333,235.7334 M,0,59550,59555,136.5333,235.7334 M,0,59555,59560,136.5333,235.7334,142.9333,226.1334 M,0,59560,59565,142.9333,226.1334 M,0,59565,59568,142.9333,226.1334,149.3333,215.4667 M,0,59568,59572,149.3333,215.4667 M,0,59572,59577,149.3333,215.4667,156.8,204.8 M,0,59577,59581,156.8,204.8,165.3333,194.1334 M,0,59581,59586,165.3333,194.1334 M,0,59586,59590,165.3333,194.1334,172.8,184.5334 M,0,59590,59598,172.8,184.5334,181.3333,174.9334 M,0,59598,59600,181.3333,174.9334 M,0,59600,59605,181.3333,174.9334,189.8667,167.4667 M,0,59605,59609,189.8667,167.4667 M,0,59609,59613,189.8667,167.4667,197.3333,161.0667 M,0,59613,59617,197.3333,161.0667 M,0,59617,59621,197.3333,161.0667,203.7333,156.8 M,0,59621,59626,203.7333,156.8 M,0,59626,59630,203.7333,156.8,210.1333,153.6 M,0,59630,59633,210.1333,153.6 M,0,59633,59638,210.1333,153.6,216.5333,151.4667 M,0,59638,59642,216.5333,151.4667,224,151.4667 M,0,59642,59646,224,151.4667 M,0,59646,59650,224,151.4667,230.4,151.4667 M,0,59650,59656,230.4,151.4667,237.8667,154.6667 M,0,59656,59659,237.8667,154.6667 M,0,59659,59663,237.8667,154.6667 M,0,59663,59668,237.8667,154.6667,245.3333,157.8667 M,0,59668,59673,245.3333,157.8667,252.8,163.2 M,0,59673,59681,252.8,163.2,259.2,169.6 M,0,59681,59683,259.2,169.6 M,0,59683,59687,259.2,169.6,266.6667,176 M,0,59687,59691,266.6667,176 M,0,59691,59696,266.6667,176,274.1334,184.5334 M,0,59696,59700,274.1334,184.5334 M,0,59700,59705,274.1334,184.5334,280.5333,193.0667 M,0,59705,59709,280.5333,193.0667,288,203.7334 M,0,59709,59713,288,203.7334 M,0,59713,59717,288,203.7334,295.4667,215.4667 M,0,59717,59721,295.4667,215.4667 M,0,59721,59726,295.4667,215.4667,304,228.2667 M,0,59726,59731,304,228.2667 M,0,59731,59735,304,228.2667,312.5333,242.1334 M,0,59735,59739,312.5333,242.1334,322.1333,254.9333 M,0,59739,59747,322.1333,254.9333,331.7333,266.6667 M,0,59747,59750,331.7333,266.6667 M,0,59750,59755,331.7333,266.6667,340.2667,278.4001 M,0,59755,59759,340.2667,278.4001 M,0,59759,59763,340.2667,278.4001,349.8667,289.0667 M,0,59763,59768,349.8667,289.0667 M,0,59768,59773,349.8667,289.0667,357.3333,298.6667 M,0,59773,59778,357.3333,298.6667,364.8,306.1334 M,0,59778,59782,364.8,306.1334 M,0,59782,59787,364.8,306.1334,371.2,314.6667 M,0,59787,59791,371.2,314.6667,376.5333,322.1334 M,0,59791,59798,376.5333,322.1334 M,0,59798,59801,376.5333,322.1334,381.8667,329.6 M,0,59801,59806,381.8667,329.6 M,0,59806,59810,381.8667,329.6,386.1334,336 M,0,59810,59813,386.1334,336 M,0,59813,59818,386.1334,336,389.3333,342.4001 M,0,59818,59823,389.3333,342.4001,392.5334,346.6667 M,0,59823,59830,392.5334,346.6667,394.6667,349.8667 M,0,59830,59832,394.6667,349.8667 M,0,59832,59837,394.6667,349.8667 M,0,59837,59840,394.6667,349.8667,395.7333,352 M,0,59840,59848,395.7333,352,396.8,352 M,0,59848,59850,396.8,352 M,0,59850,59856,396.8,352 M,0,59856,59859,396.8,352 M,0,59859,59863,396.8,352 M,0,59863,59867,396.8,352,396.8,348.8 M,0,59867,59871,396.8,348.8 M,0,59871,59876,396.8,348.8,396.8,344.5334 M,0,59876,59880,396.8,344.5334 M,0,59880,59884,396.8,344.5334,395.7333,337.0667 M,0,59884,59888,395.7333,337.0667,394.6667,328.5334 M,0,59888,59892,394.6667,328.5334 M,0,59892,59897,394.6667,328.5334,393.6,318.9333 M,0,59897,59901,393.6,318.9333 M,0,59901,59906,393.6,318.9333,392.5334,309.3334 M,0,59906,59909,392.5334,309.3334 M,0,59909,59914,392.5334,309.3334,390.4,298.6667 M,0,59914,59918,390.4,298.6667 M,0,59918,59922,390.4,298.6667,388.2667,286.9333 M,0,59922,59926,388.2667,286.9333 M,0,59926,59931,388.2667,286.9333,387.2,273.0667 M,0,59931,59935,387.2,273.0667,386.1334,259.2 M,0,59935,59939,386.1334,259.2 M,0,59939,59943,386.1334,259.2,385.0667,245.3334 M,0,59943,59947,385.0667,245.3334 M,0,59947,59951,385.0667,245.3334,384,231.4667 M,0,59951,59955,384,231.4667 M,0,59955,59960,384,231.4667,384,217.6 M,0,59960,59963,384,217.6 M,0,59963,59968,384,217.6,384,203.7334 M,0,59968,59971,384,203.7334,382.9333,192 M,0,59971,59976,382.9333,192 M,0,59976,59980,382.9333,192,382.9333,181.3334 M,0,59980,59985,382.9333,181.3334 M,0,59985,59989,382.9333,181.3334,381.8667,171.7334 M,0,59989,59992,381.8667,171.7334 M,0,59992,59997,381.8667,171.7334,380.8,163.2 M,0,59997,60000,380.8,163.2,379.7333,156.8 M,0,60000,60005,379.7333,156.8 M,0,60005,60010,379.7333,156.8,378.6667,151.4667 M,0,60010,60013,378.6667,151.4667 M,0,60013,60017,378.6667,151.4667,376.5333,147.2 M,0,60017,60021,376.5333,147.2 M,0,60021,60025,376.5333,147.2,375.4667,144 M,0,60025,60030,375.4667,144,373.3333,141.8667 M,0,60030,60035,373.3333,141.8667 M,0,60035,60040,373.3333,141.8667,370.1333,140.8 M,0,60040,60043,370.1333,140.8 M,0,60043,60047,370.1333,140.8,366.9333,140.8 M,0,60047,60051,366.9333,140.8 M,0,60051,60057,366.9333,140.8,362.6667,140.8 M,0,60057,60059,362.6667,140.8,357.3333,141.8667 M,0,60059,60064,357.3333,141.8667 M,0,60064,60068,357.3333,141.8667 M,0,60068,60072,357.3333,141.8667,352,145.0667 M,0,60072,60077,352,145.0667,344.5333,148.2667 M,0,60077,60080,344.5333,148.2667 M,0,60080,60085,344.5333,148.2667,337.0667,153.6 M,0,60085,60089,337.0667,153.6 M,0,60089,60092,337.0667,153.6,329.6,160 M,0,60092,60098,329.6,160 M,0,60098,60101,329.6,160,320,168.5334 M,0,60101,60107,320,168.5334,311.4667,178.1334 M,0,60107,60112,311.4667,178.1334 M,0,60112,60115,311.4667,178.1334,301.8667,188.8 M,0,60115,60120,301.8667,188.8,292.2667,199.4667 M,0,60120,60125,292.2667,199.4667 M,0,60125,60129,292.2667,199.4667,283.7333,212.2667 M,0,60129,60133,283.7333,212.2667 M,0,60133,60137,283.7333,212.2667,275.2,224 M,0,60137,60142,275.2,224 M,0,60142,60145,275.2,224,266.6667,235.7334 M,0,60145,60150,266.6667,235.7334,259.2,247.4667 M,0,60150,60155,259.2,247.4667 M,0,60155,60159,259.2,247.4667,252.8,259.2 M,0,60159,60165,252.8,259.2 M,0,60165,60169,252.8,259.2,248.5333,269.8667 M,0,60169,60174,248.5333,269.8667,244.2667,280.5334 M,0,60174,60181,244.2667,280.5334,241.0667,290.1334 M,0,60181,60183,241.0667,290.1334 M,0,60183,60188,241.0667,290.1334,240,298.6667 M,0,60188,60192,240,298.6667 M,0,60192,60196,240,298.6667 M,0,60196,60201,240,298.6667,238.9333,305.0667 M,0,60201,60206,238.9333,305.0667,238.9333,311.4667 M,0,60206,60212,238.9333,311.4667,238.9333,316.8 M,0,60212,60215,238.9333,316.8 M,0,60215,60218,238.9333,316.8 M,0,60218,60224,238.9333,316.8,240,322.1334 M,0,60224,60231,240,322.1334,241.0667,328.5334 M,0,60231,60233,241.0667,328.5334 M,0,60233,60237,241.0667,328.5334,243.2,333.8667 M,0,60237,60242,243.2,333.8667,246.4,340.2667 M,0,60242,60247,246.4,340.2667 M,0,60247,60251,246.4,340.2667,249.6,346.6667 M,0,60251,60255,249.6,346.6667,254.9333,354.1334 M,0,60255,60260,254.9333,354.1334 M,0,60260,60263,254.9333,354.1334 M,0,60263,60267,254.9333,354.1334,261.3333,361.6 M,0,60267,60273,261.3333,361.6,268.8,370.1334 M,0,60273,60280,268.8,370.1334,276.2667,377.6 M,0,60280,60282,276.2667,377.6 M,0,60282,60285,276.2667,377.6 M,0,60285,60289,276.2667,377.6,284.8,384 M,0,60289,60292,284.8,384 M,0,60292,60297,284.8,384,294.4,390.4 M,0,60297,60301,294.4,390.4,304,395.7334 M,0,60301,60305,304,395.7334 M,0,60305,60310,304,395.7334,313.6,400 M,0,60310,60313,313.6,400 M,0,60313,60318,313.6,400,324.2667,404.2667 M,0,60318,60321,324.2667,404.2667 M,0,60321,60326,324.2667,404.2667,334.9333,407.4667 M,0,60326,60330,334.9333,407.4667,346.6667,409.6 M,0,60330,60336,346.6667,409.6 M,0,60336,60340,346.6667,409.6,358.4,412.8 M,0,60340,60345,358.4,412.8 M,0,60345,60349,358.4,412.8,369.0667,413.8667 M,0,60349,60353,369.0667,413.8667 M,0,60353,60358,369.0667,413.8667,380.8,414.9333 M,0,60358,60361,380.8,414.9333,391.4667,416 M,0,60361,60365,391.4667,416 M,0,60365,60369,391.4667,416,401.0667,416 M,0,60369,60375,401.0667,416 M,0,60375,60381,401.0667,416,410.6667,416 M,0,60381,60383,410.6667,416 M,0,60383,60388,410.6667,416,418.1334,416 M,0,60388,60391,418.1334,416,425.6,414.9333 M,0,60391,60396,425.6,414.9333 M,0,60396,60400,425.6,414.9333,432,413.8667 M,0,60400,60405,432,413.8667 M,0,60405,60409,432,413.8667,437.3333,411.7334 M,0,60409,60413,437.3333,411.7334 M,0,60413,60417,437.3333,411.7334,441.6,408.5334 M,0,60417,60421,441.6,408.5334,445.8667,405.3334 M,0,60421,60426,445.8667,405.3334 M,0,60426,60430,445.8667,405.3334,450.1334,402.1334 M,0,60430,60435,450.1334,402.1334 M,0,60435,60439,450.1334,402.1334,453.3333,397.8667 M,0,60439,60442,453.3333,397.8667 M,0,60442,60447,453.3333,397.8667,456.5334,394.6667 M,0,60447,60451,456.5334,394.6667,459.7333,390.4 M,0,60451,60456,459.7333,390.4 M,0,60456,60460,459.7333,390.4,461.8667,387.2 M,0,60460,60465,461.8667,387.2 M,0,60465,60469,461.8667,387.2,464,382.9333 M,0,60469,60473,464,382.9333 M,0,60473,60477,464,382.9333,465.0667,379.7334 M,0,60477,60481,465.0667,379.7334,467.2,376.5334 M,0,60481,60486,467.2,376.5334 M,0,60486,60490,467.2,376.5334,468.2667,373.3334 M,0,60490,60495,468.2667,373.3334 M,0,60495,60499,468.2667,373.3334,470.4,370.1334 M,0,60499,60503,470.4,370.1334 M,0,60503,60507,470.4,370.1334,471.4667,366.9334 M,0,60507,60511,471.4667,366.9334,472.5333,364.8 M,0,60511,60516,472.5333,364.8 M,0,60516,60520,472.5333,364.8,474.6667,361.6 M,0,60520,60525,474.6667,361.6 M,0,60525,60530,474.6667,361.6,475.7334,358.4 M,0,60530,60532,475.7334,358.4 M,0,60532,60538,475.7334,358.4,476.8,355.2 M,0,60538,60542,476.8,355.2,477.8667,350.9333 M,0,60542,60546,477.8667,350.9333 M,0,60546,60550,477.8667,350.9333,477.8667,347.7334 M,0,60550,60556,477.8667,347.7334 M,0,60556,60560,477.8667,347.7334,478.9333,344.5334 M,0,60560,60563,478.9333,344.5334 M,0,60563,60568,478.9333,344.5334,478.9333,340.2667 M,0,60568,60572,478.9333,340.2667,478.9333,337.0667 M,0,60572,60577,478.9333,337.0667 M,0,60577,60581,478.9333,337.0667,478.9333,333.8667 M,0,60581,60585,478.9333,333.8667 M,0,60585,60590,478.9333,333.8667,478.9333,329.6 M,0,60590,60595,478.9333,329.6,478.9333,325.3333 M,0,60595,60599,478.9333,325.3333 M,0,60599,60602,478.9333,325.3333,478.9333,321.0667 M,0,60602,60607,478.9333,321.0667 M,0,60607,60610,478.9333,321.0667,477.8667,315.7334 M,0,60610,60616,477.8667,315.7334 M,0,60616,60620,477.8667,315.7334,475.7334,311.4667 M,0,60620,60625,475.7334,311.4667,473.6,306.1334 M,0,60625,60629,473.6,306.1334 M,0,60629,60633,473.6,306.1334,470.4,300.8 M,0,60633,60637,470.4,300.8 M,0,60637,60641,470.4,300.8,467.2,295.4667 M,0,60641,60646,467.2,295.4667,461.8667,290.1334 M,0,60646,60650,461.8667,290.1334 M,0,60650,60653,461.8667,290.1334 M,0,60653,60658,461.8667,290.1334,455.4667,283.7334 M,0,60658,60662,455.4667,283.7334,449.0667,278.4001 M,0,60662,60667,449.0667,278.4001 M,0,60667,60671,449.0667,278.4001,440.5333,272 M,0,60671,60674,440.5333,272 M,0,60674,60679,440.5333,272,432,265.6 M,0,60679,60682,432,265.6 M,0,60682,60687,432,265.6,422.4,259.2 M,0,60687,60691,422.4,259.2,412.8,253.8667 M,0,60691,60696,412.8,253.8667 M,0,60696,60700,412.8,253.8667,403.2,249.6 M,0,60700,60704,403.2,249.6 M,0,60704,60709,403.2,249.6,393.6,246.4 M,0,60709,60713,393.6,246.4 M,0,60713,60717,393.6,246.4,384,244.2667 M,0,60717,60721,384,244.2667,375.4667,243.2 M,0,60721,60725,375.4667,243.2 M,0,60725,60730,375.4667,243.2,366.9333,243.2 M,0,60730,60734,366.9333,243.2 M,0,60734,60739,366.9333,243.2,358.4,243.2 M,0,60739,60742,358.4,243.2 M,0,60742,60747,358.4,243.2,349.8667,243.2 M,0,60747,60751,349.8667,243.2,340.2667,244.2667 M,0,60751,60756,340.2667,244.2667 M,0,60756,60759,340.2667,244.2667,332.8,245.3334 M,0,60759,60764,332.8,245.3334 M,0,60764,60768,332.8,245.3334,324.2667,246.4 M,0,60768,60772,324.2667,246.4 M,0,60772,60776,324.2667,246.4,316.8,247.4667 M,0,60776,60781,316.8,247.4667,309.3333,248.5334 M,0,60781,60785,309.3333,248.5334 M,0,60785,60789,309.3333,248.5334,302.9333,248.5334 M,0,60789,60793,302.9333,248.5334 M,0,60793,60799,302.9333,248.5334,297.6,249.6 M,0,60799,60801,297.6,249.6 M,0,60801,60806,297.6,249.6,293.3333,250.6667 M,0,60806,60810,293.3333,250.6667 M,0,60810,60814,293.3333,250.6667,290.1333,250.6667 M,0,60814,60818,290.1333,250.6667,288,251.7334 M,0,60818,60821,288,251.7334 M,0,60821,60826,288,251.7334,286.9333,251.7334 M,0,60826,60832,286.9333,251.7334 M,0,60832,60836,286.9333,251.7334 M,0,60836,60840,286.9333,251.7334 M,0,60840,60845,286.9333,251.7334 M,0,60845,60849,286.9333,251.7334,288,252.8 M,0,60849,60854,288,252.8 M,0,60854,60859,288,252.8,290.1333,252.8 M,0,60859,60863,290.1333,252.8 M,0,60863,60868,290.1333,252.8,294.4,252.8 M,0,60868,60872,294.4,252.8,299.7333,252.8 M,0,60872,60876,299.7333,252.8 M,0,60876,60880,299.7333,252.8,306.1333,251.7334 M,0,60880,60886,306.1333,251.7334 M,0,60886,60890,306.1333,251.7334,314.6667,249.6 M,0,60890,60896,314.6667,249.6,325.3333,248.5334 M,0,60896,60900,325.3333,248.5334 M,0,60900,60905,325.3333,248.5334,336,246.4 M,0,60905,60910,336,246.4,347.7333,243.2 M,0,60910,60915,347.7333,243.2 M,0,60915,60919,347.7333,243.2,359.4667,241.0667 M,0,60919,60924,359.4667,241.0667,371.2,237.8667 M,0,60924,60929,371.2,237.8667 M,0,60929,60933,371.2,237.8667,384,235.7334 M,0,60933,60936,384,235.7334 M,0,60936,60939,384,235.7334,396.8,232.5334 M,0,60939,60949,396.8,232.5334,409.6,229.3334 M,0,60949,60951,409.6,229.3334 M,0,60951,60956,409.6,229.3334,422.4,225.0667 M,0,60956,60960,422.4,225.0667 M,0,60960,60963,422.4,225.0667,435.2,221.8667 M,0,60963,60967,435.2,221.8667 M,0,60967,60972,435.2,221.8667,446.9333,217.6 M,0,60972,60977,446.9333,217.6,457.6,213.3334 M,0,60977,60981,457.6,213.3334 M,0,60981,60985,457.6,213.3334,468.2667,210.1334 M,0,60985,60990,468.2667,210.1334,477.8667,206.9334 M,0,60990,60996,477.8667,206.9334 M,0,60996,61000,477.8667,206.9334,486.4,204.8 M,0,61000,61005,486.4,204.8,493.8667,201.6 M,0,61005,61010,493.8667,201.6 M,0,61010,61013,493.8667,201.6 M,0,61013,61017,493.8667,201.6,499.2,200.5334 M,0,61017,61022,499.2,200.5334,503.4666,198.4 M,0,61022,61032,503.4666,198.4,505.6,197.3334 M,0,61032,61034,505.6,197.3334 M,0,61034,61039,505.6,197.3334,506.6667,196.2667 M,0,61039,61043,506.6667,196.2667 M,0,61043,61048,506.6667,196.2667,507.7333,196.2667 M,0,61048,61051,507.7333,196.2667,507.7333,194.1334 M,0,61051,61056,507.7333,194.1334,507.7333,192 M,0,61056,61062,507.7333,192 M,0,61062,61065,507.7333,192 M,0,61065,61068,507.7333,192,507.7333,188.8 M,0,61068,61074,507.7333,188.8,506.6667,185.6 M,0,61074,61080,506.6667,185.6 M,0,61080,61083,506.6667,185.6,504.5334,181.3334 M,0,61083,61087,504.5334,181.3334,501.3334,177.0667 M,0,61087,61092,501.3334,177.0667 M,0,61092,61097,501.3334,177.0667,497.0667,171.7334 M,0,61097,61101,497.0667,171.7334 M,0,61101,61105,497.0667,171.7334,491.7334,165.3334 M,0,61105,61110,491.7334,165.3334 M,0,61110,61113,491.7334,165.3334,485.3333,158.9334 M,0,61113,61118,485.3333,158.9334,478.9333,151.4667 M,0,61118,61123,478.9333,151.4667 M,0,61123,61129,478.9333,151.4667,472.5333,144 M,0,61129,61133,472.5333,144 M,0,61133,61137,472.5333,144,465.0667,135.4667 M,0,61137,61142,465.0667,135.4667,457.6,125.8667 M,0,61142,61147,457.6,125.8667 M,0,61147,61150,457.6,125.8667,450.1334,117.3334 M,0,61150,61156,450.1334,117.3334,442.6667,107.7334 M,0,61156,61160,442.6667,107.7334 M,0,61160,61163,442.6667,107.7334 M,0,61163,61167,442.6667,107.7334,436.2667,99.20003 M,0,61167,61172,436.2667,99.20003,429.8667,90.6667 M,0,61172,61179,429.8667,90.6667,422.4,83.20003 M,0,61179,61183,422.4,83.20003 M,0,61183,61188,422.4,83.20003,414.9333,76.80003 M,0,61188,61192,414.9333,76.80003 M,0,61192,61197,414.9333,76.80003,407.4667,71.4667 M,0,61197,61201,407.4667,71.4667,400,66.13336 M,0,61201,61206,400,66.13336,391.4667,62.93336 M,0,61206,61214,391.4667,62.93336 M,0,61214,61218,391.4667,62.93336,384,60.80003 M,0,61218,61221,384,60.80003 M,0,61221,61226,384,60.80003,376.5333,60.80003 M,0,61226,61230,376.5333,60.80003 M,0,61230,61233,376.5333,60.80003,369.0667,59.73336 M,0,61233,61238,369.0667,59.73336,362.6667,59.73336 M,0,61238,61242,362.6667,59.73336 M,0,61242,61247,362.6667,59.73336,356.2667,60.80003 M,0,61247,61251,356.2667,60.80003 M,0,61251,61256,356.2667,60.80003,350.9333,61.8667 M,0,61256,61264,350.9333,61.8667,345.6,64.00003 M,0,61264,61267,345.6,64.00003 M,0,61267,61271,345.6,64.00003,341.3333,66.13336 M,0,61271,61276,341.3333,66.13336 M,0,61276,61281,341.3333,66.13336,337.0667,68.2667 M,0,61281,61285,337.0667,68.2667,332.8,71.4667 M,0,61285,61289,332.8,71.4667,329.6,75.73336 M,0,61289,61297,329.6,75.73336 M,0,61297,61300,329.6,75.73336,326.4,80.00003 M,0,61300,61304,326.4,80.00003 M,0,61304,61309,326.4,80.00003,324.2667,84.2667 M,0,61309,61312,324.2667,84.2667 M,0,61312,61317,324.2667,84.2667,322.1333,89.60003 M,0,61317,61320,322.1333,89.60003 M,0,61320,61325,322.1333,89.60003,320,94.93336 M,0,61325,61331,320,94.93336,318.9333,101.3334 M,0,61331,61333,318.9333,101.3334 M,0,61333,61337,318.9333,101.3334,317.8667,107.7334 M,0,61337,61343,317.8667,107.7334 M,0,61343,61347,317.8667,107.7334,317.8667,114.1334 M,0,61347,61350,317.8667,114.1334,317.8667,121.6 M,0,61350,61355,317.8667,121.6 M,0,61355,61365,317.8667,121.6,318.9333,128 M,0,61365,61367,318.9333,128,320,135.4667 M,0,61367,61372,320,135.4667 M,0,61372,61377,320,135.4667,321.0667,142.9334 M,0,61377,61381,321.0667,142.9334,322.1333,149.3334 M,0,61381,61386,322.1333,149.3334 M,0,61386,61390,322.1333,149.3334,323.2,156.8 M,0,61390,61398,323.2,156.8,324.2667,163.2 M,0,61398,61400,324.2667,163.2 M,0,61400,61405,324.2667,163.2,325.3333,169.6 M,0,61405,61410,325.3333,169.6 M,0,61410,61412,325.3333,169.6,328.5334,176 M,0,61412,61417,328.5334,176 M,0,61417,61420,328.5334,176,331.7333,182.4 M,0,61420,61426,331.7333,182.4,336,188.8 M,0,61426,61431,336,188.8 M,0,61431,61434,336,188.8 M,0,61434,61438,336,188.8,340.2667,196.2667 M,0,61438,61442,340.2667,196.2667,345.6,203.7334 M,0,61442,61447,345.6,203.7334 M,0,61447,61451,345.6,203.7334,350.9333,210.1334 M,0,61451,61456,350.9333,210.1334,355.2,217.6 M,0,61456,61462,355.2,217.6 M,0,61462,61465,355.2,217.6,360.5334,224 M,0,61465,61468,360.5334,224 M,0,61468,61473,360.5334,224,364.8,230.4 M,0,61473,61480,364.8,230.4,369.0667,235.7334 M,0,61480,61483,369.0667,235.7334 M,0,61483,61488,369.0667,235.7334,374.4,242.1334 M,0,61488,61492,374.4,242.1334 M,0,61492,61496,374.4,242.1334,380.8,247.4667 M,0,61496,61501,380.8,247.4667,388.2667,253.8667 M,0,61501,61506,388.2667,253.8667 M,0,61506,61513,388.2667,253.8667,395.7333,259.2 M,0,61513,61516,395.7333,259.2,403.2,265.6 M,0,61516,61520,403.2,265.6 M,0,61520,61525,403.2,265.6,411.7333,270.9334 M,0,61525,61530,411.7333,270.9334 M,0,61530,61534,411.7333,270.9334,419.2,276.2667 M,0,61534,61539,419.2,276.2667,427.7333,281.6 M,0,61539,61546,427.7333,281.6 M,0,61546,61549,427.7333,281.6,434.1333,286.9333 M,0,61549,61551,434.1333,286.9333 M,0,61551,61556,434.1333,286.9333,441.6,291.2 M,0,61556,61563,441.6,291.2,448,294.4 M,0,61563,61566,448,294.4 M,0,61566,61569,448,294.4,453.3333,297.6 M,0,61569,61574,453.3333,297.6 M,0,61574,61581,453.3333,297.6,458.6667,299.7334 M,0,61581,61584,458.6667,299.7334 M,0,61584,61588,458.6667,299.7334,462.9333,300.8 M,0,61588,61592,462.9333,300.8,467.2,301.8667 M,0,61592,61596,467.2,301.8667 M,0,61596,61600,467.2,301.8667,469.3333,301.8667 M,0,61600,61604,469.3333,301.8667,471.4667,301.8667 M,0,61604,61610,471.4667,301.8667 M,0,61610,61615,471.4667,301.8667,472.5333,300.8 M,0,61615,61620,472.5333,300.8 M,0,61620,61624,472.5333,300.8,472.5333,299.7334 M,0,61624,61632,472.5333,299.7334,473.6,297.6 M,0,61632,61634,473.6,297.6 M,0,61634,61639,473.6,297.6,473.6,295.4667 M,0,61639,61642,473.6,295.4667 M,0,61642,61647,473.6,295.4667,474.6667,292.2667 M,0,61647,61650,474.6667,292.2667,474.6667,289.0667 M,0,61650,61655,474.6667,289.0667 M,0,61655,61660,474.6667,289.0667,474.6667,285.8667 M,0,61660,61665,474.6667,285.8667 M,0,61665,61669,474.6667,285.8667,474.6667,282.6667 M,0,61669,61674,474.6667,282.6667,472.5333,279.4667 M,0,61674,61682,472.5333,279.4667,471.4667,276.2667 M,0,61682,61684,471.4667,276.2667 M,0,61684,61688,471.4667,276.2667,469.3333,273.0667 M,0,61688,61692,469.3333,273.0667 M,0,61692,61696,469.3333,273.0667 M,0,61696,61701,469.3333,273.0667,467.2,269.8667 M,0,61701,61706,467.2,269.8667,464,267.7334 M,0,61706,61710,464,267.7334 M,0,61710,61715,464,267.7334,460.8,264.5334 M,0,61715,61719,460.8,264.5334,457.6,262.4 M,0,61719,61724,457.6,262.4 M,0,61724,61730,457.6,262.4,453.3333,259.2 M,0,61730,61733,453.3333,259.2 M,0,61733,61738,453.3333,259.2,450.1334,257.0667 M,0,61738,61742,450.1334,257.0667,445.8667,256 M,0,61742,61748,445.8667,256 M,0,61748,61751,445.8667,256,441.6,253.8667 M,0,61751,61756,441.6,253.8667,437.3333,252.8 M,0,61756,61760,437.3333,252.8 M,0,61760,61765,437.3333,252.8,433.0667,250.6667 M,0,61765,61769,433.0667,250.6667 M,0,61769,61774,433.0667,250.6667,428.8,249.6 M,0,61774,61780,428.8,249.6,424.5334,249.6 M,0,61780,61783,424.5334,249.6 M,0,61783,61787,424.5334,249.6,420.2667,248.5334 M,0,61787,61792,420.2667,248.5334 M,0,61792,61796,420.2667,248.5334,414.9333,247.4667 M,0,61796,61800,414.9333,247.4667 M,0,61800,61805,414.9333,247.4667,410.6667,247.4667 M,0,61805,61810,410.6667,247.4667,406.4,247.4667 M,0,61810,61813,406.4,247.4667 M,0,61813,61818,406.4,247.4667,402.1333,247.4667 M,0,61818,61822,402.1333,247.4667 M,0,61822,61827,402.1333,247.4667,396.8,247.4667 M,0,61827,61831,396.8,247.4667,392.5334,247.4667 M,0,61831,61836,392.5334,247.4667 M,0,61836,61840,392.5334,247.4667,389.3333,248.5334 M,0,61840,61846,389.3333,248.5334 M,0,61846,61849,389.3333,248.5334,385.0667,249.6 M,0,61849,61852,385.0667,249.6 M,0,61852,61857,385.0667,249.6,380.8,250.6667 M,0,61857,61862,380.8,250.6667,377.6,251.7334 M,0,61862,61866,377.6,251.7334 M,0,61866,61870,377.6,251.7334,375.4667,251.7334 M,0,61870,61875,375.4667,251.7334 M,0,61875,61878,375.4667,251.7334,372.2667,252.8 M,0,61878,61883,372.2667,252.8 M,0,61883,61888,372.2667,252.8,370.1333,253.8667 M,0,61888,61892,370.1333,253.8667,368,254.9333 M,0,61892,61896,368,254.9333 M,0,61896,61901,368,254.9333,365.8667,256 M,0,61901,61905,365.8667,256,362.6667,257.0667 M,0,61905,61913,362.6667,257.0667 M,0,61913,61916,362.6667,257.0667,360.5334,258.1334 M,0,61916,61920,360.5334,258.1334,357.3333,259.2 M,0,61920,61925,357.3333,259.2 M,0,61925,61930,357.3333,259.2,355.2,261.3333 M,0,61930,61933,355.2,261.3333 M,0,61933,61937,355.2,261.3333,353.0667,262.4 M,0,61937,61942,353.0667,262.4,352,263.4667 M,0,61942,61947,352,263.4667 M,0,61947,61951,352,263.4667,349.8667,264.5334 M,0,61951,61955,349.8667,264.5334 M,0,61955,61963,349.8667,264.5334,347.7333,266.6667 M,0,61963,61966,347.7333,266.6667,346.6667,267.7334 M,0,61966,61970,346.6667,267.7334 M,0,61970,61976,346.6667,267.7334,345.6,268.8 M,0,61976,61980,345.6,268.8,345.6,269.8667 M,0,61980,61985,345.6,269.8667 M,0,61985,61990,345.6,269.8667,344.5333,270.9334 M,0,61990,61996,344.5333,270.9334 M,0,61996,62000,344.5333,270.9334,344.5333,272 M,0,62000,62005,344.5333,272,344.5333,273.0667 M,0,62005,62009,344.5333,273.0667 M,0,62009,62013,344.5333,273.0667,344.5333,274.1334 M,0,62013,62018,344.5333,274.1334 M,0,62018,62022,344.5333,274.1334,345.6,275.2 M,0,62022,62027,345.6,275.2,346.6667,276.2667 M,0,62027,62031,346.6667,276.2667 M,0,62031,62036,346.6667,276.2667,348.8,277.3334 M,0,62036,62040,348.8,277.3334,350.9333,278.4001 M,0,62040,62046,350.9333,278.4001 M,0,62046,62050,350.9333,278.4001,353.0667,280.5334 M,0,62050,62055,353.0667,280.5334 M,0,62055,62060,353.0667,280.5334,355.2,281.6 M,0,62060,62064,355.2,281.6 M,0,62064,62068,355.2,281.6,358.4,282.6667 M,0,62068,62073,358.4,282.6667,360.5334,283.7334 M,0,62073,62078,360.5334,283.7334 M,0,62078,62082,360.5334,283.7334,364.8,284.8 M,0,62082,62086,364.8,284.8 M,0,62086,62090,364.8,284.8,368,285.8667 M,0,62090,62098,368,285.8667,372.2667,286.9333 M,0,62098,62100,372.2667,286.9333 M,0,62100,62106,372.2667,286.9333,376.5333,288 M,0,62106,62109,376.5333,288,380.8,290.1334 M,0,62109,62112,380.8,290.1334 M,0,62112,62117,380.8,290.1334,386.1334,291.2 M,0,62117,62121,386.1334,291.2 M,0,62121,62126,386.1334,291.2,390.4,293.3333 M,0,62126,62131,390.4,293.3333 M,0,62131,62135,390.4,293.3333,394.6667,294.4 M,0,62135,62140,394.6667,294.4,398.9333,296.5334 M,0,62140,62148,398.9333,296.5334,403.2,298.6667 M,0,62148,62150,403.2,298.6667 M,0,62150,62156,403.2,298.6667,406.4,300.8 M,0,62156,62159,406.4,300.8 M,0,62159,62162,406.4,300.8,409.6,301.8667 M,0,62162,62167,409.6,301.8667 M,0,62167,62172,409.6,301.8667,412.8,304 M,0,62172,62176,412.8,304 M,0,62176,62181,412.8,304,416,306.1334 M,0,62181,62185,416,306.1334,418.1334,309.3334 M,0,62185,62190,418.1334,309.3334,420.2667,311.4667 M,0,62190,62197,420.2667,311.4667 M,0,62197,62201,420.2667,311.4667,422.4,313.6 M,0,62201,62205,422.4,313.6,423.4667,315.7334 M,0,62205,62210,423.4667,315.7334 M,0,62210,62215,423.4667,315.7334,425.6,318.9333 M,0,62215,62220,425.6,318.9333 M,0,62220,62224,425.6,318.9333,426.6667,321.0667 M,0,62224,62228,426.6667,321.0667 M,0,62228,62232,426.6667,321.0667,426.6667,324.2667 M,0,62232,62236,426.6667,324.2667 M,0,62236,62240,426.6667,324.2667,427.7333,327.4667 M,0,62240,62243,427.7333,327.4667 M,0,62243,62248,427.7333,327.4667,428.8,329.6 M,0,62248,62252,428.8,329.6,428.8,332.8 M,0,62252,62257,428.8,332.8 M,0,62257,62261,428.8,332.8,428.8,336 M,0,62261,62265,428.8,336 M,0,62265,62269,428.8,336,428.8,339.2 M,0,62269,62274,428.8,339.2,428.8,341.3334 M,0,62274,62279,428.8,341.3334 M,0,62279,62282,428.8,341.3334,428.8,344.5334 M,0,62282,62287,428.8,344.5334 M,0,62287,62291,428.8,344.5334,428.8,348.8 M,0,62291,62296,428.8,348.8 M,0,62296,62300,428.8,348.8,428.8,352 M,0,62300,62305,428.8,352,427.7333,355.2 M,0,62305,62309,427.7333,355.2 M,0,62309,62313,427.7333,355.2,426.6667,359.4667 M,0,62313,62318,426.6667,359.4667 M,0,62318,62321,426.6667,359.4667,426.6667,362.6667 M,0,62321,62327,426.6667,362.6667,425.6,365.8667 M,0,62327,62330,425.6,365.8667 M,0,62330,62335,425.6,365.8667,424.5334,369.0667 M,0,62335,62339,424.5334,369.0667 M,0,62339,62343,424.5334,369.0667,423.4667,372.2667 M,0,62343,62347,423.4667,372.2667 M,0,62347,62351,423.4667,372.2667,422.4,375.4667 M,0,62351,62356,422.4,375.4667 M,0,62356,62360,422.4,375.4667,421.3333,378.6667 M,0,62360,62365,421.3333,378.6667,419.2,380.8 M,0,62365,62369,419.2,380.8 M,0,62369,62373,419.2,380.8,418.1334,382.9333 M,0,62373,62377,418.1334,382.9333 M,0,62377,62381,418.1334,382.9333,416,385.0667 M,0,62381,62385,416,385.0667 M,0,62385,62390,416,385.0667,414.9333,387.2 M,0,62390,62395,414.9333,387.2,413.8667,389.3334 M,0,62395,62399,413.8667,389.3334 M,0,62399,62402,413.8667,389.3334,411.7333,391.4667 M,0,62402,62407,411.7333,391.4667 M,0,62407,62411,411.7333,391.4667,410.6667,393.6 M,0,62411,62416,410.6667,393.6 M,0,62416,62420,410.6667,393.6,409.6,395.7334 M,0,62420,62425,409.6,395.7334 M,0,62425,62429,409.6,395.7334,408.5333,397.8667 M,0,62429,62433,408.5333,397.8667,407.4667,400 M,0,62433,62437,407.4667,400 M,0,62437,62441,407.4667,400,406.4,402.1334 M,0,62441,62447,406.4,402.1334,404.2667,403.2 M,0,62447,62449,404.2667,403.2 M,0,62449,62455,404.2667,403.2,403.2,405.3334 M,0,62455,62459,403.2,405.3334,402.1333,406.4 M,0,62459,62463,402.1333,406.4 M,0,62463,62468,402.1333,406.4 M,0,62468,62472,402.1333,406.4,401.0667,407.4667 M,0,62472,62477,401.0667,407.4667,400,409.6 M,0,62477,62481,400,409.6 M,0,62481,62486,400,409.6,398.9333,410.6667 M,0,62486,62490,398.9333,410.6667,397.8667,411.7334 M,0,62490,62496,397.8667,411.7334 M,0,62496,62498,397.8667,411.7334 M,0,62498,62502,397.8667,411.7334,396.8,412.8 M,0,62502,62507,396.8,412.8,394.6667,413.8667 M,0,62507,62512,394.6667,413.8667 M,0,62512,62516,394.6667,413.8667,393.6,414.9333 M,0,62516,62520,393.6,414.9333,392.5334,417.0667 M,0,62520,62526,392.5334,417.0667 M,0,62526,62530,392.5334,417.0667,390.4,418.1334 M,0,62530,62532,390.4,418.1334 M,0,62532,62537,390.4,418.1334,389.3333,419.2 M,0,62537,62546,389.3333,419.2,387.2,420.2667 M,0,62546,62550,387.2,420.2667 M,0,62550,62554,387.2,420.2667,385.0667,421.3334 M,0,62554,62559,385.0667,421.3334,382.9333,422.4 M,0,62559,62563,382.9333,422.4 M,0,62563,62568,382.9333,422.4,379.7333,422.4 M,0,62568,62571,379.7333,422.4,377.6,423.4667 M,0,62571,62579,377.6,423.4667 M,0,62579,62581,377.6,423.4667,374.4,423.4667 M,0,62581,62585,374.4,423.4667 M,0,62585,62589,374.4,423.4667,370.1333,424.5334 M,0,62589,62596,370.1333,424.5334 M,0,62596,62599,370.1333,424.5334,366.9333,424.5334 M,0,62599,62601,366.9333,424.5334 M,0,62601,62607,366.9333,424.5334,362.6667,424.5334 M,0,62607,62612,362.6667,424.5334,358.4,424.5334 M,0,62612,62616,358.4,424.5334 M,0,62616,62620,358.4,424.5334,354.1333,424.5334 M,0,62620,62625,354.1333,424.5334 M,0,62625,62630,354.1333,424.5334,349.8667,423.4667 M,0,62630,62635,349.8667,423.4667,345.6,422.4 M,0,62635,62639,345.6,422.4,340.2667,421.3334 M,0,62639,62647,340.2667,421.3334 M,0,62647,62650,340.2667,421.3334,336,419.2 M,0,62650,62652,336,419.2 M,0,62652,62656,336,419.2,331.7333,418.1334 M,0,62656,62663,331.7333,418.1334 M,0,62663,62667,331.7333,418.1334,326.4,417.0667 M,0,62667,62671,326.4,417.0667,322.1333,414.9333 M,0,62671,62676,322.1333,414.9333 M,0,62676,62680,322.1333,414.9333,317.8667,413.8667 M,0,62680,62685,317.8667,413.8667 M,0,62685,62689,317.8667,413.8667,314.6667,411.7334 M,0,62689,62697,314.6667,411.7334,310.4,409.6 M,0,62697,62700,310.4,409.6 M,0,62700,62705,310.4,409.6,307.2,407.4667 M,0,62705,62709,307.2,407.4667,304,405.3334 M,0,62709,62713,304,405.3334 M,0,62713,62718,304,405.3334,300.8,402.1334 M,0,62718,62722,300.8,402.1334,297.6,398.9334 M,0,62722,62728,297.6,398.9334 M,0,62728,62731,297.6,398.9334,295.4667,395.7334 M,0,62731,62735,295.4667,395.7334 M,0,62735,62740,295.4667,395.7334,293.3333,392.5334 M,0,62740,62746,293.3333,392.5334 M,0,62746,62750,293.3333,392.5334,291.2,389.3334 M,0,62750,62755,291.2,389.3334,290.1333,386.1334 M,0,62755,62759,290.1333,386.1334 M,0,62759,62762,290.1333,386.1334,289.0667,382.9333 M,0,62762,62766,289.0667,382.9333 M,0,62766,62771,289.0667,382.9333,288,378.6667 M,0,62771,62776,288,378.6667,286.9333,375.4667 M,0,62776,62781,286.9333,375.4667 M,0,62781,62785,286.9333,375.4667,285.8667,371.2 M,0,62785,62790,285.8667,371.2,284.8,366.9334 M,0,62790,62795,284.8,366.9334 M,0,62795,62799,284.8,366.9334,283.7333,361.6 M,0,62799,62803,283.7333,361.6 M,0,62803,62808,283.7333,361.6,283.7333,356.2667 M,0,62808,62812,283.7333,356.2667 M,0,62812,62817,283.7333,356.2667,282.6667,350.9333 M,0,62817,62821,282.6667,350.9333,281.6,344.5334 M,0,62821,62826,281.6,344.5334 M,0,62826,62830,281.6,344.5334,280.5333,338.1334 M,0,62830,62833,280.5333,338.1334 M,0,62833,62837,280.5333,338.1334,278.4,331.7334 M,0,62837,62847,278.4,331.7334,276.2667,323.2 M,0,62847,62849,276.2667,323.2 M,0,62849,62854,276.2667,323.2,274.1334,314.6667 M,0,62854,62859,274.1334,314.6667,273.0667,305.0667 M,0,62859,62864,273.0667,305.0667 M,0,62864,62867,273.0667,305.0667,270.9333,293.3333 M,0,62867,62873,270.9333,293.3333,268.8,280.5334 M,0,62873,62881,268.8,280.5334,266.6667,267.7334 M,0,62881,62883,266.6667,267.7334 M,0,62883,62889,266.6667,267.7334,265.6,253.8667 M,0,62889,62897,265.6,253.8667,264.5334,238.9334 M,0,62897,62899,264.5334,238.9334 M,0,62899,62904,264.5334,238.9334,263.4667,224 M,0,62904,62909,263.4667,224 M,0,62909,62914,263.4667,224,263.4667,209.0667 M,0,62914,62918,263.4667,209.0667,263.4667,193.0667 M,0,62918,62923,263.4667,193.0667 M,0,62923,62929,263.4667,193.0667,263.4667,178.1334 M,0,62929,62932,263.4667,178.1334 M,0,62932,62936,263.4667,178.1334,263.4667,164.2667 M,0,62936,62940,263.4667,164.2667,263.4667,150.4 M,0,62940,62947,263.4667,150.4 M,0,62947,62950,263.4667,150.4,263.4667,136.5334 M,0,62950,62955,263.4667,136.5334,263.4667,123.7334 M,0,62955,62960,263.4667,123.7334 M,0,62960,62964,263.4667,123.7334 M,0,62964,62968,263.4667,123.7334,263.4667,113.0667 M,0,62968,62973,263.4667,113.0667,265.6,102.4 M,0,62973,62980,265.6,102.4,266.6667,93.8667 M,0,62980,62982,266.6667,93.8667 M,0,62982,62986,266.6667,93.8667 M,0,62986,62989,266.6667,93.8667,269.8667,86.40003 M,0,62989,62997,269.8667,86.40003,272,80.00003 M,0,62997,63001,272,80.00003,274.1334,74.6667 M,0,63001,63006,274.1334,74.6667 M,0,63006,63010,274.1334,74.6667,276.2667,71.4667 M,0,63010,63013,276.2667,71.4667 M,0,63013,63017,276.2667,71.4667,279.4667,67.20003 M,0,63017,63021,279.4667,67.20003 M,0,63021,63026,279.4667,67.20003,281.6,65.0667 M,0,63026,63030,281.6,65.0667 M,0,63030,63035,281.6,65.0667,284.8,62.93336 M,0,63035,63039,284.8,62.93336,288,61.8667 M,0,63039,63043,288,61.8667 M,0,63043,63047,288,61.8667,292.2667,60.80003 M,0,63047,63051,292.2667,60.80003 M,0,63051,63056,292.2667,60.80003,295.4667,60.80003 M,0,63056,63060,295.4667,60.80003 M,0,63060,63064,295.4667,60.80003,299.7333,59.73336 M,0,63064,63068,299.7333,59.73336 M,0,63068,63071,299.7333,59.73336,304,59.73336 M,0,63071,63076,304,59.73336 M,0,63076,63080,304,59.73336,308.2667,59.73336 M,0,63080,63085,308.2667,59.73336,312.5333,60.80003 M,0,63085,63089,312.5333,60.80003 M,0,63089,63093,312.5333,60.80003,316.8,62.93336 M,0,63093,63098,316.8,62.93336 M,0,63098,63101,316.8,62.93336,320,65.0667 M,0,63101,63106,320,65.0667,324.2667,67.20003 M,0,63106,63110,324.2667,67.20003 M,0,63110,63115,324.2667,67.20003,328.5334,71.4667 M,0,63115,63119,328.5334,71.4667 M,0,63119,63122,328.5334,71.4667,332.8,76.80003 M,0,63122,63127,332.8,76.80003 M,0,63127,63131,332.8,76.80003,337.0667,82.13336 M,0,63131,63136,337.0667,82.13336 M,0,63136,63140,337.0667,82.13336,341.3333,87.4667 M,0,63140,63145,341.3333,87.4667,344.5333,93.8667 M,0,63145,63149,344.5333,93.8667 M,0,63149,63152,344.5333,93.8667,347.7333,100.2667 M,0,63152,63157,347.7333,100.2667 M,0,63157,63161,347.7333,100.2667,349.8667,106.6667 M,0,63161,63165,349.8667,106.6667 M,0,63165,63169,349.8667,106.6667,352,113.0667 M,0,63169,63173,352,113.0667,353.0667,119.4667 M,0,63173,63177,353.0667,119.4667 M,0,63177,63181,353.0667,119.4667,354.1333,125.8667 M,0,63181,63185,354.1333,125.8667 M,0,63185,63189,354.1333,125.8667,354.1333,131.2 M,0,63189,63196,354.1333,131.2 M,0,63196,63198,354.1333,131.2,354.1333,137.6 M,0,63198,63202,354.1333,137.6 M,0,63202,63207,354.1333,137.6,354.1333,144 M,0,63207,63211,354.1333,144,354.1333,151.4667 M,0,63211,63215,354.1333,151.4667 M,0,63215,63219,354.1333,151.4667,353.0667,157.8667 M,0,63219,63225,353.0667,157.8667 M,0,63225,63230,353.0667,157.8667,352,164.2667 M,0,63230,63233,352,164.2667 M,0,63233,63238,352,164.2667,350.9333,170.6667 M,0,63238,63242,350.9333,170.6667,348.8,176 M,0,63242,63246,348.8,176 M,0,63246,63250,348.8,176,346.6667,181.3334 M,0,63250,63256,346.6667,181.3334,344.5333,185.6 M,0,63256,63260,344.5333,185.6 M,0,63260,63265,344.5333,185.6,343.4667,189.8667 M,0,63265,63269,343.4667,189.8667 M,0,63269,63274,343.4667,189.8667,341.3333,193.0667 M,0,63274,63281,341.3333,193.0667,338.1333,196.2667 M,0,63281,63283,338.1333,196.2667 M,0,63283,63286,338.1333,196.2667 M,0,63286,63290,338.1333,196.2667,336,198.4 M,0,63290,63297,336,198.4,332.8,201.6 M,0,63297,63301,332.8,201.6 M,0,63301,63305,332.8,201.6,330.6667,203.7334 M,0,63305,63310,330.6667,203.7334,327.4667,205.8667 M,0,63310,63314,327.4667,205.8667 M,0,63314,63317,327.4667,205.8667,323.2,209.0667 M,0,63317,63322,323.2,209.0667 M,0,63322,63326,323.2,209.0667,320,211.2 M,0,63326,63331,320,211.2,316.8,213.3334 M,0,63331,63336,316.8,213.3334 M,0,63336,63339,316.8,213.3334,313.6,215.4667 M,0,63339,63347,313.6,215.4667,309.3333,216.5334 M,0,63347,63350,309.3333,216.5334 M,0,63350,63354,309.3333,216.5334,306.1333,218.6667 M,0,63354,63359,306.1333,218.6667 M,0,63359,63362,306.1333,218.6667,302.9333,219.7334 M,0,63362,63368,302.9333,219.7334 M,0,63368,63371,302.9333,219.7334,299.7333,221.8667 M,0,63371,63377,299.7333,221.8667,296.5334,222.9334 M,0,63377,63380,296.5334,222.9334 M,0,63380,63385,296.5334,222.9334 M,0,63385,63389,296.5334,222.9334,293.3333,224 M,0,63389,63392,293.3333,224,290.1333,225.0667 M,0,63392,63397,290.1333,225.0667 M,0,63397,63401,290.1333,225.0667,286.9333,226.1334 M,0,63401,63405,286.9333,226.1334 M,0,63405,63409,286.9333,226.1334,282.6667,226.1334 M,0,63409,63413,282.6667,226.1334 M,0,63413,63417,282.6667,226.1334,278.4,227.2 M,0,63417,63421,278.4,227.2,275.2,228.2667 M,0,63421,63426,275.2,228.2667 M,0,63426,63430,275.2,228.2667,272,228.2667 M,0,63430,63433,272,228.2667 M,0,63433,63438,272,228.2667,268.8,228.2667 M,0,63438,63441,268.8,228.2667 M,0,63441,63446,268.8,228.2667,266.6667,229.3334 M,0,63446,63450,266.6667,229.3334 M,0,63450,63454,266.6667,229.3334,263.4667,229.3334 M,0,63454,63458,263.4667,229.3334 M,0,63458,63462,263.4667,229.3334,261.3333,229.3334 M,0,63462,63467,261.3333,229.3334,259.2,229.3334 M,0,63467,63470,259.2,229.3334 M,0,63470,63475,259.2,229.3334,258.1333,229.3334 M,0,63475,63480,258.1333,229.3334 M,0,63480,63483,258.1333,229.3334,256,229.3334 M,0,63483,63487,256,229.3334 M,0,63487,63491,256,229.3334,254.9333,229.3334 M,0,63491,63496,254.9333,229.3334 M,0,63496,63500,254.9333,229.3334 M,0,63500,63503,254.9333,229.3334 M,0,63503,63507,254.9333,229.3334 M,0,63507,63511,254.9333,229.3334,253.8667,229.3334 M,0,63511,63516,253.8667,229.3334 M,0,63516,63520,253.8667,229.3334 M,0,63520,63524,253.8667,229.3334 M,0,63524,63529,253.8667,229.3334 M,0,63529,63532,253.8667,229.3334 M,0,63532,63536,253.8667,229.3334 M,0,63536,63540,253.8667,229.3334 M,0,63540,63545,253.8667,229.3334 M,0,63545,63549,253.8667,229.3334 M,0,63549,63552,253.8667,229.3334 M,0,63552,63558,253.8667,229.3334 M,0,63558,63562,253.8667,229.3334 M,0,63562,63567,253.8667,229.3334 M,0,63567,63572,253.8667,229.3334,253.8667,228.2667 M,0,63572,63576,253.8667,228.2667 M,0,63576,63579,253.8667,228.2667,254.9333,228.2667 M,0,63579,63585,254.9333,228.2667 M,0,63585,63589,254.9333,228.2667,256,227.2 M,0,63589,63595,256,227.2 M,0,63595,63599,256,227.2,258.1333,227.2 M,0,63599,63602,258.1333,227.2,260.2667,226.1334 M,0,63602,63607,260.2667,226.1334,261.3333,226.1334 M,0,63607,63613,261.3333,226.1334 M,0,63613,63616,261.3333,226.1334 M,0,63616,63621,261.3333,226.1334,263.4667,225.0667 M,0,63621,63625,263.4667,225.0667,264.5334,225.0667 M,0,63625,63630,264.5334,225.0667 M,0,63630,63633,264.5334,225.0667,266.6667,225.0667 M,0,63633,63638,266.6667,225.0667,267.7333,225.0667 M,0,63638,63642,267.7333,225.0667 M,0,63642,63647,267.7333,225.0667,269.8667,225.0667 M,0,63647,63651,269.8667,225.0667 M,0,63651,63656,269.8667,225.0667,272,225.0667 M,0,63656,63662,272,225.0667,274.1334,225.0667 M,0,63662,63665,274.1334,225.0667 M,0,63665,63669,274.1334,225.0667,277.3333,224 M,0,63669,63674,277.3333,224,280.5333,224 M,0,63674,63680,280.5333,224 M,0,63680,63682,280.5333,224 M,0,63682,63686,280.5333,224,284.8,224 M,0,63686,63692,284.8,224,288,222.9334 M,0,63692,63697,288,222.9334 M,0,63697,63701,288,222.9334,293.3333,222.9334 M,0,63701,63706,293.3333,222.9334,297.6,222.9334 M,0,63706,63712,297.6,222.9334,304,221.8667 M,0,63712,63715,304,221.8667 M,0,63715,63719,304,221.8667 M,0,63719,63724,304,221.8667,309.3333,221.8667 M,0,63724,63730,309.3333,221.8667,315.7333,220.8 M,0,63730,63733,315.7333,220.8 M,0,63733,63737,315.7333,220.8,322.1333,220.8 M,0,63737,63742,322.1333,220.8,329.6,220.8 M,0,63742,63746,329.6,220.8 M,0,63746,63749,329.6,220.8 M,0,63749,63755,329.6,220.8,336,220.8 M,0,63755,63761,336,220.8,343.4667,220.8 M,0,63761,63763,343.4667,220.8 M,0,63763,63767,343.4667,220.8,350.9333,219.7334 M,0,63767,63771,350.9333,219.7334 M,0,63771,63776,350.9333,219.7334,358.4,219.7334 M,0,63776,63780,358.4,219.7334,365.8667,219.7334 M,0,63780,63785,365.8667,219.7334 M,0,63785,63789,365.8667,219.7334,374.4,219.7334 M,0,63789,63792,374.4,219.7334 M,0,63792,63797,374.4,219.7334,382.9333,219.7334 M,0,63797,63801,382.9333,219.7334 M,0,63801,63805,382.9333,219.7334,392.5334,219.7334 M,0,63805,63810,392.5334,219.7334 M,0,63810,63815,392.5334,219.7334,402.1333,219.7334 M,0,63815,63819,402.1333,219.7334,411.7333,219.7334 M,0,63819,63822,411.7333,219.7334 M,0,63822,63827,411.7333,219.7334,421.3333,219.7334 M,0,63827,63831,421.3333,219.7334 M,0,63831,63835,421.3333,219.7334,429.8667,219.7334 M,0,63835,63839,429.8667,219.7334 M,0,63839,63843,429.8667,219.7334,438.4,218.6667 M,0,63843,63848,438.4,218.6667 M,0,63848,63851,438.4,218.6667,445.8667,217.6 M,0,63851,63856,445.8667,217.6,452.2667,215.4667 M,0,63856,63860,452.2667,215.4667 M,0,63860,63865,452.2667,215.4667,458.6667,213.3334 M,0,63865,63869,458.6667,213.3334 M,0,63869,63872,458.6667,213.3334,465.0667,211.2 M,0,63872,63877,465.0667,211.2 M,0,63877,63881,465.0667,211.2,471.4667,208 M,0,63881,63886,471.4667,208 M,0,63886,63891,471.4667,208,476.8,203.7334 M,0,63891,63896,476.8,203.7334,483.2,199.4667 M,0,63896,63900,483.2,199.4667 M,0,63900,63903,483.2,199.4667,488.5333,195.2 M,0,63903,63907,488.5333,195.2 M,0,63907,63912,488.5333,195.2,492.8,189.8667 M,0,63912,63916,492.8,189.8667,497.0667,185.6 M,0,63916,63920,497.0667,185.6 M,0,63920,63925,497.0667,185.6,500.2667,181.3334 M,0,63925,63929,500.2667,181.3334 M,0,63929,63934,500.2667,181.3334,503.4666,176 M,0,63934,63939,503.4666,176,505.6,171.7334 M,0,63939,63943,505.6,171.7334 M,0,63943,63947,505.6,171.7334,507.7333,167.4667 M,0,63947,63951,507.7333,167.4667 M,0,63951,63956,507.7333,167.4667,508.8,162.1334 M,0,63956,63960,508.8,162.1334 M,0,63960,63963,508.8,162.1334,509.8667,157.8667 M,0,63963,63967,509.8667,157.8667 M,0,63967,63972,509.8667,157.8667,509.8667,153.6 M,0,63972,63975,509.8667,153.6 M,0,63975,63980,509.8667,153.6,509.8667,149.3334 M,0,63980,63984,509.8667,149.3334,509.8667,146.1334 M,0,63984,63990,509.8667,146.1334 M,0,63990,63992,509.8667,146.1334,508.8,142.9334 M,0,63992,63997,508.8,142.9334 M,0,63997,64001,508.8,142.9334,507.7333,140.8 M,0,64001,64006,507.7333,140.8,506.6667,138.6667 M,0,64006,64010,506.6667,138.6667 M,0,64010,64015,506.6667,138.6667,504.5334,136.5334 M,0,64015,64019,504.5334,136.5334 M,0,64019,64022,504.5334,136.5334,502.4,135.4667 M,0,64022,64027,502.4,135.4667 M,0,64027,64031,502.4,135.4667,500.2667,134.4 M,0,64031,64036,500.2667,134.4,497.0667,133.3334 M,0,64036,64040,497.0667,133.3334 M,0,64040,64045,497.0667,133.3334,493.8667,132.2667 M,0,64045,64049,493.8667,132.2667 M,0,64049,64053,493.8667,132.2667,490.6667,132.2667 M,0,64053,64057,490.6667,132.2667 M,0,64057,64062,490.6667,132.2667,485.3333,131.2 M,0,64062,64066,485.3333,131.2,481.0667,131.2 M,0,64066,64070,481.0667,131.2 M,0,64070,64075,481.0667,131.2,475.7334,131.2 M,0,64075,64079,475.7334,131.2 M,0,64079,64083,475.7334,131.2,471.4667,131.2 M,0,64083,64087,471.4667,131.2 M,0,64087,64091,471.4667,131.2,466.1333,132.2667 M,0,64091,64096,466.1333,132.2667,460.8,134.4 M,0,64096,64100,460.8,134.4 M,0,64100,64105,460.8,134.4,455.4667,136.5334 M,0,64105,64109,455.4667,136.5334 M,0,64109,64113,455.4667,136.5334,451.2,139.7334 M,0,64113,64117,451.2,139.7334 M,0,64117,64121,451.2,139.7334,448,142.9334 M,0,64121,64125,448,142.9334 M,0,64125,64130,448,142.9334,444.8,147.2 M,0,64130,64133,444.8,147.2,441.6,152.5334 M,0,64133,64138,441.6,152.5334 M,0,64138,64141,441.6,152.5334,439.4667,157.8667 M,0,64141,64146,439.4667,157.8667 M,0,64146,64150,439.4667,157.8667,437.3333,163.2 M,0,64150,64155,437.3333,163.2 M,0,64155,64158,437.3333,163.2,437.3333,168.5334 M,0,64158,64162,437.3333,168.5334 M,0,64162,64166,437.3333,168.5334,437.3333,174.9334 M,0,64166,64170,437.3333,174.9334,437.3333,182.4 M,0,64170,64175,437.3333,182.4 M,0,64175,64179,437.3333,182.4,439.4667,189.8667 M,0,64179,64183,439.4667,189.8667 M,0,64183,64187,439.4667,189.8667,442.6667,198.4 M,0,64187,64196,442.6667,198.4,448,208 M,0,64196,64199,448,208 M,0,64199,64201,448,208,453.3333,217.6 M,0,64201,64205,453.3333,217.6,460.8,228.2667 M,0,64205,64212,460.8,228.2667 M,0,64212,64215,460.8,228.2667 M,0,64215,64218,460.8,228.2667,469.3333,237.8667 M,0,64218,64224,469.3333,237.8667,477.8667,247.4667 M,0,64224,64230,477.8667,247.4667 M,0,64230,64233,477.8667,247.4667,487.4667,257.0667 M,0,64233,64237,487.4667,257.0667,496,264.5334 M,0,64237,64242,496,264.5334 M,0,64242,64247,496,264.5334 M,0,64247,64250,496,264.5334,505.6,272 M,0,64250,64255,505.6,272,513.0667,278.4001 M,0,64255,64260,513.0667,278.4001 M,0,64260,64263,513.0667,278.4001,520.5333,284.8 M,0,64263,64268,520.5333,284.8 M,0,64268,64273,520.5333,284.8,526.9333,291.2 M,0,64273,64280,526.9333,291.2,532.2667,296.5334 M,0,64280,64282,532.2667,296.5334 M,0,64282,64285,532.2667,296.5334,538.6667,300.8 M,0,64285,64290,538.6667,300.8,542.9333,305.0667 M,0,64290,64296,542.9333,305.0667 M,0,64296,64299,542.9333,305.0667,547.2,308.2667 M,0,64299,64303,547.2,308.2667 M,0,64303,64308,547.2,308.2667,549.3333,310.4001 M,0,64308,64313,549.3333,310.4001 M,0,64313,64315,549.3333,310.4001,552.5334,312.5334 M,0,64315,64320,552.5334,312.5334 M,0,64320,64325,552.5334,312.5334,554.6667,313.6 M,0,64325,64330,554.6667,313.6,556.8,313.6 M,0,64330,64333,556.8,313.6 M,0,64333,64338,556.8,313.6,558.9333,313.6 M,0,64338,64342,558.9333,313.6,561.0667,313.6 M,0,64342,64346,561.0667,313.6 M,0,64346,64350,561.0667,313.6,562.1334,313.6 M,0,64350,64356,562.1334,313.6 M,0,64356,64360,562.1334,313.6,564.2667,312.5334 M,0,64360,64364,564.2667,312.5334 M,0,64364,64368,564.2667,312.5334,565.3334,311.4667 M,0,64368,64373,565.3334,311.4667 M,0,64373,64377,565.3334,311.4667,565.3334,310.4001 M,0,64377,64381,565.3334,310.4001 M,0,64381,64386,565.3334,310.4001 M,0,64386,64390,565.3334,310.4001,565.3334,309.3334 M,0,64390,64395,565.3334,309.3334 M,0,64395,64399,565.3334,309.3334 M,0,64399,64404,565.3334,309.3334 M,0,64404,64408,565.3334,309.3334,564.2667,308.2667 M,0,64408,64413,564.2667,308.2667,561.0667,307.2 M,0,64413,64417,561.0667,307.2 M,0,64417,64421,561.0667,307.2,555.7333,307.2 M,0,64421,64426,555.7333,307.2,548.2667,307.2 M,0,64426,64430,548.2667,307.2 M,0,64430,64436,548.2667,307.2,539.7333,307.2 M,0,64436,64440,539.7333,307.2,529.0667,308.2667 M,0,64440,64445,529.0667,308.2667 M,0,64445,64449,529.0667,308.2667,517.3334,309.3334 M,0,64449,64452,517.3334,309.3334 M,0,64452,64457,517.3334,309.3334,504.5334,311.4667 M,0,64457,64461,504.5334,311.4667 M,0,64461,64466,504.5334,311.4667,491.7334,313.6 M,0,64466,64470,491.7334,313.6,477.8667,316.8 M,0,64470,64475,477.8667,316.8 M,0,64475,64479,477.8667,316.8 M,0,64479,64483,477.8667,316.8,464,321.0667 M,0,64483,64488,464,321.0667,449.0667,326.4 M,0,64488,64492,449.0667,326.4,434.1333,332.8 M,0,64492,64495,434.1333,332.8 M,0,64495,64500,434.1333,332.8,419.2,339.2 M,0,64500,64505,419.2,339.2 M,0,64505,64510,419.2,339.2,405.3333,345.6 M,0,64510,64514,405.3333,345.6 M,0,64514,64518,405.3333,345.6,391.4667,352 M,0,64518,64522,391.4667,352,380.8,357.3334 M,0,64522,64527,380.8,357.3334 M,0,64527,64531,380.8,357.3334,371.2,361.6 M,0,64531,64535,371.2,361.6 M,0,64535,64539,371.2,361.6,365.8667,364.8 M,0,64539,64543,365.8667,364.8 M,0,64543,64548,365.8667,364.8,362.6667,365.8667 M,0,64548,64551,362.6667,365.8667 M,0,64551,64556,362.6667,365.8667,361.6,366.9334 M,0,64556,64560,361.6,366.9334 M,0,64560,64565,361.6,366.9334 M,0,64565,64569,361.6,366.9334,362.6667,366.9334 M,0,64569,64574,362.6667,366.9334 M,0,64574,64580,362.6667,366.9334,365.8667,368 M,0,64580,64583,365.8667,368,370.1333,368 M,0,64583,64588,370.1333,368 M,0,64588,64592,370.1333,368,375.4667,368 M,0,64592,64597,375.4667,368 M,0,64597,64600,375.4667,368,382.9333,368 M,0,64600,64605,382.9333,368,391.4667,368 M,0,64605,64613,391.4667,368,401.0667,368 M,0,64613,64616,401.0667,368 M,0,64616,64620,401.0667,368,410.6667,368 M,0,64620,64625,410.6667,368 M,0,64625,64629,410.6667,368,420.2667,368 M,0,64629,64632,420.2667,368 M,0,64632,64637,420.2667,368,430.9333,368 M,0,64637,64641,430.9333,368,440.5333,366.9334 M,0,64641,64646,440.5333,366.9334 M,0,64646,64651,440.5333,366.9334,451.2,365.8667 M,0,64651,64655,451.2,365.8667 M,0,64655,64663,451.2,365.8667,461.8667,364.8 M,0,64663,64666,461.8667,364.8 M,0,64666,64670,461.8667,364.8,472.5333,362.6667 M,0,64670,64675,472.5333,362.6667,482.1333,362.6667 M,0,64675,64680,482.1333,362.6667 M,0,64680,64685,482.1333,362.6667,490.6667,361.6 M,0,64685,64689,490.6667,361.6,498.1334,360.5334 M,0,64689,64698,498.1334,360.5334,503.4666,359.4667 M,0,64698,64700,503.4666,359.4667 M,0,64700,64705,503.4666,359.4667,507.7333,358.4 M,0,64705,64710,507.7333,358.4 M,0,64710,64714,507.7333,358.4,510.9333,358.4 M,0,64714,64717,510.9333,358.4 M,0,64717,64722,510.9333,358.4,512,358.4 M,0,64722,64728,512,358.4,513.0667,358.4 M,0,64728,64731,513.0667,358.4 M,0,64731,64735,513.0667,358.4 M,0,64735,64739,513.0667,358.4 M,0,64739,64745,513.0667,358.4 M,0,64745,64749,513.0667,358.4,513.0667,357.3334 M,0,64749,64752,513.0667,357.3334 M,0,64752,64757,513.0667,357.3334,510.9333,357.3334 M,0,64757,64762,510.9333,357.3334 M,0,64762,64765,510.9333,357.3334,506.6667,357.3334 M,0,64765,64770,506.6667,357.3334,501.3334,356.2667 M,0,64770,64775,501.3334,356.2667 M,0,64775,64780,501.3334,356.2667,492.8,356.2667 M,0,64780,64782,492.8,356.2667 M,0,64782,64787,492.8,356.2667,483.2,356.2667 M,0,64787,64791,483.2,356.2667,471.4667,356.2667 M,0,64791,64797,471.4667,356.2667 M,0,64797,64800,471.4667,356.2667,459.7333,356.2667 M,0,64800,64805,459.7333,356.2667 M,0,64805,64809,459.7333,356.2667,445.8667,357.3334 M,0,64809,64815,445.8667,357.3334 M,0,64815,64819,445.8667,357.3334,432,358.4 M,0,64819,64824,432,358.4,418.1334,360.5334 M,0,64824,64831,418.1334,360.5334,403.2,362.6667 M,0,64831,64833,403.2,362.6667 M,0,64833,64838,403.2,362.6667,389.3333,364.8 M,0,64838,64842,389.3333,364.8 M,0,64842,64847,389.3333,364.8,374.4,366.9334 M,0,64847,64850,374.4,366.9334 M,0,64850,64855,374.4,366.9334,360.5334,369.0667 M,0,64855,64860,360.5334,369.0667 M,0,64860,64864,360.5334,369.0667,347.7333,372.2667 M,0,64864,64868,347.7333,372.2667,334.9333,374.4 M,0,64868,64873,334.9333,374.4 M,0,64873,64881,334.9333,374.4,322.1333,377.6 M,0,64881,64883,322.1333,377.6,311.4667,379.7334 M,0,64883,64888,311.4667,379.7334 M,0,64888,64892,311.4667,379.7334,301.8667,380.8 M,0,64892,64897,301.8667,380.8 M,0,64897,64901,301.8667,380.8,293.3333,382.9333 M,0,64901,64905,293.3333,382.9333,286.9333,382.9333 M,0,64905,64913,286.9333,382.9333,281.6,382.9333 M,0,64913,64916,281.6,382.9333 M,0,64916,64918,281.6,382.9333 M,0,64918,64923,281.6,382.9333,277.3333,384 M,0,64923,64930,277.3333,384,273.0667,384 M,0,64930,64932,273.0667,384 M,0,64932,64936,273.0667,384 M,0,64936,64939,273.0667,384,265.6,384 M,0,64939,64947,265.6,384 M,0,64947,64950,265.6,384 M,0,64950,64955,265.6,384,262.4,384 M,0,64955,64959,262.4,384,259.2,384 M,0,64959,64963,259.2,384 M,0,64963,64968,259.2,384,256,384 M,0,64968,64972,256,384,251.7333,384 M,0,64972,64979,251.7333,384 M,0,64979,64981,251.7333,384,249.6,384 M,0,64981,64985,249.6,384 M,0,64985,64989,249.6,384,246.4,384 M,0,64989,64996,246.4,384 M,0,64996,64999,246.4,384,243.2,384 M,0,64999,65001,243.2,384 M,0,65001,65006,243.2,384,240,382.9333 M,0,65006,65012,240,382.9333,236.8,382.9333 M,0,65012,65016,236.8,382.9333 M,0,65016,65018,236.8,382.9333 M,0,65018,65023,236.8,382.9333,233.6,381.8667 M,0,65023,65030,233.6,381.8667,230.4,380.8 M,0,65030,65033,230.4,380.8 M,0,65033,65035,230.4,380.8,227.2,379.7334 M,0,65035,65039,227.2,379.7334,224,377.6 M,0,65039,65047,224,377.6 M,0,65047,65050,224,377.6,220.8,375.4667 M,0,65050,65052,220.8,375.4667 M,0,65052,65056,220.8,375.4667,216.5333,372.2667 M,0,65056,65063,216.5333,372.2667,212.2667,368 M,0,65063,65066,212.2667,368 M,0,65066,65069,212.2667,368 M,0,65069,65073,212.2667,368,208,363.7334 M,0,65073,65082,208,363.7334,203.7333,357.3334 M,0,65082,65083,203.7333,357.3334 M,0,65083,65088,203.7333,357.3334,198.4,349.8667 M,0,65088,65092,198.4,349.8667 M,0,65092,65096,198.4,349.8667,193.0667,341.3334 M,0,65096,65100,193.0667,341.3334 M,0,65100,65105,193.0667,341.3334,186.6667,331.7334 M,0,65105,65109,186.6667,331.7334,181.3333,322.1334 M,0,65109,65115,181.3333,322.1334 M,0,65115,65118,181.3333,322.1334,174.9333,311.4667 M,0,65118,65123,174.9333,311.4667,169.6,300.8 M,0,65123,65127,169.6,300.8 M,0,65127,65130,169.6,300.8 M,0,65130,65136,169.6,300.8,163.2,288 M,0,65136,65140,163.2,288,157.8667,276.2667 M,0,65140,65144,157.8667,276.2667 M,0,65144,65148,157.8667,276.2667,152.5334,263.4667 M,0,65148,65151,152.5334,263.4667 M,0,65151,65156,152.5334,263.4667,148.2667,251.7334 M,0,65156,65163,148.2667,251.7334,144,241.0667 M,0,65163,65166,144,241.0667 M,0,65166,65168,144,241.0667 M,0,65168,65174,144,241.0667,139.7334,231.4667 M,0,65174,65180,139.7334,231.4667,135.4667,222.9334 M,0,65180,65182,135.4667,222.9334 M,0,65182,65187,135.4667,222.9334,132.2667,215.4667 M,0,65187,65191,132.2667,215.4667,130.1333,210.1334 M,0,65191,65197,130.1333,210.1334 M,0,65197,65199,130.1333,210.1334,128,206.9334 M,0,65199,65203,128,206.9334 M,0,65203,65208,128,206.9334,128,203.7334 M,0,65208,65213,128,203.7334,126.9333,202.6667 M,0,65213,65216,126.9333,202.6667 M,0,65216,65220,126.9333,202.6667,126.9333,200.5334 M,0,65220,65225,126.9333,200.5334 M,0,65225,65229,126.9333,200.5334,126.9333,199.4667 M,0,65229,65233,126.9333,199.4667 M,0,65233,65238,126.9333,199.4667 M,0,65238,65242,126.9333,199.4667,126.9333,198.4 M,0,65242,65246,126.9333,198.4 M,0,65246,65250,126.9333,198.4 M,0,65250,65256,126.9333,198.4 M,0,65256,65261,126.9333,198.4,128,198.4 M,0,65261,65265,128,198.4 M,0,65265,65269,128,198.4,129.0667,198.4 M,0,65269,65274,129.0667,198.4,130.1333,198.4 M,0,65274,65280,130.1333,198.4 M,0,65280,65282,130.1333,198.4,132.2667,198.4 M,0,65282,65286,132.2667,198.4 M,0,65286,65291,132.2667,198.4,134.4,199.4667 M,0,65291,65296,134.4,199.4667 M,0,65296,65300,134.4,199.4667,137.6,201.6 M,0,65300,65304,137.6,201.6,141.8667,202.6667 M,0,65304,65309,141.8667,202.6667 M,0,65309,65313,141.8667,202.6667,148.2667,203.7334 M,0,65313,65317,148.2667,203.7334 M,0,65317,65321,148.2667,203.7334,154.6667,205.8667 M,0,65321,65326,154.6667,205.8667 M,0,65326,65329,154.6667,205.8667,163.2,206.9334 M,0,65329,65333,163.2,206.9334,172.8,209.0667 M,0,65333,65338,172.8,209.0667 M,0,65338,65342,172.8,209.0667,182.4,210.1334 M,0,65342,65347,182.4,210.1334 M,0,65347,65351,182.4,210.1334,194.1333,212.2667 M,0,65351,65356,194.1333,212.2667,206.9333,214.4 M,0,65356,65360,206.9333,214.4 M,0,65360,65365,206.9333,214.4,220.8,216.5334 M,0,65365,65370,220.8,216.5334 M,0,65370,65375,220.8,216.5334,235.7333,218.6667 M,0,65375,65379,235.7333,218.6667,251.7333,219.7334 M,0,65379,65383,251.7333,219.7334 M,0,65383,65387,251.7333,219.7334,267.7333,221.8667 M,0,65387,65391,267.7333,221.8667 M,0,65391,65396,267.7333,221.8667,282.6667,222.9334 M,0,65396,65400,282.6667,222.9334 M,0,65400,65405,282.6667,222.9334,297.6,225.0667 M,0,65405,65409,297.6,225.0667,310.4,227.2 M,0,65409,65412,310.4,227.2 M,0,65412,65417,310.4,227.2,324.2667,228.2667 M,0,65417,65421,324.2667,228.2667 M,0,65421,65425,324.2667,228.2667,334.9333,230.4 M,0,65425,65430,334.9333,230.4 M,0,65430,65435,334.9333,230.4,344.5333,232.5334 M,0,65435,65439,344.5333,232.5334,353.0667,233.6 M,0,65439,65443,353.0667,233.6 M,0,65443,65447,353.0667,233.6,357.3333,234.6667 M,0,65447,65451,357.3333,234.6667 M,0,65451,65455,357.3333,234.6667,360.5334,235.7334 M,0,65455,65460,360.5334,235.7334,361.6,235.7334 M,0,65460,65465,361.6,235.7334 M,0,65465,65469,361.6,235.7334 M,0,65469,65473,361.6,235.7334 M,0,65473,65477,361.6,235.7334 M,0,65477,65481,361.6,235.7334,359.4667,236.8 M,0,65481,65486,359.4667,236.8,354.1333,237.8667 M,0,65486,65490,354.1333,237.8667 M,0,65490,65494,354.1333,237.8667,347.7333,238.9334 M,0,65494,65498,347.7333,238.9334 M,0,65498,65501,347.7333,238.9334,338.1333,240 M,0,65501,65506,338.1333,240 M,0,65506,65510,338.1333,240,326.4,241.0667 M,0,65510,65514,326.4,241.0667,313.6,243.2 M,0,65514,65519,313.6,243.2 M,0,65519,65523,313.6,243.2,299.7333,244.2667 M,0,65523,65528,299.7333,244.2667 M,0,65528,65531,299.7333,244.2667,283.7333,246.4 M,0,65531,65536,283.7333,246.4 M,0,65536,65540,283.7333,246.4,250.6667,251.7334 M,0,65540,65546,250.6667,251.7334 M,0,65546,65549,250.6667,251.7334 M,0,65549,65555,250.6667,251.7334,233.6,254.9333 M,0,65555,65559,233.6,254.9333,215.4667,259.2 M,0,65559,65562,215.4667,259.2 M,0,65562,65566,215.4667,259.2 M,0,65566,65571,215.4667,259.2,182.4,267.7334 M,0,65571,65575,182.4,267.7334 M,0,65575,65580,182.4,267.7334 M,0,65580,65583,182.4,267.7334,167.4667,270.9334 M,0,65583,65587,167.4667,270.9334,153.6,274.1334 M,0,65587,65591,153.6,274.1334 M,0,65591,65596,153.6,274.1334 M,0,65596,65600,153.6,274.1334,141.8667,275.2 M,0,65600,65605,141.8667,275.2,132.2667,276.2667 M,0,65605,65609,132.2667,276.2667 M,0,65609,65615,132.2667,276.2667,123.7333,277.3334 M,0,65615,65619,123.7333,277.3334 M,0,65619,65624,123.7333,277.3334,117.3333,277.3334 M,0,65624,65631,117.3333,277.3334,112,277.3334 M,0,65631,65633,112,277.3334,108.8,277.3334 M,0,65633,65636,108.8,277.3334 M,0,65636,65641,108.8,277.3334,105.6,277.3334 M,0,65641,65646,105.6,277.3334 M,0,65646,65649,105.6,277.3334 M,0,65649,65653,105.6,277.3334,104.5333,276.2667 M,0,65653,65658,104.5333,276.2667,104.5333,274.1334 M,0,65658,65662,104.5333,274.1334,104.5333,272 M,0,65662,65666,104.5333,272 M,0,65666,65671,104.5333,272,105.6,267.7334 M,0,65671,65676,105.6,267.7334 M,0,65676,65680,105.6,267.7334,107.7333,263.4667 M,0,65680,65685,107.7333,263.4667 M,0,65685,65689,107.7333,263.4667,110.9333,258.1334 M,0,65689,65693,110.9333,258.1334,114.1333,252.8 M,0,65693,65698,114.1333,252.8 M,0,65698,65702,114.1333,252.8,117.3333,246.4 M,0,65702,65707,117.3333,246.4,119.4667,240 M,0,65707,65712,119.4667,240 M,0,65712,65716,119.4667,240 M,0,65716,65719,119.4667,240,122.6667,231.4667 M,0,65719,65724,122.6667,231.4667,124.8,222.9334 M,0,65724,65729,124.8,222.9334 M,0,65729,65733,124.8,222.9334,128,214.4 M,0,65733,65737,128,214.4,130.1333,203.7334 M,0,65737,65742,130.1333,203.7334 M,0,65742,65745,130.1333,203.7334 M,0,65745,65750,130.1333,203.7334,132.2667,193.0667 M,0,65750,65755,132.2667,193.0667,134.4,183.4667 M,0,65755,65759,134.4,183.4667 M,0,65759,65764,134.4,183.4667,136.5333,172.8 M,0,65764,65768,136.5333,172.8 M,0,65768,65772,136.5333,172.8,138.6667,163.2 M,0,65772,65777,138.6667,163.2 M,0,65777,65781,138.6667,163.2,141.8667,153.6 M,0,65781,65786,141.8667,153.6,144,145.0667 M,0,65786,65790,144,145.0667,147.2,137.6 M,0,65790,65796,147.2,137.6 M,0,65796,65800,147.2,137.6,150.4,130.1334 M,0,65800,65803,150.4,130.1334 M,0,65803,65807,150.4,130.1334,153.6,123.7334 M,0,65807,65812,153.6,123.7334 M,0,65812,65816,153.6,123.7334,157.8667,118.4 M,0,65816,65819,157.8667,118.4 M,0,65819,65824,157.8667,118.4,161.0667,114.1334 M,0,65824,65830,161.0667,114.1334,165.3333,109.8667 M,0,65830,65833,165.3333,109.8667 M,0,65833,65837,165.3333,109.8667 M,0,65837,65841,165.3333,109.8667,170.6667,106.6667 M,0,65841,65846,170.6667,106.6667,176,103.4667 M,0,65846,65850,176,103.4667 M,0,65850,65855,176,103.4667,181.3333,101.3334 M,0,65855,65859,181.3333,101.3334,186.6667,99.20003 M,0,65859,65863,186.6667,99.20003 M,0,65863,65867,186.6667,99.20003 M,0,65867,65871,186.6667,99.20003,192,98.13336 M,0,65871,65876,192,98.13336,196.2667,97.0667 M,0,65876,65879,196.2667,97.0667 M,0,65879,65883,196.2667,97.0667,200.5333,97.0667 M,0,65883,65888,200.5333,97.0667,204.8,97.0667 M,0,65888,65892,204.8,97.0667 M,0,65892,65897,204.8,97.0667,208,98.13336 M,0,65897,65901,208,98.13336 M,0,65901,65905,208,98.13336,210.1333,100.2667 M,0,65905,65910,210.1333,100.2667 M,0,65910,65915,210.1333,100.2667,212.2667,102.4 M,0,65915,65919,212.2667,102.4 M,0,65919,65924,212.2667,102.4,214.4,105.6 M,0,65924,65931,214.4,105.6,215.4667,107.7334 M,0,65931,65933,215.4667,107.7334 M,0,65933,65936,215.4667,107.7334,217.6,112 M,0,65936,65940,217.6,112,218.6667,115.2 M,0,65940,65947,218.6667,115.2 M,0,65947,65949,218.6667,115.2,219.7333,120.5334 M,0,65949,65952,219.7333,120.5334 M,0,65952,65956,219.7333,120.5334,221.8667,125.8667 M,0,65956,65962,221.8667,125.8667,224,131.2 M,0,65962,65965,224,131.2 M,0,65965,65969,224,131.2 M,0,65969,65974,224,131.2,227.2,136.5334 M,0,65974,65980,227.2,136.5334,230.4,142.9334 M,0,65980,65982,230.4,142.9334 M,0,65982,65987,230.4,142.9334 M,0,65987,65991,230.4,142.9334,235.7333,156.8 M,0,65991,65997,235.7333,156.8 M,0,65997,66000,235.7333,156.8 M,0,66000,66005,235.7333,156.8,237.8667,163.2 M,0,66005,66010,237.8667,163.2,238.9333,170.6667 M,0,66010,66013,238.9333,170.6667 M,0,66013,66018,238.9333,170.6667,240,178.1334 M,0,66018,66021,240,178.1334,240,185.6 M,0,66021,66027,240,185.6 M,0,66027,66031,240,185.6,240,193.0667 M,0,66031,66036,240,193.0667 M,0,66036,66040,240,193.0667,240,200.5334 M,0,66040,66046,240,200.5334 M,0,66046,66048,240,200.5334,237.8667,205.8667 M,0,66048,66052,237.8667,205.8667 M,0,66052,66058,237.8667,205.8667,235.7333,210.1334 M,0,66058,66063,235.7333,210.1334,233.6,213.3334 M,0,66063,66066,233.6,213.3334 M,0,66066,66070,233.6,213.3334,230.4,215.4667 M,0,66070,66075,230.4,215.4667 M,0,66075,66080,230.4,215.4667,226.1333,216.5334 M,0,66080,66082,226.1333,216.5334 M,0,66082,66087,226.1333,216.5334,220.8,217.6 M,0,66087,66092,220.8,217.6,215.4667,217.6 M,0,66092,66097,215.4667,217.6 M,0,66097,66101,215.4667,217.6,208,216.5334 M,0,66101,66106,208,216.5334 M,0,66106,66110,208,216.5334,200.5333,214.4 M,0,66110,66113,200.5333,214.4,192,211.2 M,0,66113,66118,192,211.2 M,0,66118,66122,192,211.2,182.4,208 M,0,66122,66127,182.4,208 M,0,66127,66130,182.4,208,173.8667,202.6667 M,0,66130,66135,173.8667,202.6667 M,0,66135,66139,173.8667,202.6667,163.2,196.2667 M,0,66139,66144,163.2,196.2667,153.6,189.8667 M,0,66144,66148,153.6,189.8667 M,0,66148,66152,153.6,189.8667,145.0667,181.3334 M,0,66152,66157,145.0667,181.3334 M,0,66157,66161,145.0667,181.3334,135.4667,173.8667 M,0,66161,66165,135.4667,173.8667 M,0,66165,66169,135.4667,173.8667,126.9333,166.4 M,0,66169,66173,126.9333,166.4,118.4,157.8667 M,0,66173,66178,118.4,157.8667 M,0,66178,66181,118.4,157.8667,109.8667,150.4 M,0,66181,66186,109.8667,150.4 M,0,66186,66190,109.8667,150.4,102.4,142.9334 M,0,66190,66195,102.4,142.9334 M,0,66195,66199,102.4,142.9334,96.00001,135.4667 M,0,66199,66203,96.00001,135.4667,89.60001,128 M,0,66203,66207,89.60001,128 M,0,66207,66211,89.60001,128,85.33334,121.6 M,0,66211,66216,85.33334,121.6 M,0,66216,66220,85.33334,121.6,82.13335,116.2667 M,0,66220,66225,82.13335,116.2667 M,0,66225,66228,82.13335,116.2667,78.93334,110.9334 M,0,66228,66233,78.93334,110.9334,76.80001,105.6 M,0,66233,66237,76.80001,105.6 M,0,66237,66241,76.80001,105.6,75.73335,102.4 M,0,66241,66245,75.73335,102.4 M,0,66245,66250,75.73335,102.4,75.73335,99.20003 M,0,66250,66255,75.73335,99.20003 M,0,66255,66259,75.73335,99.20003,76.80001,96.00003 M,0,66259,66263,76.80001,96.00003 M,0,66263,66267,76.80001,96.00003,78.93334,93.8667 M,0,66267,66271,78.93334,93.8667,82.13335,91.73337 M,0,66271,66276,82.13335,91.73337 M,0,66276,66280,82.13335,91.73337,85.33334,89.60003 M,0,66280,66284,85.33334,89.60003 M,0,66284,66289,85.33334,89.60003,90.66667,88.53336 M,0,66289,66293,90.66667,88.53336,96.00001,87.4667 M,0,66293,66297,96.00001,87.4667 M,0,66297,66301,96.00001,87.4667,103.4667,86.40003 M,0,66301,66306,103.4667,86.40003 M,0,66306,66309,103.4667,86.40003,110.9333,85.33337 M,0,66309,66316,110.9333,85.33337 M,0,66316,66318,110.9333,85.33337,120.5333,84.2667 M,0,66318,66323,120.5333,84.2667,130.1333,84.2667 M,0,66323,66330,130.1333,84.2667 M,0,66330,66333,130.1333,84.2667,140.8,84.2667 M,0,66333,66337,140.8,84.2667,153.6,84.2667 M,0,66337,66342,153.6,84.2667 M,0,66342,66347,153.6,84.2667,167.4667,84.2667 M,0,66347,66350,167.4667,84.2667 M,0,66350,66355,167.4667,84.2667,182.4,84.2667 M,0,66355,66359,182.4,84.2667 M,0,66359,66363,182.4,84.2667,198.4,86.40003 M,0,66363,66368,198.4,86.40003 M,0,66368,66373,198.4,86.40003,215.4667,87.4667 M,0,66373,66381,215.4667,87.4667,231.4667,90.6667 M,0,66381,66383,231.4667,90.6667,246.4,92.80003 M,0,66383,66388,246.4,92.80003 M,0,66388,66392,246.4,92.80003,260.2667,96.00003 M,0,66392,66396,260.2667,96.00003 M,0,66396,66401,260.2667,96.00003,273.0667,98.13336 M,0,66401,66406,273.0667,98.13336,284.8,100.2667 M,0,66406,66412,284.8,100.2667,293.3333,101.3334 M,0,66412,66416,293.3333,101.3334 M,0,66416,66418,293.3333,101.3334 M,0,66418,66423,293.3333,101.3334,301.8667,103.4667 M,0,66423,66430,301.8667,103.4667,308.2667,104.5334 M,0,66430,66432,308.2667,104.5334 M,0,66432,66435,308.2667,104.5334 M,0,66435,66439,308.2667,104.5334,313.6,105.6 M,0,66439,66448,313.6,105.6,317.8667,107.7334 M,0,66448,66450,317.8667,107.7334 M,0,66450,66452,317.8667,107.7334,320,108.8 M,0,66452,66456,320,108.8,321.0667,110.9334 M,0,66456,66463,321.0667,110.9334 M,0,66463,66466,321.0667,110.9334 M,0,66466,66468,321.0667,110.9334,321.0667,113.0667 M,0,66468,66474,321.0667,113.0667,320,116.2667 M,0,66474,66480,320,116.2667 M,0,66480,66482,320,116.2667,316.8,120.5334 M,0,66482,66487,316.8,120.5334 M,0,66487,66491,316.8,120.5334,313.6,124.8 M,0,66491,66497,313.6,124.8 M,0,66497,66499,313.6,124.8,309.3333,130.1334 M,0,66499,66503,309.3333,130.1334,304,136.5334 M,0,66503,66508,304,136.5334 M,0,66508,66513,304,136.5334,298.6667,144 M,0,66513,66517,298.6667,144 M,0,66517,66522,298.6667,144,293.3333,151.4667 M,0,66522,66530,293.3333,151.4667,288,158.9334 M,0,66530,66532,288,158.9334 M,0,66532,66535,288,158.9334,281.6,167.4667 M,0,66535,66539,281.6,167.4667,274.1334,177.0667 M,0,66539,66546,274.1334,177.0667 M,0,66546,66549,274.1334,177.0667 M,0,66549,66553,274.1334,177.0667,266.6667,187.7334 M,0,66553,66557,266.6667,187.7334,258.1333,199.4667 M,0,66557,66562,258.1333,199.4667 M,0,66562,66566,258.1333,199.4667,248.5333,212.2667 M,0,66566,66571,248.5333,212.2667 M,0,66571,66575,248.5333,212.2667,238.9333,225.0667 M,0,66575,66579,238.9333,225.0667,230.4,237.8667 M,0,66579,66583,230.4,237.8667 M,0,66583,66588,230.4,237.8667,221.8667,248.5334 M,0,66588,66592,221.8667,248.5334,213.3333,257.0667 M,0,66592,66597,213.3333,257.0667 M,0,66597,66601,213.3333,257.0667,205.8667,265.6 M,0,66601,66605,205.8667,265.6 M,0,66605,66613,205.8667,265.6,199.4667,270.9334 M,0,66613,66616,199.4667,270.9334 M,0,66616,66618,199.4667,270.9334,193.0667,276.2667 M,0,66618,66623,193.0667,276.2667,187.7333,279.4667 M,0,66623,66629,187.7333,279.4667 M,0,66629,66631,187.7333,279.4667,182.4,281.6 M,0,66631,66634,182.4,281.6 M,0,66634,66639,182.4,281.6,178.1333,283.7334 M,0,66639,66647,178.1333,283.7334,173.8667,283.7334 M,0,66647,66649,173.8667,283.7334 M,0,66649,66651,173.8667,283.7334 M,0,66651,66656,173.8667,283.7334,169.6,283.7334 M,0,66656,66662,169.6,283.7334,167.4667,283.7334 M,0,66662,66665,167.4667,283.7334 M,0,66665,66669,167.4667,283.7334,164.2667,283.7334 M,0,66669,66674,164.2667,283.7334 M,0,66674,66680,164.2667,283.7334,162.1333,282.6667 M,0,66680,66683,162.1333,282.6667,161.0667,280.5334 M,0,66683,66687,161.0667,280.5334 M,0,66687,66691,161.0667,280.5334,161.0667,279.4667 M,0,66691,66697,161.0667,279.4667 M,0,66697,66700,161.0667,279.4667,161.0667,278.4001 M,0,66700,66705,161.0667,278.4001 M,0,66705,66709,161.0667,278.4001,161.0667,276.2667 M,0,66709,66713,161.0667,276.2667,162.1333,274.1334 M,0,66713,66717,162.1333,274.1334 M,0,66717,66721,162.1333,274.1334,164.2667,272 M,0,66721,66726,164.2667,272 M,0,66726,66731,164.2667,272,166.4,268.8 M,0,66731,66736,166.4,268.8 M,0,66736,66739,166.4,268.8,169.6,266.6667 M,0,66739,66746,169.6,266.6667,172.8,263.4667 M,0,66746,66748,172.8,263.4667 M,0,66748,66752,172.8,263.4667,176,261.3333 M,0,66752,66758,176,261.3333,179.2,258.1334 M,0,66758,66762,179.2,258.1334 M,0,66762,66766,179.2,258.1334 M,0,66766,66770,179.2,258.1334,182.4,254.9333 M,0,66770,66775,182.4,254.9333,186.6667,252.8 M,0,66775,66780,186.6667,252.8 M,0,66780,66783,186.6667,252.8,190.9333,249.6 M,0,66783,66787,190.9333,249.6,194.1333,246.4 M,0,66787,66792,194.1333,246.4 M,0,66792,66797,194.1333,246.4,199.4667,244.2667 M,0,66797,66801,199.4667,244.2667 M,0,66801,66805,199.4667,244.2667,203.7333,241.0667 M,0,66805,66813,203.7333,241.0667,208,238.9334 M,0,66813,66816,208,238.9334 M,0,66816,66820,208,238.9334,212.2667,235.7334 M,0,66820,66825,212.2667,235.7334 M,0,66825,66830,212.2667,235.7334,216.5333,233.6 M,0,66830,66833,216.5333,233.6,220.8,230.4 M,0,66833,66837,220.8,230.4 M,0,66837,66841,220.8,230.4,225.0667,228.2667 M,0,66841,66847,225.0667,228.2667 M,0,66847,66850,225.0667,228.2667,229.3333,225.0667 M,0,66850,66855,229.3333,225.0667,233.6,222.9334 M,0,66855,66863,233.6,222.9334,238.9333,220.8 M,0,66863,66866,238.9333,220.8 M,0,66866,66870,238.9333,220.8,243.2,218.6667 M,0,66870,66875,243.2,218.6667 M,0,66875,66880,243.2,218.6667,247.4667,216.5334 M,0,66880,66885,247.4667,216.5334 M,0,66885,66889,247.4667,216.5334,252.8,215.4667 M,0,66889,66896,252.8,215.4667,258.1333,214.4 M,0,66896,66899,258.1333,214.4 M,0,66899,66901,258.1333,214.4,262.4,213.3334 M,0,66901,66905,262.4,213.3334 M,0,66905,66914,262.4,213.3334,267.7333,212.2667 M,0,66914,66917,267.7333,212.2667 M,0,66917,66921,267.7333,212.2667,276.2667,211.2 M,0,66921,66926,276.2667,211.2 M,0,66926,66930,276.2667,211.2 M,0,66930,66933,276.2667,211.2,279.4667,211.2 M,0,66933,66938,279.4667,211.2,283.7333,211.2 M,0,66938,66942,283.7333,211.2 M,0,66942,66946,283.7333,211.2 M,0,66946,66951,283.7333,211.2,286.9333,211.2 M,0,66951,66956,286.9333,211.2,291.2,212.2667 M,0,66956,66963,291.2,212.2667,295.4667,214.4 M,0,66963,66966,295.4667,214.4 M,0,66966,66970,295.4667,214.4,299.7333,217.6 M,0,66970,66976,299.7333,217.6 M,0,66976,66980,299.7333,217.6,305.0667,220.8 M,0,66980,66983,305.0667,220.8,309.3333,224 M,0,66983,66988,309.3333,224,314.6667,227.2 M,0,66988,66995,314.6667,227.2 M,0,66995,66998,314.6667,227.2 M,0,66998,67000,314.6667,227.2,320,230.4 M,0,67000,67005,320,230.4,325.3333,233.6 M,0,67005,67013,325.3333,233.6,330.6667,236.8 M,0,67013,67016,330.6667,236.8 M,0,67016,67018,330.6667,236.8 M,0,67018,67023,330.6667,236.8,336,238.9334 M,0,67023,67030,336,238.9334,340.2667,241.0667 M,0,67030,67032,340.2667,241.0667 M,0,67032,67035,340.2667,241.0667 M,0,67035,67040,340.2667,241.0667,343.4667,243.2 M,0,67040,67046,343.4667,243.2,345.6,244.2667 M,0,67046,67050,345.6,244.2667 M,0,67050,67053,345.6,244.2667,346.6667,245.3334 M,0,67053,67057,346.6667,245.3334,347.7333,246.4 M,0,67057,67062,347.7333,246.4 M,0,67062,67066,347.7333,246.4 M,0,67066,67069,347.7333,246.4 M,0,67069,67075,347.7333,246.4 M,0,67075,67080,347.7333,246.4 M,0,67080,67083,347.7333,246.4,345.6,246.4 M,0,67083,67087,345.6,246.4,342.4,246.4 M,0,67087,67092,342.4,246.4 M,0,67092,67096,342.4,246.4 M,0,67096,67101,342.4,246.4,337.0667,245.3334 M,0,67101,67106,337.0667,245.3334,329.6,244.2667 M,0,67106,67113,329.6,244.2667,320,242.1334 M,0,67113,67116,320,242.1334 M,0,67116,67119,320,242.1334,309.3333,240 M,0,67119,67123,309.3333,240 M,0,67123,67130,309.3333,240,295.4667,236.8 M,0,67130,67133,295.4667,236.8,280.5333,233.6 M,0,67133,67136,280.5333,233.6 M,0,67136,67139,280.5333,233.6,263.4667,229.3334 M,0,67139,67146,263.4667,229.3334 M,0,67146,67149,263.4667,229.3334,245.3333,225.0667 M,0,67149,67151,245.3333,225.0667 M,0,67151,67157,245.3333,225.0667,227.2,220.8 M,0,67157,67163,227.2,220.8,208,216.5334 M,0,67163,67166,208,216.5334 M,0,67166,67169,208,216.5334 M,0,67169,67173,208,216.5334,189.8667,211.2 M,0,67173,67180,189.8667,211.2,171.7333,206.9334 M,0,67180,67183,171.7333,206.9334 M,0,67183,67185,171.7333,206.9334 M,0,67185,67191,171.7333,206.9334,155.7333,201.6 M,0,67191,67196,155.7333,201.6,139.7334,197.3334 M,0,67196,67200,139.7334,197.3334 M,0,67200,67203,139.7334,197.3334,126.9333,192 M,0,67203,67208,126.9333,192,115.2,187.7334 M,0,67208,67213,115.2,187.7334 M,0,67213,67216,115.2,187.7334 M,0,67216,67221,115.2,187.7334,98.13335,180.2667 M,0,67221,67225,98.13335,180.2667 M,0,67225,67229,98.13335,180.2667 M,0,67229,67235,98.13335,180.2667,92.80001,177.0667 M,0,67235,67239,92.80001,177.0667,89.60001,174.9334 M,0,67239,67243,89.60001,174.9334 M,0,67243,67248,89.60001,174.9334,88.53335,172.8 M,0,67248,67252,88.53335,172.8 M,0,67252,67256,88.53335,172.8,88.53335,170.6667 M,0,67256,67262,88.53335,170.6667,89.60001,168.5334 M,0,67262,67263,89.60001,168.5334 M,0,67263,67268,89.60001,168.5334,92.80001,167.4667 M,0,67268,67273,92.80001,167.4667 M,0,67273,67279,92.80001,167.4667,97.06667,165.3334 M,0,67279,67281,97.06667,165.3334 M,0,67281,67286,97.06667,165.3334,102.4,163.2 M,0,67286,67291,102.4,163.2,109.8667,162.1334 M,0,67291,67296,109.8667,162.1334 M,0,67296,67300,109.8667,162.1334,117.3333,160 M,0,67300,67305,117.3333,160 M,0,67305,67309,117.3333,160,124.8,157.8667 M,0,67309,67313,124.8,157.8667,133.3333,155.7334 M,0,67313,67318,133.3333,155.7334 M,0,67318,67322,133.3333,155.7334,141.8667,152.5334 M,0,67322,67329,141.8667,152.5334,152.5334,150.4 M,0,67329,67331,152.5334,150.4 M,0,67331,67335,152.5334,150.4 M,0,67335,67338,152.5334,150.4,164.2667,147.2 M,0,67338,67346,164.2667,147.2,177.0667,144 M,0,67346,67349,177.0667,144 M,0,67349,67352,177.0667,144,189.8667,140.8 M,0,67352,67357,189.8667,140.8,203.7333,138.6667 M,0,67357,67362,203.7333,138.6667 M,0,67362,67366,203.7333,138.6667,216.5333,135.4667 M,0,67366,67370,216.5333,135.4667,229.3333,133.3334 M,0,67370,67375,229.3333,133.3334 M,0,67375,67380,229.3333,133.3334 M,0,67380,67385,229.3333,133.3334,241.0667,132.2667 M,0,67385,67389,241.0667,132.2667,252.8,130.1334 M,0,67389,67393,252.8,130.1334 M,0,67393,67398,252.8,130.1334,263.4667,129.0667 M,0,67398,67401,263.4667,129.0667 M,0,67401,67405,263.4667,129.0667,273.0667,126.9334 M,0,67405,67412,273.0667,126.9334,280.5333,125.8667 M,0,67412,67415,280.5333,125.8667 M,0,67415,67418,280.5333,125.8667 M,0,67418,67423,280.5333,125.8667,286.9333,123.7334 M,0,67423,67429,286.9333,123.7334,292.2667,122.6667 M,0,67429,67431,292.2667,122.6667 M,0,67431,67436,292.2667,122.6667,296.5334,121.6 M,0,67436,67440,296.5334,121.6,298.6667,121.6 M,0,67440,67446,298.6667,121.6 M,0,67446,67448,298.6667,121.6 M,0,67448,67453,298.6667,121.6,300.8,121.6 M,0,67453,67457,300.8,121.6 M,0,67457,67462,300.8,121.6 M,0,67462,67466,300.8,121.6 M,0,67466,67470,300.8,121.6,298.6667,123.7334 M,0,67470,67475,298.6667,123.7334 M,0,67475,67479,298.6667,123.7334,294.4,126.9334 M,0,67479,67483,294.4,126.9334 M,0,67483,67488,294.4,126.9334,289.0667,131.2 M,0,67488,67491,289.0667,131.2 M,0,67491,67496,289.0667,131.2,282.6667,135.4667 M,0,67496,67499,282.6667,135.4667 M,0,67499,67504,282.6667,135.4667,275.2,140.8 M,0,67504,67509,275.2,140.8,266.6667,147.2 M,0,67509,67513,266.6667,147.2 M,0,67513,67518,266.6667,147.2,256,153.6 M,0,67518,67523,256,153.6,244.2667,161.0667 M,0,67523,67530,244.2667,161.0667 M,0,67530,67532,244.2667,161.0667,232.5333,168.5334 M,0,67532,67535,232.5333,168.5334 M,0,67535,67540,232.5333,168.5334,219.7333,178.1334 M,0,67540,67546,219.7333,178.1334 M,0,67546,67549,219.7333,178.1334,204.8,187.7334 M,0,67549,67552,204.8,187.7334,189.8667,199.4667 M,0,67552,67558,189.8667,199.4667 M,0,67558,67562,189.8667,199.4667,174.9333,212.2667 M,0,67562,67567,174.9333,212.2667 M,0,67567,67571,174.9333,212.2667,158.9333,222.9334 M,0,67571,67576,158.9333,222.9334 M,0,67576,67580,158.9333,222.9334,145.0667,233.6 M,0,67580,67583,145.0667,233.6,132.2667,242.1334 M,0,67583,67587,132.2667,242.1334 M,0,67587,67592,132.2667,242.1334,121.6,249.6 M,0,67592,67595,121.6,249.6 M,0,67595,67600,121.6,249.6,113.0667,254.9333 M,0,67600,67605,113.0667,254.9333,105.6,259.2 M,0,67605,67612,105.6,259.2,101.3333,261.3333 M,0,67612,67615,101.3333,261.3333 M,0,67615,67619,101.3333,261.3333 M,0,67619,67624,101.3333,261.3333,100.2667,262.4 M,0,67624,67630,100.2667,262.4,100.2667,263.4667 M,0,67630,67632,100.2667,263.4667 M,0,67632,67637,100.2667,263.4667,101.3333,263.4667 M,0,67637,67641,101.3333,263.4667,105.6,263.4667 M,0,67641,67647,105.6,263.4667 M,0,67647,67651,105.6,263.4667,110.9333,263.4667 M,0,67651,67655,110.9333,263.4667 M,0,67655,67663,110.9333,263.4667,118.4,262.4 M,0,67663,67666,118.4,262.4 M,0,67666,67668,118.4,262.4,126.9333,260.2667 M,0,67668,67673,126.9333,260.2667,137.6,258.1334 M,0,67673,67680,137.6,258.1334 M,0,67680,67683,137.6,258.1334,149.3333,254.9333 M,0,67683,67686,149.3333,254.9333 M,0,67686,67690,149.3333,254.9333,162.1333,252.8 M,0,67690,67696,162.1333,252.8 M,0,67696,67700,162.1333,252.8,177.0667,250.6667 M,0,67700,67702,177.0667,250.6667,192,249.6 M,0,67702,67707,192,249.6 M,0,67707,67712,192,249.6,206.9333,247.4667 M,0,67712,67715,206.9333,247.4667 M,0,67715,67719,206.9333,247.4667,221.8667,246.4 M,0,67719,67724,221.8667,246.4 M,0,67724,67730,221.8667,246.4,236.8,246.4 M,0,67730,67733,236.8,246.4,250.6667,245.3334 M,0,67733,67736,250.6667,245.3334 M,0,67736,67741,250.6667,245.3334,263.4667,244.2667 M,0,67741,67746,263.4667,244.2667 M,0,67746,67749,263.4667,244.2667,275.2,244.2667 M,0,67749,67754,275.2,244.2667 M,0,67754,67759,275.2,244.2667,284.8,243.2 M,0,67759,67762,284.8,243.2,292.2667,241.0667 M,0,67762,67767,292.2667,241.0667 M,0,67767,67771,292.2667,241.0667,298.6667,240 M,0,67771,67778,298.6667,240 M,0,67778,67781,298.6667,240,304,238.9334 M,0,67781,67785,304,238.9334 M,0,67785,67789,304,238.9334,307.2,236.8 M,0,67789,67795,307.2,236.8,309.3333,235.7334 M,0,67795,67798,309.3333,235.7334 M,0,67798,67803,309.3333,235.7334,310.4,233.6 M,0,67803,67807,310.4,233.6,310.4,231.4667 M,0,67807,67812,310.4,231.4667 M,0,67812,67816,310.4,231.4667 M,0,67816,67820,310.4,231.4667,309.3333,228.2667 M,0,67820,67825,309.3333,228.2667,307.2,224 M,0,67825,67829,307.2,224 M,0,67829,67833,307.2,224,301.8667,219.7334 M,0,67833,67837,301.8667,219.7334,295.4667,214.4 M,0,67837,67841,295.4667,214.4 M,0,67841,67846,295.4667,214.4,288,209.0667 M,0,67846,67850,288,209.0667 M,0,67850,67855,288,209.0667,278.4,202.6667 M,0,67855,67859,278.4,202.6667 M,0,67859,67862,278.4,202.6667,266.6667,195.2 M,0,67862,67867,266.6667,195.2 M,0,67867,67871,266.6667,195.2,253.8667,187.7334 M,0,67871,67876,253.8667,187.7334 M,0,67876,67880,253.8667,187.7334,240,178.1334 M,0,67880,67885,240,178.1334,225.0667,168.5334 M,0,67885,67889,225.0667,168.5334,211.2,158.9334 M,0,67889,67893,211.2,158.9334 M,0,67893,67898,211.2,158.9334 M,0,67898,67902,211.2,158.9334,195.2,150.4 M,0,67902,67906,195.2,150.4,180.2667,140.8 M,0,67906,67911,180.2667,140.8 M,0,67911,67915,180.2667,140.8,166.4,132.2667 M,0,67915,67918,166.4,132.2667 M,0,67918,67924,166.4,132.2667,152.5334,123.7334 M,0,67924,67929,152.5334,123.7334,140.8,117.3334 M,0,67929,67932,140.8,117.3334 M,0,67932,67936,140.8,117.3334 M,0,67936,67940,140.8,117.3334,131.2,112 M,0,67940,67946,131.2,112,122.6667,106.6667 M,0,67946,67950,122.6667,106.6667 M,0,67950,67952,122.6667,106.6667,116.2667,103.4667 M,0,67952,67957,116.2667,103.4667 M,0,67957,67963,116.2667,103.4667,110.9333,102.4 M,0,67963,67966,110.9333,102.4 M,0,67966,67969,110.9333,102.4,107.7333,101.3334 M,0,67969,67975,107.7333,101.3334,106.6667,100.2667 M,0,67975,67980,106.6667,100.2667 M,0,67980,67983,106.6667,100.2667,106.6667,99.20003 M,0,67983,67987,106.6667,99.20003,108.8,99.20003 M,0,67987,67992,108.8,99.20003 M,0,67992,67997,108.8,99.20003,112,99.20003 M,0,67997,68000,112,99.20003 M,0,68000,68005,112,99.20003,118.4,99.20003 M,0,68005,68009,118.4,99.20003 M,0,68009,68013,118.4,99.20003,126.9333,99.20003 M,0,68013,68018,126.9333,99.20003 M,0,68018,68023,126.9333,99.20003,136.5333,99.20003 M,0,68023,68030,136.5333,99.20003,149.3333,99.20003 M,0,68030,68032,149.3333,99.20003 M,0,68032,68035,149.3333,99.20003,163.2,101.3334 M,0,68035,68039,163.2,101.3334,179.2,102.4 M,0,68039,68046,179.2,102.4 M,0,68046,68049,179.2,102.4 M,0,68049,68052,179.2,102.4,197.3333,104.5334 M,0,68052,68057,197.3333,104.5334,215.4667,107.7334 M,0,68057,68062,215.4667,107.7334 M,0,68062,68066,215.4667,107.7334,233.6,110.9334 M,0,68066,68070,233.6,110.9334 M,0,68070,68074,233.6,110.9334,252.8,114.1334 M,0,68074,68080,252.8,114.1334,270.9333,117.3334 M,0,68080,68083,270.9333,117.3334 M,0,68083,68087,270.9333,117.3334,288,120.5334 M,0,68087,68091,288,120.5334 M,0,68091,68095,288,120.5334,304,123.7334 M,0,68095,68100,304,123.7334 M,0,68100,68105,304,123.7334,318.9333,125.8667 M,0,68105,68109,318.9333,125.8667,332.8,129.0667 M,0,68109,68113,332.8,129.0667 M,0,68113,68118,332.8,129.0667,345.6,132.2667 M,0,68118,68122,345.6,132.2667,357.3333,136.5334 M,0,68122,68130,357.3333,136.5334 M,0,68130,68132,357.3333,136.5334,366.9333,139.7334 M,0,68132,68135,366.9333,139.7334 M,0,68135,68139,366.9333,139.7334,375.4667,142.9334 M,0,68139,68145,375.4667,142.9334 M,0,68145,68148,375.4667,142.9334,382.9333,146.1334 M,0,68148,68153,382.9333,146.1334,388.2667,150.4 M,0,68153,68157,388.2667,150.4 M,0,68157,68162,388.2667,150.4,392.5334,152.5334 M,0,68162,68166,392.5334,152.5334 M,0,68166,68170,392.5334,152.5334,394.6667,155.7334 M,0,68170,68175,394.6667,155.7334 M,0,68175,68179,394.6667,155.7334,394.6667,158.9334 M,0,68179,68183,394.6667,158.9334,393.6,162.1334 M,0,68183,68188,393.6,162.1334 M,0,68188,68192,393.6,162.1334,390.4,165.3334 M,0,68192,68196,390.4,165.3334 M,0,68196,68200,390.4,165.3334,385.0667,168.5334 M,0,68200,68205,385.0667,168.5334,378.6667,171.7334 M,0,68205,68212,378.6667,171.7334,370.1333,176 M,0,68212,68215,370.1333,176 M,0,68215,68218,370.1333,176 M,0,68218,68223,370.1333,176,360.5334,181.3334 M,0,68223,68229,360.5334,181.3334,349.8667,186.6667 M,0,68229,68232,349.8667,186.6667 M,0,68232,68235,349.8667,186.6667 M,0,68235,68240,349.8667,186.6667,337.0667,194.1334 M,0,68240,68246,337.0667,194.1334,324.2667,202.6667 M,0,68246,68250,324.2667,202.6667 M,0,68250,68252,324.2667,202.6667,310.4,212.2667 M,0,68252,68257,310.4,212.2667 M,0,68257,68262,310.4,212.2667,295.4667,224 M,0,68262,68264,295.4667,224 M,0,68264,68269,295.4667,224,280.5333,236.8 M,0,68269,68274,280.5333,236.8,265.6,248.5334 M,0,68274,68279,265.6,248.5334 M,0,68279,68282,265.6,248.5334,250.6667,261.3333 M,0,68282,68287,250.6667,261.3333,235.7333,274.1334 M,0,68287,68291,235.7333,274.1334 M,0,68291,68295,235.7333,274.1334 M,0,68295,68300,235.7333,274.1334,222.9333,284.8 M,0,68300,68305,222.9333,284.8,210.1333,294.4 M,0,68305,68309,210.1333,294.4 M,0,68309,68312,210.1333,294.4,199.4667,302.9334 M,0,68312,68317,199.4667,302.9334 M,0,68317,68321,199.4667,302.9334,190.9333,308.2667 M,0,68321,68326,190.9333,308.2667 M,0,68326,68330,190.9333,308.2667,183.4667,312.5334 M,0,68330,68333,183.4667,312.5334,178.1333,315.7334 M,0,68333,68337,178.1333,315.7334 M,0,68337,68342,178.1333,315.7334,174.9333,317.8667 M,0,68342,68346,174.9333,317.8667 M,0,68346,68350,174.9333,317.8667,173.8667,318.9333 M,0,68350,68355,173.8667,318.9333,173.8667,320 M,0,68355,68362,173.8667,320,173.8667,321.0667 M,0,68362,68366,173.8667,321.0667 M,0,68366,68370,173.8667,321.0667,176,321.0667 M,0,68370,68375,176,321.0667 M,0,68375,68380,176,321.0667,179.2,322.1334 M,0,68380,68385,179.2,322.1334 M,0,68385,68389,179.2,322.1334,183.4667,322.1334 M,0,68389,68397,183.4667,322.1334,188.8,322.1334 M,0,68397,68400,188.8,322.1334 M,0,68400,68405,188.8,322.1334,195.2,322.1334 M,0,68405,68410,195.2,322.1334,202.6667,321.0667 M,0,68410,68413,202.6667,321.0667 M,0,68413,68418,202.6667,321.0667,212.2667,318.9333 M,0,68418,68422,212.2667,318.9333 M,0,68422,68427,212.2667,318.9333,222.9333,316.8 M,0,68427,68431,222.9333,316.8,234.6667,315.7334 M,0,68431,68435,234.6667,315.7334 M,0,68435,68439,234.6667,315.7334,248.5333,313.6 M,0,68439,68442,248.5333,313.6 M,0,68442,68448,248.5333,313.6,263.4667,313.6 M,0,68448,68451,263.4667,313.6 M,0,68451,68456,263.4667,313.6,278.4,312.5334 M,0,68456,68460,278.4,312.5334,293.3333,312.5334 M,0,68460,68465,293.3333,312.5334 M,0,68465,68469,293.3333,312.5334,309.3333,311.4667 M,0,68469,68473,309.3333,311.4667 M,0,68473,68477,309.3333,311.4667,326.4,311.4667 M,0,68477,68481,326.4,311.4667 M,0,68481,68485,326.4,311.4667,342.4,310.4001 M,0,68485,68490,342.4,310.4001 M,0,68490,68493,342.4,310.4001,358.4,310.4001 M,0,68493,68498,358.4,310.4001,373.3333,309.3334 M,0,68498,68502,373.3333,309.3334 M,0,68502,68506,373.3333,309.3334,388.2667,307.2 M,0,68506,68510,388.2667,307.2 M,0,68510,68514,388.2667,307.2,401.0667,306.1334 M,0,68514,68519,401.0667,306.1334 M,0,68519,68522,401.0667,306.1334,413.8667,305.0667 M,0,68522,68527,413.8667,305.0667 M,0,68527,68531,413.8667,305.0667,424.5334,305.0667 M,0,68531,68535,424.5334,305.0667 M,0,68535,68539,424.5334,305.0667,433.0667,304 M,0,68539,68543,433.0667,304,439.4667,304 M,0,68543,68547,439.4667,304 M,0,68547,68552,439.4667,304,444.8,304 M,0,68552,68556,444.8,304 M,0,68556,68560,444.8,304,446.9333,304 M,0,68560,68565,446.9333,304 M,0,68565,68569,446.9333,304,448,304 M,0,68569,68573,448,304 M,0,68573,68577,448,304 M,0,68577,68581,448,304,448,302.9334 M,0,68581,68585,448,302.9334 M,0,68585,68589,448,302.9334,444.8,300.8 M,0,68589,68593,444.8,300.8 M,0,68593,68598,444.8,300.8,440.5333,297.6 M,0,68598,68601,440.5333,297.6 M,0,68601,68605,440.5333,297.6,434.1333,294.4 M,0,68605,68611,434.1333,294.4,425.6,291.2 M,0,68611,68614,425.6,291.2 M,0,68614,68619,425.6,291.2,414.9333,286.9333 M,0,68619,68623,414.9333,286.9333 M,0,68623,68628,414.9333,286.9333,403.2,283.7334 M,0,68628,68631,403.2,283.7334,390.4,278.4001 M,0,68631,68636,390.4,278.4001 M,0,68636,68641,390.4,278.4001,376.5333,274.1334 M,0,68641,68645,376.5333,274.1334 M,0,68645,68650,376.5333,274.1334,361.6,267.7334 M,0,68650,68654,361.6,267.7334,347.7333,262.4 M,0,68654,68659,347.7333,262.4 M,0,68659,68663,347.7333,262.4,332.8,256 M,0,68663,68667,332.8,256 M,0,68667,68671,332.8,256,316.8,249.6 M,0,68671,68678,316.8,249.6,301.8667,243.2 M,0,68678,68680,301.8667,243.2 M,0,68680,68685,301.8667,243.2 M,0,68685,68689,301.8667,243.2,288,236.8 M,0,68689,68695,288,236.8,273.0667,230.4 M,0,68695,68699,273.0667,230.4 M,0,68699,68702,273.0667,230.4,259.2,225.0667 M,0,68702,68707,259.2,225.0667,246.4,219.7334 M,0,68707,68712,246.4,219.7334 M,0,68712,68716,246.4,219.7334 M,0,68716,68720,246.4,219.7334,224,210.1334 M,0,68720,68725,224,210.1334 M,0,68725,68730,224,210.1334 M,0,68730,68733,224,210.1334,215.4667,204.8 M,0,68733,68737,215.4667,204.8,208,201.6 M,0,68737,68741,208,201.6 M,0,68741,68746,208,201.6,201.6,197.3334 M,0,68746,68750,201.6,197.3334 M,0,68750,68755,201.6,197.3334,197.3333,193.0667 M,0,68755,68759,197.3333,193.0667 M,0,68759,68763,197.3333,193.0667,195.2,188.8 M,0,68763,68767,195.2,188.8 M,0,68767,68772,195.2,188.8,194.1333,184.5334 M,0,68772,68780,194.1333,184.5334,194.1333,181.3334 M,0,68780,68782,194.1333,181.3334,196.2667,177.0667 M,0,68782,68785,196.2667,177.0667 M,0,68785,68789,196.2667,177.0667,200.5333,172.8 M,0,68789,68796,200.5333,172.8 M,0,68796,68799,200.5333,172.8,205.8667,168.5334 M,0,68799,68801,205.8667,168.5334 M,0,68801,68806,205.8667,168.5334,212.2667,164.2667 M,0,68806,68812,212.2667,164.2667 M,0,68812,68815,212.2667,164.2667,219.7333,158.9334 M,0,68815,68819,219.7333,158.9334 M,0,68819,68824,219.7333,158.9334,228.2667,154.6667 M,0,68824,68830,228.2667,154.6667,238.9333,149.3334 M,0,68830,68833,238.9333,149.3334 M,0,68833,68836,238.9333,149.3334 M,0,68836,68840,238.9333,149.3334,249.6,144 M,0,68840,68846,249.6,144,261.3333,139.7334 M,0,68846,68849,261.3333,139.7334 M,0,68849,68854,261.3333,139.7334,273.0667,134.4 M,0,68854,68858,273.0667,134.4,284.8,130.1334 M,0,68858,68863,284.8,130.1334 M,0,68863,68866,284.8,130.1334,297.6,126.9334 M,0,68866,68871,297.6,126.9334,309.3333,122.6667 M,0,68871,68876,309.3333,122.6667 M,0,68876,68880,309.3333,122.6667 M,0,68880,68885,309.3333,122.6667,322.1333,119.4667 M,0,68885,68890,322.1333,119.4667,334.9333,116.2667 M,0,68890,68896,334.9333,116.2667 M,0,68896,68899,334.9333,116.2667,346.6667,115.2 M,0,68899,68903,346.6667,115.2,358.4,113.0667 M,0,68903,68907,358.4,113.0667 M,0,68907,68912,358.4,113.0667,368,113.0667 M,0,68912,68917,368,113.0667 M,0,68917,68921,368,113.0667,377.6,113.0667 M,0,68921,68926,377.6,113.0667 M,0,68926,68930,377.6,113.0667,386.1334,113.0667 M,0,68930,68935,386.1334,113.0667,394.6667,113.0667 M,0,68935,68939,394.6667,113.0667,403.2,115.2 M,0,68939,68947,403.2,115.2 M,0,68947,68950,403.2,115.2,410.6667,117.3334 M,0,68950,68954,410.6667,117.3334 M,0,68954,68959,410.6667,117.3334,417.0667,119.4667 M,0,68959,68963,417.0667,119.4667,423.4667,121.6 M,0,68963,68967,423.4667,121.6 M,0,68967,68971,423.4667,121.6,428.8,123.7334 M,0,68971,68976,428.8,123.7334 M,0,68976,68980,428.8,123.7334,433.0667,125.8667 M,0,68980,68983,433.0667,125.8667 M,0,68983,68988,433.0667,125.8667,436.2667,128 M,0,68988,68992,436.2667,128,440.5333,130.1334 M,0,68992,68997,440.5333,130.1334 M,0,68997,69001,440.5333,130.1334,442.6667,133.3334 M,0,69001,69005,442.6667,133.3334 M,0,69005,69011,442.6667,133.3334,445.8667,136.5334 M,0,69011,69015,445.8667,136.5334 M,0,69015,69019,445.8667,136.5334,448,139.7334 M,0,69019,69024,448,139.7334,450.1334,145.0667 M,0,69024,69030,450.1334,145.0667 M,0,69030,69033,450.1334,145.0667,451.2,149.3334 M,0,69033,69037,451.2,149.3334,453.3333,153.6 M,0,69037,69042,453.3333,153.6 M,0,69042,69046,453.3333,153.6 M,0,69046,69049,453.3333,153.6,453.3333,157.8667 M,0,69049,69055,453.3333,157.8667,454.4,162.1334 M,0,69055,69060,454.4,162.1334,454.4,166.4 M,0,69060,69066,454.4,166.4 M,0,69066,69069,454.4,166.4,454.4,169.6 M,0,69069,69074,454.4,169.6 M,0,69074,69080,454.4,169.6,454.4,173.8667 M,0,69080,69082,454.4,173.8667 M,0,69082,69087,454.4,173.8667,454.4,177.0667 M,0,69087,69091,454.4,177.0667,453.3333,181.3334 M,0,69091,69097,453.3333,181.3334 M,0,69097,69099,453.3333,181.3334,452.2667,185.6 M,0,69099,69104,452.2667,185.6 M,0,69104,69108,452.2667,185.6,451.2,190.9334 M,0,69108,69113,451.2,190.9334,450.1334,198.4 M,0,69113,69116,450.1334,198.4 M,0,69116,69120,450.1334,198.4,450.1334,204.8 M,0,69120,69126,450.1334,204.8 M,0,69126,69130,450.1334,204.8,449.0667,213.3334 M,0,69130,69135,449.0667,213.3334 M,0,69135,69140,449.0667,213.3334,446.9333,220.8 M,0,69140,69146,446.9333,220.8,445.8667,228.2667 M,0,69146,69149,445.8667,228.2667 M,0,69149,69153,445.8667,228.2667,443.7333,233.6 M,0,69153,69157,443.7333,233.6,441.6,240 M,0,69157,69162,441.6,240 M,0,69162,69167,441.6,240,439.4667,244.2667 M,0,69167,69171,439.4667,244.2667,436.2667,247.4667 M,0,69171,69176,436.2667,247.4667 M,0,69176,69181,436.2667,247.4667,433.0667,250.6667 M,0,69181,69185,433.0667,250.6667 M,0,69185,69190,433.0667,250.6667,428.8,253.8667 M,0,69190,69193,428.8,253.8667 M,0,69193,69197,428.8,253.8667,422.4,257.0667 M,0,69197,69202,422.4,257.0667,416,260.2667 M,0,69202,69207,416,260.2667 M,0,69207,69210,416,260.2667,407.4667,263.4667 M,0,69210,69216,407.4667,263.4667 M,0,69216,69220,407.4667,263.4667,397.8667,267.7334 M,0,69220,69225,397.8667,267.7334 M,0,69225,69230,397.8667,267.7334,387.2,273.0667 M,0,69230,69233,387.2,273.0667,376.5333,279.4667 M,0,69233,69238,376.5333,279.4667 M,0,69238,69242,376.5333,279.4667,364.8,286.9333 M,0,69242,69246,364.8,286.9333 M,0,69246,69250,364.8,286.9333,354.1333,295.4667 M,0,69250,69255,354.1333,295.4667 M,0,69255,69259,354.1333,295.4667,343.4667,302.9334 M,0,69259,69263,343.4667,302.9334,332.8,310.4001 M,0,69263,69267,332.8,310.4001 M,0,69267,69271,332.8,310.4001,324.2667,316.8 M,0,69271,69276,324.2667,316.8 M,0,69276,69280,324.2667,316.8,315.7333,323.2 M,0,69280,69284,315.7333,323.2 M,0,69284,69289,315.7333,323.2,308.2667,328.5334 M,0,69289,69293,308.2667,328.5334,301.8667,334.9334 M,0,69293,69297,301.8667,334.9334 M,0,69297,69301,301.8667,334.9334,294.4,340.2667 M,0,69301,69306,294.4,340.2667 M,0,69306,69310,294.4,340.2667,288,345.6 M,0,69310,69315,288,345.6 M,0,69315,69319,288,345.6,281.6,350.9333 M,0,69319,69325,281.6,350.9333,275.2,355.2 M,0,69325,69329,275.2,355.2 M,0,69329,69332,275.2,355.2,269.8667,359.4667 M,0,69332,69338,269.8667,359.4667 M,0,69338,69341,269.8667,359.4667,264.5334,361.6 M,0,69341,69346,264.5334,361.6 M,0,69346,69349,264.5334,361.6,261.3333,363.7334 M,0,69349,69355,261.3333,363.7334,259.2,363.7334 M,0,69355,69359,259.2,363.7334 M,0,69359,69363,259.2,363.7334,258.1333,364.8 M,0,69363,69368,258.1333,364.8 M,0,69368,69372,258.1333,364.8,257.0667,364.8 M,0,69372,69376,257.0667,364.8,256,364.8 M,0,69376,69380,256,364.8 M,0,69380,69385,256,364.8,254.9333,363.7334 M,0,69385,69389,254.9333,363.7334 M,0,69389,69393,254.9333,363.7334,253.8667,361.6 M,0,69393,69397,253.8667,361.6 M,0,69397,69402,253.8667,361.6,252.8,359.4667 M,0,69402,69406,252.8,359.4667,252.8,356.2667 M,0,69406,69412,252.8,356.2667,252.8,353.0667 M,0,69412,69416,252.8,353.0667 M,0,69416,69420,252.8,353.0667,252.8,349.8667 M,0,69420,69425,252.8,349.8667 M,0,69425,69430,252.8,349.8667,252.8,345.6 M,0,69430,69433,252.8,345.6 M,0,69433,69438,252.8,345.6,252.8,340.2667 M,0,69438,69442,252.8,340.2667,253.8667,334.9334 M,0,69442,69447,253.8667,334.9334 M,0,69447,69451,253.8667,334.9334,256,329.6 M,0,69451,69455,256,329.6 M,0,69455,69461,256,329.6,257.0667,324.2667 M,0,69461,69463,257.0667,324.2667 M,0,69463,69467,257.0667,324.2667,259.2,317.8667 M,0,69467,69473,259.2,317.8667,260.2667,312.5334 M,0,69473,69479,260.2667,312.5334 M,0,69479,69482,260.2667,312.5334,262.4,308.2667 M,0,69482,69486,262.4,308.2667 M,0,69486,69490,262.4,308.2667,263.4667,302.9334 M,0,69490,69496,263.4667,302.9334 M,0,69496,69500,263.4667,302.9334,264.5334,298.6667 M,0,69500,69505,264.5334,298.6667,265.6,293.3333 M,0,69505,69509,265.6,293.3333 M,0,69509,69513,265.6,293.3333,265.6,289.0667 M,0,69513,69517,265.6,289.0667 M,0,69517,69521,265.6,289.0667,265.6,284.8 M,0,69521,69527,265.6,284.8,265.6,279.4667 M,0,69527,69530,265.6,279.4667 M,0,69530,69535,265.6,279.4667,265.6,274.1334 M,0,69535,69539,265.6,274.1334,265.6,268.8 M,0,69539,69545,265.6,268.8 M,0,69545,69549,265.6,268.8,264.5334,263.4667 M,0,69549,69553,264.5334,263.4667 M,0,69553,69557,264.5334,263.4667,264.5334,258.1334 M,0,69557,69562,264.5334,258.1334,264.5334,252.8 M,0,69562,69566,264.5334,252.8 M,0,69566,69570,264.5334,252.8,263.4667,247.4667 M,0,69570,69576,263.4667,247.4667 M,0,69576,69580,263.4667,247.4667,263.4667,242.1334 M,0,69580,69585,263.4667,242.1334 M,0,69585,69589,263.4667,242.1334,262.4,237.8667 M,0,69589,69593,262.4,237.8667,262.4,233.6 M,0,69593,69597,262.4,233.6 M,0,69597,69601,262.4,233.6,261.3333,230.4 M,0,69601,69607,261.3333,230.4 M,0,69607,69609,261.3333,230.4,260.2667,226.1334 M,0,69609,69613,260.2667,226.1334 M,0,69613,69617,260.2667,226.1334,259.2,222.9334 M,0,69617,69621,259.2,222.9334 M,0,69621,69625,259.2,222.9334,257.0667,219.7334 M,0,69625,69630,257.0667,219.7334 M,0,69630,69633,257.0667,219.7334,256,215.4667 M,0,69633,69637,256,215.4667 M,0,69637,69642,256,215.4667,254.9333,212.2667 M,0,69642,69646,254.9333,212.2667,252.8,209.0667 M,0,69646,69650,252.8,209.0667 M,0,69650,69655,252.8,209.0667,251.7333,205.8667 M,0,69655,69660,251.7333,205.8667,249.6,202.6667 M,0,69660,69664,249.6,202.6667 M,0,69664,69668,249.6,202.6667,247.4667,199.4667 M,0,69668,69673,247.4667,199.4667 M,0,69673,69677,247.4667,199.4667,245.3333,197.3334 M,0,69677,69680,245.3333,197.3334 M,0,69680,69685,245.3333,197.3334,244.2667,195.2 M,0,69685,69690,244.2667,195.2,241.0667,193.0667 M,0,69690,69696,241.0667,193.0667 M,0,69696,69699,241.0667,193.0667,238.9333,192 M,0,69699,69703,238.9333,192 M,0,69703,69707,238.9333,192,236.8,190.9334 M,0,69707,69712,236.8,190.9334,233.6,189.8667 M,0,69712,69715,233.6,189.8667 M,0,69715,69720,233.6,189.8667,230.4,188.8 M,0,69720,69725,230.4,188.8 M,0,69725,69730,230.4,188.8,227.2,187.7334 M,0,69730,69732,227.2,187.7334 M,0,69732,69737,227.2,187.7334,224,187.7334 M,0,69737,69742,224,187.7334,220.8,186.6667 M,0,69742,69745,220.8,186.6667 M,0,69745,69750,220.8,186.6667,217.6,185.6 M,0,69750,69755,217.6,185.6 M,0,69755,69759,217.6,185.6,214.4,184.5334 M,0,69759,69764,214.4,184.5334 M,0,69764,69768,214.4,184.5334,211.2,184.5334 M,0,69768,69772,211.2,184.5334,209.0667,183.4667 M,0,69772,69778,209.0667,183.4667 M,0,69778,69781,209.0667,183.4667,205.8667,182.4 M,0,69781,69785,205.8667,182.4 M,0,69785,69790,205.8667,182.4,203.7333,181.3334 M,0,69790,69792,203.7333,181.3334 M,0,69792,69798,203.7333,181.3334,201.6,181.3334 M,0,69798,69801,201.6,181.3334 M,0,69801,69806,201.6,181.3334,199.4667,180.2667 M,0,69806,69811,199.4667,180.2667,197.3333,179.2 M,0,69811,69816,197.3333,179.2 M,0,69816,69820,197.3333,179.2,196.2667,179.2 M,0,69820,69825,196.2667,179.2,194.1333,178.1334 M,0,69825,69830,194.1333,178.1334 M,0,69830,69835,194.1333,178.1334,193.0667,178.1334 M,0,69835,69839,193.0667,178.1334,190.9333,177.0667 M,0,69839,69847,190.9333,177.0667 M,0,69847,69851,190.9333,177.0667,189.8667,177.0667 M,0,69851,69856,189.8667,177.0667,188.8,176 M,0,69856,69860,188.8,176 M,0,69860,69864,188.8,176,186.6667,176 M,0,69864,69869,186.6667,176 M,0,69869,69874,186.6667,176,185.6,176 M,0,69874,69880,185.6,176,184.5333,174.9334 M,0,69880,69882,184.5333,174.9334 M,0,69882,69886,184.5333,174.9334 M,0,69886,69890,184.5333,174.9334,181.3333,174.9334 M,0,69890,69897,181.3333,174.9334 M,0,69897,69899,181.3333,174.9334 M,0,69899,69903,181.3333,174.9334,180.2667,174.9334 M,0,69903,69907,180.2667,174.9334,178.1333,174.9334 M,0,69907,69913,178.1333,174.9334 M,0,69913,69916,178.1333,174.9334 M,0,69916,69920,178.1333,174.9334,177.0667,176 M,0,69920,69924,177.0667,176,174.9333,177.0667 M,0,69924,69931,174.9333,177.0667,171.7333,179.2 M,0,69931,69933,171.7333,179.2 M,0,69933,69937,171.7333,179.2,168.5333,181.3334 M,0,69937,69947,168.5333,181.3334,166.4,184.5334 M,0,69947,69950,166.4,184.5334 M,0,69950,69954,166.4,184.5334,163.2,187.7334 M,0,69954,69959,163.2,187.7334 M,0,69959,69963,163.2,187.7334,160,192 M,0,69963,69967,160,192 M,0,69967,69971,160,192,156.8,196.2667 M,0,69971,69976,156.8,196.2667 M,0,69976,69980,156.8,196.2667,153.6,200.5334 M,0,69980,69985,153.6,200.5334,150.4,206.9334 M,0,69985,69989,150.4,206.9334 M,0,69989,69992,150.4,206.9334,148.2667,213.3334 M,0,69992,69997,148.2667,213.3334 M,0,69997,70001,148.2667,213.3334,146.1333,221.8667 M,0,70001,70006,146.1333,221.8667 M,0,70006,70010,146.1333,221.8667,144,231.4667 M,0,70010,70014,144,231.4667,141.8667,242.1334 M,0,70014,70018,141.8667,242.1334 M,0,70018,70022,141.8667,242.1334,140.8,253.8667 M,0,70022,70026,140.8,253.8667 M,0,70026,70030,140.8,253.8667,140.8,266.6667 M,0,70030,70035,140.8,266.6667 M,0,70035,70041,140.8,266.6667,140.8,278.4001 M,0,70041,70045,140.8,278.4001,140.8,290.1334 M,0,70045,70048,140.8,290.1334 M,0,70048,70052,140.8,290.1334,140.8,299.7334 M,0,70052,70057,140.8,299.7334 M,0,70057,70061,140.8,299.7334,141.8667,308.2667 M,0,70061,70065,141.8667,308.2667 M,0,70065,70069,141.8667,308.2667,142.9333,314.6667 M,0,70069,70073,142.9333,314.6667,142.9333,318.9333 M,0,70073,70079,142.9333,318.9333 M,0,70079,70081,142.9333,318.9333,144,323.2 M,0,70081,70085,144,323.2 M,0,70085,70090,144,323.2,144,325.3333 M,0,70090,70095,144,325.3333 M,0,70095,70099,144,325.3333,144,326.4 M,0,70099,70102,144,326.4,145.0667,326.4 M,0,70102,70107,145.0667,326.4 M,0,70107,70111,145.0667,326.4 M,0,70111,70115,145.0667,326.4 M,0,70115,70119,145.0667,326.4 M,0,70119,70124,145.0667,326.4 M,0,70124,70129,145.0667,326.4 M,0,70129,70132,145.0667,326.4,145.0667,325.3333 M,0,70132,70137,145.0667,325.3333 M,0,70137,70141,145.0667,325.3333,144,324.2667 M,0,70141,70146,144,324.2667 M,0,70146,70149,144,324.2667,142.9333,321.0667 M,0,70149,70153,142.9333,321.0667 M,0,70153,70158,142.9333,321.0667,141.8667,318.9333 M,0,70158,70162,141.8667,318.9333,140.8,315.7334 M,0,70162,70166,140.8,315.7334 M,0,70166,70171,140.8,315.7334,138.6667,311.4667 M,0,70171,70175,138.6667,311.4667 M,0,70175,70180,138.6667,311.4667,136.5333,308.2667 M,0,70180,70185,136.5333,308.2667 M,0,70185,70189,136.5333,308.2667,134.4,304 M,0,70189,70195,134.4,304,131.2,299.7334 M,0,70195,70199,131.2,299.7334 M,0,70199,70203,131.2,299.7334,128,295.4667 M,0,70203,70207,128,295.4667 M,0,70207,70212,128,295.4667,124.8,291.2 M,0,70212,70216,124.8,291.2 M,0,70216,70220,124.8,291.2,121.6,286.9333 M,0,70220,70225,121.6,286.9333,117.3333,282.6667 M,0,70225,70230,117.3333,282.6667 M,0,70230,70233,117.3333,282.6667,113.0667,278.4001 M,0,70233,70238,113.0667,278.4001,109.8667,274.1334 M,0,70238,70242,109.8667,274.1334 M,0,70242,70247,109.8667,274.1334,105.6,270.9334 M,0,70247,70251,105.6,270.9334 M,0,70251,70255,105.6,270.9334,102.4,267.7334 M,0,70255,70260,102.4,267.7334,98.13335,264.5334 M,0,70260,70265,98.13335,264.5334 M,0,70265,70269,98.13335,264.5334,94.93334,262.4 M,0,70269,70273,94.93334,262.4 M,0,70273,70278,94.93334,262.4,91.73335,261.3333 M,0,70278,70282,91.73335,261.3333,89.60001,260.2667 M,0,70282,70286,89.60001,260.2667 M,0,70286,70290,89.60001,260.2667,86.40001,260.2667 M,0,70290,70297,86.40001,260.2667 M,0,70297,70299,86.40001,260.2667,84.26667,260.2667 M,0,70299,70303,84.26667,260.2667 M,0,70303,70307,84.26667,260.2667,82.13335,260.2667 M,0,70307,70312,82.13335,260.2667,80.00001,261.3333 M,0,70312,70316,80.00001,261.3333 M,0,70316,70320,80.00001,261.3333,77.86667,262.4 M,0,70320,70325,77.86667,262.4 M,0,70325,70329,77.86667,262.4,75.73335,264.5334 M,0,70329,70333,75.73335,264.5334 M,0,70333,70337,75.73335,264.5334,74.66667,267.7334 M,0,70337,70341,74.66667,267.7334 M,0,70341,70346,74.66667,267.7334,73.60001,270.9334 M,0,70346,70350,73.60001,270.9334,72.53334,275.2 M,0,70350,70354,72.53334,275.2 M,0,70354,70358,72.53334,275.2,71.46667,280.5334 M,0,70358,70363,71.46667,280.5334 M,0,70363,70367,71.46667,280.5334,71.46667,286.9333 M,0,70367,70372,71.46667,286.9333,71.46667,293.3333 M,0,70372,70379,71.46667,293.3333 M,0,70379,70382,71.46667,293.3333,71.46667,301.8667 M,0,70382,70386,71.46667,301.8667 M,0,70386,70390,71.46667,301.8667,72.53334,312.5334 M,0,70390,70396,72.53334,312.5334 M,0,70396,70399,72.53334,312.5334,74.66667,323.2 M,0,70399,70402,74.66667,323.2,77.86667,336 M,0,70402,70408,77.86667,336 M,0,70408,70412,77.86667,336,81.06667,349.8667 M,0,70412,70416,81.06667,349.8667 M,0,70416,70420,81.06667,349.8667,85.33334,362.6667 M,0,70420,70426,85.33334,362.6667,89.60001,376.5334 M,0,70426,70430,89.60001,376.5334 M,0,70430,70435,89.60001,376.5334,94.93334,388.2667 M,0,70435,70439,94.93334,388.2667,99.20001,398.9334 M,0,70439,70446,99.20001,398.9334 M,0,70446,70449,99.20001,398.9334,104.5333,407.4667 M,0,70449,70453,104.5333,407.4667 M,0,70453,70458,104.5333,407.4667,108.8,414.9333 M,0,70458,70462,108.8,414.9333,113.0667,421.3334 M,0,70462,70466,113.0667,421.3334 M,0,70466,70471,113.0667,421.3334,117.3333,425.6 M,0,70471,70476,117.3333,425.6 M,0,70476,70480,117.3333,425.6,121.6,428.8 M,0,70480,70485,121.6,428.8 M,0,70485,70489,121.6,428.8,125.8667,430.9334 M,0,70489,70496,125.8667,430.9334,130.1333,432 M,0,70496,70499,130.1333,432 M,0,70499,70503,130.1333,432,135.4667,433.0667 M,0,70503,70507,135.4667,433.0667,141.8667,433.0667 M,0,70507,70512,141.8667,433.0667 M,0,70512,70515,141.8667,433.0667 M,0,70515,70521,141.8667,433.0667,148.2667,433.0667 M,0,70521,70525,148.2667,433.0667,155.7333,430.9334 M,0,70525,70531,155.7333,430.9334,163.2,428.8 M,0,70531,70533,163.2,428.8 M,0,70533,70538,163.2,428.8,170.6667,425.6 M,0,70538,70542,170.6667,425.6 M,0,70542,70547,170.6667,425.6,178.1333,421.3334 M,0,70547,70551,178.1333,421.3334 M,0,70551,70556,178.1333,421.3334,185.6,416 M,0,70556,70560,185.6,416,193.0667,410.6667 M,0,70560,70562,193.0667,410.6667 M,0,70562,70568,193.0667,410.6667,200.5333,403.2 M,0,70568,70572,200.5333,403.2 M,0,70572,70577,200.5333,403.2,208,395.7334 M,0,70577,70581,208,395.7334,214.4,387.2 M,0,70581,70586,214.4,387.2 M,0,70586,70591,214.4,387.2,221.8667,376.5334 M,0,70591,70596,221.8667,376.5334 M,0,70596,70600,221.8667,376.5334,229.3333,365.8667 M,0,70600,70605,229.3333,365.8667 M,0,70605,70610,229.3333,365.8667,236.8,353.0667 M,0,70610,70614,236.8,353.0667,244.2667,340.2667 M,0,70614,70618,244.2667,340.2667 M,0,70618,70622,244.2667,340.2667,251.7333,325.3333 M,0,70622,70627,251.7333,325.3333 M,0,70627,70631,251.7333,325.3333,259.2,309.3334 M,0,70631,70635,259.2,309.3334 M,0,70635,70640,259.2,309.3334,267.7333,293.3333 M,0,70640,70643,267.7333,293.3333,275.2,277.3334 M,0,70643,70648,275.2,277.3334 M,0,70648,70651,275.2,277.3334,282.6667,262.4 M,0,70651,70656,282.6667,262.4 M,0,70656,70660,282.6667,262.4,289.0667,248.5334 M,0,70660,70665,289.0667,248.5334 M,0,70665,70669,289.0667,248.5334,295.4667,235.7334 M,0,70669,70673,295.4667,235.7334,300.8,225.0667 M,0,70673,70677,300.8,225.0667 M,0,70677,70681,300.8,225.0667,305.0667,216.5334 M,0,70681,70686,305.0667,216.5334 M,0,70686,70690,305.0667,216.5334,308.2667,209.0667 M,0,70690,70695,308.2667,209.0667 M,0,70695,70700,308.2667,209.0667,310.4,201.6 M,0,70700,70705,310.4,201.6,313.6,196.2667 M,0,70705,70709,313.6,196.2667 M,0,70709,70713,313.6,196.2667,316.8,192 M,0,70713,70717,316.8,192 M,0,70717,70721,316.8,192,318.9333,188.8 M,0,70721,70726,318.9333,188.8,321.0667,186.6667 M,0,70726,70730,321.0667,186.6667 M,0,70730,70734,321.0667,186.6667,323.2,186.6667 M,0,70734,70739,323.2,186.6667 M,0,70739,70743,323.2,186.6667,325.3333,186.6667 M,0,70743,70747,325.3333,186.6667 M,0,70747,70751,325.3333,186.6667,326.4,186.6667 M,0,70751,70756,326.4,186.6667 M,0,70756,70760,326.4,186.6667,328.5334,186.6667 M,0,70760,70765,328.5334,186.6667,329.6,188.8 M,0,70765,70769,329.6,188.8 M,0,70769,70774,329.6,188.8,329.6,192 M,0,70774,70780,329.6,192,330.6667,195.2 M,0,70780,70783,330.6667,195.2 M,0,70783,70788,330.6667,195.2,330.6667,199.4667 M,0,70788,70792,330.6667,199.4667,330.6667,204.8 M,0,70792,70796,330.6667,204.8 M,0,70796,70800,330.6667,204.8 M,0,70800,70804,330.6667,204.8,331.7333,211.2 M,0,70804,70811,331.7333,211.2,332.8,218.6667 M,0,70811,70816,332.8,218.6667 M,0,70816,70818,332.8,218.6667,333.8667,227.2 M,0,70818,70823,333.8667,227.2,334.9333,235.7334 M,0,70823,70830,334.9333,235.7334 M,0,70830,70832,334.9333,235.7334,337.0667,245.3334 M,0,70832,70836,337.0667,245.3334 M,0,70836,70840,337.0667,245.3334,339.2,254.9333 M,0,70840,70847,339.2,254.9333 M,0,70847,70850,339.2,254.9333,342.4,264.5334 M,0,70850,70855,342.4,264.5334,344.5333,273.0667 M,0,70855,70860,344.5333,273.0667 M,0,70860,70864,344.5333,273.0667,347.7333,280.5334 M,0,70864,70868,347.7333,280.5334 M,0,70868,70873,347.7333,280.5334,349.8667,286.9333 M,0,70873,70879,349.8667,286.9333,353.0667,292.2667 M,0,70879,70882,353.0667,292.2667 M,0,70882,70886,353.0667,292.2667,356.2667,295.4667 M,0,70886,70891,356.2667,295.4667,359.4667,298.6667 M,0,70891,70896,359.4667,298.6667 M,0,70896,70900,359.4667,298.6667,362.6667,299.7334 M,0,70900,70903,362.6667,299.7334 M,0,70903,70907,362.6667,299.7334,365.8667,299.7334 M,0,70907,70912,365.8667,299.7334 M,0,70912,70914,365.8667,299.7334,369.0667,299.7334 M,0,70914,70919,369.0667,299.7334 M,0,70919,70924,369.0667,299.7334,372.2667,298.6667 M,0,70924,70929,372.2667,298.6667,377.6,295.4667 M,0,70929,70932,377.6,295.4667 M,0,70932,70936,377.6,295.4667 M,0,70936,70940,377.6,295.4667,382.9333,291.2 M,0,70940,70945,382.9333,291.2,389.3333,284.8 M,0,70945,70949,389.3333,284.8 M,0,70949,70953,389.3333,284.8,396.8,276.2667 M,0,70953,70958,396.8,276.2667 M,0,70958,70962,396.8,276.2667,404.2667,266.6667 M,0,70962,70967,404.2667,266.6667,413.8667,256 M,0,70967,70971,413.8667,256 M,0,70971,70976,413.8667,256,424.5334,243.2 M,0,70976,70980,424.5334,243.2 M,0,70980,70983,424.5334,243.2,435.2,229.3334 M,0,70983,70988,435.2,229.3334,445.8667,214.4 M,0,70988,70992,445.8667,214.4 M,0,70992,70996,445.8667,214.4,458.6667,199.4667 M,0,70996,71000,458.6667,199.4667 M,0,71000,71005,458.6667,199.4667,470.4,185.6 M,0,71005,71009,470.4,185.6 M,0,71009,71014,470.4,185.6,481.0667,171.7334 M,0,71014,71018,481.0667,171.7334 M,0,71018,71022,481.0667,171.7334,492.8,158.9334 M,0,71022,71027,492.8,158.9334,502.4,147.2 M,0,71027,71030,502.4,147.2 M,0,71030,71035,502.4,147.2,510.9333,136.5334 M,0,71035,71040,510.9333,136.5334 M,0,71040,71043,510.9333,136.5334,519.4667,126.9334 M,0,71043,71048,519.4667,126.9334 M,0,71048,71051,519.4667,126.9334,526.9333,118.4 M,0,71051,71056,526.9333,118.4,533.3333,110.9334 M,0,71056,71061,533.3333,110.9334 M,0,71061,71065,533.3333,110.9334,539.7333,105.6 M,0,71065,71070,539.7333,105.6 M,0,71070,71075,539.7333,105.6,544,102.4 M,0,71075,71080,544,102.4,548.2667,99.20003 M,0,71080,71083,548.2667,99.20003 M,0,71083,71088,548.2667,99.20003,550.4,98.13336 M,0,71088,71091,550.4,98.13336 M,0,71091,71095,550.4,98.13336,551.4667,97.0667 M,0,71095,71100,551.4667,97.0667 M,0,71100,71105,551.4667,97.0667,552.5334,96.00003 M,0,71105,71109,552.5334,96.00003 M,0,71109,71113,552.5334,96.00003 M,0,71113,71117,552.5334,96.00003 M,0,71117,71122,552.5334,96.00003 M,0,71122,71125,552.5334,96.00003 M,0,71125,71129,552.5334,96.00003 M,0,71129,71133,552.5334,96.00003,551.4667,97.0667 M,0,71133,71137,551.4667,97.0667 M,0,71137,71141,551.4667,97.0667,549.3333,99.20003 M,0,71141,71146,549.3333,99.20003,547.2,102.4 M,0,71146,71150,547.2,102.4 M,0,71150,71156,547.2,102.4,544,104.5334 M,0,71156,71161,544,104.5334,540.8,106.6667 M,0,71161,71165,540.8,106.6667 M,0,71165,71169,540.8,106.6667,538.6667,109.8667 M,0,71169,71174,538.6667,109.8667 M,0,71174,71179,538.6667,109.8667,535.4667,112 M,0,71179,71182,535.4667,112 M,0,71182,71186,535.4667,112,532.2667,115.2 M,0,71186,71190,532.2667,115.2,530.1333,118.4 M,0,71190,71197,530.1333,118.4 M,0,71197,71199,530.1333,118.4,525.8667,120.5334 M,0,71199,71202,525.8667,120.5334 M,0,71202,71209,525.8667,120.5334,522.6667,123.7334 M,0,71209,71212,522.6667,123.7334,517.3334,125.8667 M,0,71212,71217,517.3334,125.8667 M,0,71217,71221,517.3334,125.8667,513.0667,129.0667 M,0,71221,71229,513.0667,129.0667,506.6667,131.2 M,0,71229,71231,506.6667,131.2 M,0,71231,71235,506.6667,131.2 M,0,71235,71239,506.6667,131.2,494.9333,136.5334 M,0,71239,71246,494.9333,136.5334 M,0,71246,71250,494.9333,136.5334 M,0,71250,71255,494.9333,136.5334,487.4667,139.7334 M,0,71255,71263,487.4667,139.7334,481.0667,141.8667 M,0,71263,71266,481.0667,141.8667,475.7334,144 M,0,71266,71268,475.7334,144 M,0,71268,71273,475.7334,144,470.4,146.1334 M,0,71273,71280,470.4,146.1334 M,0,71280,71284,470.4,146.1334,465.0667,148.2667 M,0,71284,71289,465.0667,148.2667,460.8,150.4 M,0,71289,71295,460.8,150.4 M,0,71295,71299,460.8,150.4,456.5334,151.4667 M,0,71299,71302,456.5334,151.4667,453.3333,152.5334 M,0,71302,71307,453.3333,152.5334 M,0,71307,71312,453.3333,152.5334,450.1334,153.6 M,0,71312,71317,450.1334,153.6 M,0,71317,71321,450.1334,153.6,446.9333,154.6667 M,0,71321,71325,446.9333,154.6667 M,0,71325,71330,446.9333,154.6667,443.7333,154.6667 M,0,71330,71333,443.7333,154.6667,440.5333,154.6667 M,0,71333,71338,440.5333,154.6667 M,0,71338,71342,440.5333,154.6667,436.2667,154.6667 M,0,71342,71346,436.2667,154.6667 M,0,71346,71351,436.2667,154.6667,433.0667,154.6667 M,0,71351,71356,433.0667,154.6667,428.8,154.6667 M,0,71356,71360,428.8,154.6667 M,0,71360,71364,428.8,154.6667,424.5334,152.5334 M,0,71364,71369,424.5334,152.5334 M,0,71369,71375,424.5334,152.5334,420.2667,151.4667 M,0,71375,71379,420.2667,151.4667,416,150.4 M,0,71379,71382,416,150.4 M,0,71382,71386,416,150.4,411.7333,148.2667 M,0,71386,71391,411.7333,148.2667 M,0,71391,71396,411.7333,148.2667,407.4667,146.1334 M,0,71396,71400,407.4667,146.1334 M,0,71400,71403,407.4667,146.1334,403.2,144 M,0,71403,71408,403.2,144 M,0,71408,71412,403.2,144,397.8667,140.8 M,0,71412,71416,397.8667,140.8,393.6,138.6667 M,0,71416,71421,393.6,138.6667 M,0,71421,71426,393.6,138.6667,388.2667,135.4667 M,0,71426,71430,388.2667,135.4667 M,0,71430,71434,388.2667,135.4667,384,133.3334 M,0,71434,71439,384,133.3334,379.7333,132.2667 M,0,71439,71442,379.7333,132.2667 M,0,71442,71447,379.7333,132.2667,376.5333,131.2 M,0,71447,71450,376.5333,131.2 M,0,71450,71455,376.5333,131.2,374.4,131.2 M,0,71455,71459,374.4,131.2 M,0,71459,71463,374.4,131.2,373.3333,131.2 M,0,71463,71467,373.3333,131.2 M,0,71467,71471,373.3333,131.2 M,0,71471,71475,373.3333,131.2 M,0,71475,71480,373.3333,131.2 M,0,71480,71483,373.3333,131.2,374.4,131.2 M,0,71483,71487,374.4,131.2 M,0,71487,71491,374.4,131.2,376.5333,132.2667 M,0,71491,71496,376.5333,132.2667 M,0,71496,71499,376.5333,132.2667,380.8,134.4 M,0,71499,71504,380.8,134.4,386.1334,136.5334 M,0,71504,71508,386.1334,136.5334 M,0,71508,71512,386.1334,136.5334,391.4667,138.6667 M,0,71512,71517,391.4667,138.6667 M,0,71517,71520,391.4667,138.6667,398.9333,141.8667 M,0,71520,71525,398.9333,141.8667 M,0,71525,71530,398.9333,141.8667,408.5333,145.0667 M,0,71530,71533,408.5333,145.0667 M,0,71533,71537,408.5333,145.0667,417.0667,148.2667 M,0,71537,71545,417.0667,148.2667,426.6667,152.5334 M,0,71545,71549,426.6667,152.5334 M,0,71549,71551,426.6667,152.5334,436.2667,156.8 M,0,71551,71555,436.2667,156.8,445.8667,160 M,0,71555,71562,445.8667,160 M,0,71562,71566,445.8667,160 M,0,71566,71568,445.8667,160,455.4667,164.2667 M,0,71568,71575,455.4667,164.2667,464,167.4667 M,0,71575,71580,464,167.4667 M,0,71580,71583,464,167.4667,472.5333,171.7334 M,0,71583,71588,472.5333,171.7334,480,174.9334 M,0,71588,71592,480,174.9334 M,0,71592,71596,480,174.9334 M,0,71596,71600,480,174.9334,486.4,178.1334 M,0,71600,71604,486.4,178.1334,492.8,182.4 M,0,71604,71613,492.8,182.4,498.1334,184.5334 M,0,71613,71617,498.1334,184.5334 M,0,71617,71621,498.1334,184.5334,503.4666,187.7334 M,0,71621,71626,503.4666,187.7334 M,0,71626,71631,503.4666,187.7334,507.7333,190.9334 M,0,71631,71635,507.7333,190.9334,512,192 M,0,71635,71640,512,192,514.1334,194.1334 M,0,71640,71646,514.1334,194.1334 M,0,71646,71649,514.1334,194.1334,515.2,194.1334 M,0,71649,71652,515.2,194.1334 M,0,71652,71656,515.2,194.1334,516.2667,195.2 M,0,71656,71663,516.2667,195.2 M,0,71663,71666,516.2667,195.2 M,0,71666,71669,516.2667,195.2 M,0,71669,71675,516.2667,195.2,514.1334,195.2 M,0,71675,71680,514.1334,195.2,510.9333,193.0667 M,0,71680,71683,510.9333,193.0667 M,0,71683,71688,510.9333,193.0667,505.6,190.9334 M,0,71688,71692,505.6,190.9334,498.1334,188.8 M,0,71692,71697,498.1334,188.8 M,0,71697,71701,498.1334,188.8,489.6,185.6 M,0,71701,71706,489.6,185.6 M,0,71706,71710,489.6,185.6,478.9333,181.3334 M,0,71710,71712,478.9333,181.3334 M,0,71712,71717,478.9333,181.3334,468.2667,177.0667 M,0,71717,71722,468.2667,177.0667,457.6,172.8 M,0,71722,71726,457.6,172.8 M,0,71726,71730,457.6,172.8 M,0,71730,71734,457.6,172.8,445.8667,167.4667 M,0,71734,71738,445.8667,167.4667,433.0667,162.1334 M,0,71738,71742,433.0667,162.1334 M,0,71742,71747,433.0667,162.1334,419.2,157.8667 M,0,71747,71751,419.2,157.8667 M,0,71751,71755,419.2,157.8667,405.3333,152.5334 M,0,71755,71759,405.3333,152.5334 M,0,71759,71763,405.3333,152.5334,390.4,148.2667 M,0,71763,71767,390.4,148.2667 M,0,71767,71771,390.4,148.2667,376.5333,144 M,0,71771,71776,376.5333,144,361.6,140.8 M,0,71776,71780,361.6,140.8 M,0,71780,71785,361.6,140.8,346.6667,137.6 M,0,71785,71789,346.6667,137.6 M,0,71789,71793,346.6667,137.6,332.8,134.4 M,0,71793,71797,332.8,134.4 M,0,71797,71801,332.8,134.4,318.9333,132.2667 M,0,71801,71805,318.9333,132.2667,307.2,130.1334 M,0,71805,71810,307.2,130.1334 M,0,71810,71815,307.2,130.1334,297.6,129.0667 M,0,71815,71819,297.6,129.0667 M,0,71819,71822,297.6,129.0667,290.1333,126.9334 M,0,71822,71827,290.1333,126.9334 M,0,71827,71831,290.1333,126.9334,283.7333,126.9334 M,0,71831,71835,283.7333,126.9334 M,0,71835,71839,283.7333,126.9334,279.4667,125.8667 M,0,71839,71843,279.4667,125.8667,277.3333,125.8667 M,0,71843,71847,277.3333,125.8667 M,0,71847,71851,277.3333,125.8667,276.2667,125.8667 M,0,71851,71856,276.2667,125.8667 M,0,71856,71860,276.2667,125.8667 M,0,71860,71865,276.2667,125.8667,276.2667,126.9334 M,0,71865,71868,276.2667,126.9334 M,0,71868,71872,276.2667,126.9334,278.4,128 M,0,71872,71877,278.4,128 M,0,71877,71880,278.4,128,281.6,131.2 M,0,71880,71885,281.6,131.2 M,0,71885,71889,281.6,131.2,284.8,134.4 M,0,71889,71892,284.8,134.4 M,0,71892,71897,284.8,134.4,290.1333,138.6667 M,0,71897,71901,290.1333,138.6667 M,0,71901,71906,290.1333,138.6667,295.4667,144 M,0,71906,71910,295.4667,144,300.8,149.3334 M,0,71910,71915,300.8,149.3334 M,0,71915,71919,300.8,149.3334,307.2,154.6667 M,0,71919,71923,307.2,154.6667 M,0,71923,71928,307.2,154.6667,313.6,161.0667 M,0,71928,71931,313.6,161.0667 M,0,71931,71936,313.6,161.0667,321.0667,166.4 M,0,71936,71940,321.0667,166.4,327.4667,172.8 M,0,71940,71947,327.4667,172.8 M,0,71947,71949,327.4667,172.8,334.9333,179.2 M,0,71949,71953,334.9333,179.2 M,0,71953,71957,334.9333,179.2,342.4,186.6667 M,0,71957,71961,342.4,186.6667 M,0,71961,71966,342.4,186.6667,349.8667,193.0667 M,0,71966,71970,349.8667,193.0667,356.2667,200.5334 M,0,71970,71975,356.2667,200.5334 M,0,71975,71979,356.2667,200.5334,363.7333,208 M,0,71979,71983,363.7333,208 M,0,71983,71987,363.7333,208,370.1333,214.4 M,0,71987,71991,370.1333,214.4 M,0,71991,71996,370.1333,214.4,375.4667,220.8 M,0,71996,72000,375.4667,220.8,380.8,226.1334 M,0,72000,72006,380.8,226.1334 M,0,72006,72009,380.8,226.1334,386.1334,230.4 M,0,72009,72013,386.1334,230.4 M,0,72013,72017,386.1334,230.4,389.3333,234.6667 M,0,72017,72021,389.3333,234.6667 M,0,72021,72026,389.3333,234.6667,392.5334,237.8667 M,0,72026,72030,392.5334,237.8667,394.6667,240 M,0,72030,72035,394.6667,240 M,0,72035,72039,394.6667,240,395.7333,241.0667 M,0,72039,72042,395.7333,241.0667 M,0,72042,72047,395.7333,241.0667,396.8,242.1334 M,0,72047,72051,396.8,242.1334 M,0,72051,72055,396.8,242.1334 M,0,72055,72060,396.8,242.1334 M,0,72060,72065,396.8,242.1334 M,0,72065,72069,396.8,242.1334 M,0,72069,72075,396.8,242.1334 M,0,72075,72078,396.8,242.1334 M,0,72078,72082,396.8,242.1334 M,0,72082,72086,396.8,242.1334,394.6667,240 M,0,72086,72090,394.6667,240 M,0,72090,72094,394.6667,240,392.5334,237.8667 M,0,72094,72098,392.5334,237.8667 M,0,72098,72102,392.5334,237.8667,390.4,233.6 M,0,72102,72107,390.4,233.6,386.1334,230.4 M,0,72107,72111,386.1334,230.4 M,0,72111,72115,386.1334,230.4,380.8,225.0667 M,0,72115,72119,380.8,225.0667 M,0,72119,72124,380.8,225.0667,375.4667,219.7334 M,0,72124,72131,375.4667,219.7334,370.1333,213.3334 M,0,72131,72133,370.1333,213.3334 M,0,72133,72138,370.1333,213.3334,362.6667,205.8667 M,0,72138,72147,362.6667,205.8667,355.2,198.4 M,0,72147,72150,355.2,198.4 M,0,72150,72155,355.2,198.4,347.7333,189.8667 M,0,72155,72159,347.7333,189.8667,339.2,180.2667 M,0,72159,72165,339.2,180.2667 M,0,72165,72169,339.2,180.2667,330.6667,171.7334 M,0,72169,72174,330.6667,171.7334,322.1333,162.1334 M,0,72174,72180,322.1333,162.1334 M,0,72180,72183,322.1333,162.1334,314.6667,152.5334 M,0,72183,72186,314.6667,152.5334 M,0,72186,72191,314.6667,152.5334,307.2,142.9334 M,0,72191,72197,307.2,142.9334 M,0,72197,72199,307.2,142.9334,299.7333,133.3334 M,0,72199,72203,299.7333,133.3334 M,0,72203,72207,299.7333,133.3334,292.2667,123.7334 M,0,72207,72213,292.2667,123.7334,285.8667,116.2667 M,0,72213,72216,285.8667,116.2667 M,0,72216,72220,285.8667,116.2667,279.4667,107.7334 M,0,72220,72225,279.4667,107.7334,274.1334,101.3334 M,0,72225,72231,274.1334,101.3334 M,0,72231,72233,274.1334,101.3334,268.8,96.00003 M,0,72233,72238,268.8,96.00003,264.5334,90.6667 M,0,72238,72245,264.5334,90.6667 M,0,72245,72248,264.5334,90.6667 M,0,72248,72251,264.5334,90.6667,260.2667,86.40003 M,0,72251,72255,260.2667,86.40003,256,83.20003 M,0,72255,72262,256,83.20003 M,0,72262,72266,256,83.20003,253.8667,81.0667 M,0,72266,72268,253.8667,81.0667 M,0,72268,72274,253.8667,81.0667,250.6667,78.93336 M,0,72274,72280,250.6667,78.93336,248.5333,77.8667 M,0,72280,72283,248.5333,77.8667 M,0,72283,72286,248.5333,77.8667 M,0,72286,72292,248.5333,77.8667,247.4667,76.80003 M,0,72292,72296,247.4667,76.80003,246.4,76.80003 M,0,72296,72301,246.4,76.80003 M,0,72301,72304,246.4,76.80003,245.3333,75.73336 M,0,72304,72309,245.3333,75.73336 M,0,72309,72312,245.3333,75.73336 M,0,72312,72317,245.3333,75.73336 M,0,72317,72321,245.3333,75.73336 M,0,72321,72326,245.3333,75.73336 M,0,72326,72329,245.3333,75.73336 M,0,72329,72333,245.3333,75.73336,245.3333,77.8667 M,0,72333,72338,245.3333,77.8667,245.3333,80.00003 M,0,72338,72342,245.3333,80.00003 M,0,72342,72346,245.3333,80.00003,245.3333,84.2667 M,0,72346,72350,245.3333,84.2667 M,0,72350,72355,245.3333,84.2667,245.3333,88.53336 M,0,72355,72359,245.3333,88.53336 M,0,72359,72362,245.3333,88.53336,245.3333,93.8667 M,0,72362,72368,245.3333,93.8667,245.3333,100.2667 M,0,72368,72372,245.3333,100.2667 M,0,72372,72376,245.3333,100.2667,245.3333,106.6667 M,0,72376,72380,245.3333,106.6667 M,0,72380,72385,245.3333,106.6667,246.4,113.0667 M,0,72385,72389,246.4,113.0667 M,0,72389,72393,246.4,113.0667,247.4667,119.4667 M,0,72393,72397,247.4667,119.4667 M,0,72397,72401,247.4667,119.4667,248.5333,125.8667 M,0,72401,72406,248.5333,125.8667,249.6,133.3334 M,0,72406,72410,249.6,133.3334 M,0,72410,72415,249.6,133.3334,249.6,140.8 M,0,72415,72419,249.6,140.8 M,0,72419,72422,249.6,140.8,250.6667,148.2667 M,0,72422,72427,250.6667,148.2667 M,0,72427,72431,250.6667,148.2667,251.7333,156.8 M,0,72431,72435,251.7333,156.8 M,0,72435,72440,251.7333,156.8,252.8,165.3334 M,0,72440,72446,252.8,165.3334,253.8667,173.8667 M,0,72446,72448,253.8667,173.8667 M,0,72448,72452,253.8667,173.8667,254.9333,181.3334 M,0,72452,72458,254.9333,181.3334,256,189.8667 M,0,72458,72462,256,189.8667 M,0,72462,72465,256,189.8667 M,0,72465,72469,256,189.8667,257.0667,198.4 M,0,72469,72472,257.0667,198.4,258.1333,205.8667 M,0,72472,72479,258.1333,205.8667 M,0,72479,72481,258.1333,205.8667,258.1333,212.2667 M,0,72481,72485,258.1333,212.2667 M,0,72485,72489,258.1333,212.2667,258.1333,217.6 M,0,72489,72496,258.1333,217.6,258.1333,221.8667 M,0,72496,72499,258.1333,221.8667 M,0,72499,72503,258.1333,221.8667,258.1333,225.0667 M,0,72503,72513,258.1333,225.0667,258.1333,226.1334 M,0,72513,72516,258.1333,226.1334 M,0,72516,72519,258.1333,226.1334,258.1333,227.2 M,0,72519,72524,258.1333,227.2,258.1333,228.2667 M,0,72524,72530,258.1333,228.2667 M,0,72530,72532,258.1333,228.2667,257.0667,228.2667 M,0,72532,72537,257.0667,228.2667 M,0,72537,72542,257.0667,228.2667,254.9333,228.2667 M,0,72542,72548,254.9333,228.2667 M,0,72548,72551,254.9333,228.2667,252.8,228.2667 M,0,72551,72556,252.8,228.2667,249.6,228.2667 M,0,72556,72562,249.6,228.2667 M,0,72562,72566,249.6,228.2667,247.4667,228.2667 M,0,72566,72571,247.4667,228.2667 M,0,72571,72576,247.4667,228.2667,244.2667,227.2 M,0,72576,72581,244.2667,227.2,241.0667,226.1334 M,0,72581,72583,241.0667,226.1334 M,0,72583,72589,241.0667,226.1334,236.8,224 M,0,72589,72595,236.8,224,233.6,221.8667 M,0,72595,72598,233.6,221.8667 M,0,72598,72601,233.6,221.8667,229.3333,219.7334 M,0,72601,72607,229.3333,219.7334,225.0667,216.5334 M,0,72607,72612,225.0667,216.5334 M,0,72612,72616,225.0667,216.5334,219.7333,213.3334 M,0,72616,72620,219.7333,213.3334 M,0,72620,72626,219.7333,213.3334,215.4667,210.1334 M,0,72626,72631,215.4667,210.1334,210.1333,206.9334 M,0,72631,72633,210.1333,206.9334 M,0,72633,72637,210.1333,206.9334,205.8667,204.8 M,0,72637,72645,205.8667,204.8 M,0,72645,72649,205.8667,204.8,200.5333,203.7334 M,0,72649,72652,200.5333,203.7334 M,0,72652,72657,200.5333,203.7334,197.3333,202.6667 M,0,72657,72662,197.3333,202.6667,194.1333,202.6667 M,0,72662,72666,194.1333,202.6667 M,0,72666,72670,194.1333,202.6667,190.9333,203.7334 M,0,72670,72675,190.9333,203.7334,188.8,206.9334 M,0,72675,72680,188.8,206.9334 M,0,72680,72683,188.8,206.9334,186.6667,211.2 M,0,72683,72688,186.6667,211.2 M,0,72688,72692,186.6667,211.2,184.5333,217.6 M,0,72692,72697,184.5333,217.6 M,0,72697,72701,184.5333,217.6,182.4,225.0667 M,0,72701,72706,182.4,225.0667,180.2667,234.6667 M,0,72706,72712,180.2667,234.6667,178.1333,246.4 M,0,72712,72715,178.1333,246.4 M,0,72715,72720,178.1333,246.4 M,0,72720,72725,178.1333,246.4,176,259.2 M,0,72725,72730,176,259.2,174.9333,275.2 M,0,72730,72733,174.9333,275.2 M,0,72733,72737,174.9333,275.2,172.8,291.2 M,0,72737,72742,172.8,291.2 M,0,72742,72747,172.8,291.2,170.6667,307.2 M,0,72747,72750,170.6667,307.2,168.5333,323.2 M,0,72750,72755,168.5333,323.2 M,0,72755,72761,168.5333,323.2,167.4667,338.1334 M,0,72761,72765,167.4667,338.1334 M,0,72765,72769,167.4667,338.1334,165.3333,350.9333 M,0,72769,72774,165.3333,350.9333,163.2,361.6 M,0,72774,72780,163.2,361.6 M,0,72780,72783,163.2,361.6,162.1333,369.0667 M,0,72783,72788,162.1333,369.0667,161.0667,374.4 M,0,72788,72792,161.0667,374.4 M,0,72792,72797,161.0667,374.4,161.0667,378.6667 M,0,72797,72800,161.0667,378.6667 M,0,72800,72805,161.0667,378.6667,161.0667,380.8 M,0,72805,72811,161.0667,380.8,160,381.8667 M,0,72811,72813,160,381.8667 M,0,72813,72817,160,381.8667 M,0,72817,72822,160,381.8667,160,382.9333 M,0,72822,72827,160,382.9333 M,0,72827,72831,160,382.9333 M,0,72831,72835,160,382.9333 M,0,72835,72840,160,382.9333 M,0,72840,72846,160,382.9333 M,0,72846,72849,160,382.9333,160,380.8 M,0,72849,72854,160,380.8,161.0667,378.6667 M,0,72854,72859,161.0667,378.6667 M,0,72859,72865,161.0667,378.6667,162.1333,374.4 M,0,72865,72869,162.1333,374.4 M,0,72869,72872,162.1333,374.4,163.2,372.2667 M,0,72872,72879,163.2,372.2667 M,0,72879,72882,163.2,372.2667,164.2667,370.1334 M,0,72882,72883,164.2667,370.1334 M,0,72883,72889,164.2667,370.1334,164.2667,369.0667 M,0,72889,72895,164.2667,369.0667,165.3333,368 M,0,72895,72898,165.3333,368 M,0,72898,72902,165.3333,368,166.4,366.9334 M,0,72902,72907,166.4,366.9334,167.4667,366.9334 M,0,72907,72912,167.4667,366.9334 M,0,72912,72916,167.4667,366.9334,167.4667,365.8667 M,0,72916,72920,167.4667,365.8667,168.5333,364.8 M,0,72920,72929,168.5333,364.8 M,0,72929,72931,168.5333,364.8,169.6,363.7334 M,0,72931,72934,169.6,363.7334 M,0,72934,72939,169.6,363.7334,169.6,361.6 M,0,72939,72946,169.6,361.6,170.6667,358.4 M,0,72946,72949,170.6667,358.4 M,0,72949,72952,170.6667,358.4,171.7333,356.2667 M,0,72952,72957,171.7333,356.2667 M,0,72957,72962,171.7333,356.2667,172.8,353.0667 M,0,72962,72966,172.8,353.0667 M,0,72966,72969,172.8,353.0667,172.8,349.8667 M,0,72969,72974,172.8,349.8667,173.8667,347.7334 M,0,72974,72980,173.8667,347.7334 M,0,72980,72983,173.8667,347.7334,174.9333,345.6 M,0,72983,72988,174.9333,345.6 M,0,72988,72995,174.9333,345.6,176,343.4667 M,0,72995,72999,176,343.4667,178.1333,341.3334 M,0,72999,73002,178.1333,341.3334 M,0,73002,73007,178.1333,341.3334,180.2667,340.2667 M,0,73007,73012,180.2667,340.2667 M,0,73012,73016,180.2667,340.2667,182.4,338.1334 M,0,73016,73019,182.4,338.1334 M,0,73019,73024,182.4,338.1334,184.5333,337.0667 M,0,73024,73030,184.5333,337.0667,186.6667,336 M,0,73030,73032,186.6667,336 M,0,73032,73037,186.6667,336,188.8,334.9334 M,0,73037,73041,188.8,334.9334,192,334.9334 M,0,73041,73047,192,334.9334 M,0,73047,73051,192,334.9334,194.1333,334.9334 M,0,73051,73055,194.1333,334.9334 M,0,73055,73061,194.1333,334.9334,197.3333,334.9334 M,0,73061,73066,197.3333,334.9334 M,0,73066,73068,197.3333,334.9334,200.5333,334.9334 M,0,73068,73072,200.5333,334.9334 M,0,73072,73076,200.5333,334.9334,204.8,337.0667 M,0,73076,73082,204.8,337.0667,209.0667,339.2 M,0,73082,73083,209.0667,339.2 M,0,73083,73089,209.0667,339.2,213.3333,342.4001 M,0,73089,73091,213.3333,342.4001 M,0,73091,73096,213.3333,342.4001,218.6667,345.6 M,0,73096,73100,218.6667,345.6 M,0,73100,73104,218.6667,345.6,224,348.8 M,0,73104,73108,224,348.8 M,0,73108,73112,224,348.8,229.3333,353.0667 M,0,73112,73117,229.3333,353.0667 M,0,73117,73121,229.3333,353.0667,235.7333,357.3334 M,0,73121,73125,235.7333,357.3334,242.1333,361.6 M,0,73125,73129,242.1333,361.6 M,0,73129,73133,242.1333,361.6,247.4667,366.9334 M,0,73133,73137,247.4667,366.9334 M,0,73137,73141,247.4667,366.9334,252.8,371.2 M,0,73141,73146,252.8,371.2 M,0,73146,73149,252.8,371.2,258.1333,375.4667 M,0,73149,73152,258.1333,375.4667 M,0,73152,73157,258.1333,375.4667,263.4667,380.8 M,0,73157,73162,263.4667,380.8,266.6667,385.0667 M,0,73162,73166,266.6667,385.0667 M,0,73166,73171,266.6667,385.0667,269.8667,388.2667 M,0,73171,73174,269.8667,388.2667 M,0,73174,73179,269.8667,388.2667,273.0667,391.4667 M,0,73179,73183,273.0667,391.4667 M,0,73183,73187,273.0667,391.4667,274.1334,394.6667 M,0,73187,73191,274.1334,394.6667,274.1334,396.8 M,0,73191,73196,274.1334,396.8 M,0,73196,73200,274.1334,396.8,274.1334,397.8667 M,0,73200,73205,274.1334,397.8667 M,0,73205,73209,274.1334,397.8667,274.1334,398.9334 M,0,73209,73213,274.1334,398.9334 M,0,73213,73217,274.1334,398.9334,273.0667,400 M,0,73217,73221,273.0667,400 M,0,73221,73226,273.0667,400,270.9333,401.0667 M,0,73226,73230,270.9333,401.0667,267.7333,401.0667 M,0,73230,73233,267.7333,401.0667 M,0,73233,73238,267.7333,401.0667,263.4667,402.1334 M,0,73238,73241,263.4667,402.1334 M,0,73241,73246,263.4667,402.1334,258.1333,402.1334 M,0,73246,73250,258.1333,402.1334 M,0,73250,73255,258.1333,402.1334,251.7333,402.1334 M,0,73255,73259,251.7333,402.1334 M,0,73259,73264,251.7333,402.1334,245.3333,402.1334 M,0,73264,73268,245.3333,402.1334,236.8,402.1334 M,0,73268,73272,236.8,402.1334 M,0,73272,73277,236.8,402.1334,228.2667,402.1334 M,0,73277,73281,228.2667,402.1334 M,0,73281,73285,228.2667,402.1334,216.5333,401.0667 M,0,73285,73290,216.5333,401.0667,204.8,401.0667 M,0,73290,73296,204.8,401.0667 M,0,73296,73299,204.8,401.0667,190.9333,400 M,0,73299,73302,190.9333,400 M,0,73302,73307,190.9333,400,177.0667,398.9334 M,0,73307,73312,177.0667,398.9334,162.1333,397.8667 M,0,73312,73316,162.1333,397.8667 M,0,73316,73320,162.1333,397.8667,147.2,397.8667 M,0,73320,73325,147.2,397.8667 M,0,73325,73330,147.2,397.8667,133.3333,397.8667 M,0,73330,73333,133.3333,397.8667 M,0,73333,73337,133.3333,397.8667,119.4667,397.8667 M,0,73337,73342,119.4667,397.8667,108.8,398.9334 M,0,73342,73347,108.8,398.9334 M,0,73347,73350,108.8,398.9334,98.13335,400 M,0,73350,73355,98.13335,400 M,0,73355,73362,98.13335,400,89.60001,402.1334 M,0,73362,73365,89.60001,402.1334,83.2,403.2 M,0,73365,73368,83.2,403.2 M,0,73368,73373,83.2,403.2,78.93334,405.3334 M,0,73373,73380,78.93334,405.3334 M,0,73380,73382,78.93334,405.3334,75.73335,406.4 M,0,73382,73385,75.73335,406.4 M,0,73385,73390,75.73335,406.4,74.66667,406.4 M,0,73390,73397,74.66667,406.4,73.60001,406.4 M,0,73397,73400,73.60001,406.4 M,0,73400,73405,73.60001,406.4 M,0,73405,73413,73.60001,406.4 M,0,73413,73416,73.60001,406.4 M,0,73416,73419,73.60001,406.4 M,0,73419,73425,73.60001,406.4,74.66667,402.1334 M,0,73425,73430,74.66667,402.1334 M,0,73430,73433,74.66667,402.1334,76.80001,397.8667 M,0,73433,73436,76.80001,397.8667 M,0,73436,73441,76.80001,397.8667,78.93334,392.5334 M,0,73441,73446,78.93334,392.5334 M,0,73446,73450,78.93334,392.5334,81.06667,387.2 M,0,73450,73453,81.06667,387.2 M,0,73453,73458,81.06667,387.2,84.26667,379.7334 M,0,73458,73463,84.26667,379.7334,86.40001,372.2667 M,0,73463,73466,86.40001,372.2667 M,0,73466,73470,86.40001,372.2667,89.60001,363.7334 M,0,73470,73475,89.60001,363.7334 M,0,73475,73480,89.60001,363.7334,92.80001,353.0667 M,0,73480,73483,92.80001,353.0667 M,0,73483,73488,92.80001,353.0667,97.06667,341.3334 M,0,73488,73495,97.06667,341.3334,101.3333,328.5334 M,0,73495,73498,101.3333,328.5334 M,0,73498,73500,101.3333,328.5334 M,0,73500,73506,101.3333,328.5334,105.6,314.6667 M,0,73506,73513,105.6,314.6667,110.9333,300.8 M,0,73513,73516,110.9333,300.8,117.3333,285.8667 M,0,73516,73519,117.3333,285.8667 M,0,73519,73523,117.3333,285.8667,122.6667,270.9334 M,0,73523,73530,122.6667,270.9334 M,0,73530,73533,122.6667,270.9334,129.0667,256 M,0,73533,73538,129.0667,256,134.4,242.1334 M,0,73538,73542,134.4,242.1334 M,0,73542,73547,134.4,242.1334,140.8,230.4 M,0,73547,73550,140.8,230.4 M,0,73550,73555,140.8,230.4,146.1333,219.7334 M,0,73555,73561,146.1333,219.7334,151.4667,210.1334 M,0,73561,73563,151.4667,210.1334 M,0,73563,73567,151.4667,210.1334 M,0,73567,73571,151.4667,210.1334,155.7333,200.5334 M,0,73571,73579,155.7333,200.5334,160,193.0667 M,0,73579,73581,160,193.0667 M,0,73581,73585,160,193.0667,163.2,187.7334 M,0,73585,73590,163.2,187.7334,166.4,183.4667 M,0,73590,73595,166.4,183.4667 M,0,73595,73598,166.4,183.4667 M,0,73598,73603,166.4,183.4667,167.4667,181.3334 M,0,73603,73607,167.4667,181.3334,168.5333,180.2667 M,0,73607,73612,168.5333,180.2667 M,0,73612,73616,168.5333,180.2667 M,0,73616,73621,168.5333,180.2667 M,0,73621,73628,168.5333,180.2667,168.5333,181.3334 M,0,73628,73631,168.5333,181.3334 M,0,73631,73634,168.5333,181.3334,168.5333,183.4667 M,0,73634,73639,168.5333,183.4667 M,0,73639,73645,168.5333,183.4667,168.5333,186.6667 M,0,73645,73649,168.5333,186.6667 M,0,73649,73652,168.5333,186.6667,168.5333,189.8667 M,0,73652,73657,168.5333,189.8667,168.5333,193.0667 M,0,73657,73662,168.5333,193.0667 M,0,73662,73665,168.5333,193.0667,168.5333,197.3334 M,0,73665,73670,168.5333,197.3334 M,0,73670,73675,168.5333,197.3334,168.5333,202.6667 M,0,73675,73680,168.5333,202.6667 M,0,73680,73685,168.5333,202.6667,168.5333,208 M,0,73685,73691,168.5333,208,168.5333,214.4 M,0,73691,73696,168.5333,214.4,169.6,220.8 M,0,73696,73700,169.6,220.8 M,0,73700,73703,169.6,220.8,169.6,229.3334 M,0,73703,73708,169.6,229.3334 M,0,73708,73713,169.6,229.3334,170.6667,237.8667 M,0,73713,73716,170.6667,237.8667 M,0,73716,73720,170.6667,237.8667,172.8,247.4667 M,0,73720,73729,172.8,247.4667,173.8667,258.1334 M,0,73729,73731,173.8667,258.1334 M,0,73731,73735,173.8667,258.1334,174.9333,268.8 M,0,73735,73738,174.9333,268.8,176,278.4001 M,0,73738,73746,176,278.4001 M,0,73746,73749,176,278.4001,176,285.8667 M,0,73749,73751,176,285.8667 M,0,73751,73756,176,285.8667,176,292.2667 M,0,73756,73762,176,292.2667,176,297.6 M,0,73762,73766,176,297.6 M,0,73766,73770,176,297.6,176,299.7334 M,0,73770,73776,176,299.7334 M,0,73776,73780,176,299.7334,176,301.8667 M,0,73780,73785,176,301.8667,176,302.9334 M,0,73785,73789,176,302.9334 M,0,73789,73796,176,302.9334 M,0,73796,73799,176,302.9334 M,0,73799,73803,176,302.9334 M,0,73803,73807,176,302.9334,174.9333,302.9334 M,0,73807,73812,174.9333,302.9334 M,0,73812,73817,174.9333,302.9334,173.8667,302.9334 M,0,73817,73821,173.8667,302.9334,171.7333,301.8667 M,0,73821,73829,171.7333,301.8667 M,0,73829,73831,171.7333,301.8667,169.6,298.6667 M,0,73831,73835,169.6,298.6667 M,0,73835,73839,169.6,298.6667,166.4,295.4667 M,0,73839,73846,166.4,295.4667,163.2,290.1334 M,0,73846,73850,163.2,290.1334 M,0,73850,73855,163.2,290.1334,158.9333,283.7334 M,0,73855,73859,158.9333,283.7334 M,0,73859,73864,158.9333,283.7334,154.6667,276.2667 M,0,73864,73868,154.6667,276.2667 M,0,73868,73873,154.6667,276.2667,150.4,267.7334 M,0,73873,73879,150.4,267.7334,145.0667,258.1334 M,0,73879,73882,145.0667,258.1334 M,0,73882,73886,145.0667,258.1334,140.8,247.4667 M,0,73886,73891,140.8,247.4667,136.5333,236.8 M,0,73891,73896,136.5333,236.8 M,0,73896,73900,136.5333,236.8,133.3333,226.1334 M,0,73900,73903,133.3333,226.1334 M,0,73903,73908,133.3333,226.1334,130.1333,215.4667 M,0,73908,73913,130.1333,215.4667,126.9333,204.8 M,0,73913,73916,126.9333,204.8 M,0,73916,73921,126.9333,204.8,123.7333,194.1334 M,0,73921,73929,123.7333,194.1334,121.6,184.5334 M,0,73929,73931,121.6,184.5334 M,0,73931,73935,121.6,184.5334,119.4667,174.9334 M,0,73935,73940,119.4667,174.9334 M,0,73940,73946,119.4667,174.9334,117.3333,166.4 M,0,73946,73950,117.3333,166.4 M,0,73950,73955,117.3333,166.4,116.2667,158.9334 M,0,73955,73959,116.2667,158.9334,115.2,150.4 M,0,73959,73963,115.2,150.4 M,0,73963,73967,115.2,150.4,115.2,144 M,0,73967,73972,115.2,144,115.2,138.6667 M,0,73972,73978,115.2,138.6667 M,0,73978,73980,115.2,138.6667,115.2,134.4 M,0,73980,73985,115.2,134.4 M,0,73985,73989,115.2,134.4,115.2,130.1334 M,0,73989,73996,115.2,130.1334,116.2667,128 M,0,73996,74000,116.2667,128 M,0,74000,74005,116.2667,128,118.4,125.8667 M,0,74005,74010,118.4,125.8667 M,0,74010,74013,118.4,125.8667,119.4667,123.7334 M,0,74013,74017,119.4667,123.7334 M,0,74017,74021,119.4667,123.7334,121.6,121.6 M,0,74021,74028,121.6,121.6,123.7333,120.5334 M,0,74028,74032,123.7333,120.5334 M,0,74032,74037,123.7333,120.5334,125.8667,119.4667 M,0,74037,74041,125.8667,119.4667,128,119.4667 M,0,74041,74047,128,119.4667 M,0,74047,74049,128,119.4667,129.0667,118.4 M,0,74049,74055,129.0667,118.4,131.2,118.4 M,0,74055,74062,131.2,118.4,132.2667,118.4 M,0,74062,74066,132.2667,118.4 M,0,74066,74068,132.2667,118.4 M,0,74068,74073,132.2667,118.4,133.3333,117.3334 M,0,74073,74080,133.3333,117.3334,135.4667,117.3334 M,0,74080,74082,135.4667,117.3334 M,0,74082,74086,135.4667,117.3334,136.5333,117.3334 M,0,74086,74090,136.5333,117.3334 M,0,74090,74096,136.5333,117.3334,137.6,116.2667 M,0,74096,74099,137.6,116.2667 M,0,74099,74102,137.6,116.2667,138.6667,116.2667 M,0,74102,74108,138.6667,116.2667,139.7334,115.2 M,0,74108,74112,139.7334,115.2 M,0,74112,74116,139.7334,115.2,140.8,115.2 M,0,74116,74120,140.8,115.2 M,0,74120,74125,140.8,115.2,142.9333,114.1334 M,0,74125,74130,142.9333,114.1334 M,0,74130,74133,142.9333,114.1334,144,114.1334 M,0,74133,74138,144,114.1334,146.1333,114.1334 M,0,74138,74142,146.1333,114.1334 M,0,74142,74147,146.1333,114.1334,147.2,113.0667 M,0,74147,74151,147.2,113.0667 M,0,74151,74155,147.2,113.0667,149.3333,113.0667 M,0,74155,74161,149.3333,113.0667,151.4667,112 M,0,74161,74165,151.4667,112 M,0,74165,74168,151.4667,112 M,0,74168,74174,151.4667,112,155.7333,110.9334 M,0,74174,74179,155.7333,110.9334 M,0,74179,74182,155.7333,110.9334 M,0,74182,74186,155.7333,110.9334,157.8667,109.8667 M,0,74186,74190,157.8667,109.8667,161.0667,108.8 M,0,74190,74196,161.0667,108.8 M,0,74196,74199,161.0667,108.8,163.2,107.7334 M,0,74199,74202,163.2,107.7334 M,0,74202,74207,163.2,107.7334,165.3333,106.6667 M,0,74207,74212,165.3333,106.6667,168.5333,105.6 M,0,74212,74216,168.5333,105.6 M,0,74216,74219,168.5333,105.6 M,0,74219,74225,168.5333,105.6,170.6667,104.5334 M,0,74225,74230,170.6667,104.5334,172.8,103.4667 M,0,74230,74233,172.8,103.4667 M,0,74233,74238,172.8,103.4667,176,102.4 M,0,74238,74242,176,102.4 M,0,74242,74247,176,102.4,178.1333,101.3334 M,0,74247,74251,178.1333,101.3334,181.3333,101.3334 M,0,74251,74256,181.3333,101.3334 M,0,74256,74262,181.3333,101.3334,183.4667,100.2667 M,0,74262,74265,183.4667,100.2667 M,0,74265,74269,183.4667,100.2667,185.6,99.20003 M,0,74269,74274,185.6,99.20003,187.7333,98.13336 M,0,74274,74280,187.7333,98.13336 M,0,74280,74283,187.7333,98.13336,189.8667,97.0667 M,0,74283,74288,189.8667,97.0667,192,96.00003 M,0,74288,74296,192,96.00003,195.2,93.8667 M,0,74296,74299,195.2,93.8667 M,0,74299,74301,195.2,93.8667 M,0,74301,74305,195.2,93.8667,197.3333,92.80003 M,0,74305,74312,197.3333,92.80003,200.5333,91.73337 M,0,74312,74316,200.5333,91.73337 M,0,74316,74318,200.5333,91.73337 M,0,74318,74324,200.5333,91.73337,203.7333,90.6667 M,0,74324,74330,203.7333,90.6667,206.9333,88.53336 M,0,74330,74333,206.9333,88.53336,211.2,87.4667 M,0,74333,74336,211.2,87.4667 M,0,74336,74340,211.2,87.4667,214.4,86.40003 M,0,74340,74346,214.4,86.40003 M,0,74346,74350,214.4,86.40003,217.6,84.2667 M,0,74350,74353,217.6,84.2667 M,0,74353,74357,217.6,84.2667,221.8667,83.20003 M,0,74357,74363,221.8667,83.20003,225.0667,83.20003 M,0,74363,74366,225.0667,83.20003 M,0,74366,74370,225.0667,83.20003 M,0,74370,74375,225.0667,83.20003,229.3333,82.13336 M,0,74375,74380,229.3333,82.13336,232.5333,82.13336 M,0,74380,74383,232.5333,82.13336 M,0,74383,74388,232.5333,82.13336,235.7333,82.13336 M,0,74388,74396,235.7333,82.13336,238.9333,82.13336 M,0,74396,74399,238.9333,82.13336 M,0,74399,74401,238.9333,82.13336,242.1333,82.13336 M,0,74401,74406,242.1333,82.13336 M,0,74406,74412,242.1333,82.13336,244.2667,83.20003 M,0,74412,74416,244.2667,83.20003,246.4,84.2667 M,0,74416,74420,246.4,84.2667 M,0,74420,74425,246.4,84.2667,248.5333,85.33337 M,0,74425,74430,248.5333,85.33337 M,0,74430,74432,248.5333,85.33337,250.6667,86.40003 M,0,74432,74437,250.6667,86.40003 M,0,74437,74441,250.6667,86.40003,251.7333,88.53336 M,0,74441,74447,251.7333,88.53336,253.8667,90.6667 M,0,74447,74450,253.8667,90.6667 M,0,74450,74455,253.8667,90.6667,254.9333,91.73337 M,0,74455,74463,254.9333,91.73337,256,93.8667 M,0,74463,74466,256,93.8667 M,0,74466,74469,256,93.8667 M,0,74469,74473,256,93.8667,257.0667,97.0667 M,0,74473,74480,257.0667,97.0667 M,0,74480,74483,257.0667,97.0667,258.1333,99.20003 M,0,74483,74487,258.1333,99.20003 M,0,74487,74491,258.1333,99.20003,259.2,102.4 M,0,74491,74496,259.2,102.4 M,0,74496,74500,259.2,102.4,259.2,104.5334 M,0,74500,74503,259.2,104.5334 M,0,74503,74508,259.2,104.5334,259.2,107.7334 M,0,74508,74512,259.2,107.7334,259.2,110.9334 M,0,74512,74517,259.2,110.9334 M,0,74517,74522,259.2,110.9334,259.2,115.2 M,0,74522,74529,259.2,115.2 M,0,74529,74532,259.2,115.2,259.2,119.4667 M,0,74532,74534,259.2,119.4667 M,0,74534,74539,259.2,119.4667,259.2,123.7334 M,0,74539,74545,259.2,123.7334,258.1333,128 M,0,74545,74549,258.1333,128 M,0,74549,74552,258.1333,128,258.1333,133.3334 M,0,74552,74557,258.1333,133.3334,257.0667,137.6 M,0,74557,74561,257.0667,137.6 M,0,74561,74565,257.0667,137.6 M,0,74565,74570,257.0667,137.6,257.0667,142.9334 M,0,74570,74575,257.0667,142.9334,257.0667,148.2667 M,0,74575,74580,257.0667,148.2667 M,0,74580,74585,257.0667,148.2667,257.0667,152.5334 M,0,74585,74589,257.0667,152.5334,257.0667,157.8667 M,0,74589,74596,257.0667,157.8667 M,0,74596,74598,257.0667,157.8667,257.0667,162.1334 M,0,74598,74603,257.0667,162.1334 M,0,74603,74607,257.0667,162.1334,257.0667,165.3334 M,0,74607,74611,257.0667,165.3334 M,0,74611,74614,257.0667,165.3334,257.0667,169.6 M,0,74614,74619,257.0667,169.6,258.1333,172.8 M,0,74619,74623,258.1333,172.8 M,0,74623,74627,258.1333,172.8,259.2,174.9334 M,0,74627,74631,259.2,174.9334 M,0,74631,74636,259.2,174.9334,260.2667,178.1334 M,0,74636,74641,260.2667,178.1334,262.4,181.3334 M,0,74641,74646,262.4,181.3334 M,0,74646,74650,262.4,181.3334,263.4667,183.4667 M,0,74650,74655,263.4667,183.4667,265.6,186.6667 M,0,74655,74659,265.6,186.6667 M,0,74659,74663,265.6,186.6667,266.6667,189.8667 M,0,74663,74667,266.6667,189.8667 M,0,74667,74671,266.6667,189.8667,268.8,193.0667 M,0,74671,74676,268.8,193.0667 M,0,74676,74679,268.8,193.0667,270.9333,195.2 M,0,74679,74685,270.9333,195.2,273.0667,197.3334 M,0,74685,74689,273.0667,197.3334 M,0,74689,74693,273.0667,197.3334,275.2,199.4667 M,0,74693,74698,275.2,199.4667 M,0,74698,74701,275.2,199.4667,278.4,201.6 M,0,74701,74706,278.4,201.6 M,0,74706,74709,278.4,201.6,280.5333,203.7334 M,0,74709,74715,280.5333,203.7334 M,0,74715,74719,280.5333,203.7334,282.6667,205.8667 M,0,74719,74723,282.6667,205.8667,285.8667,208 M,0,74723,74728,285.8667,208 M,0,74728,74732,285.8667,208,288,210.1334 M,0,74732,74736,288,210.1334 M,0,74736,74741,288,210.1334,291.2,211.2 M,0,74741,74745,291.2,211.2,294.4,213.3334 M,0,74745,74749,294.4,213.3334 M,0,74749,74755,294.4,213.3334,296.5334,215.4667 M,0,74755,74759,296.5334,215.4667 M,0,74759,74762,296.5334,215.4667,299.7333,216.5334 M,0,74762,74767,299.7333,216.5334 M,0,74767,74771,299.7333,216.5334,302.9333,217.6 M,0,74771,74776,302.9333,217.6,306.1333,218.6667 M,0,74776,74780,306.1333,218.6667 M,0,74780,74784,306.1333,218.6667,309.3333,219.7334 M,0,74784,74789,309.3333,219.7334 M,0,74789,74793,309.3333,219.7334,312.5333,219.7334 M,0,74793,74797,312.5333,219.7334 M,0,74797,74801,312.5333,219.7334,314.6667,219.7334 M,0,74801,74806,314.6667,219.7334,317.8667,220.8 M,0,74806,74809,317.8667,220.8 M,0,74809,74813,317.8667,220.8,320,220.8 M,0,74813,74817,320,220.8 M,0,74817,74822,320,220.8,323.2,220.8 M,0,74822,74829,323.2,220.8,325.3333,220.8 M,0,74829,74832,325.3333,220.8 M,0,74832,74836,325.3333,220.8,328.5334,219.7334 M,0,74836,74841,328.5334,219.7334,330.6667,218.6667 M,0,74841,74846,330.6667,218.6667 M,0,74846,74849,330.6667,218.6667 M,0,74849,74855,330.6667,218.6667,332.8,217.6 M,0,74855,74859,332.8,217.6,334.9333,216.5334 M,0,74859,74864,334.9333,216.5334 M,0,74864,74867,334.9333,216.5334 M,0,74867,74872,334.9333,216.5334,339.2,213.3334 M,0,74872,74878,339.2,213.3334 M,0,74878,74881,339.2,213.3334,342.4,211.2 M,0,74881,74885,342.4,211.2 M,0,74885,74890,342.4,211.2,343.4667,209.0667 M,0,74890,74896,343.4667,209.0667,345.6,206.9334 M,0,74896,74900,345.6,206.9334 M,0,74900,74903,345.6,206.9334,347.7333,204.8 M,0,74903,74907,347.7333,204.8 M,0,74907,74912,347.7333,204.8,348.8,202.6667 M,0,74912,74916,348.8,202.6667 M,0,74916,74919,348.8,202.6667,350.9333,200.5334 M,0,74919,74924,350.9333,200.5334,352,198.4 M,0,74924,74930,352,198.4 M,0,74930,74933,352,198.4,353.0667,196.2667 M,0,74933,74937,353.0667,196.2667,354.1333,193.0667 M,0,74937,74945,354.1333,193.0667 M,0,74945,74948,354.1333,193.0667 M,0,74948,74951,354.1333,193.0667,356.2667,189.8667 M,0,74951,74957,356.2667,189.8667,357.3333,186.6667 M,0,74957,74962,357.3333,186.6667 M,0,74962,74966,357.3333,186.6667,358.4,184.5334 M,0,74966,74971,358.4,184.5334,359.4667,181.3334 M,0,74971,74976,359.4667,181.3334 M,0,74976,74981,359.4667,181.3334,360.5334,178.1334 M,0,74981,74983,360.5334,178.1334 M,0,74983,74987,360.5334,178.1334,361.6,174.9334 M,0,74987,74995,361.6,174.9334,363.7333,172.8 M,0,74995,74998,363.7333,172.8 M,0,74998,75001,363.7333,172.8,364.8,168.5334 M,0,75001,75006,364.8,168.5334,366.9333,165.3334 M,0,75006,75012,366.9333,165.3334 M,0,75012,75016,366.9333,165.3334 M,0,75016,75019,366.9333,165.3334,369.0667,162.1334 M,0,75019,75024,369.0667,162.1334,370.1333,158.9334 M,0,75024,75030,370.1333,158.9334 M,0,75030,75032,370.1333,158.9334,372.2667,155.7334 M,0,75032,75036,372.2667,155.7334 M,0,75036,75040,372.2667,155.7334,374.4,152.5334 M,0,75040,75047,374.4,152.5334,376.5333,150.4 M,0,75047,75050,376.5333,150.4 M,0,75050,75053,376.5333,150.4,378.6667,147.2 M,0,75053,75057,378.6667,147.2 M,0,75057,75063,378.6667,147.2,381.8667,145.0667 M,0,75063,75066,381.8667,145.0667 M,0,75066,75070,381.8667,145.0667,384,141.8667 M,0,75070,75076,384,141.8667,386.1334,139.7334 M,0,75076,75080,386.1334,139.7334 M,0,75080,75085,386.1334,139.7334,389.3333,137.6 M,0,75085,75090,389.3333,137.6,391.4667,135.4667 M,0,75090,75096,391.4667,135.4667 M,0,75096,75100,391.4667,135.4667,394.6667,134.4 M,0,75100,75102,394.6667,134.4 M,0,75102,75107,394.6667,134.4,396.8,133.3334 M,0,75107,75113,396.8,133.3334,400,132.2667 M,0,75113,75117,400,132.2667 M,0,75117,75121,400,132.2667,403.2,131.2 M,0,75121,75126,403.2,131.2 M,0,75126,75130,403.2,131.2,406.4,131.2 M,0,75130,75133,406.4,131.2 M,0,75133,75139,406.4,131.2,410.6667,131.2 M,0,75139,75145,410.6667,131.2,413.8667,131.2 M,0,75145,75148,413.8667,131.2 M,0,75148,75152,413.8667,131.2,418.1334,132.2667 M,0,75152,75157,418.1334,132.2667,422.4,134.4 M,0,75157,75162,422.4,134.4 M,0,75162,75166,422.4,134.4,425.6,137.6 M,0,75166,75170,425.6,137.6,429.8667,139.7334 M,0,75170,75176,429.8667,139.7334 M,0,75176,75181,429.8667,139.7334,433.0667,142.9334 M,0,75181,75185,433.0667,142.9334 M,0,75185,75189,433.0667,142.9334,437.3333,147.2 M,0,75189,75196,437.3333,147.2,441.6,150.4 M,0,75196,75199,441.6,150.4 M,0,75199,75202,441.6,150.4 M,0,75202,75208,441.6,150.4,444.8,153.6 M,0,75208,75212,444.8,153.6,449.0667,157.8667 M,0,75212,75217,449.0667,157.8667 M,0,75217,75223,449.0667,157.8667,453.3333,162.1334 M,0,75223,75229,453.3333,162.1334,458.6667,166.4 M,0,75229,75231,458.6667,166.4 M,0,75231,75236,458.6667,166.4,464,170.6667 M,0,75236,75240,464,170.6667,469.3333,176 M,0,75240,75247,469.3333,176 M,0,75247,75251,469.3333,176,473.6,182.4 M,0,75251,75256,473.6,182.4,478.9333,188.8 M,0,75256,75263,478.9333,188.8,484.2667,195.2 M,0,75263,75267,484.2667,195.2 M,0,75267,75269,484.2667,195.2 M,0,75269,75274,484.2667,195.2,488.5333,202.6667 M,0,75274,75280,488.5333,202.6667,493.8667,210.1334 M,0,75280,75283,493.8667,210.1334 M,0,75283,75287,493.8667,210.1334,499.2,218.6667 M,0,75287,75291,499.2,218.6667,503.4666,227.2 M,0,75291,75298,503.4666,227.2 M,0,75298,75300,503.4666,227.2 M,0,75300,75303,503.4666,227.2,508.8,235.7334 M,0,75303,75308,508.8,235.7334,513.0667,244.2667 M,0,75308,75315,513.0667,244.2667,517.3334,252.8 M,0,75315,75318,517.3334,252.8 M,0,75318,75323,517.3334,252.8,522.6667,261.3333 M,0,75323,75330,522.6667,261.3333 M,0,75330,75333,522.6667,261.3333,526.9333,268.8 M,0,75333,75336,526.9333,268.8 M,0,75336,75340,526.9333,268.8,531.2,275.2 M,0,75340,75347,531.2,275.2,534.4,280.5334 M,0,75347,75351,534.4,280.5334 M,0,75351,75356,534.4,280.5334,537.6,284.8 M,0,75356,75360,537.6,284.8 M,0,75360,75364,537.6,284.8,540.8,288 M,0,75364,75368,540.8,288 M,0,75368,75372,540.8,288,544,291.2 M,0,75372,75378,544,291.2 M,0,75378,75381,544,291.2 M,0,75381,75385,544,291.2,545.0667,291.2 M,0,75385,75389,545.0667,291.2 M,0,75389,75393,545.0667,291.2 M,0,75393,75397,545.0667,291.2 M,0,75397,75401,545.0667,291.2,545.0667,290.1334 M,0,75401,75406,545.0667,290.1334,545.0667,288 M,0,75406,75410,545.0667,288 M,0,75410,75415,545.0667,288,544,284.8 M,0,75415,75419,544,284.8 M,0,75419,75423,544,284.8,540.8,280.5334 M,0,75423,75427,540.8,280.5334 M,0,75427,75431,540.8,280.5334,538.6667,276.2667 M,0,75431,75436,538.6667,276.2667,534.4,272 M,0,75436,75440,534.4,272 M,0,75440,75445,534.4,272,531.2,267.7334 M,0,75445,75449,531.2,267.7334 M,0,75449,75452,531.2,267.7334,525.8667,264.5334 M,0,75452,75457,525.8667,264.5334 M,0,75457,75463,525.8667,264.5334,521.6,260.2667 M,0,75463,75466,521.6,260.2667,517.3334,256 M,0,75466,75471,517.3334,256 M,0,75471,75476,517.3334,256,512,252.8 M,0,75476,75480,512,252.8,506.6667,249.6 M,0,75480,75485,506.6667,249.6 M,0,75485,75489,506.6667,249.6,502.4,247.4667 M,0,75489,75493,502.4,247.4667 M,0,75493,75496,502.4,247.4667,497.0667,245.3334 M,0,75496,75501,497.0667,245.3334 M,0,75501,75506,497.0667,245.3334,491.7334,243.2 M,0,75506,75510,491.7334,243.2 M,0,75510,75513,491.7334,243.2,487.4667,241.0667 M,0,75513,75517,487.4667,241.0667 M,0,75517,75522,487.4667,241.0667,482.1333,240 M,0,75522,75527,482.1333,240,477.8667,238.9334 M,0,75527,75531,477.8667,238.9334,473.6,237.8667 M,0,75531,75535,473.6,237.8667 M,0,75535,75540,473.6,237.8667,469.3333,237.8667 M,0,75540,75545,469.3333,237.8667 M,0,75545,75549,469.3333,237.8667,465.0667,237.8667 M,0,75549,75555,465.0667,237.8667,460.8,238.9334 M,0,75555,75562,460.8,238.9334 M,0,75562,75565,460.8,238.9334,456.5334,240 M,0,75565,75568,456.5334,240 M,0,75568,75572,456.5334,240,453.3333,241.0667 M,0,75572,75576,453.3333,241.0667 M,0,75576,75580,453.3333,241.0667,450.1334,243.2 M,0,75580,75583,450.1334,243.2 M,0,75583,75588,450.1334,243.2,446.9333,244.2667 M,0,75588,75591,446.9333,244.2667 M,0,75591,75596,446.9333,244.2667,444.8,247.4667 M,0,75596,75600,444.8,247.4667,441.6,249.6 M,0,75600,75606,441.6,249.6 M,0,75606,75611,441.6,249.6,438.4,252.8 M,0,75611,75615,438.4,252.8,436.2667,257.0667 M,0,75615,75619,436.2667,257.0667 M,0,75619,75624,436.2667,257.0667,433.0667,260.2667 M,0,75624,75630,433.0667,260.2667 M,0,75630,75633,433.0667,260.2667,429.8667,264.5334 M,0,75633,75638,429.8667,264.5334,426.6667,267.7334 M,0,75638,75645,426.6667,267.7334,423.4667,270.9334 M,0,75645,75648,423.4667,270.9334 M,0,75648,75650,423.4667,270.9334 M,0,75650,75655,423.4667,270.9334,421.3333,275.2 M,0,75655,75661,421.3333,275.2,418.1334,278.4001 M,0,75661,75663,418.1334,278.4001 M,0,75663,75667,418.1334,278.4001 M,0,75667,75672,418.1334,278.4001,416,282.6667 M,0,75672,75678,416,282.6667,413.8667,286.9333 M,0,75678,75681,413.8667,286.9333 M,0,75681,75685,413.8667,286.9333,411.7333,291.2 M,0,75685,75690,411.7333,291.2,409.6,294.4 M,0,75690,75695,409.6,294.4 M,0,75695,75698,409.6,294.4 M,0,75698,75703,409.6,294.4,407.4667,298.6667 M,0,75703,75708,407.4667,298.6667,406.4,302.9334 M,0,75708,75712,406.4,302.9334,404.2667,308.2667 M,0,75712,75716,404.2667,308.2667 M,0,75716,75721,404.2667,308.2667,403.2,312.5334 M,0,75721,75729,403.2,312.5334,402.1333,316.8 M,0,75729,75731,402.1333,316.8 M,0,75731,75736,402.1333,316.8,401.0667,321.0667 M,0,75736,75740,401.0667,321.0667,400,325.3333 M,0,75740,75746,400,325.3333 M,0,75746,75750,400,325.3333,398.9333,329.6 M,0,75750,75755,398.9333,329.6 M,0,75755,75761,398.9333,329.6,398.9333,333.8667 M,0,75761,75763,398.9333,333.8667 M,0,75763,75768,398.9333,333.8667,397.8667,338.1334 M,0,75768,75772,397.8667,338.1334,397.8667,341.3334 M,0,75772,75777,397.8667,341.3334 M,0,75777,75781,397.8667,341.3334,397.8667,345.6 M,0,75781,75785,397.8667,345.6 M,0,75785,75789,397.8667,345.6,397.8667,348.8 M,0,75789,75795,397.8667,348.8,397.8667,353.0667 M,0,75795,75799,397.8667,353.0667 M,0,75799,75804,397.8667,353.0667,397.8667,356.2667 M,0,75804,75809,397.8667,356.2667 M,0,75809,75813,397.8667,356.2667,397.8667,359.4667 M,0,75813,75816,397.8667,359.4667 M,0,75816,75820,397.8667,359.4667,397.8667,363.7334 M,0,75820,75826,397.8667,363.7334,398.9333,366.9334 M,0,75826,75830,398.9333,366.9334 M,0,75830,75833,398.9333,366.9334,400,371.2 M,0,75833,75837,400,371.2 M,0,75837,75842,400,371.2,401.0667,375.4667 M,0,75842,75846,401.0667,375.4667 M,0,75846,75850,401.0667,375.4667,402.1333,378.6667 M,0,75850,75855,402.1333,378.6667,403.2,381.8667 M,0,75855,75859,403.2,381.8667 M,0,75859,75865,403.2,381.8667,405.3333,385.0667 M,0,75865,75869,405.3333,385.0667 M,0,75869,75873,405.3333,385.0667,407.4667,388.2667 M,0,75873,75877,407.4667,388.2667 M,0,75877,75881,407.4667,388.2667,409.6,391.4667 M,0,75881,75886,409.6,391.4667,411.7333,393.6 M,0,75886,75890,411.7333,393.6 M,0,75890,75895,411.7333,393.6,414.9333,395.7334 M,0,75895,75899,414.9333,395.7334 M,0,75899,75902,414.9333,395.7334,417.0667,396.8 M,0,75902,75907,417.0667,396.8 M,0,75907,75912,417.0667,396.8,420.2667,397.8667 M,0,75912,75916,420.2667,397.8667,423.4667,398.9334 M,0,75916,75920,423.4667,398.9334 M,0,75920,75925,423.4667,398.9334,426.6667,398.9334 M,0,75925,75930,426.6667,398.9334 M,0,75930,75933,426.6667,398.9334,429.8667,398.9334 M,0,75933,75938,429.8667,398.9334 M,0,75938,75942,429.8667,398.9334,433.0667,398.9334 M,0,75942,75945,433.0667,398.9334,436.2667,397.8667 M,0,75945,75950,436.2667,397.8667 M,0,75950,75955,436.2667,397.8667,439.4667,395.7334 M,0,75955,75960,439.4667,395.7334 M,0,75960,75963,439.4667,395.7334,442.6667,393.6 M,0,75963,75967,442.6667,393.6 M,0,75967,75971,442.6667,393.6,444.8,392.5334 M,0,75971,75976,444.8,392.5334,446.9333,390.4 M,0,75976,75980,446.9333,390.4 M,0,75980,75985,446.9333,390.4,449.0667,388.2667 M,0,75985,75989,449.0667,388.2667,450.1334,386.1334 M,0,75989,75996,450.1334,386.1334 M,0,75996,75999,450.1334,386.1334,450.1334,385.0667 M,0,75999,76002,450.1334,385.0667 M,0,76002,76007,450.1334,385.0667,450.1334,382.9333 M,0,76007,76012,450.1334,382.9333,450.1334,380.8 M,0,76012,76016,450.1334,380.8 M,0,76016,76020,450.1334,380.8 M,0,76020,76025,450.1334,380.8,450.1334,378.6667 M,0,76025,76030,450.1334,378.6667,449.0667,376.5334 M,0,76030,76033,449.0667,376.5334 M,0,76033,76038,449.0667,376.5334,446.9333,374.4 M,0,76038,76045,446.9333,374.4,444.8,372.2667 M,0,76045,76049,444.8,372.2667 M,0,76049,76052,444.8,372.2667,441.6,369.0667 M,0,76052,76057,441.6,369.0667,438.4,365.8667 M,0,76057,76062,438.4,365.8667 M,0,76062,76065,438.4,365.8667,434.1333,362.6667 M,0,76065,76069,434.1333,362.6667 M,0,76069,76074,434.1333,362.6667,429.8667,359.4667 M,0,76074,76080,429.8667,359.4667 M,0,76080,76082,429.8667,359.4667,425.6,357.3334 M,0,76082,76087,425.6,357.3334 M,0,76087,76090,425.6,357.3334,420.2667,355.2 M,0,76090,76097,420.2667,355.2,416,353.0667 M,0,76097,76101,416,353.0667 M,0,76101,76105,416,353.0667,410.6667,349.8667 M,0,76105,76111,410.6667,349.8667,405.3333,347.7334 M,0,76111,76116,405.3333,347.7334 M,0,76116,76118,405.3333,347.7334 M,0,76118,76123,405.3333,347.7334,391.4667,343.4667 M,0,76123,76130,391.4667,343.4667 M,0,76130,76133,391.4667,343.4667 M,0,76133,76134,391.4667,343.4667,384,342.4001 M,0,76134,76140,384,342.4001,376.5333,340.2667 M,0,76140,76146,376.5333,340.2667 M,0,76146,76148,376.5333,340.2667 M,0,76148,76152,376.5333,340.2667,366.9333,339.2 M,0,76152,76157,366.9333,339.2,358.4,338.1334 M,0,76157,76161,358.4,338.1334 M,0,76161,76165,358.4,338.1334,347.7333,336 M,0,76165,76169,347.7333,336 M,0,76169,76173,347.7333,336,337.0667,334.9334 M,0,76173,76178,337.0667,334.9334 M,0,76178,76182,337.0667,334.9334,326.4,334.9334 M,0,76182,76186,326.4,334.9334,314.6667,333.8667 M,0,76186,76190,314.6667,333.8667 M,0,76190,76197,314.6667,333.8667,302.9333,333.8667 M,0,76197,76201,302.9333,333.8667,291.2,334.9334 M,0,76201,76206,291.2,334.9334 M,0,76206,76209,291.2,334.9334,279.4667,336 M,0,76209,76213,279.4667,336 M,0,76213,76217,279.4667,336,267.7333,339.2 M,0,76217,76221,267.7333,339.2 M,0,76221,76226,267.7333,339.2,256,342.4001 M,0,76226,76230,256,342.4001,244.2667,345.6 M,0,76230,76235,244.2667,345.6 M,0,76235,76239,244.2667,345.6,233.6,349.8667 M,0,76239,76243,233.6,349.8667 M,0,76243,76247,233.6,349.8667,224,355.2 M,0,76247,76251,224,355.2 M,0,76251,76257,224,355.2,214.4,360.5334 M,0,76257,76261,214.4,360.5334,205.8667,365.8667 M,0,76261,76266,205.8667,365.8667 M,0,76266,76270,205.8667,365.8667,198.4,372.2667 M,0,76270,76275,198.4,372.2667,190.9333,378.6667 M,0,76275,76279,190.9333,378.6667 M,0,76279,76283,190.9333,378.6667,184.5333,384 M,0,76283,76288,184.5333,384 M,0,76288,76291,184.5333,384,179.2,390.4 M,0,76291,76295,179.2,390.4 M,0,76295,76301,179.2,390.4,173.8667,395.7334 M,0,76301,76306,173.8667,395.7334,169.6,401.0667 M,0,76306,76310,169.6,401.0667 M,0,76310,76315,169.6,401.0667,165.3333,405.3334 M,0,76315,76318,165.3333,405.3334 M,0,76318,76323,165.3333,405.3334,163.2,409.6 M,0,76323,76328,163.2,409.6 M,0,76328,76331,163.2,409.6,161.0667,412.8 M,0,76331,76336,161.0667,412.8,160,416 M,0,76336,76340,160,416 M,0,76340,76346,160,416,158.9333,418.1334 M,0,76346,76350,158.9333,418.1334 M,0,76350,76355,158.9333,418.1334,158.9333,420.2667 M,0,76355,76359,158.9333,420.2667,158.9333,422.4 M,0,76359,76362,158.9333,422.4 M,0,76362,76366,158.9333,422.4,160,424.5334 M,0,76366,76370,160,424.5334 M,0,76370,76375,160,424.5334,162.1333,425.6 M,0,76375,76380,162.1333,425.6 M,0,76380,76385,162.1333,425.6,165.3333,426.6667 M,0,76385,76389,165.3333,426.6667,168.5333,427.7334 M,0,76389,76393,168.5333,427.7334 M,0,76393,76397,168.5333,427.7334,172.8,427.7334 M,0,76397,76401,172.8,427.7334 M,0,76401,76406,172.8,427.7334,178.1333,427.7334 M,0,76406,76410,178.1333,427.7334,183.4667,426.6667 M,0,76410,76415,183.4667,426.6667 M,0,76415,76419,183.4667,426.6667,189.8667,424.5334 M,0,76419,76423,189.8667,424.5334 M,0,76423,76428,189.8667,424.5334,195.2,422.4 M,0,76428,76432,195.2,422.4 M,0,76432,76436,195.2,422.4,200.5333,420.2667 M,0,76436,76440,200.5333,420.2667,205.8667,417.0667 M,0,76440,76447,205.8667,417.0667 M,0,76447,76449,205.8667,417.0667,211.2,413.8667 M,0,76449,76454,211.2,413.8667 M,0,76454,76458,211.2,413.8667,215.4667,410.6667 M,0,76458,76463,215.4667,410.6667,219.7333,406.4 M,0,76463,76467,219.7333,406.4 M,0,76467,76471,219.7333,406.4,222.9333,403.2 M,0,76471,76476,222.9333,403.2 M,0,76476,76480,222.9333,403.2,226.1333,398.9334 M,0,76480,76483,226.1333,398.9334 M,0,76483,76488,226.1333,398.9334,228.2667,394.6667 M,0,76488,76492,228.2667,394.6667,230.4,390.4 M,0,76492,76496,230.4,390.4 M,0,76496,76500,230.4,390.4,231.4667,386.1334 M,0,76500,76505,231.4667,386.1334 M,0,76505,76510,231.4667,386.1334,232.5333,382.9333 M,0,76510,76514,232.5333,382.9333 M,0,76514,76518,232.5333,382.9333,232.5333,378.6667 M,0,76518,76522,232.5333,378.6667,232.5333,374.4 M,0,76522,76527,232.5333,374.4 M,0,76527,76531,232.5333,374.4,230.4,369.0667 M,0,76531,76535,230.4,369.0667 M,0,76535,76540,230.4,369.0667,227.2,364.8 M,0,76540,76543,227.2,364.8 M,0,76543,76547,227.2,364.8,222.9333,359.4667 M,0,76547,76551,222.9333,359.4667 M,0,76551,76556,222.9333,359.4667,218.6667,353.0667 M,0,76556,76560,218.6667,353.0667,212.2667,346.6667 M,0,76560,76565,212.2667,346.6667 M,0,76565,76569,212.2667,346.6667,204.8,340.2667 M,0,76569,76574,204.8,340.2667,197.3333,332.8 M,0,76574,76580,197.3333,332.8 M,0,76580,76582,197.3333,332.8 M,0,76582,76586,197.3333,332.8,187.7333,325.3333 M,0,76586,76592,187.7333,325.3333,177.0667,317.8667 M,0,76592,76597,177.0667,317.8667 M,0,76597,76601,177.0667,317.8667,165.3333,310.4001 M,0,76601,76606,165.3333,310.4001,154.6667,304 M,0,76606,76612,154.6667,304 M,0,76612,76616,154.6667,304,142.9333,298.6667 M,0,76616,76620,142.9333,298.6667,131.2,293.3333 M,0,76620,76626,131.2,293.3333 M,0,76626,76629,131.2,293.3333,119.4667,290.1334 M,0,76629,76632,119.4667,290.1334 M,0,76632,76638,119.4667,290.1334,108.8,286.9333 M,0,76638,76645,108.8,286.9333,98.13335,285.8667 M,0,76645,76649,98.13335,285.8667 M,0,76649,76651,98.13335,285.8667,88.53335,284.8 M,0,76651,76656,88.53335,284.8 M,0,76656,76662,88.53335,284.8,78.93334,284.8 M,0,76662,76665,78.93334,284.8,71.46667,286.9333 M,0,76665,76670,71.46667,286.9333 M,0,76670,76675,71.46667,286.9333,65.06667,289.0667 M,0,76675,76679,65.06667,289.0667 M,0,76679,76683,65.06667,289.0667,59.73335,292.2667 M,0,76683,76688,59.73335,292.2667,55.46667,296.5334 M,0,76688,76697,55.46667,296.5334,52.26667,299.7334 M,0,76697,76699,52.26667,299.7334 M,0,76699,76702,52.26667,299.7334 M,0,76702,76706,52.26667,299.7334,50.13334,302.9334 M,0,76706,76712,50.13334,302.9334,49.06667,306.1334 M,0,76712,76715,49.06667,306.1334 M,0,76715,76719,49.06667,306.1334,49.06667,310.4001 M,0,76719,76724,49.06667,310.4001,49.06667,313.6 M,0,76724,76730,49.06667,313.6 M,0,76730,76732,49.06667,313.6 M,0,76732,76736,49.06667,313.6,52.26667,316.8 M,0,76736,76740,52.26667,316.8 M,0,76740,76747,52.26667,316.8,56.53334,318.9333 M,0,76747,76749,56.53334,318.9333,61.86667,322.1334 M,0,76749,76753,61.86667,322.1334 M,0,76753,76757,61.86667,322.1334,69.33334,324.2667 M,0,76757,76763,69.33334,324.2667,77.86667,325.3333 M,0,76763,76766,77.86667,325.3333 M,0,76766,76771,77.86667,325.3333,88.53335,326.4 M,0,76771,76775,88.53335,326.4 M,0,76775,76779,88.53335,326.4,98.13335,326.4 M,0,76779,76783,98.13335,326.4 M,0,76783,76787,98.13335,326.4,108.8,326.4 M,0,76787,76791,108.8,326.4 M,0,76791,76796,108.8,326.4,120.5333,325.3333 M,0,76796,76800,120.5333,325.3333,131.2,322.1334 M,0,76800,76805,131.2,322.1334 M,0,76805,76809,131.2,322.1334,142.9333,318.9333 M,0,76809,76813,142.9333,318.9333 M,0,76813,76817,142.9333,318.9333,155.7333,315.7334 M,0,76817,76821,155.7333,315.7334 M,0,76821,76825,155.7333,315.7334,168.5333,310.4001 M,0,76825,76830,168.5333,310.4001 M,0,76830,76833,168.5333,310.4001,181.3333,306.1334 M,0,76833,76838,181.3333,306.1334 M,0,76838,76841,181.3333,306.1334,194.1333,300.8 M,0,76841,76846,194.1333,300.8,206.9333,295.4667 M,0,76846,76850,206.9333,295.4667 M,0,76850,76854,206.9333,295.4667,219.7333,290.1334 M,0,76854,76858,219.7333,290.1334 M,0,76858,76862,219.7333,290.1334,231.4667,284.8 M,0,76862,76867,231.4667,284.8 M,0,76867,76871,231.4667,284.8,243.2,278.4001 M,0,76871,76875,243.2,278.4001,254.9333,273.0667 M,0,76875,76880,254.9333,273.0667 M,0,76880,76883,254.9333,273.0667,264.5334,267.7334 M,0,76883,76888,264.5334,267.7334 M,0,76888,76891,264.5334,267.7334,274.1334,261.3333 M,0,76891,76896,274.1334,261.3333 M,0,76896,76900,274.1334,261.3333,281.6,257.0667 M,0,76900,76906,281.6,257.0667,288,252.8 M,0,76906,76908,288,252.8 M,0,76908,76912,288,252.8,292.2667,249.6 M,0,76912,76917,292.2667,249.6 M,0,76917,76922,292.2667,249.6,295.4667,247.4667 M,0,76922,76925,295.4667,247.4667 M,0,76925,76930,295.4667,247.4667,298.6667,246.4 M,0,76930,76932,298.6667,246.4 M,0,76932,76937,298.6667,246.4,299.7333,245.3334 M,0,76937,76941,299.7333,245.3334 M,0,76941,76946,299.7333,245.3334,300.8,244.2667 M,0,76946,76950,300.8,244.2667 M,0,76950,76954,300.8,244.2667 M,0,76954,76961,300.8,244.2667 M,0,76961,76966,300.8,244.2667 M,0,76966,76970,300.8,244.2667,300.8,243.2 M,0,76970,76979,300.8,243.2 M,0,76979,76981,300.8,243.2,298.6667,243.2 M,0,76981,76985,298.6667,243.2 M,0,76985,76989,298.6667,243.2,296.5334,242.1334 M,0,76989,76996,296.5334,242.1334,293.3333,242.1334 M,0,76996,76999,293.3333,242.1334 M,0,76999,77002,293.3333,242.1334,290.1333,242.1334 M,0,77002,77008,290.1333,242.1334 M,0,77008,77012,290.1333,242.1334,286.9333,241.0667 M,0,77012,77016,286.9333,241.0667 M,0,77016,77020,286.9333,241.0667,282.6667,240 M,0,77020,77024,282.6667,240,278.4,238.9334 M,0,77024,77031,278.4,238.9334 M,0,77031,77033,278.4,238.9334,273.0667,237.8667 M,0,77033,77037,273.0667,237.8667,267.7333,235.7334 M,0,77037,77045,267.7333,235.7334 M,0,77045,77049,267.7333,235.7334,261.3333,233.6 M,0,77049,77053,261.3333,233.6 M,0,77053,77058,261.3333,233.6,254.9333,231.4667 M,0,77058,77063,254.9333,231.4667,247.4667,228.2667 M,0,77063,77066,247.4667,228.2667 M,0,77066,77070,247.4667,228.2667,241.0667,225.0667 M,0,77070,77077,241.0667,225.0667 M,0,77077,77081,241.0667,225.0667,233.6,220.8 M,0,77081,77085,233.6,220.8,227.2,215.4667 M,0,77085,77089,227.2,215.4667 M,0,77089,77095,227.2,215.4667,221.8667,210.1334 M,0,77095,77098,221.8667,210.1334 M,0,77098,77101,221.8667,210.1334,216.5333,204.8 M,0,77101,77107,216.5333,204.8,211.2,198.4 M,0,77107,77112,211.2,198.4 M,0,77112,77116,211.2,198.4,208,193.0667 M,0,77116,77120,208,193.0667 M,0,77120,77125,208,193.0667,205.8667,186.6667 M,0,77125,77130,205.8667,186.6667 M,0,77130,77134,205.8667,186.6667,204.8,180.2667 M,0,77134,77138,204.8,180.2667,204.8,172.8 M,0,77138,77145,204.8,172.8,204.8,166.4 M,0,77145,77147,204.8,166.4 M,0,77147,77152,204.8,166.4 M,0,77152,77157,204.8,166.4,209.0667,158.9334 M,0,77157,77162,209.0667,158.9334,213.3333,152.5334 M,0,77162,77165,213.3333,152.5334 M,0,77165,77169,213.3333,152.5334,219.7333,145.0667 M,0,77169,77175,219.7333,145.0667,227.2,137.6 M,0,77175,77180,227.2,137.6 M,0,77180,77183,227.2,137.6,236.8,130.1334 M,0,77183,77189,236.8,130.1334,246.4,122.6667 M,0,77189,77195,246.4,122.6667 M,0,77195,77198,246.4,122.6667 M,0,77198,77202,246.4,122.6667,256,115.2 M,0,77202,77207,256,115.2,266.6667,109.8667 M,0,77207,77212,266.6667,109.8667 M,0,77212,77215,266.6667,109.8667,275.2,104.5334 M,0,77215,77220,275.2,104.5334 M,0,77220,77225,275.2,104.5334,283.7333,100.2667 M,0,77225,77230,283.7333,100.2667,291.2,97.0667 M,0,77230,77232,291.2,97.0667 M,0,77232,77238,291.2,97.0667,297.6,93.8667 M,0,77238,77246,297.6,93.8667,304,91.73337 M,0,77246,77249,304,91.73337 M,0,77249,77251,304,91.73337,310.4,90.6667 M,0,77251,77256,310.4,90.6667,317.8667,89.60003 M,0,77256,77262,317.8667,89.60003 M,0,77262,77265,317.8667,89.60003,324.2667,88.53336 M,0,77265,77268,324.2667,88.53336 M,0,77268,77273,324.2667,88.53336,330.6667,88.53336 M,0,77273,77280,330.6667,88.53336 M,0,77280,77282,330.6667,88.53336,337.0667,88.53336 M,0,77282,77286,337.0667,88.53336 M,0,77286,77290,337.0667,88.53336,343.4667,88.53336 M,0,77290,77296,343.4667,88.53336,348.8,88.53336 M,0,77296,77300,348.8,88.53336 M,0,77300,77302,348.8,88.53336 M,0,77302,77306,348.8,88.53336,353.0667,89.60003 M,0,77306,77312,353.0667,89.60003,357.3333,91.73337 M,0,77312,77314,357.3333,91.73337 M,0,77314,77318,357.3333,91.73337 M,0,77318,77323,357.3333,91.73337,364.8,94.93336 M,0,77323,77329,364.8,94.93336 M,0,77329,77331,364.8,94.93336 M,0,77331,77336,364.8,94.93336,366.9333,97.0667 M,0,77336,77340,366.9333,97.0667,369.0667,99.20003 M,0,77340,77346,369.0667,99.20003 M,0,77346,77349,369.0667,99.20003 M,0,77349,77353,369.0667,99.20003,372.2667,102.4 M,0,77353,77358,372.2667,102.4,374.4,105.6 M,0,77358,77363,374.4,105.6,376.5333,108.8 M,0,77363,77367,376.5333,108.8 M,0,77367,77371,376.5333,108.8,378.6667,113.0667 M,0,77371,77379,378.6667,113.0667,381.8667,117.3334 M,0,77379,77381,381.8667,117.3334 M,0,77381,77385,381.8667,117.3334,384,120.5334 M,0,77385,77390,384,120.5334 M,0,77390,77395,384,120.5334,386.1334,124.8 M,0,77395,77399,386.1334,124.8 M,0,77399,77402,386.1334,124.8,387.2,129.0667 M,0,77402,77407,387.2,129.0667,389.3333,133.3334 M,0,77407,77412,389.3333,133.3334 M,0,77412,77417,389.3333,133.3334,390.4,137.6 M,0,77417,77421,390.4,137.6,392.5334,141.8667 M,0,77421,77427,392.5334,141.8667 M,0,77427,77430,392.5334,141.8667,394.6667,146.1334 M,0,77430,77435,394.6667,146.1334 M,0,77435,77439,394.6667,146.1334,395.7333,150.4 M,0,77439,77445,395.7333,150.4,396.8,154.6667 M,0,77445,77449,396.8,154.6667 M,0,77449,77453,396.8,154.6667,398.9333,158.9334 M,0,77453,77457,398.9333,158.9334 M,0,77457,77462,398.9333,158.9334,400,162.1334 M,0,77462,77465,400,162.1334 M,0,77465,77471,400,162.1334,402.1333,166.4 M,0,77471,77477,402.1333,166.4,404.2667,169.6 M,0,77477,77481,404.2667,169.6 M,0,77481,77486,404.2667,169.6,406.4,173.8667 M,0,77486,77490,406.4,173.8667,407.4667,177.0667 M,0,77490,77496,407.4667,177.0667 M,0,77496,77498,407.4667,177.0667,409.6,181.3334 M,0,77498,77503,409.6,181.3334 M,0,77503,77508,409.6,181.3334,410.6667,185.6 M,0,77508,77512,410.6667,185.6,411.7333,189.8667 M,0,77512,77516,411.7333,189.8667 M,0,77516,77521,411.7333,189.8667,411.7333,194.1334 M,0,77521,77527,411.7333,194.1334 M,0,77527,77531,411.7333,194.1334,412.8,198.4 M,0,77531,77535,412.8,198.4,412.8,203.7334 M,0,77535,77539,412.8,203.7334 M,0,77539,77545,412.8,203.7334,412.8,208 M,0,77545,77548,412.8,208 M,0,77548,77553,412.8,208,411.7333,214.4 M,0,77553,77558,411.7333,214.4,409.6,219.7334 M,0,77558,77562,409.6,219.7334 M,0,77562,77565,409.6,219.7334,406.4,226.1334 M,0,77565,77571,406.4,226.1334 M,0,77571,77575,406.4,226.1334,403.2,232.5334 M,0,77575,77580,403.2,232.5334,398.9333,238.9334 M,0,77580,77582,398.9333,238.9334 M,0,77582,77588,398.9333,238.9334,394.6667,245.3334 M,0,77588,77594,394.6667,245.3334 M,0,77594,77598,394.6667,245.3334,389.3333,251.7334 M,0,77598,77601,389.3333,251.7334 M,0,77601,77606,389.3333,251.7334,384,258.1334 M,0,77606,77611,384,258.1334,377.6,264.5334 M,0,77611,77615,377.6,264.5334 M,0,77615,77619,377.6,264.5334,372.2667,269.8667 M,0,77619,77625,372.2667,269.8667,366.9333,274.1334 M,0,77625,77630,366.9333,274.1334 M,0,77630,77633,366.9333,274.1334,362.6667,278.4001 M,0,77633,77638,362.6667,278.4001 M,0,77638,77646,362.6667,278.4001,358.4,281.6 M,0,77646,77649,358.4,281.6 M,0,77649,77651,358.4,281.6,355.2,282.6667 M,0,77651,77656,355.2,282.6667,353.0667,284.8 M,0,77656,77662,353.0667,284.8 M,0,77662,77665,353.0667,284.8,352,284.8 M,0,77665,77670,352,284.8 M,0,77670,77674,352,284.8,349.8667,285.8667 M,0,77674,77680,349.8667,285.8667,348.8,285.8667 M,0,77680,77683,348.8,285.8667 M,0,77683,77687,348.8,285.8667,347.7333,285.8667 M,0,77687,77691,347.7333,285.8667,347.7333,284.8 M,0,77691,77696,347.7333,284.8 M,0,77696,77700,347.7333,284.8 M,0,77700,77703,347.7333,284.8,346.6667,281.6 M,0,77703,77708,346.6667,281.6,346.6667,278.4001 M,0,77708,77712,346.6667,278.4001 M,0,77712,77716,346.6667,278.4001,346.6667,273.0667 M,0,77716,77721,346.6667,273.0667 M,0,77721,77726,346.6667,273.0667,348.8,265.6 M,0,77726,77731,348.8,265.6,350.9333,258.1334 M,0,77731,77733,350.9333,258.1334 M,0,77733,77739,350.9333,258.1334,354.1333,248.5334 M,0,77739,77745,354.1333,248.5334,358.4,237.8667 M,0,77745,77749,358.4,237.8667 M,0,77749,77751,358.4,237.8667 M,0,77751,77756,358.4,237.8667,362.6667,227.2 M,0,77756,77762,362.6667,227.2,366.9333,214.4 M,0,77762,77766,366.9333,214.4 M,0,77766,77770,366.9333,214.4,372.2667,200.5334 M,0,77770,77778,372.2667,200.5334,376.5333,186.6667 M,0,77778,77781,376.5333,186.6667 M,0,77781,77784,376.5333,186.6667,381.8667,172.8 M,0,77784,77789,381.8667,172.8,386.1334,160 M,0,77789,77795,386.1334,160 M,0,77795,77799,386.1334,160,390.4,147.2 M,0,77799,77801,390.4,147.2 M,0,77801,77806,390.4,147.2,393.6,135.4667 M,0,77806,77811,393.6,135.4667 M,0,77811,77813,393.6,135.4667,397.8667,125.8667 M,0,77813,77818,397.8667,125.8667 M,0,77818,77823,397.8667,125.8667,401.0667,117.3334 M,0,77823,77829,401.0667,117.3334,404.2667,109.8667 M,0,77829,77832,404.2667,109.8667 M,0,77832,77836,404.2667,109.8667,407.4667,105.6 M,0,77836,77840,407.4667,105.6,410.6667,101.3334 M,0,77840,77846,410.6667,101.3334 M,0,77846,77850,410.6667,101.3334 M,0,77850,77855,410.6667,101.3334,413.8667,99.20003 M,0,77855,77861,413.8667,99.20003,417.0667,97.0667 M,0,77861,77863,417.0667,97.0667 M,0,77863,77866,417.0667,97.0667,420.2667,96.00003 M,0,77866,77871,420.2667,96.00003,423.4667,94.93336 M,0,77871,77878,423.4667,94.93336 M,0,77878,77881,423.4667,94.93336,425.6,94.93336 M,0,77881,77883,425.6,94.93336 M,0,77883,77887,425.6,94.93336,428.8,94.93336 M,0,77887,77894,428.8,94.93336,430.9333,96.00003 M,0,77894,77898,430.9333,96.00003 M,0,77898,77900,430.9333,96.00003 M,0,77900,77905,430.9333,96.00003,434.1333,99.20003 M,0,77905,77911,434.1333,99.20003,437.3333,102.4 M,0,77911,77913,437.3333,102.4 M,0,77913,77917,437.3333,102.4,441.6,106.6667 M,0,77917,77923,441.6,106.6667,445.8667,112 M,0,77923,77929,445.8667,112 M,0,77929,77932,445.8667,112,450.1334,118.4 M,0,77932,77936,450.1334,118.4 M,0,77936,77940,450.1334,118.4,454.4,126.9334 M,0,77940,77945,454.4,126.9334 M,0,77945,77948,454.4,126.9334 M,0,77948,77953,454.4,126.9334,460.8,135.4667 M,0,77953,77958,460.8,135.4667,468.2667,145.0667 M,0,77958,77962,468.2667,145.0667,475.7334,154.6667 M,0,77962,77966,475.7334,154.6667 M,0,77966,77971,475.7334,154.6667,485.3333,165.3334 M,0,77971,77978,485.3333,165.3334,496,177.0667 M,0,77978,77981,496,177.0667 M,0,77981,77983,496,177.0667 M,0,77983,77987,496,177.0667,506.6667,188.8 M,0,77987,77994,506.6667,188.8,517.3334,200.5334 M,0,77994,77997,517.3334,200.5334 M,0,77997,78001,517.3334,200.5334,526.9333,212.2667 M,0,78001,78006,526.9333,212.2667 M,0,78006,78011,526.9333,212.2667,536.5333,224 M,0,78011,78015,536.5333,224 M,0,78015,78019,536.5333,224,545.0667,233.6 M,0,78019,78024,545.0667,233.6,552.5334,243.2 M,0,78024,78030,552.5334,243.2 M,0,78030,78032,552.5334,243.2,557.8666,252.8 M,0,78032,78037,557.8666,252.8 M,0,78037,78041,557.8666,252.8,562.1334,260.2667 M,0,78041,78046,562.1334,260.2667,565.3334,266.6667 M,0,78046,78050,565.3334,266.6667 M,0,78050,78055,565.3334,266.6667,567.4667,272 M,0,78055,78062,567.4667,272,568.5333,276.2667 M,0,78062,78066,568.5333,276.2667 M,0,78066,78068,568.5333,276.2667 M,0,78068,78074,568.5333,276.2667,569.6,278.4001 M,0,78074,78079,569.6,278.4001,569.6,280.5334 M,0,78079,78082,569.6,280.5334 M,0,78082,78086,569.6,280.5334,569.6,281.6 M,0,78086,78090,569.6,281.6,567.4667,281.6 M,0,78090,78097,567.4667,281.6 M,0,78097,78099,567.4667,281.6 M,0,78099,78103,567.4667,281.6,563.2,280.5334 M,0,78103,78108,563.2,280.5334,557.8666,278.4001 M,0,78108,78113,557.8666,278.4001,550.4,275.2 M,0,78113,78117,550.4,275.2 M,0,78117,78121,550.4,275.2,541.8667,272 M,0,78121,78126,541.8667,272 M,0,78126,78130,541.8667,272,532.2667,265.6 M,0,78130,78133,532.2667,265.6 M,0,78133,78138,532.2667,265.6,521.6,259.2 M,0,78138,78146,521.6,259.2,508.8,251.7334 M,0,78146,78149,508.8,251.7334 M,0,78149,78151,508.8,251.7334,496,244.2667 M,0,78151,78156,496,244.2667 M,0,78156,78161,496,244.2667,482.1333,235.7334 M,0,78161,78165,482.1333,235.7334 M,0,78165,78169,482.1333,235.7334,467.2,227.2 M,0,78169,78175,467.2,227.2,453.3333,218.6667 M,0,78175,78180,453.3333,218.6667 M,0,78180,78183,453.3333,218.6667,438.4,210.1334 M,0,78183,78188,438.4,210.1334,422.4,201.6 M,0,78188,78192,422.4,201.6 M,0,78192,78197,422.4,201.6,407.4667,194.1334 M,0,78197,78200,407.4667,194.1334 M,0,78200,78205,407.4667,194.1334,392.5334,186.6667 M,0,78205,78212,392.5334,186.6667,378.6667,180.2667 M,0,78212,78215,378.6667,180.2667 M,0,78215,78218,378.6667,180.2667 M,0,78218,78224,378.6667,180.2667,365.8667,172.8 M,0,78224,78229,365.8667,172.8,355.2,166.4 M,0,78229,78232,355.2,166.4 M,0,78232,78237,355.2,166.4,345.6,161.0667 M,0,78237,78241,345.6,161.0667,338.1333,156.8 M,0,78241,78246,338.1333,156.8 M,0,78246,78250,338.1333,156.8 M,0,78250,78253,338.1333,156.8,332.8,153.6 M,0,78253,78258,332.8,153.6,328.5334,151.4667 M,0,78258,78262,328.5334,151.4667,326.4,150.4 M,0,78262,78267,326.4,150.4 M,0,78267,78270,326.4,150.4,325.3333,150.4 M,0,78270,78275,325.3333,150.4 M,0,78275,78280,325.3333,150.4 M,0,78280,78283,325.3333,150.4 M,0,78283,78288,325.3333,150.4 M,0,78288,78295,325.3333,150.4 M,0,78295,78299,325.3333,150.4 M,0,78299,78301,325.3333,150.4,326.4,152.5334 M,0,78301,78306,326.4,152.5334 M,0,78306,78311,326.4,152.5334,328.5334,153.6 M,0,78311,78313,328.5334,153.6 M,0,78313,78317,328.5334,153.6,331.7333,156.8 M,0,78317,78323,331.7333,156.8,336,158.9334 M,0,78323,78329,336,158.9334 M,0,78329,78332,336,158.9334,340.2667,162.1334 M,0,78332,78335,340.2667,162.1334 M,0,78335,78340,340.2667,162.1334,346.6667,166.4 M,0,78340,78345,346.6667,166.4,353.0667,169.6 M,0,78345,78348,353.0667,169.6 M,0,78348,78353,353.0667,169.6,361.6,173.8667 M,0,78353,78358,361.6,173.8667 M,0,78358,78362,361.6,173.8667,370.1333,178.1334 M,0,78362,78367,370.1333,178.1334 M,0,78367,78371,370.1333,178.1334,379.7333,182.4 M,0,78371,78377,379.7333,182.4,391.4667,186.6667 M,0,78377,78381,391.4667,186.6667 M,0,78381,78383,391.4667,186.6667,403.2,192 M,0,78383,78388,403.2,192 M,0,78388,78394,403.2,192,417.0667,198.4 M,0,78394,78398,417.0667,198.4 M,0,78398,78401,417.0667,198.4,429.8667,204.8 M,0,78401,78406,429.8667,204.8,443.7333,211.2 M,0,78406,78411,443.7333,211.2 M,0,78411,78415,443.7333,211.2,456.5334,218.6667 M,0,78415,78419,456.5334,218.6667 M,0,78419,78424,456.5334,218.6667,468.2667,226.1334 M,0,78424,78429,468.2667,226.1334,481.0667,233.6 M,0,78429,78432,481.0667,233.6 M,0,78432,78436,481.0667,233.6,491.7334,240 M,0,78436,78441,491.7334,240,502.4,245.3334 M,0,78441,78446,502.4,245.3334 M,0,78446,78450,502.4,245.3334 M,0,78450,78455,502.4,245.3334,512,249.6 M,0,78455,78462,512,249.6,520.5333,252.8 M,0,78462,78466,520.5333,252.8,528,256 M,0,78466,78468,528,256 M,0,78468,78473,528,256,534.4,257.0667 M,0,78473,78479,534.4,257.0667 M,0,78479,78481,534.4,257.0667,538.6667,258.1334 M,0,78481,78486,538.6667,258.1334 M,0,78486,78490,538.6667,258.1334,541.8667,258.1334 M,0,78490,78496,541.8667,258.1334,544,258.1334 M,0,78496,78499,544,258.1334 M,0,78499,78505,544,258.1334,544,254.9333 M,0,78505,78509,544,254.9333 M,0,78509,78513,544,254.9333,544,251.7334 M,0,78513,78517,544,251.7334 M,0,78517,78521,544,251.7334,540.8,246.4 M,0,78521,78526,540.8,246.4,535.4667,240 M,0,78526,78530,535.4667,240 M,0,78530,78533,535.4667,240,528,231.4667 M,0,78533,78539,528,231.4667 M,0,78539,78541,528,231.4667,518.4,222.9334 M,0,78541,78546,518.4,222.9334,508.8,212.2667 M,0,78546,78550,508.8,212.2667 M,0,78550,78555,508.8,212.2667,497.0667,200.5334 M,0,78555,78560,497.0667,200.5334 M,0,78560,78563,497.0667,200.5334,484.2667,188.8 M,0,78563,78567,484.2667,188.8 M,0,78567,78571,484.2667,188.8,471.4667,176 M,0,78571,78575,471.4667,176 M,0,78575,78580,471.4667,176,458.6667,162.1334 M,0,78580,78585,458.6667,162.1334,445.8667,150.4 M,0,78585,78589,445.8667,150.4 M,0,78589,78593,445.8667,150.4,434.1333,137.6 M,0,78593,78597,434.1333,137.6 M,0,78597,78601,434.1333,137.6,424.5334,126.9334 M,0,78601,78606,424.5334,126.9334 M,0,78606,78611,424.5334,126.9334,416,116.2667 M,0,78611,78615,416,116.2667,409.6,108.8 M,0,78615,78619,409.6,108.8 M,0,78619,78623,409.6,108.8,404.2667,103.4667 M,0,78623,78628,404.2667,103.4667 M,0,78628,78632,404.2667,103.4667,402.1333,99.20003 M,0,78632,78637,402.1333,99.20003,401.0667,97.0667 M,0,78637,78641,401.0667,97.0667 M,0,78641,78644,401.0667,97.0667,401.0667,96.00003 M,0,78644,78649,401.0667,96.00003 M,0,78649,78653,401.0667,96.00003,401.0667,94.93336 M,0,78653,78657,401.0667,94.93336 M,0,78657,78661,401.0667,94.93336 M,0,78661,78666,401.0667,94.93336 M,0,78666,78670,401.0667,94.93336,403.2,96.00003 M,0,78670,78675,403.2,96.00003,405.3333,97.0667 M,0,78675,78679,405.3333,97.0667 M,0,78679,78685,405.3333,97.0667,407.4667,100.2667 M,0,78685,78689,407.4667,100.2667 M,0,78689,78693,407.4667,100.2667,409.6,103.4667 M,0,78693,78697,409.6,103.4667 M,0,78697,78701,409.6,103.4667,412.8,107.7334 M,0,78701,78706,412.8,107.7334,417.0667,113.0667 M,0,78706,78711,417.0667,113.0667 M,0,78711,78715,417.0667,113.0667,420.2667,120.5334 M,0,78715,78719,420.2667,120.5334 M,0,78719,78725,420.2667,120.5334,424.5334,128 M,0,78725,78729,424.5334,128,428.8,136.5334 M,0,78729,78732,428.8,136.5334 M,0,78732,78737,428.8,136.5334,433.0667,147.2 M,0,78737,78741,433.0667,147.2 M,0,78741,78746,433.0667,147.2,437.3333,158.9334 M,0,78746,78750,437.3333,158.9334 M,0,78750,78755,437.3333,158.9334,441.6,170.6667 M,0,78755,78759,441.6,170.6667,444.8,184.5334 M,0,78759,78762,444.8,184.5334 M,0,78762,78767,444.8,184.5334,449.0667,198.4 M,0,78767,78771,449.0667,198.4 M,0,78771,78776,449.0667,198.4,452.2667,214.4 M,0,78776,78780,452.2667,214.4 M,0,78780,78783,452.2667,214.4,454.4,229.3334 M,0,78783,78788,454.4,229.3334,457.6,244.2667 M,0,78788,78792,457.6,244.2667 M,0,78792,78796,457.6,244.2667,460.8,259.2 M,0,78796,78800,460.8,259.2 M,0,78800,78805,460.8,259.2,464,273.0667 M,0,78805,78809,464,273.0667 M,0,78809,78813,464,273.0667,467.2,285.8667 M,0,78813,78817,467.2,285.8667,470.4,297.6 M,0,78817,78821,470.4,297.6 M,0,78821,78826,470.4,297.6,472.5333,309.3334 M,0,78826,78830,472.5333,309.3334 M,0,78830,78835,472.5333,309.3334,474.6667,317.8667 M,0,78835,78840,474.6667,317.8667 M,0,78840,78845,474.6667,317.8667,476.8,326.4 M,0,78845,78849,476.8,326.4,478.9333,331.7334 M,0,78849,78852,478.9333,331.7334 M,0,78852,78857,478.9333,331.7334,481.0667,337.0667 M,0,78857,78862,481.0667,337.0667,483.2,339.2 M,0,78862,78866,483.2,339.2 M,0,78866,78870,483.2,339.2,484.2667,341.3334 M,0,78870,78875,484.2667,341.3334 M,0,78875,78880,484.2667,341.3334 M,0,78880,78883,484.2667,341.3334 M,0,78883,78888,484.2667,341.3334,485.3333,341.3334 M,0,78888,78895,485.3333,341.3334,485.3333,340.2667 M,0,78895,78898,485.3333,340.2667 M,0,78898,78900,485.3333,340.2667,485.3333,336 M,0,78900,78905,485.3333,336 M,0,78905,78911,485.3333,336,486.4,328.5334 M,0,78911,78916,486.4,328.5334,486.4,318.9333 M,0,78916,78920,486.4,318.9333 M,0,78920,78925,486.4,318.9333,486.4,308.2667 M,0,78925,78930,486.4,308.2667 M,0,78930,78932,486.4,308.2667,487.4667,295.4667 M,0,78932,78937,487.4667,295.4667 M,0,78937,78941,487.4667,295.4667,487.4667,281.6 M,0,78941,78947,487.4667,281.6,488.5333,265.6 M,0,78947,78950,488.5333,265.6 M,0,78950,78956,488.5333,265.6,489.6,248.5334 M,0,78956,78961,489.6,248.5334,490.6667,230.4 M,0,78961,78966,490.6667,230.4 M,0,78966,78970,490.6667,230.4,493.8667,212.2667 M,0,78970,78975,493.8667,212.2667,496,194.1334 M,0,78975,78981,496,194.1334 M,0,78981,78983,496,194.1334 M,0,78983,78988,496,194.1334,499.2,177.0667 M,0,78988,78996,499.2,177.0667,502.4,161.0667 M,0,78996,78999,502.4,161.0667 M,0,78999,79001,502.4,161.0667,504.5334,148.2667 M,0,79001,79007,504.5334,148.2667,507.7333,136.5334 M,0,79007,79012,507.7333,136.5334 M,0,79012,79015,507.7333,136.5334,509.8667,129.0667 M,0,79015,79019,509.8667,129.0667 M,0,79019,79025,509.8667,129.0667,510.9333,123.7334 M,0,79025,79030,510.9333,123.7334,512,121.6 M,0,79030,79034,512,121.6 M,0,79034,79038,512,121.6,512,120.5334 M,0,79038,79043,512,120.5334 M,0,79043,79047,512,120.5334 M,0,79047,79050,512,120.5334 M,0,79050,79056,512,120.5334 M,0,79056,79061,512,120.5334 M,0,79061,79065,512,120.5334,509.8667,121.6 M,0,79065,79069,509.8667,121.6 M,0,79069,79074,509.8667,121.6,507.7333,124.8 M,0,79074,79079,507.7333,124.8 M,0,79079,79083,507.7333,124.8,504.5334,128 M,0,79083,79086,504.5334,128 M,0,79086,79090,504.5334,128,500.2667,132.2667 M,0,79090,79096,500.2667,132.2667,494.9333,137.6 M,0,79096,79100,494.9333,137.6 M,0,79100,79105,494.9333,137.6,490.6667,144 M,0,79105,79112,490.6667,144,485.3333,151.4667 M,0,79112,79116,485.3333,151.4667 M,0,79116,79118,485.3333,151.4667,480,161.0667 M,0,79118,79125,480,161.0667,473.6,172.8 M,0,79125,79130,473.6,172.8 M,0,79130,79133,473.6,172.8 M,0,79133,79138,473.6,172.8,468.2667,185.6 M,0,79138,79142,468.2667,185.6,462.9333,199.4667 M,0,79142,79147,462.9333,199.4667 M,0,79147,79151,462.9333,199.4667,457.6,212.2667 M,0,79151,79156,457.6,212.2667,453.3333,225.0667 M,0,79156,79162,453.3333,225.0667 M,0,79162,79165,453.3333,225.0667,449.0667,236.8 M,0,79165,79168,449.0667,236.8 M,0,79168,79173,449.0667,236.8,446.9333,245.3334 M,0,79173,79180,446.9333,245.3334,444.8,252.8 M,0,79180,79182,444.8,252.8 M,0,79182,79186,444.8,252.8,442.6667,259.2 M,0,79186,79191,442.6667,259.2 M,0,79191,79197,442.6667,259.2,442.6667,263.4667 M,0,79197,79200,442.6667,263.4667 M,0,79200,79205,442.6667,263.4667,441.6,265.6 M,0,79205,79213,441.6,265.6,441.6,267.7334 M,0,79213,79217,441.6,267.7334,440.5333,268.8 M,0,79217,79219,440.5333,268.8 M,0,79219,79224,440.5333,268.8 M,0,79224,79230,440.5333,268.8 M,0,79230,79233,440.5333,268.8 M,0,79233,79237,440.5333,268.8 M,0,79237,79241,440.5333,268.8 M,0,79241,79247,440.5333,268.8 M,0,79247,79251,440.5333,268.8 M,0,79251,79256,440.5333,268.8,439.4667,268.8 M,0,79256,79260,439.4667,268.8 M,0,79260,79262,439.4667,268.8,437.3333,268.8 M,0,79262,79268,437.3333,268.8,435.2,268.8 M,0,79268,79272,435.2,268.8 M,0,79272,79277,435.2,268.8,432,268.8 M,0,79277,79280,432,268.8 M,0,79280,79285,432,268.8,427.7333,267.7334 M,0,79285,79289,427.7333,267.7334 M,0,79289,79293,427.7333,267.7334,422.4,265.6 M,0,79293,79297,422.4,265.6 M,0,79297,79301,422.4,265.6,416,262.4 M,0,79301,79306,416,262.4,407.4667,259.2 M,0,79306,79310,407.4667,259.2 M,0,79310,79313,407.4667,259.2,396.8,254.9333 M,0,79313,79318,396.8,254.9333 M,0,79318,79321,396.8,254.9333,385.0667,250.6667 M,0,79321,79326,385.0667,250.6667 M,0,79326,79330,385.0667,250.6667,372.2667,244.2667 M,0,79330,79335,372.2667,244.2667,358.4,237.8667 M,0,79335,79339,358.4,237.8667 M,0,79339,79343,358.4,237.8667,342.4,230.4 M,0,79343,79347,342.4,230.4 M,0,79347,79351,342.4,230.4,326.4,220.8 M,0,79351,79356,326.4,220.8 M,0,79356,79361,326.4,220.8,310.4,210.1334 M,0,79361,79365,310.4,210.1334,294.4,199.4667 M,0,79365,79369,294.4,199.4667 M,0,79369,79372,294.4,199.4667,278.4,187.7334 M,0,79372,79378,278.4,187.7334 M,0,79378,79381,278.4,187.7334,263.4667,174.9334 M,0,79381,79385,263.4667,174.9334 M,0,79385,79391,263.4667,174.9334,249.6,163.2 M,0,79391,79396,249.6,163.2,236.8,152.5334 M,0,79396,79400,236.8,152.5334 M,0,79400,79405,236.8,152.5334,227.2,142.9334 M,0,79405,79410,227.2,142.9334 M,0,79410,79412,227.2,142.9334,218.6667,134.4 M,0,79412,79417,218.6667,134.4 M,0,79417,79421,218.6667,134.4,211.2,128 M,0,79421,79426,211.2,128,204.8,123.7334 M,0,79426,79430,204.8,123.7334 M,0,79430,79435,204.8,123.7334,199.4667,119.4667 M,0,79435,79439,199.4667,119.4667 M,0,79439,79443,199.4667,119.4667,195.2,117.3334 M,0,79443,79446,195.2,117.3334,192,116.2667 M,0,79446,79450,192,116.2667 M,0,79450,79455,192,116.2667,189.8667,115.2 M,0,79455,79460,189.8667,115.2 M,0,79460,79463,189.8667,115.2 M,0,79463,79467,189.8667,115.2 M,0,79467,79471,189.8667,115.2,188.8,115.2 M,0,79471,79476,188.8,115.2 M,0,79476,79480,188.8,115.2 M,0,79480,79485,188.8,115.2,188.8,117.3334 M,0,79485,79490,188.8,117.3334 M,0,79490,79496,188.8,117.3334,188.8,120.5334 M,0,79496,79498,188.8,120.5334 M,0,79498,79502,188.8,120.5334,188.8,125.8667 M,0,79502,79507,188.8,125.8667,188.8,132.2667 M,0,79507,79511,188.8,132.2667 M,0,79511,79515,188.8,132.2667,188.8,140.8 M,0,79515,79519,188.8,140.8 M,0,79519,79523,188.8,140.8,188.8,150.4 M,0,79523,79529,188.8,150.4 M,0,79529,79531,188.8,150.4,186.6667,161.0667 M,0,79531,79536,186.6667,161.0667 M,0,79536,79540,186.6667,161.0667,184.5333,173.8667 M,0,79540,79546,184.5333,173.8667,182.4,188.8 M,0,79546,79549,182.4,188.8 M,0,79549,79555,182.4,188.8,180.2667,205.8667 M,0,79555,79561,180.2667,205.8667,178.1333,224 M,0,79561,79564,178.1333,224 M,0,79564,79568,178.1333,224 M,0,79568,79573,178.1333,224,177.0667,241.0667 M,0,79573,79577,177.0667,241.0667,176,259.2 M,0,79577,79580,176,259.2 M,0,79580,79583,176,259.2,174.9333,276.2667 M,0,79583,79589,174.9333,276.2667 M,0,79589,79593,174.9333,276.2667,174.9333,293.3333 M,0,79593,79598,174.9333,293.3333,173.8667,309.3334 M,0,79598,79601,173.8667,309.3334 M,0,79601,79606,173.8667,309.3334,173.8667,323.2 M,0,79606,79611,173.8667,323.2 M,0,79611,79615,173.8667,323.2,173.8667,337.0667 M,0,79615,79619,173.8667,337.0667 M,0,79619,79624,173.8667,337.0667,172.8,347.7334 M,0,79624,79629,172.8,347.7334,172.8,356.2667 M,0,79629,79632,172.8,356.2667 M,0,79632,79636,172.8,356.2667,172.8,362.6667 M,0,79636,79641,172.8,362.6667 M,0,79641,79646,172.8,362.6667,171.7333,365.8667 M,0,79646,79650,171.7333,365.8667 M,0,79650,79655,171.7333,365.8667,170.6667,368 M,0,79655,79660,170.6667,368,169.6,368 M,0,79660,79663,169.6,368 M,0,79663,79667,169.6,368,167.4667,368 M,0,79667,79673,167.4667,368,164.2667,364.8 M,0,79673,79679,164.2667,364.8 M,0,79679,79682,164.2667,364.8,161.0667,360.5334 M,0,79682,79685,161.0667,360.5334 M,0,79685,79690,161.0667,360.5334,157.8667,353.0667 M,0,79690,79696,157.8667,353.0667,152.5334,345.6 M,0,79696,79700,152.5334,345.6 M,0,79700,79705,152.5334,345.6,148.2667,334.9334 M,0,79705,79712,148.2667,334.9334,144,323.2 M,0,79712,79714,144,323.2 M,0,79714,79717,144,323.2 M,0,79717,79721,144,323.2,139.7334,309.3334 M,0,79721,79728,139.7334,309.3334,135.4667,294.4 M,0,79728,79730,135.4667,294.4 M,0,79730,79733,135.4667,294.4,132.2667,277.3334 M,0,79733,79739,132.2667,277.3334,128,260.2667 M,0,79739,79745,128,260.2667 M,0,79745,79748,128,260.2667 M,0,79748,79752,128,260.2667,124.8,243.2 M,0,79752,79757,124.8,243.2,122.6667,226.1334 M,0,79757,79762,122.6667,226.1334,120.5333,211.2 M,0,79762,79766,120.5333,211.2 M,0,79766,79770,120.5333,211.2,118.4,197.3334 M,0,79770,79777,118.4,197.3334 M,0,79777,79780,118.4,197.3334,117.3333,185.6 M,0,79780,79782,117.3333,185.6 M,0,79782,79787,117.3333,185.6,116.2667,174.9334 M,0,79787,79794,116.2667,174.9334,116.2667,166.4 M,0,79794,79797,116.2667,166.4 M,0,79797,79800,116.2667,166.4,116.2667,160 M,0,79800,79805,116.2667,160,116.2667,153.6 M,0,79805,79812,116.2667,153.6 M,0,79812,79815,116.2667,153.6,116.2667,149.3334 M,0,79815,79818,116.2667,149.3334 M,0,79818,79823,116.2667,149.3334,116.2667,147.2 M,0,79823,79830,116.2667,147.2 M,0,79830,79833,116.2667,147.2,116.2667,145.0667 M,0,79833,79837,116.2667,145.0667 M,0,79837,79841,116.2667,145.0667,117.3333,145.0667 M,0,79841,79847,117.3333,145.0667,117.3333,144 M,0,79847,79850,117.3333,144 M,0,79850,79853,117.3333,144 M,0,79853,79861,117.3333,144,118.4,145.0667 M,0,79861,79865,118.4,145.0667 M,0,79865,79868,118.4,145.0667 M,0,79868,79873,118.4,145.0667,120.5333,151.4667 M,0,79873,79880,120.5333,151.4667 M,0,79880,79882,120.5333,151.4667 M,0,79882,79886,120.5333,151.4667,122.6667,155.7334 M,0,79886,79891,122.6667,155.7334,124.8,162.1334 M,0,79891,79897,124.8,162.1334 M,0,79897,79901,124.8,162.1334,129.0667,168.5334 M,0,79901,79906,129.0667,168.5334,133.3333,176 M,0,79906,79912,133.3333,176 M,0,79912,79915,133.3333,176,138.6667,185.6 M,0,79915,79918,138.6667,185.6 M,0,79918,79923,138.6667,185.6,145.0667,195.2 M,0,79923,79930,145.0667,195.2,152.5334,205.8667 M,0,79930,79932,152.5334,205.8667 M,0,79932,79936,152.5334,205.8667,160,215.4667 M,0,79936,79940,160,215.4667,168.5333,225.0667 M,0,79940,79948,168.5333,225.0667 M,0,79948,79950,168.5333,225.0667 M,0,79950,79955,168.5333,225.0667,176,233.6 M,0,79955,79962,176,233.6,183.4667,241.0667 M,0,79962,79966,183.4667,241.0667,189.8667,247.4667 M,0,79966,79969,189.8667,247.4667 M,0,79969,79974,189.8667,247.4667,196.2667,252.8 M,0,79974,79980,196.2667,252.8 M,0,79980,79983,196.2667,252.8,201.6,258.1334 M,0,79983,79987,201.6,258.1334 M,0,79987,79991,201.6,258.1334,206.9333,263.4667 M,0,79991,79997,206.9333,263.4667,211.2,266.6667 M,0,79997,79999,211.2,266.6667 M,0,79999,80004,211.2,266.6667,216.5333,269.8667 M,0,80004,80010,216.5333,269.8667,220.8,272 M,0,80010,80014,220.8,272 M,0,80014,80018,220.8,272,225.0667,274.1334 M,0,80018,80023,225.0667,274.1334,229.3333,275.2 M,0,80023,80029,229.3333,275.2 M,0,80029,80032,229.3333,275.2,233.6,275.2 M,0,80032,80037,233.6,275.2 M,0,80037,80041,233.6,275.2,237.8667,274.1334 M,0,80041,80047,237.8667,274.1334 M,0,80047,80050,237.8667,274.1334,242.1333,273.0667 M,0,80050,80056,242.1333,273.0667,245.3333,269.8667 M,0,80056,80062,245.3333,269.8667 M,0,80062,80065,245.3333,269.8667,249.6,265.6 M,0,80065,80068,249.6,265.6 M,0,80068,80075,249.6,265.6,252.8,261.3333 M,0,80075,80080,252.8,261.3333,257.0667,256 M,0,80080,80082,257.0667,256 M,0,80082,80087,257.0667,256,260.2667,250.6667 M,0,80087,80092,260.2667,250.6667,264.5334,243.2 M,0,80092,80097,264.5334,243.2 M,0,80097,80100,264.5334,243.2 M,0,80100,80103,264.5334,243.2,269.8667,236.8 M,0,80103,80107,269.8667,236.8,274.1334,228.2667 M,0,80107,80115,274.1334,228.2667,279.4667,219.7334 M,0,80115,80119,279.4667,219.7334 M,0,80119,80124,279.4667,219.7334,285.8667,210.1334 M,0,80124,80130,285.8667,210.1334 M,0,80130,80132,285.8667,210.1334,292.2667,199.4667 M,0,80132,80137,292.2667,199.4667 M,0,80137,80142,292.2667,199.4667,300.8,188.8 M,0,80142,80148,300.8,188.8,309.3333,177.0667 M,0,80148,80152,309.3333,177.0667 M,0,80152,80157,309.3333,177.0667,318.9333,165.3334 M,0,80157,80162,318.9333,165.3334,329.6,154.6667 M,0,80162,80165,329.6,154.6667 M,0,80165,80169,329.6,154.6667,340.2667,145.0667 M,0,80169,80174,340.2667,145.0667,350.9333,136.5334 M,0,80174,80180,350.9333,136.5334 M,0,80180,80182,350.9333,136.5334 M,0,80182,80186,350.9333,136.5334,359.4667,129.0667 M,0,80186,80191,359.4667,129.0667,368,121.6 M,0,80191,80197,368,121.6,375.4667,116.2667 M,0,80197,80201,375.4667,116.2667 M,0,80201,80206,375.4667,116.2667,382.9333,113.0667 M,0,80206,80212,382.9333,113.0667 M,0,80212,80214,382.9333,113.0667,389.3333,109.8667 M,0,80214,80218,389.3333,109.8667 M,0,80218,80222,389.3333,109.8667,394.6667,108.8 M,0,80222,80228,394.6667,108.8,398.9333,108.8 M,0,80228,80231,398.9333,108.8 M,0,80231,80236,398.9333,108.8,404.2667,108.8 M,0,80236,80240,404.2667,108.8 M,0,80240,80246,404.2667,108.8,407.4667,112 M,0,80246,80250,407.4667,112,411.7333,118.4 M,0,80250,80255,411.7333,118.4 M,0,80255,80259,411.7333,118.4,413.8667,125.8667 M,0,80259,80262,413.8667,125.8667 M,0,80262,80267,413.8667,125.8667,416,135.4667 M,0,80267,80272,416,135.4667,417.0667,147.2 M,0,80272,80276,417.0667,147.2 M,0,80276,80281,417.0667,147.2,419.2,160 M,0,80281,80285,419.2,160 M,0,80285,80290,419.2,160,420.2667,173.8667 M,0,80290,80295,420.2667,173.8667 M,0,80295,80298,420.2667,173.8667,421.3333,189.8667 M,0,80298,80302,421.3333,189.8667 M,0,80302,80307,421.3333,189.8667,423.4667,205.8667 M,0,80307,80312,423.4667,205.8667,425.6,222.9334 M,0,80312,80316,425.6,222.9334 M,0,80316,80321,425.6,222.9334,427.7333,240 M,0,80321,80325,427.7333,240,430.9333,258.1334 M,0,80325,80329,430.9333,258.1334 M,0,80329,80332,430.9333,258.1334,434.1333,274.1334 M,0,80332,80337,434.1333,274.1334 M,0,80337,80341,434.1333,274.1334,437.3333,290.1334 M,0,80341,80346,437.3333,290.1334 M,0,80346,80350,437.3333,290.1334,441.6,302.9334 M,0,80350,80353,441.6,302.9334 M,0,80353,80357,441.6,302.9334,445.8667,313.6 M,0,80357,80362,445.8667,313.6,449.0667,322.1334 M,0,80362,80366,449.0667,322.1334 M,0,80366,80370,449.0667,322.1334,452.2667,328.5334 M,0,80370,80375,452.2667,328.5334 M,0,80375,80379,452.2667,328.5334,455.4667,332.8 M,0,80379,80383,455.4667,332.8 M,0,80383,80388,455.4667,332.8,458.6667,334.9334 M,0,80388,80391,458.6667,334.9334 M,0,80391,80396,458.6667,334.9334,460.8,337.0667 M,0,80396,80400,460.8,337.0667,462.9333,337.0667 M,0,80400,80406,462.9333,337.0667 M,0,80406,80410,462.9333,337.0667,465.0667,337.0667 M,0,80410,80415,465.0667,337.0667,467.2,333.8667 M,0,80415,80420,467.2,333.8667 M,0,80420,80428,467.2,333.8667,469.3333,329.6 M,0,80428,80431,469.3333,329.6,472.5333,322.1334 M,0,80431,80433,472.5333,322.1334 M,0,80433,80438,472.5333,322.1334,475.7334,313.6 M,0,80438,80442,475.7334,313.6 M,0,80442,80446,475.7334,313.6,480,304 M,0,80446,80450,480,304 M,0,80450,80455,480,304,484.2667,293.3333 M,0,80455,80459,484.2667,293.3333 M,0,80459,80464,484.2667,293.3333,489.6,280.5334 M,0,80464,80468,489.6,280.5334,494.9333,268.8 M,0,80468,80472,494.9333,268.8 M,0,80472,80476,494.9333,268.8,500.2667,254.9333 M,0,80476,80480,500.2667,254.9333 M,0,80480,80483,500.2667,254.9333,505.6,242.1334 M,0,80483,80489,505.6,242.1334 M,0,80489,80493,505.6,242.1334,510.9333,230.4 M,0,80493,80497,510.9333,230.4,517.3334,218.6667 M,0,80497,80501,517.3334,218.6667 M,0,80501,80506,517.3334,218.6667,522.6667,209.0667 M,0,80506,80510,522.6667,209.0667 M,0,80510,80514,522.6667,209.0667,526.9333,200.5334 M,0,80514,80518,526.9333,200.5334 M,0,80518,80522,526.9333,200.5334,532.2667,193.0667 M,0,80522,80527,532.2667,193.0667 M,0,80527,80530,532.2667,193.0667,536.5333,186.6667 M,0,80530,80535,536.5333,186.6667,540.8,180.2667 M,0,80535,80540,540.8,180.2667,544,176 M,0,80540,80546,544,176 M,0,80546,80550,544,176 M,0,80550,80555,544,176,548.2667,170.6667 M,0,80555,80561,548.2667,170.6667,550.4,166.4 M,0,80561,80563,550.4,166.4 M,0,80563,80567,550.4,166.4,553.6,162.1334 M,0,80567,80573,553.6,162.1334,554.6667,158.9334 M,0,80573,80579,554.6667,158.9334 M,0,80579,80582,554.6667,158.9334,556.8,156.8 M,0,80582,80585,556.8,156.8 M,0,80585,80591,556.8,156.8,556.8,154.6667 M,0,80591,80596,556.8,154.6667,557.8666,152.5334 M,0,80596,80599,557.8666,152.5334 M,0,80599,80605,557.8666,152.5334,557.8666,151.4667 M,0,80605,80613,557.8666,151.4667,557.8666,150.4 M,0,80613,80616,557.8666,150.4 M,0,80616,80619,557.8666,150.4,556.8,149.3334 M,0,80619,80625,556.8,149.3334 M,0,80625,80630,556.8,149.3334,555.7333,149.3334 M,0,80630,80634,555.7333,149.3334,553.6,149.3334 M,0,80634,80638,553.6,149.3334 M,0,80638,80642,553.6,149.3334,551.4667,149.3334 M,0,80642,80646,551.4667,149.3334 M,0,80646,80650,551.4667,149.3334,548.2667,149.3334 M,0,80650,80655,548.2667,149.3334 M,0,80655,80659,548.2667,149.3334,544,150.4 M,0,80659,80663,544,150.4,539.7333,151.4667 M,0,80663,80667,539.7333,151.4667 M,0,80667,80671,539.7333,151.4667,535.4667,153.6 M,0,80671,80675,535.4667,153.6 M,0,80675,80680,535.4667,153.6,530.1333,155.7334 M,0,80680,80683,530.1333,155.7334 M,0,80683,80689,530.1333,155.7334,525.8667,158.9334 M,0,80689,80691,525.8667,158.9334 M,0,80691,80696,525.8667,158.9334,520.5333,162.1334 M,0,80696,80700,520.5333,162.1334,515.2,165.3334 M,0,80700,80706,515.2,165.3334,510.9333,168.5334 M,0,80706,80710,510.9333,168.5334 M,0,80710,80713,510.9333,168.5334 M,0,80713,80717,510.9333,168.5334,505.6,172.8 M,0,80717,80722,505.6,172.8,500.2667,177.0667 M,0,80722,80727,500.2667,177.0667 M,0,80727,80731,500.2667,177.0667,494.9333,181.3334 M,0,80731,80735,494.9333,181.3334 M,0,80735,80740,494.9333,181.3334,489.6,185.6 M,0,80740,80745,489.6,185.6,485.3333,190.9334 M,0,80745,80749,485.3333,190.9334 M,0,80749,80754,485.3333,190.9334,481.0667,196.2667 M,0,80754,80759,481.0667,196.2667 M,0,80759,80763,481.0667,196.2667,476.8,200.5334 M,0,80763,80767,476.8,200.5334 M,0,80767,80771,476.8,200.5334,472.5333,205.8667 M,0,80771,80776,472.5333,205.8667,470.4,210.1334 M,0,80776,80780,470.4,210.1334 M,0,80780,80785,470.4,210.1334,468.2667,213.3334 M,0,80785,80790,468.2667,213.3334 M,0,80790,80795,468.2667,213.3334,466.1333,216.5334 M,0,80795,80799,466.1333,216.5334,464,220.8 M,0,80799,80802,464,220.8 M,0,80802,80808,464,220.8,462.9333,224 M,0,80808,80813,462.9333,224,460.8,227.2 M,0,80813,80816,460.8,227.2 M,0,80816,80820,460.8,227.2,458.6667,230.4 M,0,80820,80825,458.6667,230.4 M,0,80825,80830,458.6667,230.4,456.5334,234.6667 M,0,80830,80834,456.5334,234.6667 M,0,80834,80838,456.5334,234.6667,454.4,237.8667 M,0,80838,80842,454.4,237.8667,451.2,242.1334 M,0,80842,80847,451.2,242.1334 M,0,80847,80851,451.2,242.1334,448,246.4 M,0,80851,80856,448,246.4 M,0,80856,80862,448,246.4,444.8,249.6 M,0,80862,80865,444.8,249.6,440.5333,253.8667 M,0,80865,80869,440.5333,253.8667 M,0,80869,80874,440.5333,253.8667,437.3333,258.1334 M,0,80874,80880,437.3333,258.1334,433.0667,262.4 M,0,80880,80882,433.0667,262.4 M,0,80882,80887,433.0667,262.4 M,0,80887,80891,433.0667,262.4,429.8667,266.6667 M,0,80891,80896,429.8667,266.6667,425.6,270.9334 M,0,80896,80900,425.6,270.9334 M,0,80900,80905,425.6,270.9334,422.4,275.2 M,0,80905,80910,422.4,275.2 M,0,80910,80915,422.4,275.2,418.1334,280.5334 M,0,80915,80919,418.1334,280.5334,413.8667,285.8667 M,0,80919,80924,413.8667,285.8667,409.6,291.2 M,0,80924,80931,409.6,291.2 M,0,80931,80934,409.6,291.2,405.3333,297.6 M,0,80934,80938,405.3333,297.6,400,302.9334 M,0,80938,80945,400,302.9334 M,0,80945,80948,400,302.9334 M,0,80948,80952,400,302.9334,395.7333,308.2667 M,0,80952,80957,395.7333,308.2667,391.4667,313.6 M,0,80957,80965,391.4667,313.6,388.2667,316.8 M,0,80965,80968,388.2667,316.8 M,0,80968,80973,388.2667,316.8,386.1334,318.9333 M,0,80973,80980,386.1334,318.9333,385.0667,321.0667 M,0,80980,80982,385.0667,321.0667 M,0,80982,80987,385.0667,321.0667,384,322.1334 M,0,80987,80993,384,322.1334 M,0,80993,80998,384,322.1334 M,0,80998,81001,384,322.1334 M,0,81001,81007,384,322.1334 M,0,81007,81010,384,322.1334 M,0,81010,81015,384,322.1334 M,0,81015,81019,384,322.1334,384,321.0667 M,0,81019,81023,384,321.0667,384,318.9333 M,0,81023,81028,384,318.9333 M,0,81028,81032,384,318.9333,384,316.8 M,0,81032,81037,384,316.8,384,312.5334 M,0,81037,81041,384,312.5334 M,0,81041,81047,384,312.5334,384,309.3334 M,0,81047,81051,384,309.3334 M,0,81051,81057,384,309.3334,384,305.0667 M,0,81057,81062,384,305.0667,384,299.7334 M,0,81062,81067,384,299.7334,384,294.4 M,0,81067,81071,384,294.4 M,0,81071,81075,384,294.4,384,289.0667 M,0,81075,81080,384,289.0667 M,0,81080,81085,384,289.0667,382.9333,283.7334 M,0,81085,81089,382.9333,283.7334 M,0,81089,81095,382.9333,283.7334,381.8667,278.4001 M,0,81095,81099,381.8667,278.4001,380.8,272 M,0,81099,81103,380.8,272 M,0,81103,81108,380.8,272,378.6667,267.7334 M,0,81108,81113,378.6667,267.7334,377.6,262.4 M,0,81113,81117,377.6,262.4 M,0,81117,81122,377.6,262.4,375.4667,258.1334 M,0,81122,81127,375.4667,258.1334 M,0,81127,81131,375.4667,258.1334,373.3333,253.8667 M,0,81131,81136,373.3333,253.8667,371.2,249.6 M,0,81136,81141,371.2,249.6 M,0,81141,81146,371.2,249.6,369.0667,245.3334 M,0,81146,81150,369.0667,245.3334,366.9333,242.1334 M,0,81150,81155,366.9333,242.1334 M,0,81155,81160,366.9333,242.1334,364.8,237.8667 M,0,81160,81165,364.8,237.8667,361.6,233.6 M,0,81165,81170,361.6,233.6 M,0,81170,81175,361.6,233.6,358.4,230.4 M,0,81175,81180,358.4,230.4 M,0,81180,81184,358.4,230.4,355.2,226.1334 M,0,81184,81188,355.2,226.1334,350.9333,222.9334 M,0,81188,81193,350.9333,222.9334 M,0,81193,81198,350.9333,222.9334,347.7333,219.7334 M,0,81198,81202,347.7333,219.7334,342.4,216.5334 M,0,81202,81207,342.4,216.5334 M,0,81207,81212,342.4,216.5334,338.1333,213.3334 M,0,81212,81217,338.1333,213.3334,332.8,210.1334 M,0,81217,81221,332.8,210.1334 M,0,81221,81227,332.8,210.1334,328.5334,208 M,0,81227,81232,328.5334,208,323.2,204.8 M,0,81232,81237,323.2,204.8 M,0,81237,81244,323.2,204.8,318.9333,202.6667 M,0,81244,81247,318.9333,202.6667,314.6667,200.5334 M,0,81247,81252,314.6667,200.5334 M,0,81252,81256,314.6667,200.5334,310.4,198.4 M,0,81256,81262,310.4,198.4,306.1333,197.3334 M,0,81262,81267,306.1333,197.3334 M,0,81267,81271,306.1333,197.3334,301.8667,196.2667 M,0,81271,81277,301.8667,196.2667,297.6,196.2667 M,0,81277,81281,297.6,196.2667 M,0,81281,81286,297.6,196.2667,293.3333,196.2667 M,0,81286,81290,293.3333,196.2667,289.0667,196.2667 M,0,81290,81296,289.0667,196.2667 M,0,81296,81301,289.0667,196.2667,284.8,196.2667 M,0,81301,81306,284.8,196.2667 M,0,81306,81311,284.8,196.2667,280.5333,197.3334 M,0,81311,81316,280.5333,197.3334,275.2,198.4 M,0,81316,81320,275.2,198.4 M,0,81320,81326,275.2,198.4,269.8667,199.4667 M,0,81326,81330,269.8667,199.4667,264.5334,199.4667 M,0,81330,81336,264.5334,199.4667 M,0,81336,81340,264.5334,199.4667,259.2,200.5334 M,0,81340,81346,259.2,200.5334,252.8,201.6 M,0,81346,81350,252.8,201.6 M,0,81350,81355,252.8,201.6,246.4,202.6667 M,0,81355,81360,246.4,202.6667,240,204.8 M,0,81360,81366,240,204.8 M,0,81366,81370,240,204.8,233.6,205.8667 M,0,81370,81375,233.6,205.8667,227.2,208 M,0,81375,81380,227.2,208 M,0,81380,81386,227.2,208,220.8,209.0667 M,0,81386,81390,220.8,209.0667 M,0,81390,81397,220.8,209.0667,215.4667,211.2 M,0,81397,81401,215.4667,211.2,210.1333,214.4 M,0,81401,81406,210.1333,214.4,204.8,216.5334 M,0,81406,81411,204.8,216.5334 M,0,81411,81416,204.8,216.5334,200.5333,219.7334 M,0,81416,81421,200.5333,219.7334 M,0,81421,81426,200.5333,219.7334,196.2667,221.8667 M,0,81426,81431,196.2667,221.8667,193.0667,225.0667 M,0,81431,81436,193.0667,225.0667,188.8,228.2667 M,0,81436,81441,188.8,228.2667 M,0,81441,81446,188.8,228.2667,185.6,231.4667 M,0,81446,81451,185.6,231.4667 M,0,81451,81456,185.6,231.4667,182.4,233.6 M,0,81456,81461,182.4,233.6,180.2667,236.8 M,0,81461,81466,180.2667,236.8,177.0667,238.9334 M,0,81466,81471,177.0667,238.9334 M,0,81471,81476,177.0667,238.9334,174.9333,241.0667 M,0,81476,81481,174.9333,241.0667 M,0,81481,81486,174.9333,241.0667,172.8,242.1334 M,0,81486,81490,172.8,242.1334,170.6667,243.2 M,0,81490,81496,170.6667,243.2,169.6,243.2 M,0,81496,81501,169.6,243.2 M,0,81501,81504,169.6,243.2,167.4667,243.2 M,0,81504,81511,167.4667,243.2 M,0,81511,81513,167.4667,243.2,166.4,243.2 M,0,81513,81518,166.4,243.2 M,0,81518,81522,166.4,243.2,164.2667,242.1334 M,0,81522,81528,164.2667,242.1334,163.2,240 M,0,81528,81532,163.2,240,162.1333,236.8 M,0,81532,81537,162.1333,236.8 M,0,81537,81541,162.1333,236.8,161.0667,232.5334 M,0,81541,81546,161.0667,232.5334,161.0667,228.2667 M,0,81546,81551,161.0667,228.2667 M,0,81551,81556,161.0667,228.2667,160,222.9334 M,0,81556,81561,160,222.9334 M,0,81561,81566,160,222.9334,160,217.6 M,0,81566,81570,160,217.6,158.9333,212.2667 M,0,81570,81576,158.9333,212.2667 M,0,81576,81580,158.9333,212.2667,158.9333,208 M,0,81580,81585,158.9333,208,157.8667,202.6667 M,0,81585,81590,157.8667,202.6667 M,0,81590,81596,157.8667,202.6667,156.8,198.4 M,0,81596,81600,156.8,198.4 M,0,81600,81605,156.8,198.4,155.7333,192 M,0,81605,81612,155.7333,192 M,0,81612,81616,155.7333,192,155.7333,188.8 M,0,81616,81620,155.7333,188.8 M,0,81620,81626,155.7333,188.8,154.6667,185.6 M,0,81626,81632,154.6667,185.6,154.6667,182.4 M,0,81632,81636,154.6667,182.4 M,0,81636,81640,154.6667,182.4,154.6667,180.2667 M,0,81640,81648,154.6667,180.2667,155.7333,177.0667 M,0,81648,81651,155.7333,177.0667 M,0,81651,81656,155.7333,177.0667,155.7333,174.9334 M,0,81656,81663,155.7333,174.9334,157.8667,171.7334 M,0,81663,81666,157.8667,171.7334 M,0,81666,81670,157.8667,171.7334,158.9333,169.6 M,0,81670,81675,158.9333,169.6,160,167.4667 M,0,81675,81683,160,167.4667,160,166.4 M,0,81683,81686,160,166.4 M,0,81686,81692,160,166.4,161.0667,165.3334 M,0,81692,81699,161.0667,165.3334,161.0667,164.2667 M,0,81699,81702,161.0667,164.2667 M,0,81702,81707,161.0667,164.2667,162.1333,164.2667 M,0,81707,81714,162.1333,164.2667,162.1333,163.2 M,0,81714,81718,162.1333,163.2 M,0,81718,81723,162.1333,163.2 M,0,81723,81730,162.1333,163.2,162.1333,162.1334 M,0,81730,81733,162.1333,162.1334 M,0,81733,81738,162.1333,162.1334 M,0,81738,81743,162.1333,162.1334,163.2,162.1334 M,0,81743,81750,163.2,162.1334 M,0,81750,81753,163.2,162.1334 M,0,81753,81758,163.2,162.1334,164.2667,162.1334 M,0,81758,81766,164.2667,162.1334,165.3333,163.2 M,0,81766,81769,165.3333,163.2 M,0,81769,81774,165.3333,163.2,166.4,164.2667 M,0,81774,81781,166.4,164.2667 M,0,81781,81784,166.4,164.2667,168.5333,166.4 M,0,81784,81788,168.5333,166.4,169.6,169.6 M,0,81788,81796,169.6,169.6,171.7333,172.8 M,0,81796,81799,171.7333,172.8 M,0,81799,81803,171.7333,172.8,172.8,178.1334 M,0,81803,81808,172.8,178.1334,174.9333,184.5334 M,0,81808,81816,174.9333,184.5334 M,0,81816,81819,174.9333,184.5334,177.0667,193.0667 M,0,81819,81824,177.0667,193.0667,179.2,201.6 M,0,81824,81832,179.2,201.6 M,0,81832,81834,179.2,201.6,182.4,211.2 M,0,81834,81841,182.4,211.2,184.5333,220.8 M,0,81841,81846,184.5333,220.8 M,0,81846,81849,184.5333,220.8,186.6667,231.4667 M,0,81849,81854,186.6667,231.4667,187.7333,243.2 M,0,81854,81862,187.7333,243.2 M,0,81862,81865,187.7333,243.2,188.8,254.9333 M,0,81865,81869,188.8,254.9333 M,0,81869,81875,188.8,254.9333,189.8667,266.6667 M,0,81875,81882,189.8667,266.6667,190.9333,278.4001 M,0,81882,81886,190.9333,278.4001,193.0667,289.0667 M,0,81886,81890,193.0667,289.0667,194.1333,298.6667 M,0,81890,81898,194.1333,298.6667 M,0,81898,81901,194.1333,298.6667 M,0,81901,81906,194.1333,298.6667,196.2667,306.1334 M,0,81906,81912,196.2667,306.1334,197.3333,312.5334 M,0,81912,81916,197.3333,312.5334,199.4667,317.8667 M,0,81916,81920,199.4667,317.8667 M,0,81920,81925,199.4667,317.8667,200.5333,322.1334 M,0,81925,81932,200.5333,322.1334,201.6,325.3333 M,0,81932,81936,201.6,325.3333 M,0,81936,81940,201.6,325.3333,202.6667,327.4667 M,0,81940,81947,202.6667,327.4667,202.6667,329.6 M,0,81947,81950,202.6667,329.6 M,0,81950,81954,202.6667,329.6 M,0,81954,81958,202.6667,329.6,202.6667,330.6667 M,0,81958,81966,202.6667,330.6667 M,0,81966,81969,202.6667,330.6667 M,0,81969,81973,202.6667,330.6667 M,0,81973,81979,202.6667,330.6667,202.6667,331.7334 M,0,81979,81982,202.6667,331.7334 M,0,81982,81987,202.6667,331.7334 M,0,81987,81991,202.6667,331.7334,202.6667,333.8667 M,0,81991,81997,202.6667,333.8667,202.6667,334.9334 M,0,81997,82001,202.6667,334.9334 M,0,82001,82006,202.6667,334.9334,202.6667,336 M,0,82006,82011,202.6667,336 M,0,82011,82015,202.6667,336,203.7333,338.1334 M,0,82015,82020,203.7333,338.1334 M,0,82020,82025,203.7333,338.1334,204.8,339.2 M,0,82025,82030,204.8,339.2,205.8667,340.2667 M,0,82030,82033,205.8667,340.2667 M,0,82033,82040,205.8667,340.2667,206.9333,340.2667 M,0,82040,82044,206.9333,340.2667 M,0,82044,82048,206.9333,340.2667 M,0,82048,82052,206.9333,340.2667
Sprite,Foreground,Centre,"sb\q.png",320,240 S,0,3975,,2.098667 C,0,3975,,0,255,255 M,2,3975,4233,-120.5333,361.6,84.26666,341.3333 R,0,3975,4233,-2.090666,-0.8106658 M,0,4233,16362,84.26666,341.3333,17.74758,347.916 R,0,4233,16362,-0.8106658,2.538667 M,0,16362,16620,17.74758,347.916,-168.9191,356.4493 R,0,16362,16620,2.538667,4.074667
//Storyboard Sound Samples

[TimingPoints]
874,387.096774193548,4,2,1,40,1,0
3583,-133.333333333333,4,2,1,40,0,0
10153,387.096774193548,4,2,1,50,1,0
10153,-100,4,2,1,50,0,0
16346,-200,4,2,2,50,0,0
17120,387.096774193548,4,2,1,70,1,0
17120,-133.333333333333,4,2,1,70,0,0
17216,-133.333333333333,4,2,1,50,0,0
20023,-66.6666666666667,4,2,1,50,0,0
20216,-100,4,2,1,50,0,0
23119,-66.6666666666667,4,2,1,50,0,0
23313,-100,4,2,1,70,0,0
23507,-100,4,2,1,50,0,0
27958,-66.6666666666667,4,2,1,50,0,0
28055,-66.6666666666667,4,2,1,5,0,0
28152,-66.6666666666667,4,2,1,50,0,0
28249,-66.6666666666667,4,2,1,5,0,0
28345,-100,4,2,1,50,0,0
29119,-66.6666666666667,4,2,1,50,0,0
29507,-100,4,2,1,50,0,0
40345,-66.6666666666667,4,2,1,70,0,0
40732,-133.333333333333,4,2,1,50,0,0
41894,-100,4,2,1,50,0,0
44603,-83.3333333333333,4,2,1,50,0,0
45378,-66.6666666666667,4,2,1,50,0,0
45571,-100,4,2,1,50,0,0
46152,-66.6666666666667,4,2,1,50,0,0
46345,-100,4,2,1,50,0,0
47894,-66.6666666666667,4,2,1,50,0,0
48087,-100,4,2,1,50,0,0
49249,-66.6666666666667,4,2,1,50,0,0
49636,-100,4,2,1,50,0,0
50410,-151.515151515152,4,2,1,50,0,0
50990,-66.6666666666667,4,2,1,50,0,0
51184,-100,4,2,1,50,0,0
51571,-66.6666666666667,4,2,1,50,0,0
51958,-100,4,2,1,50,0,0
52345,-66.6666666666667,4,2,1,50,0,0
52732,-100,4,2,1,50,0,0
53507,-66.6666666666667,4,2,1,50,0,0
53700,-100,4,2,1,50,0,0
54087,-66.6666666666667,4,2,1,50,0,0
54281,-133.333333333333,4,2,1,50,0,0
55055,-100,4,2,1,50,0,0
55829,-83.3333333333333,4,2,1,50,0,0
56216,-133.333333333333,4,2,1,50,0,0
56603,-400,4,2,2,50,0,0
56894,-400,4,2,2,5,0,0
56990,-100,4,2,1,50,0,0
57378,-76.9230769230769,4,2,1,70,0,1
69378,-100,4,2,1,70,0,1
69765,-76.9230769230769,4,2,1,70,0,1
79055,-66.6666666666667,4,2,1,70,0,1
80603,-66.6666666666667,4,2,1,70,0,1
81571,-50,4,2,1,70,0,1
81765,-66.6666666666667,4,2,1,70,0,1
82152,-100,4,2,1,70,0,0
87958,-100,4,2,2,70,0,0
88055,-100,4,2,1,70,0,0
88152,-100,4,2,1,70,0,0
91442,-66.6666666666667,4,2,1,70,0,0
92990,-66.6666666666667,4,2,1,70,0,0
93765,-100,4,2,1,70,0,0
94152,-100,4,2,2,70,0,0
94200,-100,4,2,2,5,0,0
94539,-125,4,2,1,70,0,0
94926,-111.111111111111,4,2,1,70,0,0
102281,-100,4,2,1,70,0,0
102378,-100,4,2,1,50,0,0
107894,-66.6666666666667,4,2,1,70,0,0
108087,-100,4,2,1,70,0,0
108474,-76.9230769230769,4,2,1,70,0,1
120474,-200,4,2,1,70,0,1
120861,-100,4,2,1,70,0,0
126668,-100,4,2,2,70,0,0
126765,-100,4,2,1,70,0,0
127055,-133.333333333333,4,2,1,70,0,0
127345,-133.333333333333,4,2,1,5,0,0
127442,-200,4,2,1,70,0,0
127732,-200,4,2,1,5,0,0
127829,-300.00000003,4,2,1,70,0,0
128119,-300.00000003,4,2,1,5,0,0
128216,-454.545454545455,4,2,1,70,0,0
128507,-454.545454545455,4,2,1,5,0,0
128603,-100,4,2,1,70,0,0
129378,-151.515151515152,4,2,1,70,0,0
129765,-151.515151515152,4,2,2,70,0,0
129861,-151.515151515152,4,2,1,70,0,0
130152,-66.6666666666667,4,2,1,70,0,0
132861,-66.6666666666667,4,2,2,70,0,0
133055,-100,4,2,1,70,0,0
134797,-100,4,2,2,70,0,0

[Colours]
Combo1 : 223,0,0
Combo2 : 110,199,235
Combo3 : 122,36,130
Combo4 : 255,128,0

[HitObjects]
256,192,874,12,0,3390,0:0:0:0:
512,153,3583,5,0,0:0:0:0:
512,153,3680,1,0,0:0:0:0:
512,153,3777,1,0,0:0:0:0:
512,153,3873,1,0,0:0:0:0:
512,153,3970,2,0,B|382:178|417:108|282:133,1,225.000008583069,4|0,0:1|0:0,0:0:0:0:
204,114,4744,2,0,P|162:67|266:79,1,225.000008583069,2|0,0:0|0:0,0:0:0:0:
339,212,5519,2,0,L|343:326,1,112.500004291535,0|0,1:0|0:0,0:0:0:0:
345,344,5906,1,0,0:0:0:0:
419,255,6099,1,0,0:0:0:0:
262,176,6293,2,0,L|265:270,1,75.0000028610231,2|0,0:0|0:0,0:0:0:0:
198,341,6680,5,0,0:0:0:0:
198,341,6777,1,0,0:0:0:0:
198,341,6873,1,0,0:0:0:0:
198,341,6970,1,0,0:0:0:0:
198,341,7067,2,0,B|131:379|48:339|48:339|96:346|126:308,1,225.000008583069,0|0,1:0|0:0,0:0:0:0:
83,180,7841,2,0,P|62:232|68:262,1,75.0000028610231,2|0,0:0|0:0,0:0:0:0:
62,262,8099,2,0,L|32:256,2,25.0000009536744,0|0|0,0:0|0:0|0:0,0:0:0:0:
147,236,8422,1,0,0:0:0:0:
26,127,8615,2,0,P|89:155|228:4,1,300.000011444092,0|2,1:0|0:0,0:0:0:0:
229,14,9583,1,0,0:0:0:0:
232,33,9680,1,0,0:0:0:0:
235,52,9777,2,0,L|242:99,1,37.5000014305115,0|0,0:0|0:0,0:0:0:0:
304,142,9970,2,0,L|297:189,1,37.5000014305115,0|0,0:0|0:0,0:0:0:0:
187,270,10153,38,0,B|238:255|238:255|298:270,1,100,4|0,1:2|0:0,0:0:0:0:
288,274,10443,1,0,0:0:0:0:
288,274,10540,2,0,L|273:386,1,100,8|0,1:2|0:0,0:0:0:0:
110,303,10927,1,0,1:2:0:0:
230,178,11121,1,0,0:0:0:0:
260,165,11217,1,0,0:0:0:0:
293,163,11314,1,8,1:2:0:0:
325,171,11411,1,0,0:0:0:0:
353,190,11508,1,0,0:0:0:0:
373,216,11604,1,0,0:0:0:0:
384,247,11701,6,0,P|434:264|486:247,1,100,0|0,1:2|0:0,0:0:0:0:
478,251,11992,1,0,0:0:0:0:
478,251,12088,1,8,1:2:0:0:
364,360,12282,2,0,P|314:376|262:359,1,100,0|0,0:0|1:2,0:0:0:0:
108,300,12669,1,0,0:0:0:0:
108,300,12766,1,0,0:0:0:0:
108,300,12862,1,8,1:2:0:0:
286,262,13056,1,0,1:2:0:0:
168,128,13250,38,0,B|159:178|159:178|174:244,1,100,0|0,1:2|0:0,0:0:0:0:
169,225,13540,1,0,0:0:0:0:
169,225,13637,1,8,1:2:0:0:
288,103,13830,1,0,0:0:0:0:
108,47,14024,2,0,L|219:38,1,100,0|0,1:2|0:0,0:0:0:0:
229,35,14282,2,0,L|225:0,2,33.3333333333333,0|0|8,0:0|0:0|1:2,0:0:0:0:
246,176,14604,1,0,0:0:0:0:
108,47,14798,5,0,1:2:0:0:
335,175,14992,1,0,1:2:0:0:
94,251,15185,37,8,1:2:0:0:
288,101,15379,1,0,1:2:0:0:
67,154,15572,5,0,1:2:0:0:
346,347,15766,1,0,1:2:0:0:
165,347,15959,37,8,1:2:0:0:
444,154,16153,1,0,1:2:0:0:
201,49,16346,6,0,L|206:148,1,100,0|2,0:0|0:0,0:0:0:0:
207,167,17120,5,4,1:0:0:0:
322,54,17313,1,0,0:0:0:0:
208,186,17507,5,0,1:0:0:0:
209,205,17700,1,0,0:0:0:0:
108,99,17894,1,0,1:0:0:0:
210,223,18087,37,0,0:0:0:0:
211,242,18281,1,0,1:0:0:0:
282,128,18474,1,0,0:0:0:0:
212,260,18668,5,0,1:0:0:0:
213,279,18861,1,0,0:0:0:0:
155,168,19055,1,0,1:0:0:0:
105,328,19249,37,0,0:0:0:0:
50,223,19442,1,0,1:0:0:0:
130,248,19636,1,0,0:0:0:0:
25,303,19829,1,0,1:0:0:0:
155,168,20023,6,0,P|166:132|163:95,1,75.0000028610231,2|0,0:0|0:0,0:0:0:0:
256,336,20216,37,0,1:0:0:0:
382,235,20410,1,0,0:0:0:0:
257,317,20603,5,0,1:0:0:0:
258,298,20797,1,0,0:0:0:0:
168,182,20990,1,0,1:0:0:0:
259,280,21184,37,0,0:0:0:0:
260,261,21378,1,0,1:0:0:0:
349,157,21571,1,0,0:0:0:0:
261,243,21765,5,0,1:0:0:0:
262,224,21958,1,0,0:0:0:0:
221,118,22152,1,0,1:0:0:0:
325,12,22345,37,0,0:0:0:0:
299,91,22539,1,0,1:0:0:0:
243,29,22732,1,0,0:0:0:0:
381,74,22926,1,0,1:0:0:0:
273,170,23119,6,0,P|235:173|200:162,1,75.0000028610231,2|0,0:0|0:0,0:0:0:0:
449,27,23313,38,0,P|409:89|426:161,1,150,4|0,1:2|0:0,0:0:0:0:
438,174,23700,1,0,1:0:0:0:
318,55,23894,2,0,L|325:105,1,50,8|0,0:0|0:0,0:0:0:0:
340,223,24087,1,0,1:0:0:0:
235,200,24281,1,8,0:0:0:0:
144,66,24474,5,0,1:0:0:0:
169,109,24571,1,0,0:0:0:0:
169,149,24668,1,8,0:0:0:0:
156,176,24765,1,0,0:0:0:0:
143,191,24861,2,0,P|90:140|18:150,1,150,0|0,1:0|0:0,0:0:0:0:
2,163,25249,1,0,1:0:0:0:
71,269,25442,2,0,L|64:219,1,50,8|0,0:0|0:0,0:0:0:0:
42,54,25636,1,0,1:0:0:0:
196,119,25829,1,8,0:0:0:0:
297,0,26023,37,0,1:0:0:0:
284,15,26119,1,0,0:0:0:0:
271,42,26216,1,10,0:0:0:0:
271,82,26313,1,0,0:0:0:0:
296,125,26410,2,0,P|348:74|420:84,1,150,0|0,1:0|0:0,0:0:0:0:
436,96,26797,1,0,1:0:0:0:
380,202,26990,2,0,P|373:178|374:154,1,50,8|0,0:0|0:0,0:0:0:0:
472,19,27184,1,0,1:0:0:0:
485,232,27378,5,8,0:0:0:0:
438,213,27474,1,0,0:0:0:0:
389,220,27571,1,0,1:0:0:0:
350,250,27668,1,0,0:0:0:0:
310,279,27765,1,8,0:0:0:0:
261,286,27861,1,0,0:0:0:0:
215,268,27958,38,0,L|235:146,1,75.0000028610231,4|0,3:0|0:0,0:0:0:0:
425,296,28152,2,0,L|437:370,1,75.0000028610231,4|0,3:0|0:0,0:0:0:0:
309,177,28345,5,0,0:0:0:0:
312,157,28442,1,0,0:0:0:0:
316,138,28539,1,0,3:0:0:0:
319,118,28636,1,0,3:0:0:0:
333,36,28732,37,8,0:0:0:0:
283,44,28829,1,0,0:0:0:0:
233,52,28926,1,0,3:0:0:0:
183,60,29023,1,0,3:0:0:0:
126,0,29119,6,0,P|137:35|132:72,1,75.0000028610231,8|0,0:0|0:0,0:0:0:0:
180,215,29313,2,0,P|168:180|175:144,1,75.0000028610231,0|0,0:0|0:0,0:0:0:0:
355,272,29507,5,6,1:2:0:0:
335,275,29603,1,0,0:0:0:0:
316,279,29700,1,8,0:0:0:0:
296,282,29797,1,0,0:0:0:0:
225,294,29894,5,2,1:0:0:0:
205,297,29990,1,0,0:0:0:0:
186,301,30087,1,8,0:0:0:0:
166,304,30184,1,0,0:0:0:0:
95,316,30281,37,2,1:0:0:0:
75,319,30378,2,0,L|-13:331,1,50,0|8,0:0|0:0,0:0:0:0:
238,366,30571,1,0,0:0:0:0:
258,369,30668,6,0,L|340:378,1,50,2|0,1:0|0:0,0:0:0:0:
502,252,30861,2,0,L|419:263,1,50,8|0,0:0|0:0,0:0:0:0:
354,185,31055,37,2,1:0:0:0:
334,182,31152,1,0,0:0:0:0:
315,178,31249,1,8,0:0:0:0:
295,175,31345,1,0,0:0:0:0:
224,163,31442,5,2,1:0:0:0:
204,160,31539,1,0,0:0:0:0:
185,156,31636,1,8,0:0:0:0:
165,153,31732,1,0,0:0:0:0:
94,141,31829,37,2,1:0:0:0:
74,138,31926,2,0,L|-6:125,1,50,0|8,0:0|0:0,0:0:0:0:
225,82,32119,1,0,0:0:0:0:
245,79,32216,5,2,1:0:0:0:
265,76,32313,1,0,0:0:0:0:
215,66,32410,1,10,0:0:0:0:
166,57,32507,1,0,0:0:0:0:
77,37,32603,37,2,1:0:0:0:
80,57,32700,1,0,0:0:0:0:
84,76,32797,1,8,0:0:0:0:
87,96,32894,1,0,0:0:0:0:
99,167,32990,5,2,1:0:0:0:
102,187,33087,1,0,0:0:0:0:
106,206,33184,1,8,0:0:0:0:
109,226,33281,1,0,0:0:0:0:
121,297,33378,37,2,1:0:0:0:
124,317,33474,2,0,P|66:332|45:318,1,50,0|8,0:0|0:0,0:0:0:0:
255,236,33668,1,0,0:0:0:0:
258,216,33765,6,0,P|200:201|175:214,1,50,2|0,1:0|0:0,0:0:0:0:
281,324,33958,1,8,0:0:0:0:
330,318,34055,1,0,0:0:0:0:
380,312,34152,37,2,1:0:0:0:
377,332,34249,1,0,0:0:0:0:
373,351,34345,1,8,0:0:0:0:
370,371,34442,1,0,0:0:0:0:
469,343,34539,5,2,1:0:0:0:
464,315,34636,1,0,0:0:0:0:
459,288,34732,1,8,0:0:0:0:
455,260,34829,1,0,0:0:0:0:
446,196,34926,38,0,L|437:271,1,50,2|0,1:0|0:0,0:0:0:0:
330,126,35119,2,0,L|339:201,1,50,8|0,0:0|0:0,0:0:0:0:
466,70,35313,6,0,L|457:145,1,50,2|0,1:0|0:0,0:0:0:0:
310,0,35507,2,0,L|319:75,1,50,10|0,0:0|0:0,0:0:0:0:
342,255,35700,37,6,1:2:0:0:
322,252,35797,1,0,0:0:0:0:
303,248,35894,1,8,0:0:0:0:
283,245,35990,1,0,0:0:0:0:
212,233,36087,5,2,1:0:0:0:
192,230,36184,1,0,0:0:0:0:
173,226,36281,1,8,0:0:0:0:
153,223,36378,1,0,0:0:0:0:
82,211,36474,37,2,1:0:0:0:
62,208,36571,2,0,L|152:193,1,50,0|8,0:0|0:0,0:0:0:0:
260,159,36765,1,0,0:0:0:0:
280,156,36861,6,0,L|190:141,1,50,2|0,1:0|0:0,0:0:0:0:
43,113,37055,2,0,L|92:121,1,50,8|0,0:0|0:0,0:0:0:0:
198,70,37249,37,2,1:0:0:0:
218,67,37345,1,0,0:0:0:0:
237,63,37442,1,8,0:0:0:0:
257,60,37539,1,0,0:0:0:0:
328,48,37636,5,2,1:0:0:0:
348,45,37732,1,0,0:0:0:0:
367,41,37829,1,8,0:0:0:0:
387,38,37926,1,0,0:0:0:0:
458,26,38023,37,2,1:0:0:0:
478,23,38119,2,0,L|388:8,1,50,0|8,0:0|0:0,0:0:0:0:
321,145,38313,1,0,0:0:0:0:
301,142,38410,5,2,1:0:0:0:
281,139,38507,1,0,0:0:0:0:
331,129,38603,1,10,0:0:0:0:
380,120,38700,1,0,0:0:0:0:
469,100,38797,37,2,1:0:0:0:
466,120,38894,1,0,0:0:0:0:
462,139,38990,1,8,0:0:0:0:
459,159,39087,1,0,0:0:0:0:
447,230,39184,5,2,1:0:0:0:
444,250,39281,1,0,0:0:0:0:
440,269,39378,1,8,0:0:0:0:
437,289,39474,1,0,0:0:0:0:
425,360,39571,37,2,1:0:0:0:
422,380,39668,2,0,L|409:312,1,50,0|8,0:0|0:0,0:0:0:0:
369,213,39861,1,0,0:0:0:0:
366,193,39958,6,0,L|353:261,1,50,2|0,1:0|0:0,0:0:0:0:
335,367,40152,1,8,0:0:0:0:
286,361,40249,1,0,0:0:0:0:
236,355,40345,38,0,P|222:286|222:244,1,75.0000028610231,2|0,1:0|0:0,0:0:0:0:
77,377,40539,2,0,P|91:308|91:266,1,75.0000028610231,8|0,0:0|0:0,0:0:0:0:
147,177,40732,6,0,L|145:120,3,37.5000014305115,2|0|8|0,1:0|0:0|0:0|0:0,0:0:0:0:
145,205,41119,37,2,1:0:0:0:
160,196,41216,1,0,0:0:0:0:
224,163,41313,5,8,0:0:0:0:
239,172,41410,1,0,0:0:0:0:
305,205,41507,37,0,0:0:0:0:
320,196,41603,1,0,0:0:0:0:
384,163,41700,5,0,0:0:0:0:
399,172,41796,1,0,0:0:0:0:
465,205,41894,5,6,1:2:0:0:
234,251,42087,1,0,1:0:0:0:
421,305,42281,1,8,0:0:0:0:
309,384,42475,5,2,3:2:0:0:
310,364,42571,2,0,L|318:237,1,100,0|0,3:0|3:0,0:0:0:0:
318,244,42861,1,0,3:0:0:0:
150,258,43055,1,2,1:2:0:0:
221,105,43249,1,10,0:2:0:0:
66,113,43442,38,0,P|60:95|51:78,1,25,0|0,3:0|0:0,0:0:0:0:
80,129,43539,2,0,P|82:110|79:91,1,25,0|0,0:0|0:0,0:0:0:0:
90,149,43636,2,0,P|98:131|102:113,1,25,0|0,3:0|0:0,0:0:0:0:
95,171,43732,2,0,P|108:157|118:141,1,25,0|0,0:0|0:0,0:0:0:0:
96,194,43829,2,0,P|138:175|204:193,1,100,8|2,0:0|3:2,0:0:0:0:
261,315,44119,1,0,3:0:0:0:
249,301,44216,2,0,P|237:279|233:255,1,50,0|0,1:0|3:0,0:0:0:0:
305,143,44410,2,0,P|292:165|273:181,1,50,0|0,3:0|0:0,0:0:0:0:
483,273,44603,6,0,B|417:278|417:278|382:247|382:247|316:252,1,179.999994506836,2|0,1:2|0:0,0:0:0:0:
353,333,44990,37,6,1:2:0:0:
402,93,45184,1,0,1:0:0:0:
446,192,45378,2,0,B|483:189,2,37.5000014305115,8|0|0,0:0|0:0|0:0,0:0:0:0:
318,86,45571,1,2,3:2:0:0:
298,84,45668,2,0,B|295:47,1,25,0|0,3:0|0:0,0:0:0:0:
278,82,45764,1,0,1:0:0:0:
258,81,45861,1,0,3:0:0:0:
238,79,45958,1,0,3:0:0:0:
251,248,46152,6,0,B|254:285,2,37.5000014305115,2|0|0,1:2|0:0|0:0,0:0:0:0:
245,164,46345,1,10,0:2:0:0:
153,308,46540,37,0,0:0:0:0:
173,311,46636,1,0,0:0:0:0:
358,343,46829,1,0,0:0:0:0:
342,293,46925,1,8,0:0:0:0:
302,258,47023,1,0,0:0:0:0:
251,248,47119,2,0,B|259:347,1,100,2|0,3:2|1:0,0:0:0:0:
259,347,47410,1,0,0:0:0:0:
259,347,47507,1,0,0:0:0:0:
195,159,47700,2,0,B|245:164,1,50,2|0,1:2|0:0,0:0:0:0:
330,171,47894,6,0,B|404:177,1,75.0000028610231,10|0,0:2|0:0,0:0:0:0:
134,103,48087,37,6,1:2:0:0:
123,119,48184,1,0,0:0:0:0:
116,137,48281,1,0,1:0:0:0:
112,156,48378,1,0,0:0:0:0:
114,175,48474,2,0,P|78:145|9:146,1,100,8|2,0:0|3:2,0:0:0:0:
149,251,48765,1,0,3:0:0:0:
166,240,48861,2,0,P|183:221|193:199,1,50,0|0,1:0|3:0,0:0:0:0:
119,329,49055,2,0,P|143:334|168:332,1,50,0|0,3:0|0:0,0:0:0:0:
45,222,49249,2,0,B|49:271,2,37.5000014305115,2|0|0,1:2|0:0|0:0,0:0:0:0:
38,137,49442,6,0,B|32:63,1,75.0000028610231,10|0,0:2|0:0,0:0:0:0:
254,282,49636,38,0,B|250:327,2,25,0|0|0,3:0|0:0|0:0,0:0:0:0:
260,198,49829,2,0,B|263:160,2,25,0|0|0,3:0|0:0|0:0,0:0:0:0:
176,256,50023,6,0,L|112:228,1,50,8|0,0:0|0:0,0:0:0:0:
335,268,50216,2,0,L|402:250,1,50,2|0,3:2|3:0,0:0:0:0:
206,94,50410,1,0,1:0:0:0:
237,84,50506,1,0,3:0:0:0:
269,75,50603,1,0,3:0:0:0:
298,89,50700,1,0,0:0:0:0:
328,103,50796,1,2,1:2:0:0:
256,239,50990,38,0,B|262:164,1,75.0000028610231,10|0,0:2|0:0,0:0:0:0:
409,44,51184,6,0,P|411:93|428:140,1,100,6|0,1:2|1:0,0:0:0:0:
440,156,51474,1,0,0:0:0:0:
452,170,51571,2,0,L|519:152,2,37.5000014305115,10|0|0,1:2|0:0|0:0,0:0:0:0:
256,239,51765,38,0,B|262:164,1,75.0000028610231,0|0,1:0|0:0,0:0:0:0:
137,22,51959,6,0,P|127:70|102:114,1,100,6|0,1:2|0:0,0:0:0:0:
89,127,52249,1,0,0:0:0:0:
75,139,52346,2,0,L|11:111,2,37.5000014305115,10|0|0,1:2|0:0|0:0,0:0:0:0:
256,239,52539,38,0,B|262:164,1,75.0000028610231,0|0,1:0|0:0,0:0:0:0:
409,44,52732,6,0,P|411:93|419:113,1,50,12|0,1:2|0:0,0:0:0:0:
355,183,52926,2,0,L|340:136,1,50,0|0,1:0|0:0,0:0:0:0:
137,22,53119,38,0,P|127:70|116:88,1,50,10|0,1:2|0:0,0:0:0:0:
168,168,53313,2,0,L|191:123,1,50,0|0,1:0|0:0,0:0:0:0:
275,6,53507,6,0,B|269:81,1,75.0000028610231,12|0,1:2|1:0,0:0:0:0:
254,258,53700,37,0,1:0:0:0:
252,277,53796,1,0,0:0:0:0:
251,297,53894,2,0,B|245:372,1,50,10|0,1:2|0:0,0:0:0:0:
335,279,54087,6,0,P|372:274|408:285,1,75.0000028610231,0|0,1:0|0:0,0:0:0:0:
129,350,54281,38,0,P|167:283|64:326,1,262.500010013581,4|0,1:0|0:0,0:0:0:0:
43,324,55055,5,0,0:0:0:0:
38,304,55152,1,0,0:0:0:0:
39,279,55249,1,0,0:0:0:0:
51,252,55345,1,0,0:0:0:0:
78,229,55442,1,0,0:0:0:0:
117,221,55539,1,0,0:0:0:0:
159,237,55636,1,0,0:0:0:0:
185,279,55732,1,0,0:0:0:0:
162,360,55829,38,0,P|218:293|306:290,1,179.999994506836,2|0,0:0|0:0,0:0:0:0:
331,370,56216,6,0,L|322:296,1,75.0000028610231,8|0,0:0|1:0,0:0:0:0:
512,122,56603,38,0,L|506:159,1,37.5,2|0,0:0|0:0,0:0:0:0:
486,262,56990,21,0,0:0:0:0:
455,222,57086,1,0,0:0:0:0:
413,196,57183,1,0,0:0:0:0:
364,188,57280,1,0,0:0:0:0:
315,198,57378,6,0,P|251:200|197:95,1,194.999991073609,4|0,1:0|0:0,0:0:0:0:
286,2,57765,2,0,P|307:62|280:120,1,129.999994049073,8|0,0:0|1:0,0:0:0:0:
159,232,58055,1,0,0:0:0:0:
159,232,58152,2,0,L|172:327,1,64.9999970245363,0|0,1:0|0:0,0:0:0:0:
20,155,58345,2,0,P|75:124|136:141,1,129.999994049073,0|8,1:0|0:0,0:0:0:0:
234,339,58732,38,0,P|178:369|117:352,1,129.999994049073,0|0,1:0|1:0,0:0:0:0:
20,155,59119,1,0,1:0:0:0:
256,200,59313,1,8,0:0:0:0:
44,274,59507,1,0,1:0:0:0:
214,117,59700,5,0,1:0:0:0:
345,296,59894,1,0,1:0:0:0:
302,117,60087,1,8,0:0:0:0:
167,296,60281,1,0,1:0:0:0:
399,365,60474,38,0,P|431:290|391:221,1,129.999994049073,0|0,1:0|1:0,0:0:0:0:
256,200,60765,1,0,0:0:0:0:
238,212,60861,2,0,L|323:205,1,64.9999970245363,8|0,0:0|0:0,0:0:0:0:
456,152,61055,2,0,L|391:146,1,64.9999970245363,0|0,1:0|0:0,0:0:0:0:
320,0,61249,6,0,P|288:75|328:144,1,129.999994049073,0|0,1:0|0:0,0:0:0:0:
416,247,61636,1,8,0:0:0:0:
386,235,61732,1,0,0:0:0:0:
354,232,61829,1,2,1:2:0:0:
322,238,61926,1,0,0:0:0:0:
293,253,62023,37,2,1:2:0:0:
332,257,62119,1,0,0:0:0:0:
362,283,62216,1,0,1:0:0:0:
371,322,62313,1,0,0:0:0:0:
356,359,62410,1,10,0:2:0:0:
322,381,62506,1,0,0:0:0:0:
282,379,62603,1,0,1:0:0:0:
251,354,62700,1,0,0:0:0:0:
240,315,62797,6,0,L|234:235,1,64.9999970245363,2|0,1:2|0:0,0:0:0:0:
241,0,62990,1,0,1:0:0:0:
276,46,63087,1,0,0:0:0:0:
278,98,63184,1,8,0:0:0:0:
264,134,63281,1,0,0:0:0:0:
241,157,63378,1,0,1:0:0:0:
218,169,63474,1,0,0:0:0:0:
201,174,63571,38,0,B|251:158|288:187|288:187|337:231|411:200,1,194.999991073609,4|0,1:2|0:0,0:0:0:0:
461,113,63958,2,0,P|403:91|352:127,1,129.999994049073,8|0,0:0|1:0,0:0:0:0:
505,290,64249,1,0,0:0:0:0:
505,290,64345,2,0,L|497:217,1,64.9999970245363,0|0,1:0|0:0,0:0:0:0:
304,348,64539,2,0,L|463:333,1,129.999994049073,0|8,1:0|0:0,0:0:0:0:
208,348,64926,6,0,L|49:333,1,129.999994049073,0|0,1:0|1:0,0:0:0:0:
53,133,65313,1,0,1:0:0:0:
271,199,65507,1,8,0:0:0:0:
39,238,65700,1,0,1:0:0:0:
118,50,65894,38,0,P|150:97|144:178,1,129.999994049073,0|0,1:0|0:0,0:0:0:0:
31,30,66281,1,8,0:0:0:0:
236,77,66474,1,0,1:0:0:0:
118,258,66668,6,0,P|133:195|258:180,1,194.999991073609,4|0,1:2|0:0,0:0:0:0:
271,199,67055,1,8,0:0:0:0:
53,132,67249,1,0,1:0:0:0:
236,77,67442,37,4,1:2:0:0:
39,238,67636,1,0,1:0:0:0:
271,199,67829,5,8,0:0:0:0:
74,38,68023,1,0,1:0:0:0:
324,123,68216,37,4,0:0:0:0:
117,283,68410,1,0,1:0:0:0:
395,283,68603,5,4,0:0:0:0:
188,123,68797,1,0,1:0:0:0:
375,56,68990,38,0,P|409:122|381:185,1,129.999994049073,4|0,0:0|0:0,0:0:0:0:
204,323,69378,5,8,0:0:0:0:
200,273,69475,1,0,0:0:0:0:
196,223,69572,1,0,1:0:0:0:
192,173,69669,1,0,0:0:0:0:
187,123,69765,6,0,B|56:114|56:114|89:124|111:143,1,194.999991073609,4|0,1:0|0:0,0:0:0:0:
92,287,70152,2,0,P|78:225|23:194,1,129.999994049073,8|0,0:0|1:0,0:0:0:0:
59,364,70442,1,0,0:0:0:0:
77,369,70539,2,0,P|128:362|159:337,1,64.9999970245363,0|0,1:0|0:0,0:0:0:0:
275,161,70732,2,0,L|285:290,1,129.999994049073,0|8,1:0|0:0,0:0:0:0:
512,63,71119,6,0,P|436:118|349:86,1,194.999991073609,0|0,1:0|0:0,0:0:0:0:
335,100,71507,38,0,P|364:125|413:138,1,64.9999970245363,0|0,1:0|0:0,0:0:0:0:
471,135,71700,1,8,0:0:0:0:
253,84,71894,6,0,P|255:116|267:146,1,64.9999970245363,0|0,1:0|0:0,0:0:0:0:
330,201,72087,1,0,1:0:0:0:
206,14,72281,38,0,P|185:37|172:67,1,64.9999970245363,0|0,1:0|0:0,0:0:0:0:
198,197,72474,2,0,P|155:150|92:147,1,129.999994049073,8|0,0:0|1:0,0:0:0:0:
109,357,72861,6,0,B|121:225|121:225|124:261|140:285,1,194.999991073609,0|0,1:0|0:0,0:0:0:0:
193,350,73249,1,8,0:0:0:0:
25,364,73442,1,0,1:0:0:0:
112,143,73636,2,0,L|99:272,1,129.999994049073,0|0,1:0|0:0,0:0:0:0:
64,75,74023,37,8,0:0:0:0:
78,67,74119,1,0,0:0:0:0:
92,62,74216,1,2,1:2:0:0:
109,60,74313,1,0,0:0:0:0:
192,51,74410,5,2,1:2:0:0:
183,99,74506,1,0,0:0:0:0:
203,144,74603,1,0,1:0:0:0:
245,170,74700,1,0,0:0:0:0:
295,167,74797,37,10,0:2:0:0:
304,135,74894,1,0,0:0:0:0:
324,109,74990,1,0,1:0:0:0:
353,93,75087,1,0,0:0:0:0:
385,89,75184,2,0,P|392:120|388:152,1,64.9999970245363,2|0,1:2|0:0,0:0:0:0:
488,261,75378,5,0,1:0:0:0:
432,224,75475,1,0,0:0:0:0:
375,235,75571,1,8,0:0:0:0:
340,275,75668,1,0,0:0:0:0:
336,320,75765,1,0,1:0:0:0:
351,356,75861,1,0,0:0:0:0:
374,377,75958,38,0,P|320:302|230:322,1,194.999991073609,4|0,1:2|0:0,0:0:0:0:
89,384,76345,2,0,P|138:344|145:281,1,129.999994049073,8|0,0:0|1:0,0:0:0:0:
8,248,76636,1,0,0:0:0:0:
15,265,76732,2,0,P|36:289|66:304,1,64.9999970245363,0|0,1:0|0:0,0:0:0:0:
236,206,76926,2,0,L|107:196,1,129.999994049073,0|8,1:0|0:0,0:0:0:0:
294,40,77313,6,0,B|299:105|299:105|347:145|347:145|353:211,1,194.999991073609,0|0,1:0|0:0,0:0:0:0:
293,269,77700,1,0,1:0:0:0:
379,65,77894,1,8,0:0:0:0:
512,241,78087,1,0,1:0:0:0:
278,142,78281,37,0,1:0:0:0:
512,241,78474,1,0,1:0:0:0:
379,65,78668,5,8,0:0:0:0:
409,314,78861,1,0,1:0:0:0:
458,95,79055,38,0,P|436:125|405:146,1,75.0000028610231,4|0,1:2|0:0,0:0:0:0:
378,231,79249,2,0,P|340:227|307:211,1,75.0000028610231,0|0,1:0|0:0,0:0:0:0:
133,65,79442,5,8,0:0:0:0:
103,314,79635,1,0,1:0:0:0:
54,95,79829,38,0,P|76:125|107:146,1,75.0000028610231,4|0,1:2|0:0,0:0:0:0:
134,231,80023,2,0,P|172:227|205:211,1,75.0000028610231,0|0,1:0|0:0,0:0:0:0:
379,64,80216,5,8,0:0:0:0:
409,314,80409,1,0,1:0:0:0:
512,135,80603,37,4,0:0:0:0:
462,141,80699,1,0,0:0:0:0:
422,170,80797,2,0,P|421:151|426:133,1,37.5000014305115,0|0,1:0|0:0,0:0:0:0:
401,215,80894,2,0,P|392:198|389:179,1,37.5000014305115,0|0,0:0|0:0,0:0:0:0:
338,270,80990,5,4,0:0:0:0:
310,213,81087,1,0,0:0:0:0:
260,177,81184,2,0,P|277:170|296:169,1,37.5000014305115,0|0,1:0|0:0,0:0:0:0:
199,168,81281,2,0,P|212:154|228:146,1,37.5000014305115,0|0,0:0|0:0,0:0:0:0:
118,193,81378,37,4,0:0:0:0:
116,173,81474,1,0,0:0:0:0:
114,151,81571,2,0,P|120:127|135:107,1,50,0|0,1:0|0:0,0:0:0:0:
112,133,81668,2,0,P|99:111|80:95,1,50,0|0,0:0|0:0,0:0:0:0:
110,113,81765,6,0,L|101:34,1,75.0000028610231,8|0,0:0|0:0,0:0:0:0:
128,275,81958,2,0,L|137:350,1,75.0000028610231,0|0,0:0|0:0,0:0:0:0:
347,203,82152,5,4,0:0:0:0:
330,157,82248,1,0,0:0:0:0:
290,128,82345,1,0,0:0:0:0:
241,127,82442,1,0,0:0:0:0:
200,154,82539,2,0,P|187:176|183:210,1,50,0|0,0:0|0:0,0:0:0:0:
321,283,82732,5,4,0:0:0:0:
369,291,82828,1,0,0:0:0:0:
414,271,82925,1,0,1:0:0:0:
439,229,83022,1,0,0:0:0:0:
436,180,83119,2,0,P|423:157|396:137,1,50,0|0,0:0|0:0,0:0:0:0:
264,220,83313,37,4,0:0:0:0:
233,258,83409,1,0,0:0:0:0:
228,307,83506,1,0,0:0:0:0:
252,349,83603,1,0,0:0:0:0:
296,371,83700,2,0,P|321:371|352:357,1,50,0|0,0:0|0:0,0:0:0:0:
347,203,83894,5,4,0:0:0:0:
330,157,83990,1,0,0:0:0:0:
290,128,84087,1,0,0:0:0:0:
241,127,84184,1,0,0:0:0:0:
200,154,84281,2,0,P|187:176|183:210,1,50,0|0,0:0|0:0,0:0:0:0:
90,281,84474,37,4,0:0:0:0:
90,281,84571,1,0,0:0:0:0:
90,281,84668,2,0,P|115:281|146:267,1,50,0|0,1:0|0:0,0:0:0:0:
347,203,84861,5,4,0:0:0:0:
347,203,84958,1,0,0:0:0:0:
347,203,85055,2,0,P|321:203|290:189,1,50,0|0,0:0|0:0,0:0:0:0:
141,107,85249,37,4,0:0:0:0:
95,124,85345,1,0,0:0:0:0:
66,164,85442,1,0,0:0:0:0:
65,213,85539,1,0,0:0:0:0:
92,254,85636,2,0,P|114:267|148:271,1,50,0|0,0:0|0:0,0:0:0:0:
221,133,85829,5,4,0:0:0:0:
229,85,85925,1,0,0:0:0:0:
209,40,86022,1,0,1:0:0:0:
167,15,86119,1,0,0:0:0:0:
118,18,86216,2,0,P|95:31|75:58,1,50,0|0,0:0|0:0,0:0:0:0:
158,190,86410,37,4,0:0:0:0:
196,221,86506,1,0,0:0:0:0:
245,226,86603,1,0,0:0:0:0:
287,202,86700,1,0,0:0:0:0:
309,158,86797,2,0,P|309:133|295:102,1,50,0|0,0:0|0:0,0:0:0:0:
141,107,86991,5,4,0:0:0:0:
95,124,87087,1,0,0:0:0:0:
66,164,87184,1,0,0:0:0:0:
65,213,87281,1,0,0:0:0:0:
92,254,87378,2,0,P|114:267|148:271,1,50,0|0,0:0|0:0,0:0:0:0:
362,278,87571,38,0,P|297:272|271:298,1,100,4|0,0:0|1:0,0:0:0:0:
269,307,87861,1,0,0:0:0:0:
268,319,87958,2,0,L|278:377,1,50,2|0,0:0|0:0,0:0:0:0:
220,226,88152,2,0,L|230:168,1,50,0|0,0:0|0:0,0:0:0:0:
153,365,88345,5,4,1:0:0:0:
362,278,88732,1,0,0:0:0:0:
121,157,89119,1,0,0:0:0:0:
394,70,89507,1,0,0:0:0:0:
153,365,89894,37,0,0:0:0:0:
362,278,90087,1,0,0:0:0:0:
121,157,90281,1,0,0:0:0:0:
394,70,90474,1,0,0:0:0:0:
195,13,90668,5,0,0:0:0:0:
198,50,90764,1,0,0:0:0:0:
201,87,90861,1,0,0:0:0:0:
204,125,90958,1,0,0:0:0:0:
207,162,91055,2,0,L|259:157,1,50,0|0,0:0|0:0,0:0:0:0:
337,79,91249,2,0,L|287:83,1,50,0|0,0:0|0:0,0:0:0:0:
39,241,91442,38,0,P|116:274|186:234,1,150.000005722046,4|0,0:0|0:0,0:0:0:0:
121,157,91732,1,0,0:0:0:0:
110,189,91829,1,0,0:0:0:0:
343,357,92023,1,0,0:0:0:0:
473,241,92216,6,0,P|396:274|326:234,1,150.000005722046,4|0,0:0|0:0,0:0:0:0:
391,157,92506,1,0,0:0:0:0:
402,189,92603,1,0,0:0:0:0:
169,357,92797,1,0,0:0:0:0:
391,157,92990,38,0,L|404:319,1,150.000005722046,4|0,0:0|0:0,0:0:0:0:
121,157,93378,6,0,L|108:319,1,150.000005722046,4|0,0:0|0:0,0:0:0:0:
315,127,93765,38,0,P|318:54|274:8,1,100,4|0,0:0|0:0,0:0:0:0:
190,76,94055,5,0,0:0:0:0:
214,86,94152,2,0,L|239:85,1,25,2|0,0:0|0:0,0:0:0:0:
169,281,94539,38,0,B|210:280|210:280|241:290|241:290|301:290,1,120,0|0,1:0|1:0,0:0:0:0:
310,213,94926,6,0,L|266:214,1,44.999998626709,8|0,0:0|0:0,0:0:0:0:
146,360,95119,2,0,L|191:360,1,44.999998626709,0|0,1:0|1:0,0:0:0:0:
409,332,95313,37,8,0:0:0:0:
426,333,95410,1,0,0:0:0:0:
443,334,95507,1,2,0:0:0:0:
460,335,95604,1,2,0:0:0:0:
477,336,95700,5,2,0:0:0:0:
446,293,95796,1,0,0:0:0:0:
396,309,95893,1,0,0:0:0:0:
396,362,95990,1,0,0:0:0:0:
446,378,96087,37,4,0:0:0:0:
15,220,102281,22,0,L|113:205,1,100,4|0,1:2|0:0,0:0:0:0:
114,205,102571,1,0,0:0:0:0:
121,213,102668,2,0,L|106:311,1,100,8|0,1:2|0:0,0:0:0:0:
134,126,103055,1,0,1:2:0:0:
193,294,103249,5,0,0:0:0:0:
206,264,103345,1,0,0:0:0:0:
229,240,103442,1,8,1:2:0:0:
258,225,103539,1,0,0:0:0:0:
291,220,103636,1,0,0:0:0:0:
323,227,103732,1,0,0:0:0:0:
351,243,103829,2,0,L|336:144,1,100,0|0,1:2|0:0,0:0:0:0:
336,144,104119,1,0,0:0:0:0:
336,144,104216,1,8,1:2:0:0:
511,91,104410,38,0,B|439:114|439:114|378:72,1,150,0|0,0:0|0:0,0:0:0:0:
360,59,104797,1,0,0:0:0:0:
428,198,104990,1,8,1:2:0:0:
453,23,105183,1,0,1:2:0:0:
506,227,105378,6,0,L|328:242,1,150,0|0,1:2|0:0,0:0:0:0:
336,243,105765,1,8,1:2:0:0:
490,313,105958,1,0,0:0:0:0:
290,173,106152,38,0,P|258:212|254:261,1,100,0|0,1:2|0:0,0:0:0:0:
253,259,106442,1,0,0:0:0:0:
253,259,106539,1,8,1:2:0:0:
256,74,106732,1,0,0:0:0:0:
148,256,106926,5,0,1:2:0:0:
256,53,107119,1,0,1:2:0:0:
364,256,107313,37,8,1:2:0:0:
256,32,107507,1,0,1:2:0:0:
256,295,107700,5,0,1:2:0:0:
330,69,107894,2,0,L|348:11,2,37.5000014305115,0|0|0,1:2|0:0|0:0,0:0:0:0:
222,219,108087,37,8,1:2:0:0:
270,212,108183,1,0,0:0:0:0:
314,235,108280,1,0,1:2:0:0:
337,278,108377,1,0,0:0:0:0:
272,377,108474,22,0,P|344:345|419:350,1,129.999994049073,4|0,1:0|1:0,0:0:0:0:
479,191,108861,1,8,0:0:0:0:
479,191,108958,1,0,0:0:0:0:
479,191,109055,2,0,L|464:282,1,64.9999970245363,0|0,1:0|0:0,0:0:0:0:
330,69,109249,6,0,P|402:101|477:96,1,129.999994049073,0|0,1:0|0:0,0:0:0:0:
302,165,109636,1,8,0:0:0:0:
239,15,109829,2,0,L|254:106,1,64.9999970245363,0|0,1:0|0:0,0:0:0:0:
289,251,110023,38,0,P|225:199|218:147,1,129.999994049073,0|0,1:0|0:0,0:0:0:0:
372,220,110313,1,0,0:0:0:0:
372,220,110410,2,0,P|370:279|363:296,1,64.9999970245363,8|0,0:0|0:0,0:0:0:0:
202,384,110603,2,0,P|195:352|198:320,1,64.9999970245363,0|0,1:0|0:0,0:0:0:0:
410,358,110797,6,0,L|280:347,1,129.999994049073,0|0,1:0|0:0,0:0:0:0:
61,298,111184,1,8,0:0:0:0:
93,305,111281,1,0,0:0:0:0:
137,298,111378,1,0,0:0:0:0:
181,261,111474,1,0,0:0:0:0:
198,191,111571,38,0,P|189:273|199:324,1,129.999994049073,0|0,1:0|0:0,0:0:0:0:
302,165,111958,1,8,0:0:0:0:
136,46,112152,2,0,P|182:75|218:76,1,64.9999970245363,0|0,0:0|0:0,0:0:0:0:
400,27,112345,6,0,P|409:109|399:160,1,129.999994049073,0|0,1:0|0:0,0:0:0:0:
395,180,112603,2,0,L|439:189,2,43.3333313496908,0|0|8,0:0|0:0|0:0,0:0:0:0:
273,84,112926,1,0,0:0:0:0:
128,218,113119,38,0,P|210:209|248:236,1,129.999994049073,2|0,1:2|1:0,0:0:0:0:
437,188,113507,2,0,P|403:263|361:282,1,129.999994049073,10|0,0:2|0:0,0:0:0:0:
238,363,113894,2,0,L|246:227,1,129.999994049073,2|0,1:2|0:0,0:0:0:0:
256,44,114281,1,8,0:0:0:0:
350,197,114474,1,0,1:0:0:0:
186,148,114668,6,0,P|163:95|163:45,1,64.9999970245363,4|0,1:2|0:0,0:0:0:0:
343,47,114861,2,0,P|334:78|318:106,1,64.9999970245363,0|0,1:0|0:0,0:0:0:0:
245,233,115055,2,0,P|318:228|381:257,1,129.999994049073,8|0,0:0|0:0,0:0:0:0:
238,363,115442,1,0,1:0:0:0:
12,188,115636,1,0,0:0:0:0:
58,223,115733,1,0,0:0:0:0:
110,225,115830,1,8,0:0:0:0:
146,211,115927,1,0,0:0:0:0:
169,188,116024,1,0,0:0:0:0:
181,165,116120,1,0,0:0:0:0:
186,148,116216,37,4,1:2:0:0:
411,370,116410,1,0,0:0:0:0:
326,148,116603,5,12,0:2:0:0:
101,370,116797,1,0,0:0:0:0:
256,96,116990,37,4,1:2:0:0:
369,259,117184,1,0,0:0:0:0:
256,96,117378,5,12,0:0:0:0:
143,259,117571,1,0,0:0:0:0:
40,82,117765,37,4,1:2:0:0:
296,232,117958,1,0,1:0:0:0:
86,206,118152,5,8,0:0:0:0:
340,57,118345,1,0,1:0:0:0:
172,57,118539,37,4,1:2:0:0:
426,206,118732,1,0,1:0:0:0:
216,232,118926,5,8,0:0:0:0:
472,82,119119,1,0,1:0:0:0:
248,8,119313,37,4,0:0:0:0:
249,29,119409,1,0,0:0:0:0:
251,51,119506,1,0,1:0:0:0:
252,72,119603,1,0,0:0:0:0:
288,136,119700,5,4,0:0:0:0:
286,157,119796,1,0,0:0:0:0:
284,179,119893,1,0,1:0:0:0:
283,200,119990,1,0,0:0:0:0:
248,264,120088,37,4,0:0:0:0:
250,285,120184,1,0,0:0:0:0:
252,307,120281,1,2,0:0:0:0:
253,328,120378,1,2,0:0:0:0:
291,382,120474,6,0,P|258:363|221:356,1,75,6|0,0:0|0:0,0:0:0:0:
39,321,120861,5,4,0:0:0:0:
84,342,120958,1,0,0:0:0:0:
133,332,121055,1,0,0:0:0:0:
167,295,121153,1,0,0:0:0:0:
165,275,121249,1,0,0:0:0:0:
163,255,121346,1,0,0:0:0:0:
150,172,121442,5,4,0:0:0:0:
195,151,121539,1,0,0:0:0:0:
244,161,121636,1,0,1:0:0:0:
278,198,121732,1,0,0:0:0:0:
276,218,121830,1,0,0:0:0:0:
274,238,121927,1,0,0:0:0:0:
261,321,122023,37,4,0:0:0:0:
306,342,122120,1,0,0:0:0:0:
355,332,122217,1,0,0:0:0:0:
389,295,122313,1,0,0:0:0:0:
387,275,122411,1,0,0:0:0:0:
385,255,122508,1,0,0:0:0:0:
372,172,122603,5,4,0:0:0:0:
417,151,122700,1,0,0:0:0:0:
466,161,122797,1,0,0:0:0:0:
500,198,122895,1,0,0:0:0:0:
498,218,122991,1,0,0:0:0:0:
496,238,123088,1,0,0:0:0:0:
494,258,123184,38,0,L|486:331,1,50,4|0,0:0|0:0,0:0:0:0:
274,238,123378,1,0,1:0:0:0:
268,188,123474,1,0,0:0:0:0:
263,138,123571,2,0,L|255:65,1,50,4|0,0:0|0:0,0:0:0:0:
221,302,123765,2,0,L|226:351,1,50,0|0,0:0|0:0,0:0:0:0:
39,198,123959,5,4,0:0:0:0:
87,186,124055,1,0,0:0:0:0:
133,205,124152,1,0,0:0:0:0:
161,245,124249,1,0,0:0:0:0:
158,225,124346,1,0,0:0:0:0:
156,205,124442,1,0,0:0:0:0:
151,121,124539,37,4,0:0:0:0:
199,133,124635,1,0,0:0:0:0:
245,114,124732,1,0,1:0:0:0:
273,74,124829,1,0,0:0:0:0:
270,94,124926,1,0,0:0:0:0:
268,114,125022,1,0,0:0:0:0:
263,198,125119,5,4,0:0:0:0:
311,186,125215,1,0,0:0:0:0:
357,205,125312,1,0,0:0:0:0:
385,245,125409,1,0,0:0:0:0:
382,225,125506,1,0,0:0:0:0:
380,205,125602,1,0,0:0:0:0:
375,121,125700,37,4,0:0:0:0:
423,133,125796,1,0,0:0:0:0:
469,114,125893,1,0,0:0:0:0:
497,74,125990,1,0,0:0:0:0:
494,94,126087,1,0,0:0:0:0:
492,114,126183,1,0,0:0:0:0:
490,134,126281,6,0,L|482:207,1,50,4|0,0:0|0:0,0:0:0:0:
475,267,126474,2,0,L|469:316,1,50,0|0,1:0|0:0,0:0:0:0:
305,74,126668,37,2,0:0:0:0:
257,62,126764,1,0,0:0:0:0:
211,81,126861,1,0,0:0:0:0:
183,121,126958,1,0,0:0:0:0:
184,170,127055,6,0,P|233:146|287:158,1,112.500004291535,4|0,1:0|0:0,0:0:0:0:
242,229,127442,38,0,P|263:266|265:302,1,75,0|0,0:0|0:0,0:0:0:0:
183,287,127829,6,0,P|163:302|132:311,1,50,0|0,0:0|0:0,0:0:0:0:
124,227,128216,38,0,P|110:208|106:197,1,33.0000010070801,0|0,0:0|0:0,0:0:0:0:
184,170,128603,5,0,0:0:0:0:
242,229,128797,1,0,0:0:0:0:
183,287,128990,1,0,0:0:0:0:
124,227,129184,1,0,0:0:0:0:
244,112,129378,37,0,0:0:0:0:
217,93,129474,1,0,0:0:0:0:
185,86,129571,1,0,0:0:0:0:
153,92,129668,1,0,0:0:0:0:
125,111,129765,1,2,0:0:0:0:
186,2,129958,1,0,0:0:0:0:
55,155,130152,6,0,P|115:194|184:169,1,150.000005722046,4|0,0:0|0:0,0:0:0:0:
123,91,130442,1,0,0:0:0:0:
126,111,130539,1,0,0:0:0:0:
152,277,130732,1,0,0:0:0:0:
456,155,130926,38,0,P|396:194|327:169,1,150.000005722046,4|0,0:0|0:0,0:0:0:0:
388,90,131216,1,0,0:0:0:0:
385,110,131313,1,0,0:0:0:0:
359,276,131506,1,0,0:0:0:0:
51,176,131700,6,0,L|74:324,1,150,4|0,0:0|0:0,0:0:0:0:
461,176,132087,38,0,L|437:324,1,150,4|0,0:0|0:0,0:0:0:0:
256,64,132474,5,4,0:0:0:0:
256,260,132668,2,0,L|256:335,1,75.0000028610231
256,83,132861,1,2,0:0:0:0:
155,128,133055,37,0,0:0:0:0:
356,128,133249,1,4,0:0:0:0:
256,192,133345,12,4,134797,0:0:0:0:
