osu file format v14

[General]
AudioFilename: audio.mp3
AudioLeadIn: 0
PreviewTime: 93254
Countdown: 0
SampleSet: Normal
StackLeniency: 0.7
Mode: 1
LetterboxInBreaks: 0
WidescreenStoryboard: 0

[Editor]
DistanceSpacing: 1.3
BeatDivisor: 4
GridSize: 32
TimelineZoom: 1.3

[Metadata]
Title:Altale
TitleUnicode:Altale
Artist:Sakuzyo
ArtistUnicode:削除
Creator:Cynplytholowazy
Version:Mystic
Source:G2R2014 "GO BACK 2 YOUR ROOTS"
Tags:deemo rayark BMS of fighters 2014 bof2014 レオル カタストロフィー理論 chunithm arcaea SOUND VOLTEX IV HEAVENLY HAVEN SDVX Groove Coaster NS ノスタルジア ƒORTE FORTE Nostalgia Muse Dase 太鼓の達人 taiko no tatsujin green tnt maimai FINALE WACCA O.N.G.E.K.I. ongeki R.E.D. red PLUS Electronic Instrumental Fantasy
BeatmapID:3124066
BeatmapSetID:1527139

[Difficulty]
HPDrainRate:8
CircleSize:10
OverallDifficulty:4.5
ApproachRate:0
SliderMultiplier:1.4
SliderTickRate:1

[Events]
//Background and Video events
0,0,"20210722-181546-msedge.jpg",0,0
//Break Periods
//Storyboard Layer 0 (Background)
//Storyboard Layer 1 (Fail)
//Storyboard Layer 2 (Pass)
//Storyboard Layer 3 (Foreground)
//Storyboard Layer 4 (Overlay)
//Storyboard Sound Samples

[TimingPoints]
-5412,666.666666666667,3,1,0,40,1,0
-5412,-117.647058823529,3,1,0,40,0,0
15921,-111.195743426942,3,1,0,40,0,0
16254,-105.415177677282,3,1,0,40,0,0
16421,-100,3,1,0,70,0,0
55921,-95.2380952380952,3,1,0,70,0,0
56254,-90.9090909090909,3,1,0,70,0,0
56588,-86.9565217391304,3,1,0,70,0,1
76588,-133.333333333333,3,1,0,70,0,0
76921,-133.333333333333,3,1,0,30,0,0
91588,-142.857142857143,3,1,0,30,0,0
92588,-153.846153846154,3,1,0,30,0,0
93254,-133.333333333333,3,1,0,50,0,0
93588,-117.647058823529,3,1,0,50,0,0
93921,-105.263157894737,3,1,0,50,0,0
94254,-95.2380952380951,3,1,0,50,0,0
94588,-86.9565217391304,3,1,0,70,0,1
104588,-80,3,1,0,70,0,1
107254,-86.9565217391304,3,1,0,70,0,1
118588,-86.9565217391304,3,1,0,70,0,1
119088,-83.3333333333333,3,1,0,70,0,1
119254,-82.1917583036279,3,1,0,70,0,1
119421,-81.0811029948927,3,1,0,70,0,1
119588,-80,3,1,0,70,0,1
119754,-78.9473476454348,3,1,0,70,0,1
119921,-77.9220981615839,3,1,0,70,0,1
120088,-76.9230769230769,3,1,0,70,0,1
120254,-75.9493478609246,3,1,0,70,0,1
120365,-75.3137949265615,3,1,0,70,0,1
120476,-74.6887904822581,3,1,0,70,0,1
120588,-74.0740740740741,3,1,0,70,0,1
121254,-77.9220981615839,3,1,0,70,0,1
121588,-80,3,1,0,70,0,1
122588,-86.9565217391304,3,1,0,70,0,1
124588,722.89156626506,3,1,0,30,1,0
124588,-122.962962962963,3,1,0,30,0,0
143744,-100,3,1,0,20,0,0

[HitObjects]
256,192,2254,5,0,0:0:0:0:
256,192,2476,1,0,0:0:0:0:
256,192,2588,1,2,0:0:0:0:
256,192,3254,1,2,0:0:0:0:
256,192,3477,1,0,0:0:0:0:
256,192,3588,1,2,0:0:0:0:
256,192,4254,1,0,0:0:0:0:
256,192,4476,1,0,0:0:0:0:
256,192,4588,1,2,0:0:0:0:
256,192,4921,1,2,0:0:0:0:
256,192,5254,1,2,0:0:0:0:
256,192,5476,1,2,0:0:0:0:
256,192,5588,1,0,0:0:0:0:
256,192,6254,1,2,0:0:0:0:
256,192,6588,1,0,0:0:0:0:
256,192,7254,1,2,0:0:0:0:
256,192,7588,1,0,0:0:0:0:
256,192,7921,1,0,0:0:0:0:
256,192,8254,1,2,0:0:0:0:
256,192,8588,1,2,0:0:0:0:
256,192,9588,1,2,0:0:0:0:
256,192,10254,1,0,0:0:0:0:
256,192,10476,1,0,0:0:0:0:
256,192,10588,1,2,0:0:0:0:
256,192,11254,1,2,0:0:0:0:
256,192,11476,1,0,0:0:0:0:
256,192,11588,1,2,0:0:0:0:
256,192,12254,1,0,0:0:0:0:
256,192,12476,1,0,0:0:0:0:
256,192,12588,1,2,0:0:0:0:
256,192,12921,1,0,0:0:0:0:
256,192,13254,1,2,0:0:0:0:
256,192,13476,1,0,0:0:0:0:
256,192,13588,1,2,0:0:0:0:
256,192,13921,1,2,0:0:0:0:
256,192,14143,1,2,0:0:0:0:
256,192,14254,1,0,0:0:0:0:
256,192,14476,1,2,0:0:0:0:
256,192,14588,1,0,0:0:0:0:
256,192,15254,1,0,0:0:0:0:
256,192,15476,1,2,0:0:0:0:
256,192,15588,1,0,0:0:0:0:
256,192,15921,1,0,0:0:0:0:
256,192,16254,1,2,0:0:0:0:
256,192,16588,1,4,0:0:0:0:
256,192,16921,1,0,0:0:0:0:
256,192,17254,1,2,0:0:0:0:
256,192,17588,1,2,0:0:0:0:
256,192,17921,1,0,0:0:0:0:
256,192,18254,1,2,0:0:0:0:
256,192,18588,1,4,0:0:0:0:
256,192,18921,1,0,0:0:0:0:
256,192,19254,1,2,0:0:0:0:
256,192,19588,1,2,0:0:0:0:
256,192,19921,1,0,0:0:0:0:
256,192,20254,1,2,0:0:0:0:
256,192,20588,1,4,0:0:0:0:
256,192,20921,1,2,0:0:0:0:
256,192,21254,1,0,0:0:0:0:
256,192,21588,1,2,0:0:0:0:
256,192,21921,1,0,0:0:0:0:
256,192,22254,1,2,0:0:0:0:
256,192,22588,1,4,0:0:0:0:
256,192,22921,1,2,0:0:0:0:
256,192,23254,1,0,0:0:0:0:
256,192,23588,1,2,0:0:0:0:
256,192,23921,1,0,0:0:0:0:
256,192,24254,1,2,0:0:0:0:
256,192,24588,1,4,0:0:0:0:
256,192,24921,1,2,0:0:0:0:
256,192,25254,1,0,0:0:0:0:
256,192,25588,1,0,0:0:0:0:
256,192,26254,1,0,0:0:0:0:
256,192,26588,1,2,0:0:0:0:
256,192,27254,1,0,0:0:0:0:
256,192,27588,1,2,0:0:0:0:
256,192,27921,1,0,0:0:0:0:
256,192,28254,1,2,0:0:0:0:
256,192,28588,1,2,0:0:0:0:
256,192,28921,1,0,0:0:0:0:
256,192,29088,1,2,0:0:0:0:
256,192,29254,1,2,0:0:0:0:
256,192,29421,1,0,0:0:0:0:
256,192,29588,1,2,0:0:0:0:
256,192,29921,1,2,0:0:0:0:
256,192,30254,1,0,0:0:0:0:
256,192,30588,1,2,0:0:0:0:
256,192,30921,1,2,0:0:0:0:
256,192,31254,1,0,0:0:0:0:
256,192,31588,1,2,0:0:0:0:
256,192,31921,1,0,0:0:0:0:
256,192,32254,1,0,0:0:0:0:
256,192,32588,1,4,0:0:0:0:
256,192,32921,1,2,0:0:0:0:
256,192,33254,1,0,0:0:0:0:
256,192,33588,1,2,0:0:0:0:
256,192,33921,1,2,0:0:0:0:
256,192,34254,1,0,0:0:0:0:
256,192,34588,1,4,0:0:0:0:
256,192,34921,1,2,0:0:0:0:
256,192,35254,1,0,0:0:0:0:
256,192,35588,1,2,0:0:0:0:
256,192,35921,1,2,0:0:0:0:
256,192,36088,1,2,0:0:0:0:
256,192,36254,1,0,0:0:0:0:
256,192,36421,1,0,0:0:0:0:
256,192,36588,1,6,0:0:0:0:
256,192,36921,1,0,0:0:0:0:
256,192,37254,1,2,0:0:0:0:
256,192,37421,1,0,0:0:0:0:
256,192,37588,1,6,0:0:0:0:
256,192,37921,1,2,0:0:0:0:
256,192,38254,1,0,0:0:0:0:
256,192,38588,1,6,0:0:0:0:
256,192,39588,1,0,0:0:0:0:
256,192,39921,1,0,0:0:0:0:
256,192,40254,1,2,0:0:0:0:
256,192,40588,1,6,0:0:0:0:
256,192,40921,1,0,0:0:0:0:
256,192,41254,1,2,0:0:0:0:
256,192,41588,1,2,0:0:0:0:
256,192,42254,1,2,0:0:0:0:
256,192,42588,1,0,0:0:0:0:
256,192,42921,1,0,0:0:0:0:
256,192,43254,1,2,0:0:0:0:
256,192,43588,1,0,0:0:0:0:
256,192,43921,1,2,0:0:0:0:
256,192,44588,1,0,0:0:0:0:
256,192,44921,1,0,0:0:0:0:
256,192,45254,1,2,0:0:0:0:
256,192,45588,1,0,0:0:0:0:
256,192,46254,1,2,0:0:0:0:
256,192,46588,1,4,0:0:0:0:
256,192,46921,1,0,0:0:0:0:
256,192,47254,1,2,0:0:0:0:
256,192,47588,1,4,0:0:0:0:
256,192,47921,1,2,0:0:0:0:
256,192,48088,1,2,0:0:0:0:
256,192,48254,1,0,0:0:0:0:
256,192,48588,1,6,0:0:0:0:
256,192,49254,1,2,0:0:0:0:
256,192,49588,1,0,0:0:0:0:
256,192,50254,1,0,0:0:0:0:
256,192,50588,1,2,0:0:0:0:
256,192,50921,1,0,0:0:0:0:
256,192,51254,1,0,0:0:0:0:
256,192,51588,1,2,0:0:0:0:
256,192,51921,1,2,0:0:0:0:
256,192,52088,1,2,0:0:0:0:
256,192,52254,1,0,0:0:0:0:
256,192,52588,1,6,0:0:0:0:
256,192,52921,1,2,0:0:0:0:
256,192,53254,1,0,0:0:0:0:
256,192,53588,1,6,0:0:0:0:
256,192,54254,1,2,0:0:0:0:
256,192,54421,1,2,0:0:0:0:
256,192,54588,1,4,0:0:0:0:
256,192,55588,1,0,0:0:0:0:
256,192,55921,1,2,0:0:0:0:
256,192,56254,1,2,0:0:0:0:
256,192,56588,1,6,0:0:0:0:
256,192,57254,1,0,0:0:0:0:
256,192,57588,1,2,0:0:0:0:
256,192,57921,1,2,0:0:0:0:
256,192,58254,1,0,0:0:0:0:
256,192,58588,1,2,0:0:0:0:
256,192,58754,1,2,0:0:0:0:
256,192,58921,1,0,0:0:0:0:
256,192,59254,1,0,0:0:0:0:
256,192,59588,1,2,0:0:0:0:
256,192,59921,1,0,0:0:0:0:
256,192,60088,1,0,0:0:0:0:
256,192,60254,1,2,0:0:0:0:
256,192,60588,1,2,0:0:0:0:
256,192,61254,1,0,0:0:0:0:
256,192,61588,1,2,0:0:0:0:
256,192,61921,1,2,0:0:0:0:
256,192,62254,1,0,0:0:0:0:
256,192,62588,1,2,0:0:0:0:
256,192,63254,1,0,0:0:0:0:
256,192,63421,1,0,0:0:0:0:
256,192,63588,1,2,0:0:0:0:
256,192,64254,1,2,0:0:0:0:
256,192,64421,1,0,0:0:0:0:
256,192,64588,1,6,0:0:0:0:
256,192,65254,1,2,0:0:0:0:
256,192,65421,1,0,0:0:0:0:
256,192,65588,1,6,0:0:0:0:
256,192,65921,1,0,0:0:0:0:
256,192,66254,1,2,0:0:0:0:
256,192,66588,1,6,0:0:0:0:
256,192,66921,1,2,0:0:0:0:
256,192,67254,1,0,0:0:0:0:
256,192,67588,1,6,0:0:0:0:
256,192,68588,1,4,0:0:0:0:
256,192,69254,1,2,0:0:0:0:
256,192,69421,1,2,0:0:0:0:
256,192,69588,1,0,0:0:0:0:
256,192,69921,1,0,0:0:0:0:
256,192,70254,1,0,0:0:0:0:
256,192,70588,1,4,0:0:0:0:
256,192,71254,1,2,0:0:0:0:
256,192,71421,1,2,0:0:0:0:
256,192,71588,1,0,0:0:0:0:
256,192,71921,1,0,0:0:0:0:
256,192,72088,1,0,0:0:0:0:
256,192,72254,1,2,0:0:0:0:
256,192,72421,1,0,0:0:0:0:
256,192,72588,1,6,0:0:0:0:
256,192,73588,1,0,0:0:0:0:
256,192,73921,1,2,0:0:0:0:
256,192,74088,1,2,0:0:0:0:
256,192,74254,1,0,0:0:0:0:
256,192,74588,1,6,0:0:0:0:
256,192,76588,1,4,0:0:0:0:
256,192,77254,1,0,0:0:0:0:
256,192,77477,1,0,0:0:0:0:
256,192,77588,1,2,0:0:0:0:
256,192,78254,1,2,0:0:0:0:
256,192,78476,1,0,0:0:0:0:
256,192,78588,1,2,0:0:0:0:
256,192,78921,1,2,0:0:0:0:
256,192,79254,1,2,0:0:0:0:
256,192,79476,1,2,0:0:0:0:
256,192,79588,1,0,0:0:0:0:
256,192,80254,1,2,0:0:0:0:
256,192,80588,1,0,0:0:0:0:
256,192,81254,1,2,0:0:0:0:
256,192,81588,1,0,0:0:0:0:
256,192,81921,1,0,0:0:0:0:
256,192,82254,1,2,0:0:0:0:
256,192,82588,1,2,0:0:0:0:
256,192,83588,1,2,0:0:0:0:
256,192,83921,1,2,0:0:0:0:
256,192,84254,1,0,0:0:0:0:
256,192,84476,1,0,0:0:0:0:
256,192,84588,1,2,0:0:0:0:
256,192,85254,1,2,0:0:0:0:
256,192,85476,1,0,0:0:0:0:
256,192,85588,1,2,0:0:0:0:
256,192,86254,1,0,0:0:0:0:
256,192,86476,1,0,0:0:0:0:
256,192,86588,1,2,0:0:0:0:
256,192,86921,1,2,0:0:0:0:
256,192,87254,1,0,0:0:0:0:
256,192,87588,1,2,0:0:0:0:
256,192,87921,1,0,0:0:0:0:
256,192,88254,1,0,0:0:0:0:
256,192,88588,1,2,0:0:0:0:
256,192,89254,1,2,0:0:0:0:
256,192,89588,1,0,0:0:0:0:
256,192,89921,1,0,0:0:0:0:
256,192,90254,1,2,0:0:0:0:
256,192,90588,1,0,0:0:0:0:
256,192,91588,1,0,0:0:0:0:
256,192,92588,1,0,0:0:0:0:
256,192,93588,1,0,0:0:0:0:
256,192,93921,1,0,0:0:0:0:
256,192,94254,1,2,0:0:0:0:
256,192,94588,1,6,0:0:0:0:
256,192,95254,1,2,0:0:0:0:
256,192,95476,1,0,0:0:0:0:
256,192,95588,1,2,0:0:0:0:
256,192,95921,1,2,0:0:0:0:
256,192,96254,1,0,0:0:0:0:
256,192,96476,1,0,0:0:0:0:
256,192,96588,1,2,0:0:0:0:
256,192,96921,1,2,0:0:0:0:
256,192,97254,1,0,0:0:0:0:
256,192,97588,1,0,0:0:0:0:
256,192,97921,1,0,0:0:0:0:
256,192,98254,1,2,0:0:0:0:
256,192,98588,1,0,0:0:0:0:
256,192,99254,1,2,0:0:0:0:
256,192,99588,1,0,0:0:0:0:
256,192,99921,1,2,0:0:0:0:
256,192,100254,1,2,0:0:0:0:
256,192,100588,1,0,0:0:0:0:
256,192,100921,1,2,0:0:0:0:
256,192,101254,1,0,0:0:0:0:
256,192,101588,1,2,0:0:0:0:
256,192,101921,1,0,0:0:0:0:
256,192,102254,1,2,0:0:0:0:
256,192,102588,1,6,0:0:0:0:
256,192,103254,1,2,0:0:0:0:
256,192,103476,1,0,0:0:0:0:
256,192,103588,1,2,0:0:0:0:
256,192,103921,1,2,0:0:0:0:
256,192,104254,1,0,0:0:0:0:
256,192,104588,1,6,0:0:0:0:
256,192,105088,1,6,0:0:0:0:
256,192,105588,1,4,0:0:0:0:
256,192,106088,1,4,0:0:0:0:
256,192,106588,1,6,0:0:0:0:
256,192,107254,1,2,0:0:0:0:
256,192,107588,1,0,0:0:0:0:
256,192,107921,1,0,0:0:0:0:
256,192,108254,1,2,0:0:0:0:
256,192,108588,1,6,0:0:0:0:
256,192,109254,1,2,0:0:0:0:
256,192,109476,1,0,0:0:0:0:
256,192,109588,1,2,0:0:0:0:
256,192,109921,1,2,0:0:0:0:
256,192,110254,1,0,0:0:0:0:
256,192,110476,1,0,0:0:0:0:
256,192,110588,1,2,0:0:0:0:
256,192,110921,1,2,0:0:0:0:
256,192,111254,1,0,0:0:0:0:
256,192,111588,1,2,0:0:0:0:
256,192,111921,1,0,0:0:0:0:
256,192,112032,1,0,0:0:0:0:
256,192,112143,1,0,0:0:0:0:
256,192,112254,1,2,0:0:0:0:
256,192,112588,1,2,0:0:0:0:
256,192,113254,1,2,0:0:0:0:
256,192,113588,1,0,0:0:0:0:
256,192,113921,1,0,0:0:0:0:
256,192,114254,1,2,0:0:0:0:
256,192,114588,1,2,0:0:0:0:
256,192,115254,1,0,0:0:0:0:
256,192,115588,1,2,0:0:0:0:
256,192,115921,1,0,0:0:0:0:
256,192,116254,1,0,0:0:0:0:
256,192,116588,1,6,0:0:0:0:
256,192,117254,1,2,0:0:0:0:
256,192,117476,1,0,0:0:0:0:
256,192,117588,1,2,0:0:0:0:
256,192,118254,1,0,0:0:0:0:
256,192,118476,1,0,0:0:0:0:
256,192,118588,1,2,0:0:0:0:
256,192,119088,1,2,0:0:0:0:
256,192,119254,1,0,0:0:0:0:
256,192,119421,1,0,0:0:0:0:
256,192,119588,1,2,0:0:0:0:
256,192,119754,1,2,0:0:0:0:
256,192,119921,1,0,0:0:0:0:
256,192,120088,1,2,0:0:0:0:
256,192,120254,1,2,0:0:0:0:
256,192,120365,1,2,0:0:0:0:
256,192,120476,1,2,0:0:0:0:
256,192,120588,1,2,0:0:0:0:
256,192,121254,1,2,0:0:0:0:
256,192,121588,1,0,0:0:0:0:
256,192,122588,1,2,0:0:0:0:
256,192,124588,1,4,0:0:0:0:
256,192,125310,1,0,0:0:0:0:
256,192,125551,1,0,0:0:0:0:
256,192,125672,1,2,0:0:0:0:
256,192,126395,1,2,0:0:0:0:
256,192,126636,1,0,0:0:0:0:
256,192,126756,1,2,0:0:0:0:
256,192,127118,1,2,0:0:0:0:
256,192,127479,1,2,0:0:0:0:
256,192,127720,1,2,0:0:0:0:
256,192,127841,1,0,0:0:0:0:
256,192,128563,1,2,0:0:0:0:
256,192,128925,1,0,0:0:0:0:
256,192,129648,1,2,0:0:0:0:
256,192,130009,1,0,0:0:0:0:
256,192,130371,1,2,0:0:0:0:
256,192,130732,1,0,0:0:0:0:
256,192,131094,1,2,0:0:0:0:
256,192,132178,1,2,0:0:0:0:
256,192,132901,1,2,0:0:0:0:
256,192,133142,1,0,0:0:0:0:
256,192,133262,1,2,0:0:0:0:
256,192,133985,1,2,0:0:0:0:
256,192,134226,1,2,0:0:0:0:
256,192,134347,1,0,0:0:0:0:
256,192,135431,1,2,0:0:0:0:
256,192,135792,1,0,0:0:0:0:
256,192,136154,1,0,0:0:0:0:
256,192,136515,1,2,0:0:0:0:
256,192,136877,1,2,0:0:0:0:
256,192,137238,1,0,0:0:0:0:
256,192,137479,1,0,0:0:0:0:
256,192,137600,1,2,0:0:0:0:
256,192,138322,1,2,0:0:0:0:
256,192,138564,1,0,0:0:0:0:
256,192,138684,1,2,0:0:0:0:
256,192,139045,1,2,0:0:0:0:
256,192,139407,1,0,0:0:0:0:
256,192,139768,1,0,0:0:0:0:
256,192,140491,1,0,0:0:0:0:
256,192,140853,1,0,0:0:0:0:
256,192,141214,1,2,0:0:0:0:
256,192,141575,1,2,0:0:0:0:
256,192,141937,1,2,0:0:0:0:
256,192,144106,12,0,148443,0:0:0:0:
