osu file format v14

[General]
AudioFilename: audio.mp3
AudioLeadIn: 0
PreviewTime: 93254
Countdown: 0
SampleSet: Normal
StackLeniency: 0.7
Mode: 1
LetterboxInBreaks: 0
WidescreenStoryboard: 1

[Editor]
DistanceSpacing: 1.3
BeatDivisor: 4
GridSize: 32
TimelineZoom: 0.4999999

[Metadata]
Title:Altale
TitleUnicode:Altale
Artist:Sakuzyo
ArtistUnicode:削除
Creator:Cynplytholowazy
Version:Futsuu
Source:G2R2014 "GO BACK 2 YOUR ROOTS"
Tags:deemo rayark BMS of fighters 2014 bof2014 レオル カタストロフィー理論 chunithm arcaea SOUND VOLTEX IV HEAVENLY HAVEN SDVX Groove Coaster NS ノスタルジア ƒORTE FORTE Nostalgia Muse Dase 太鼓の達人 taiko no tatsujin green tnt maimai FINALE WACCA O.N.G.E.K.I. ongeki R.E.D. red PLUS Electronic Instrumental Fantasy
BeatmapID:3124064
BeatmapSetID:1527139

[Difficulty]
HPDrainRate:8.8
CircleSize:10
OverallDifficulty:3.3
ApproachRate:0
SliderMultiplier:1.4
SliderTickRate:1

[Events]
//Background and Video events
0,0,"20210722-181546-msedge.jpg",0,0
//Break Periods
//Storyboard Layer 0 (Background)
//Storyboard Layer 1 (Fail)
//Storyboard Layer 2 (Pass)
//Storyboard Layer 3 (Foreground)
//Storyboard Layer 4 (Overlay)
//Storyboard Sound Samples

[TimingPoints]
-5412,666.666666666667,3,1,0,40,1,0
16421,-100,3,1,0,70,0,0
56588,-100,3,1,0,70,0,1
76588,-100,3,1,0,70,0,0
76921,-100,3,1,0,30,0,0
93254,-100,3,1,0,50,0,0
94588,-100,3,1,0,70,0,1
124588,722.89156626506,3,1,0,30,1,0
124588,-92.2222222222222,3,1,0,30,0,0
143744,-92.2222222222222,3,1,0,20,0,0

[HitObjects]
256,192,2254,5,0,0:0:0:0:
256,192,2589,1,2,0:0:0:0:
256,192,3255,1,2,0:0:0:0:
256,192,3589,1,2,0:0:0:0:
256,192,4589,1,2,0:0:0:0:
256,192,4922,1,2,0:0:0:0:
256,192,5255,1,2,0:0:0:0:
256,192,5589,1,0,0:0:0:0:
256,192,6255,1,2,0:0:0:0:
256,192,6589,1,0,0:0:0:0:
256,192,7589,1,0,0:0:0:0:
256,192,7922,1,0,0:0:0:0:
256,192,8255,1,2,0:0:0:0:
256,192,8589,1,2,0:0:0:0:
256,192,9589,1,2,0:0:0:0:
256,192,10255,1,0,0:0:0:0:
256,192,10589,1,2,0:0:0:0:
256,192,11255,1,2,0:0:0:0:
256,192,11589,1,2,0:0:0:0:
256,192,12589,1,2,0:0:0:0:
256,192,12922,1,0,0:0:0:0:
256,192,13255,1,2,0:0:0:0:
256,192,13589,1,2,0:0:0:0:
256,192,14255,1,2,0:0:0:0:
256,192,14589,1,0,0:0:0:0:
256,192,15255,1,2,0:0:0:0:
256,192,15589,1,0,0:0:0:0:
256,192,15922,1,0,0:0:0:0:
256,192,16589,1,4,0:0:0:0:
256,192,17255,1,2,0:0:0:0:
256,192,17589,1,2,0:0:0:0:
256,192,17922,1,0,0:0:0:0:
256,192,18255,1,2,0:0:0:0:
256,192,18589,1,4,0:0:0:0:
256,192,19255,1,2,0:0:0:0:
256,192,19589,1,2,0:0:0:0:
256,192,19922,1,0,0:0:0:0:
256,192,20255,1,2,0:0:0:0:
256,192,20589,1,4,0:0:0:0:
256,192,21255,1,0,0:0:0:0:
256,192,21589,1,2,0:0:0:0:
256,192,21922,1,0,0:0:0:0:
256,192,22255,1,2,0:0:0:0:
256,192,22589,1,4,0:0:0:0:
256,192,23255,1,0,0:0:0:0:
256,192,23589,1,2,0:0:0:0:
256,192,23922,1,0,0:0:0:0:
256,192,24255,1,2,0:0:0:0:
256,192,24589,1,4,0:0:0:0:
256,192,25255,1,0,0:0:0:0:
256,192,25589,1,0,0:0:0:0:
256,192,26255,1,0,0:0:0:0:
256,192,26589,1,2,0:0:0:0:
256,192,27255,1,0,0:0:0:0:
256,192,27589,1,2,0:0:0:0:
256,192,28255,1,2,0:0:0:0:
256,192,28589,1,2,0:0:0:0:
256,192,28922,1,0,0:0:0:0:
256,192,29255,1,2,0:0:0:0:
256,192,29589,1,0,0:0:0:0:
256,192,30255,1,0,0:0:0:0:
256,192,30589,1,2,0:0:0:0:
256,192,31255,1,0,0:0:0:0:
256,192,31589,1,2,0:0:0:0:
256,192,31922,1,0,0:0:0:0:
256,192,32255,1,0,0:0:0:0:
256,192,32589,1,4,0:0:0:0:
256,192,33255,1,0,0:0:0:0:
256,192,33589,1,2,0:0:0:0:
256,192,33922,1,2,0:0:0:0:
256,192,34255,1,0,0:0:0:0:
256,192,34589,1,4,0:0:0:0:
256,192,35255,1,0,0:0:0:0:
256,192,35589,1,2,0:0:0:0:
256,192,35922,1,2,0:0:0:0:
256,192,36255,1,0,0:0:0:0:
256,192,36589,1,6,0:0:0:0:
256,192,37255,1,2,0:0:0:0:
256,192,37589,1,6,0:0:0:0:
256,192,38255,1,0,0:0:0:0:
256,192,38589,1,6,0:0:0:0:
256,192,39589,1,0,0:0:0:0:
256,192,39922,1,0,0:0:0:0:
256,192,40255,1,2,0:0:0:0:
256,192,40589,1,6,0:0:0:0:
256,192,41255,1,2,0:0:0:0:
256,192,41589,1,2,0:0:0:0:
256,192,42255,1,2,0:0:0:0:
256,192,42589,1,0,0:0:0:0:
256,192,43255,1,2,0:0:0:0:
256,192,43589,1,0,0:0:0:0:
256,192,43922,1,2,0:0:0:0:
256,192,44589,1,0,0:0:0:0:
256,192,45255,1,2,0:0:0:0:
256,192,45589,1,0,0:0:0:0:
256,192,46255,1,2,0:0:0:0:
256,192,46589,1,4,0:0:0:0:
256,192,47589,1,4,0:0:0:0:
256,192,47922,1,2,0:0:0:0:
256,192,48255,1,0,0:0:0:0:
256,192,48589,1,6,0:0:0:0:
256,192,49255,1,2,0:0:0:0:
256,192,49589,1,0,0:0:0:0:
256,192,50255,1,0,0:0:0:0:
256,192,50589,1,2,0:0:0:0:
256,192,50922,1,0,0:0:0:0:
256,192,51255,1,0,0:0:0:0:
256,192,51589,1,2,0:0:0:0:
256,192,52255,1,0,0:0:0:0:
256,192,52589,1,6,0:0:0:0:
256,192,53255,1,0,0:0:0:0:
256,192,53589,1,6,0:0:0:0:
256,192,54255,1,2,0:0:0:0:
256,192,54589,1,4,0:0:0:0:
256,192,55589,1,0,0:0:0:0:
256,192,55922,1,2,0:0:0:0:
256,192,56589,1,6,0:0:0:0:
256,192,57255,1,0,0:0:0:0:
256,192,57589,1,2,0:0:0:0:
256,192,57922,1,2,0:0:0:0:
256,192,58255,1,0,0:0:0:0:
256,192,58589,1,2,0:0:0:0:
256,192,59255,1,0,0:0:0:0:
256,192,59589,1,2,0:0:0:0:
256,192,59922,1,0,0:0:0:0:
256,192,60255,1,2,0:0:0:0:
256,192,60589,1,2,0:0:0:0:
256,192,61255,1,0,0:0:0:0:
256,192,61589,1,2,0:0:0:0:
256,192,61922,1,2,0:0:0:0:
256,192,62255,1,0,0:0:0:0:
256,192,62589,1,2,0:0:0:0:
256,192,63255,1,0,0:0:0:0:
256,192,63589,1,2,0:0:0:0:
256,192,64255,1,0,0:0:0:0:
256,192,64589,1,6,0:0:0:0:
256,192,65255,1,2,0:0:0:0:
256,192,65589,1,6,0:0:0:0:
256,192,66255,1,2,0:0:0:0:
256,192,66589,1,6,0:0:0:0:
256,192,66922,1,2,0:0:0:0:
256,192,67255,1,0,0:0:0:0:
256,192,67589,1,6,0:0:0:0:
256,192,68589,1,4,0:0:0:0:
256,192,69255,1,2,0:0:0:0:
256,192,69589,1,0,0:0:0:0:
256,192,69922,1,0,0:0:0:0:
256,192,70255,1,0,0:0:0:0:
256,192,70589,1,4,0:0:0:0:
256,192,71255,1,2,0:0:0:0:
256,192,71589,1,0,0:0:0:0:
256,192,71922,1,0,0:0:0:0:
256,192,72255,1,2,0:0:0:0:
256,192,72589,1,6,0:0:0:0:
256,192,73589,1,0,0:0:0:0:
256,192,73922,1,2,0:0:0:0:
256,192,74255,1,0,0:0:0:0:
256,192,74589,1,6,0:0:0:0:
256,192,76589,1,4,0:0:0:0:
256,192,77255,1,0,0:0:0:0:
256,192,77589,1,2,0:0:0:0:
256,192,78589,1,2,0:0:0:0:
256,192,78922,1,2,0:0:0:0:
256,192,79255,1,2,0:0:0:0:
256,192,79589,1,0,0:0:0:0:
256,192,80255,1,2,0:0:0:0:
256,192,80589,1,0,0:0:0:0:
256,192,81589,1,0,0:0:0:0:
256,192,81922,1,0,0:0:0:0:
256,192,82255,1,2,0:0:0:0:
256,192,82589,1,2,0:0:0:0:
256,192,83589,1,2,0:0:0:0:
256,192,84255,1,0,0:0:0:0:
256,192,84589,1,2,0:0:0:0:
256,192,85255,1,2,0:0:0:0:
256,192,85589,1,2,0:0:0:0:
256,192,86589,1,2,0:0:0:0:
256,192,86922,1,2,0:0:0:0:
256,192,87255,1,0,0:0:0:0:
256,192,87589,1,2,0:0:0:0:
256,192,88255,1,0,0:0:0:0:
256,192,88589,1,2,0:0:0:0:
256,192,89589,1,0,0:0:0:0:
256,192,89922,1,0,0:0:0:0:
256,192,90255,1,2,0:0:0:0:
256,192,90589,1,0,0:0:0:0:
256,192,91589,1,0,0:0:0:0:
256,192,92589,1,0,0:0:0:0:
256,192,93589,1,0,0:0:0:0:
256,192,93922,1,0,0:0:0:0:
256,192,94589,1,6,0:0:0:0:
256,192,95255,1,2,0:0:0:0:
256,192,95589,1,2,0:0:0:0:
256,192,95922,1,2,0:0:0:0:
256,192,96255,1,0,0:0:0:0:
256,192,96589,1,2,0:0:0:0:
256,192,97255,1,0,0:0:0:0:
256,192,97589,1,2,0:0:0:0:
256,192,97922,1,0,0:0:0:0:
256,192,98255,1,2,0:0:0:0:
256,192,98589,1,0,0:0:0:0:
256,192,99255,1,2,0:0:0:0:
256,192,99589,1,0,0:0:0:0:
256,192,99922,1,2,0:0:0:0:
256,192,100255,1,2,0:0:0:0:
256,192,100589,1,0,0:0:0:0:
256,192,101255,1,0,0:0:0:0:
256,192,101589,1,2,0:0:0:0:
256,192,101922,1,0,0:0:0:0:
256,192,102255,1,2,0:0:0:0:
256,192,102589,1,6,0:0:0:0:
256,192,103255,1,2,0:0:0:0:
256,192,103589,1,2,0:0:0:0:
256,192,103922,1,2,0:0:0:0:
256,192,104255,1,0,0:0:0:0:
256,192,104589,1,6,0:0:0:0:
256,192,105089,1,6,0:0:0:0:
256,192,105589,1,4,0:0:0:0:
256,192,106089,1,4,0:0:0:0:
256,192,106589,1,6,0:0:0:0:
256,192,107255,1,2,0:0:0:0:
256,192,107589,1,0,0:0:0:0:
256,192,107922,1,0,0:0:0:0:
256,192,108255,1,2,0:0:0:0:
256,192,108589,1,6,0:0:0:0:
256,192,109255,1,2,0:0:0:0:
256,192,109589,1,2,0:0:0:0:
256,192,109922,1,2,0:0:0:0:
256,192,110255,1,0,0:0:0:0:
256,192,110589,1,2,0:0:0:0:
256,192,111255,1,0,0:0:0:0:
256,192,111589,1,2,0:0:0:0:
256,192,111922,1,0,0:0:0:0:
256,192,112255,1,2,0:0:0:0:
256,192,112589,1,2,0:0:0:0:
256,192,113255,1,2,0:0:0:0:
256,192,113589,1,0,0:0:0:0:
256,192,113922,1,0,0:0:0:0:
256,192,114255,1,2,0:0:0:0:
256,192,114589,1,2,0:0:0:0:
256,192,115255,1,0,0:0:0:0:
256,192,115589,1,2,0:0:0:0:
256,192,115922,1,0,0:0:0:0:
256,192,116255,1,0,0:0:0:0:
256,192,116589,1,6,0:0:0:0:
256,192,117255,1,2,0:0:0:0:
256,192,117589,1,2,0:0:0:0:
256,192,118255,1,0,0:0:0:0:
256,192,118589,1,2,0:0:0:0:
256,192,119089,1,2,0:0:0:0:
256,192,119589,1,2,0:0:0:0:
256,192,119922,1,0,0:0:0:0:
256,192,120255,1,2,0:0:0:0:
256,192,120589,1,6,0:0:0:0:
256,192,121255,1,2,0:0:0:0:
256,192,121589,1,0,0:0:0:0:
256,192,122589,1,6,0:0:0:0:
256,192,124589,1,4,0:0:0:0:
256,192,125311,1,0,0:0:0:0:
256,192,125673,1,2,0:0:0:0:
256,192,126757,1,2,0:0:0:0:
256,192,127119,1,2,0:0:0:0:
256,192,127480,1,2,0:0:0:0:
256,192,127842,1,0,0:0:0:0:
256,192,128564,1,0,0:0:0:0:
256,192,128926,1,0,0:0:0:0:
256,192,130010,1,0,0:0:0:0:
256,192,130372,1,2,0:0:0:0:
256,192,130733,1,0,0:0:0:0:
256,192,131095,1,2,0:0:0:0:
256,192,132179,1,2,0:0:0:0:
256,192,132902,1,2,0:0:0:0:
256,192,133263,1,2,0:0:0:0:
256,192,133986,1,2,0:0:0:0:
256,192,134348,1,0,0:0:0:0:
256,192,135432,1,2,0:0:0:0:
256,192,136155,1,0,0:0:0:0:
256,192,136516,1,2,0:0:0:0:
256,192,137239,1,0,0:0:0:0:
256,192,137601,1,2,0:0:0:0:
256,192,138323,1,2,0:0:0:0:
256,192,138685,1,2,0:0:0:0:
256,192,139408,1,0,0:0:0:0:
256,192,139769,1,0,0:0:0:0:
256,192,140854,1,0,0:0:0:0:
256,192,141215,1,2,0:0:0:0:
256,192,141576,1,2,0:0:0:0:
256,192,141938,1,2,0:0:0:0:
256,192,144107,12,0,148444,0:0:0:0:
