osu file format v14

[General]
AudioFilename: audio.mp3
AudioLeadIn: 0
PreviewTime: 93254
Countdown: 0
SampleSet: Normal
StackLeniency: 0.7
Mode: 1
LetterboxInBreaks: 0
WidescreenStoryboard: 1

[Editor]
DistanceSpacing: 1.3
BeatDivisor: 4
GridSize: 32
TimelineZoom: 0.6999999

[Metadata]
Title:Altale
TitleUnicode:Altale
Artist:Sakuzyo
ArtistUnicode:削除
Creator:Cynplytholowazy
Version:Beginner
Source:G2R2014 "GO BACK 2 YOUR ROOTS"
Tags:deemo rayark BMS of fighters 2014 bof2014 レオル カタストロフィー理論 chunithm arcaea SOUND VOLTEX IV HEAVENLY HAVEN SDVX Groove Coaster NS ノスタルジア ƒORTE FORTE Nostalgia Muse Dase 太鼓の達人 taiko no tatsujin green tnt maimai FINALE WACCA O.N.G.E.K.I. ongeki R.E.D. red PLUS Electronic Instrumental Fantasy
BeatmapID:3294144
BeatmapSetID:1527139

[Difficulty]
HPDrainRate:9.8
CircleSize:10
OverallDifficulty:1
ApproachRate:0
SliderMultiplier:1.4
SliderTickRate:1

[Events]
//Background and Video events
0,0,"20210722-181546-msedge.jpg",0,0
//Break Periods
//Storyboard Layer 0 (Background)
//Storyboard Layer 1 (Fail)
//Storyboard Layer 2 (Pass)
//Storyboard Layer 3 (Foreground)
//Storyboard Layer 4 (Overlay)
//Storyboard Sound Samples

[TimingPoints]
-5412,666.666666666667,3,1,0,40,1,0
16421,-100,3,1,0,70,0,0
56588,-100,3,1,0,70,0,1
76588,-100,3,1,0,70,0,0
76921,-100,3,1,0,30,0,0
93254,-100,3,1,0,50,0,0
94588,-100,3,1,0,70,0,1
124588,722.89156626506,3,1,0,30,1,0
124588,-92.2222222222222,3,1,0,30,0,0
143744,-92.2222222222222,3,1,0,20,0,0

[HitObjects]
256,192,2588,5,2,0:0:0:0:
256,192,3588,1,2,0:0:0:0:
256,192,4588,1,2,0:0:0:0:
256,192,5588,1,0,0:0:0:0:
256,192,6588,1,0,0:0:0:0:
256,192,7588,1,0,0:0:0:0:
256,192,8588,1,2,0:0:0:0:
256,192,10588,1,2,0:0:0:0:
256,192,11588,1,2,0:0:0:0:
256,192,12588,1,2,0:0:0:0:
256,192,13588,1,2,0:0:0:0:
256,192,14588,1,0,0:0:0:0:
256,192,15588,1,0,0:0:0:0:
256,192,16588,1,4,0:0:0:0:
256,192,17588,1,2,0:0:0:0:
256,192,18588,1,4,0:0:0:0:
256,192,19588,1,2,0:0:0:0:
256,192,20588,1,4,0:0:0:0:
256,192,21588,1,0,0:0:0:0:
256,192,22588,1,4,0:0:0:0:
256,192,23588,1,0,0:0:0:0:
256,192,24588,1,4,0:0:0:0:
256,192,26588,1,2,0:0:0:0:
256,192,28588,1,2,0:0:0:0:
256,192,29588,1,2,0:0:0:0:
256,192,30588,1,2,0:0:0:0:
256,192,32588,1,4,0:0:0:0:
256,192,33588,1,2,0:0:0:0:
256,192,34588,1,4,0:0:0:0:
256,192,35588,1,2,0:0:0:0:
256,192,36588,1,6,0:0:0:0:
256,192,37588,1,4,0:0:0:0:
256,192,38588,1,6,0:0:0:0:
256,192,40588,1,6,0:0:0:0:
256,192,41588,1,2,0:0:0:0:
256,192,42588,1,0,0:0:0:0:
256,192,43588,1,2,0:0:0:0:
256,192,44588,1,0,0:0:0:0:
256,192,45588,1,0,0:0:0:0:
256,192,46588,1,6,0:0:0:0:
256,192,48588,1,6,0:0:0:0:
256,192,49588,1,0,0:0:0:0:
256,192,50588,1,2,0:0:0:0:
256,192,51588,1,2,0:0:0:0:
256,192,52588,1,6,0:0:0:0:
256,192,53588,1,6,0:0:0:0:
256,192,54588,1,4,0:0:0:0:
256,192,56588,1,6,0:0:0:0:
256,192,57588,1,2,0:0:0:0:
256,192,58588,1,0,0:0:0:0:
256,192,59588,1,0,0:0:0:0:
256,192,60588,1,2,0:0:0:0:
256,192,61588,1,2,0:0:0:0:
256,192,62588,1,0,0:0:0:0:
256,192,63588,1,2,0:0:0:0:
256,192,64588,1,6,0:0:0:0:
256,192,65588,1,6,0:0:0:0:
256,192,66588,1,6,0:0:0:0:
256,192,67588,1,6,0:0:0:0:
256,192,68588,1,4,0:0:0:0:
256,192,69588,1,0,0:0:0:0:
256,192,70588,1,4,0:0:0:0:
256,192,71588,1,0,0:0:0:0:
256,192,72588,1,6,0:0:0:0:
256,192,73588,1,0,0:0:0:0:
256,192,74588,1,6,0:0:0:0:
256,192,76588,1,4,0:0:0:0:
256,192,77588,1,2,0:0:0:0:
256,192,78588,1,2,0:0:0:0:
256,192,79588,1,0,0:0:0:0:
256,192,80588,1,0,0:0:0:0:
256,192,81588,1,0,0:0:0:0:
256,192,82588,1,2,0:0:0:0:
256,192,84588,1,2,0:0:0:0:
256,192,85588,1,2,0:0:0:0:
256,192,86588,1,2,0:0:0:0:
256,192,87588,1,0,0:0:0:0:
256,192,88588,1,2,0:0:0:0:
256,192,89588,1,0,0:0:0:0:
256,192,90588,1,0,0:0:0:0:
256,192,93588,1,0,0:0:0:0:
256,192,94588,1,6,0:0:0:0:
256,192,95588,1,2,0:0:0:0:
256,192,96588,1,2,0:0:0:0:
256,192,97588,1,0,0:0:0:0:
256,192,98588,1,0,0:0:0:0:
256,192,99588,1,0,0:0:0:0:
256,192,100588,1,2,0:0:0:0:
256,192,102588,1,6,0:0:0:0:
256,192,103588,1,2,0:0:0:0:
256,192,104588,1,6,0:0:0:0:
256,192,105588,1,4,0:0:0:0:
256,192,106588,1,6,0:0:0:0:
256,192,107588,1,0,0:0:0:0:
256,192,108588,1,6,0:0:0:0:
256,192,109588,1,2,0:0:0:0:
256,192,110588,1,2,0:0:0:0:
256,192,111588,1,0,0:0:0:0:
256,192,112588,1,2,0:0:0:0:
256,192,113588,1,0,0:0:0:0:
256,192,114588,1,2,0:0:0:0:
256,192,115588,1,2,0:0:0:0:
256,192,116588,1,6,0:0:0:0:
256,192,117588,1,2,0:0:0:0:
256,192,118588,1,2,0:0:0:0:
256,192,119588,1,2,0:0:0:0:
256,192,120088,1,2,0:0:0:0:
256,192,120588,1,6,0:0:0:0:
256,192,121588,1,0,0:0:0:0:
256,192,122588,1,6,0:0:0:0:
256,192,124588,1,4,0:0:0:0:
256,192,125672,1,2,0:0:0:0:
256,192,126756,1,2,0:0:0:0:
256,192,127841,1,0,0:0:0:0:
256,192,128925,1,0,0:0:0:0:
256,192,130009,1,0,0:0:0:0:
256,192,131094,1,2,0:0:0:0:
256,192,133262,1,2,0:0:0:0:
256,192,134347,1,0,0:0:0:0:
256,192,135431,1,2,0:0:0:0:
256,192,137600,1,2,0:0:0:0:
256,192,138684,1,2,0:0:0:0:
256,192,139768,1,0,0:0:0:0:
256,192,140853,1,0,0:0:0:0:
256,192,141937,1,2,0:0:0:0:
256,192,144106,12,0,148443,0:0:0:0:
