osu file format v14

[General]
AudioFilename: audio.mp3
AudioLeadIn: 0
PreviewTime: 75025
Countdown: 0
SampleSet: None
StackLeniency: 0.2
Mode: 0
LetterboxInBreaks: 0
WidescreenStoryboard: 1

[Editor]
Bookmarks: 19900,25900,27400,117400
DistanceSpacing: 4
BeatDivisor: 8
GridSize: 4
TimelineZoom: 1.6

[Metadata]
Title:AXION
TitleUnicode:AXION
Artist:Sakuzyo
ArtistUnicode:Sakuzyo
Creator:fufu-
Version:CS2,HP0
Source:
Tags:
BeatmapID:1612620
BeatmapSetID:767206

[Difficulty]
HPDrainRate:0
CircleSize:2
OverallDifficulty:9
ApproachRate:9.4
SliderMultiplier:1
SliderTickRate:1

[Events]
//Background and Video events
0,0,"b63621385343fbf2db8aca8ab17eca8064388f5b.jpg",0,0
//Break Periods
2,99599,104800
//Storyboard Layer 0 (Background)
//Storyboard Layer 1 (Fail)
//Storyboard Layer 2 (Pass)
//Storyboard Layer 3 (Foreground)
//Storyboard Sound Samples

[TimingPoints]
1900,375,4,2,0,47,1,0
27400,-50,4,2,0,100,0,0
39400,-50,4,1,0,100,0,0
51400,-50,4,1,0,100,0,1
63400,-100,4,1,0,100,0,0
75400,-50,4,1,0,100,0,1
93400,-200,4,2,0,100,0,0
120400,-200,4,3,0,5,0,0

[HitObjects]
353,93,1900,5,0,0:0:0:0:
359,127,2087,1,0,0:0:0:0:
366,161,2275,1,0,0:0:0:0:
372,195,2462,2,0,P|329:209|264:182,1,100,2|0,0:0|0:0,0:0:0:0:
259,176,3025,1,0,0:0:0:0:
330,274,3212,6,0,P|364:309|381:366,1,100,2|0,0:0|0:0,0:0:0:0:
389,338,3775,1,0,0:0:0:0:
216,328,3962,6,0,P|168:322|105:337,1,100,2|0,0:0|0:0,0:0:0:0:
94,339,4525,1,0,0:0:0:0:
73,352,4712,1,0,0:0:0:0:
119,160,4900,5,0,0:0:0:0:
106,138,5087,1,0,0:0:0:0:
102,113,5275,1,0,0:0:0:0:
110,89,5462,2,0,L|210:74,1,100,2|0,0:0|0:0,0:0:0:0:
233,71,6025,1,0,0:0:0:0:
454,107,6212,6,0,L|354:122,1,100,2|0,0:0|0:0,0:0:0:0:
331,125,6775,1,0,0:0:0:0:
385,303,6962,6,0,P|395:268|459:249,1,100,2|0,0:0|0:0,0:0:0:0:
472,258,7525,1,0,0:0:0:0:
485,279,7712,1,0,0:0:0:0:
210,347,7900,5,0,0:0:0:0:
216,322,8087,1,0,0:0:0:0:
212,297,8275,1,0,0:0:0:0:
197,276,8462,2,0,B|179:228|206:173,1,100,2|0,0:0|0:0,0:0:0:0:
217,158,9025,1,0,0:0:0:0:
113,306,9212,6,0,P|104:256|73:213,1,100,2|0,0:0|0:0,0:0:0:0:
58,198,9775,1,0,0:0:0:0:
274,233,9962,6,0,P|290:185|342:147,1,100,2|0,0:0|0:0,0:0:0:0:
350,146,10525,1,0,0:0:0:0:
374,148,10712,1,0,0:0:0:0:
194,127,10900,5,0,0:0:0:0:
169,123,11087,1,0,0:0:0:0:
144,119,11275,1,0,0:0:0:0:
119,115,11462,2,0,L|91:226,1,100,2|0,0:0|0:0,0:0:0:0:
88,236,12025,1,0,0:0:0:0:
264,207,12212,6,0,P|312:206|357:253,1,100,2|0,0:0|0:0,0:0:0:0:
357,261,12775,1,0,0:0:0:0:
382,68,12962,6,0,P|344:36|295:37,1,100,2|0,0:0|0:0,0:0:0:0:
274,50,13525,1,0,0:0:0:0:
261,71,13712,1,0,0:0:0:0:
207,324,13900,5,0,0:0:0:0:
183,332,13993,1,0,0:0:0:0:
157,330,14087,2,0,P|116:317|95:320,1,50,0|8,0:0|0:0,0:0:0:0:
72,238,14462,5,0,0:0:0:0:
68,213,14556,1,0,0:0:0:0:
73,188,14650,2,0,P|85:157|78:122,1,50
78,116,14931,1,0,0:0:0:0:
66,93,15025,1,8,0:0:0:0:
61,68,15118,1,0,0:0:0:0:
70,44,15212,1,0,0:0:0:0:
91,31,15306,1,0,0:0:0:0:
165,66,15400,5,0,0:0:0:0:
189,70,15493,1,0,0:0:0:0:
213,67,15587,2,0,P|236:56|260:34,1,50,0|8,0:0|0:0,0:0:0:0:
318,100,15962,5,0,0:0:0:0:
337,115,16056,1,0,0:0:0:0:
348,137,16150,2,0,P|350:170|337:200,1,50
334,208,16431,1,0,0:0:0:0:
313,223,16525,1,8,0:0:0:0:
296,241,16618,1,0,0:0:0:0:
287,264,16712,1,0,0:0:0:0:
290,288,16806,1,0,0:0:0:0:
339,362,16900,5,0,0:0:0:0:
315,354,16993,1,0,0:0:0:0:
289,354,17087,2,0,P|263:364|233:366,1,50,0|8,0:0|0:0,0:0:0:0:
150,349,17462,5,0,0:0:0:0:
128,335,17556,1,0,0:0:0:0:
119,311,17650,2,0,P|119:281|105:255,1,50
97,242,17931,1,0,0:0:0:0:
84,220,18025,1,8,0:0:0:0:
81,195,18118,1,0,0:0:0:0:
86,170,18212,1,0,0:0:0:0:
102,151,18306,1,0,0:0:0:0:
201,129,18400,5,0,0:0:0:0:
225,124,18493,1,0,0:0:0:0:
249,120,18587,2,0,L|303:109,1,50,0|8,0:0|0:0,0:0:0:0:
400,85,18962,5,0,0:0:0:0:
398,110,19056,1,0,0:0:0:0:
403,134,19150,2,0,P|414:157|454:182,1,50
453,186,19431,1,0,0:0:0:0:
469,204,19525,1,8,0:0:0:0:
477,227,19618,1,0,0:0:0:0:
474,251,19712,1,0,0:0:0:0:
461,272,19806,1,0,0:0:0:0:
381,326,19900,5,0,0:0:0:0:
347,309,19993,1,0,0:0:0:0:
309,305,20087,1,0,0:0:0:0:
155,339,20275,1,8,0:0:0:0:
348,221,20462,5,0,0:0:0:0:
311,224,20555,1,0,0:0:0:0:
276,239,20649,1,0,0:0:0:0:
155,339,20837,1,0,0:0:0:0:
163,302,20931,1,0,0:0:0:0:
161,264,21025,1,8,0:0:0:0:
144,230,21118,1,0,0:0:0:0:
114,206,21212,1,0,0:0:0:0:
76,203,21306,1,0,0:0:0:0:
157,149,21400,5,0,0:0:0:0:
185,125,21493,1,0,0:0:0:0:
196,89,21587,1,0,0:0:0:0:
264,204,21775,1,8,0:0:0:0:
129,89,21962,5,0,0:0:0:0:
140,53,22056,1,0,0:0:0:0:
168,29,22149,1,0,0:0:0:0:
264,204,22337,1,0,0:0:0:0:
258,241,22431,1,0,0:0:0:0:
234,270,22525,1,8,0:0:0:0:
200,285,22618,1,0,0:0:0:0:
162,279,22712,1,0,0:0:0:0:
131,257,22806,1,0,0:0:0:0:
189,211,22900,5,0,0:0:0:0:
189,173,22993,1,0,0:0:0:0:
210,141,23087,1,0,0:0:0:0:
383,180,23275,1,8,0:0:0:0:
162,279,23462,5,0,0:0:0:0:
131,257,23556,1,0,0:0:0:0:
115,222,23650,1,0,0:0:0:0:
472,161,23837,1,0,0:0:0:0:
466,198,23931,1,0,0:0:0:0:
447,230,24025,1,8,0:0:0:0:
421,256,24118,1,0,0:0:0:0:
386,270,24212,1,0,0:0:0:0:
348,265,24306,1,0,0:0:0:0:
264,185,24400,6,0,P|239:177|198:172,1,50,8|0,0:0|0:0,0:0:0:0:
142,238,24681,1,0,0:0:0:0:
117,175,24775,2,0,P|110:148|111:116,1,50,8|0,0:0|0:0,0:0:0:0:
278,49,25056,2,0,P|284:73|285:97,1,50,8|0,0:0|0:0,0:0:0:0:
129,57,25337,1,8,0:0:0:0:
153,28,25431,1,0,0:0:0:0:
189,20,25525,1,0,0:0:0:0:
226,18,25618,1,8,0:0:0:0:
259,34,25712,2,0,L|266:67,1,25,8|0,0:0|0:0,0:0:0:0:
48,214,25900,6,0,B|37:247|40:277|55:301|80:313|104:319|104:319|104:283|123:250|146:239|174:233|201:235|224:248|241:270|248:288|249:317|244:338|229:359,1,400,0|8,0:0|0:0,0:0:0:0:
174,313,27493,1,0,0:0:0:0:
157,252,27587,1,0,0:0:0:0:
162,189,27681,2,0,P|170:157|168:124,1,50,0|8,0:0|0:0,0:0:0:0:
90,65,27868,5,0,0:0:0:0:
154,75,27962,1,0,0:0:0:0:
217,61,28056,2,0,P|248:53|292:61,1,50
428,108,28243,5,0,0:0:0:0:
364,98,28337,1,0,0:0:0:0:
301,112,28431,2,0,P|270:120|226:112,1,50,0|8,0:0|0:0,0:0:0:0:
346,166,28618,1,0,0:0:0:0:
291,200,28712,2,0,P|264:218|220:225,1,50
43,297,28900,5,0,0:0:0:0:
101,267,28994,1,0,0:0:0:0:
165,271,29087,1,0,0:0:0:0:
213,314,29181,2,0,P|223:338|226:367,1,50,0|8,0:0|0:0,0:0:0:0:
143,334,29369,5,0,0:0:0:0:
165,271,29462,1,0,0:0:0:0:
154,206,29556,2,0,P|143:180|136:150,1,50
163,37,29744,5,0,0:0:0:0:
208,82,29837,1,0,0:0:0:0:
266,111,29931,2,0,P|294:116|321:113,1,50,0|8,0:0|0:0,0:0:0:0:
257,186,30118,1,0,0:0:0:0:
321,182,30212,2,0,P|347:172|369:156,1,50
295,253,30400,5,0,0:0:0:0:
230,250,30493,1,0,0:0:0:0:
183,204,30587,1,0,0:0:0:0:
177,139,30681,2,0,P|180:111|197:80,1,50,0|8,0:0|0:0,0:0:0:0:
79,135,30868,5,0,0:0:0:0:
107,193,30962,1,0,0:0:0:0:
110,258,31056,2,0,P|102:287|83:317,1,50
34,186,31243,5,0,0:0:0:0:
79,135,31337,1,0,0:0:0:0:
89,70,31431,2,0,P|87:41|77:14,1,50,0|8,0:0|0:0,0:0:0:0:
79,135,31618,1,0,0:0:0:0:
144,147,31712,2,0,P|170:158|192:177,1,50
230,308,31900,5,0,0:0:0:0:
228,243,31993,1,0,0:0:0:0:
255,184,32087,1,0,0:0:0:0:
314,157,32181,2,0,P|343:154|377:137,1,50,0|8,0:0|0:0,0:0:0:0:
257,115,32368,5,0,0:0:0:0:
193,100,32462,1,0,0:0:0:0:
150,50,32556,2,0,P|136:33|95:19,1,50
238,47,32743,5,0,0:0:0:0:
301,61,32837,1,0,0:0:0:0:
364,75,32931,2,0,L|430:91,1,50,0|8,0:0|0:0,0:0:0:0:
497,28,33118,1,0,0:0:0:0:
483,91,33212,2,0,L|467:157,1,50
442,280,33400,5,0,0:0:0:0:
437,215,33493,1,0,0:0:0:0:
398,162,33587,1,0,0:0:0:0:
334,147,33681,2,0,P|306:155|273:180,1,50,0|8,0:0|0:0,0:0:0:0:
259,315,33868,5,0,0:0:0:0:
263,249,33962,1,0,0:0:0:0:
227,194,34056,2,0,P|198:181|160:178,1,50
103,293,34243,5,0,0:0:0:0:
122,230,34337,1,0,0:0:0:0:
108,166,34431,2,0,P|97:144|75:123,1,50,0|8,0:0|0:0,0:0:0:0:
30,289,34618,1,0,0:0:0:0:
49,226,34712,2,0,P|50:201|41:172,1,50
24,78,34900,5,0,0:0:0:0:
75,38,34993,1,0,0:0:0:0:
140,41,35087,1,0,0:0:0:0:
183,89,35181,2,0,P|186:113|178:144,1,50,0|8,0:0|0:0,0:0:0:0:
147,257,35368,5,0,0:0:0:0:
188,307,35462,1,0,0:0:0:0:
251,320,35556,2,0,P|277:294|285:265,1,50
316,133,35743,5,0,0:0:0:0:
371,99,35837,1,0,0:0:0:0:
433,118,35931,2,0,P|443:137|445:172,1,50,0|8,0:0|0:0,0:0:0:0:
419,51,36118,1,0,0:0:0:0:
356,34,36212,2,0,P|334:42|307:66,1,50
381,168,36400,5,0,0:0:0:0:
416,221,36493,1,0,0:0:0:0:
403,284,36587,1,0,0:0:0:0:
349,321,36681,2,0,P|327:308|290:309,1,50,0|8,0:0|0:0,0:0:0:0:
180,354,36868,5,0,0:0:0:0:
237,323,36962,1,0,0:0:0:0:
255,260,37056,2,0,P|259:234|278:203,1,50
143,192,37243,5,0,0:0:0:0:
151,256,37337,1,0,0:0:0:0:
190,308,37431,2,0,P|212:319|236:322,1,50,0|8,0:0|0:0,0:0:0:0:
126,317,37618,1,0,0:0:0:0:
86,264,37712,2,0,P|84:233|88:204,1,50
105,88,37900,5,12,0:0:0:0:
166,105,37993,1,0,0:0:0:0:
228,85,38087,2,0,P|245:65|259:38,1,50
215,155,38275,5,8,0:0:0:0:
284,128,38368,1,0,0:0:0:0:
325,65,38462,2,0,P|334:30|334:4,1,50
357,128,38650,5,8,0:0:0:0:
307,196,38743,1,0,0:0:0:0:
308,281,38837,1,8,0:0:0:0:
357,350,38931,1,0,0:0:0:0:
227,254,39025,5,8,0:0:0:0:
143,297,39118,1,8,0:0:0:0:
227,254,39212,1,8,0:0:0:0:
180,360,39306,1,8,0:0:0:0:
106,240,39400,6,0,P|111:163|123:51,1,150,2|0,0:0|0:0,0:0:0:0:
210,40,39775,1,8,0:0:0:0:
61,287,39962,1,0,0:0:0:0:
106,240,40056,1,0,0:0:0:0:
122,302,40150,2,0,P|175:297|243:285,1,100,2|0,0:0|0:0,0:0:0:0:
387,230,40525,1,8,0:0:0:0:
221,289,40618,1,0,0:0:0:0:
387,230,40806,5,0,0:0:0:0:
313,95,40900,2,0,P|296:168|285:242,1,150,2|0,0:0|0:0,0:0:0:0:
294,348,41275,1,8,0:0:0:0:
369,129,41462,1,0,0:0:0:0:
313,95,41556,1,0,0:0:0:0:
247,90,41650,2,0,P|235:141|224:200,1,100,2|0,0:0|0:0,0:0:0:0:
230,334,42025,1,8,0:0:0:0:
165,171,42118,1,0,0:0:0:0:
165,171,42306,5,0,0:0:0:0:
230,334,42400,2,0,L|384:313,1,150,2|0,0:0|0:0,0:0:0:0:
253,269,42775,1,8,0:0:0:0:
439,339,42962,1,0,0:0:0:0:
390,379,43056,1,0,0:0:0:0:
439,339,43150,2,0,P|459:288|455:230,1,100,2|0,0:0|0:0,0:0:0:0:
253,269,43525,1,8,0:0:0:0:
458,243,43618,1,0,0:0:0:0:
459,243,43806,5,0,0:0:0:0:
331,320,43900,2,0,P|282:262|286:178,1,150,2|0,0:0|0:0,0:0:0:0:
454,146,44275,1,8,0:0:0:0:
416,134,44368,1,0,0:0:0:0:
388,104,44462,1,0,0:0:0:0:
381,64,44556,1,0,0:0:0:0:
361,29,44650,5,0,0:0:0:0:
323,16,44743,1,0,0:0:0:0:
283,21,44837,1,0,0:0:0:0:
253,47,44931,1,0,0:0:0:0:
249,86,45025,1,8,0:0:0:0:
263,123,45118,1,0,0:0:0:0:
288,154,45212,1,0,0:0:0:0:
248,146,45306,1,0,0:0:0:0:
207,146,45400,5,2,0:0:0:0:
170,161,45493,1,0,0:0:0:0:
136,182,45587,1,0,0:0:0:0:
99,199,45681,1,0,0:0:0:0:
58,198,45775,1,8,0:0:0:0:
25,174,45868,1,0,0:0:0:0:
30,213,45962,1,0,0:0:0:0:
26,252,46056,1,0,0:0:0:0:
15,290,46150,5,0,0:0:0:0:
0,322,46243,1,0,0:0:0:0:
6,361,46337,1,0,0:0:0:0:
41,379,46431,1,0,0:0:0:0:
79,367,46525,1,8,0:0:0:0:
92,329,46618,1,0,0:0:0:0:
80,290,46712,1,0,0:0:0:0:
83,250,46806,1,0,0:0:0:0:
113,223,46900,6,0,L|265:254,1,150,2|0,0:0|0:0,0:0:0:0:
406,280,47275,1,8,0:0:0:0:
188,212,47462,1,0,0:0:0:0:
265,230,47556,1,0,0:0:0:0:
342,249,47650,2,0,L|463:280,1,100,2|0,0:0|0:0,0:0:0:0:
402,216,48025,1,8,0:0:0:0:
217,269,48118,1,0,0:0:0:0:
161,94,48306,1,0,0:0:0:0:
217,269,48400,6,0,P|153:231|94:282,1,150,2|0,0:0|0:0,0:0:0:0:
161,94,48775,1,8,0:0:0:0:
217,269,48962,1,0,0:0:0:0:
98,269,49056,1,0,0:0:0:0:
159,208,49150,2,0,P|125:153|123:104,1,100,2|0,0:0|0:0,0:0:0:0:
286,53,49525,1,8,0:0:0:0:
296,131,49618,1,0,0:0:0:0:
320,54,49712,1,0,0:0:0:0:
272,118,49806,1,0,0:0:0:0:
343,80,49900,5,8,0:0:0:0:
399,48,49993,1,0,0:0:0:0:
463,60,50087,2,0,P|470:92|473:127,1,50,2|0,0:0|0:0,0:0:0:0:
482,204,50275,5,0,0:0:0:0:
426,172,50368,1,0,0:0:0:0:
362,184,50462,2,0,P|356:209|352:251,1,50,2|0,0:0|0:0,0:0:0:0:
427,319,50650,5,8,0:0:0:0:
371,351,50743,1,0,0:0:0:0:
307,339,50837,2,0,P|300:307|297:272,1,50,10|0,0:0|0:0,0:0:0:0:
149,225,51025,2,8,P|166:197|189:170,1,50,10|8,0:0|0:0,0:0:0:0:
91,48,51212,2,8,P|122:41|158:38,1,50,10|8,0:0|0:0,0:0:0:0:
430,31,51400,6,2,B|441:143|439:226,2,166.666666666667
309,184,52150,2,2,P|338:165|383:160,1,66.6666666666667
267,235,52400,2,2,P|248:205|244:169,1,66.6666666666667
317,277,52650,2,2,P|287:296|251:300,1,66.6666666666667
360,226,52900,6,2,P|379:256|523:326,2,200
358,160,53743,1,0,0:0:0:0:
346,95,53837,1,0,0:0:0:0:
303,45,53931,1,0,0:0:0:0:
240,27,54025,1,8,0:0:0:0:
176,40,54118,1,0,0:0:0:0:
133,89,54212,1,0,0:0:0:0:
121,153,54306,1,0,0:0:0:0:
147,212,54400,5,0,0:0:0:0:
102,258,54493,1,0,0:0:0:0:
163,278,54587,1,0,0:0:0:0:
215,316,54681,2,0,P|227:339|233:374,1,50,0|8,0:0|0:0,0:0:0:0:
273,240,54868,5,0,0:0:0:0:
286,303,54962,1,0,0:0:0:0:
333,258,55056,2,0,P|361:245|391:243,1,50
366,136,55243,5,0,0:0:0:0:
424,164,55337,1,0,0:0:0:0:
421,98,55431,2,0,P|437:75|456:60,1,50,0|8,0:0|0:0,0:0:0:0:
366,136,55618,5,0,0:0:0:0:
308,164,55712,1,0,0:0:0:0:
311,98,55806,2,0,P|295:75|276:60,1,50
214,47,55993,1,0,0:0:0:0:
149,59,56087,1,0,0:0:0:0:
104,106,56181,1,0,0:0:0:0:
149,59,56275,5,8,0:0:0:0:
165,121,56368,1,0,0:0:0:0:
147,183,56462,1,0,0:0:0:0:
100,228,56556,1,0,0:0:0:0:
147,183,56650,5,0,0:0:0:0:
173,241,56743,1,0,0:0:0:0:
228,275,56837,1,0,0:0:0:0:
292,280,56931,1,0,0:0:0:0:
228,275,57025,5,8,0:0:0:0:
191,328,57118,1,0,0:0:0:0:
130,352,57212,1,0,0:0:0:0:
66,338,57306,1,0,0:0:0:0:
28,284,57400,6,0,P|36:232|36:157,2,100,4|4|8,0:0|0:0|0:0,0:0:0:0:
101,238,57868,2,0,P|133:200|195:210,1,100,4|0,0:0|0:0,0:0:0:0:
246,218,58150,2,0,P|268:268|282:342,2,100,2|2|8,0:0|0:0|0:0,0:0:0:0:
223,146,58618,1,0,0:0:0:0:
223,146,58712,2,0,P|207:97|208:64,1,50
380,74,58900,6,0,P|353:116|303:151,2,100,4|4|8,0:0|0:0|0:0,0:0:0:0:
426,131,59368,2,0,P|442:177|437:233,1,100,4|0,0:0|0:0,0:0:0:0:
380,269,59650,2,0,P|428:306|467:356,2,100,2|2|8,0:0|0:0|0:0,0:0:0:0:
308,248,60118,1,0,0:0:0:0:
308,248,60212,2,0,P|260:253|233:267,1,50
165,331,60400,5,2,0:0:0:0:
162,266,60493,1,0,0:0:0:0:
135,206,60587,1,0,0:0:0:0:
79,171,60681,1,0,0:0:0:0:
135,206,60775,5,8,0:0:0:0:
199,205,60868,1,0,0:0:0:0:
246,160,60962,1,0,0:0:0:0:
255,95,61056,1,0,0:0:0:0:
225,36,61150,5,0,0:0:0:0:
255,95,61243,1,0,0:0:0:0:
308,131,61337,1,0,0:0:0:0:
373,134,61431,1,0,0:0:0:0:
308,131,61525,5,8,0:0:0:0:
246,160,61618,1,0,0:0:0:0:
222,220,61712,1,0,0:0:0:0:
241,282,61806,1,0,0:0:0:0:
307,220,61900,5,8,0:0:0:0:
365,300,61993,1,2,0:0:0:0:
322,212,62087,5,8,0:0:0:0:
365,300,62180,1,2,0:0:0:0:
338,206,62275,5,8,0:0:0:0:
365,300,62368,1,2,0:0:0:0:
355,203,62462,5,8,0:0:0:0:
365,300,62555,1,2,0:0:0:0:
372,202,62650,5,8,0:0:0:0:
365,300,62743,1,2,0:0:0:0:
388,205,62837,5,8,0:0:0:0:
365,300,62931,1,2,0:0:0:0:
404,211,63025,5,8,0:0:0:0:
365,300,63118,1,2,0:0:0:0:
419,219,63212,5,8,0:0:0:0:
365,300,63305,1,2,0:0:0:0:
437,229,63400,5,4,0:0:0:0:
218,329,63775,5,2,0:0:0:0:
218,329,63868,1,2,0:0:0:0:
290,51,64150,1,2,0:0:0:0:
290,51,64243,1,2,0:0:0:0:
218,329,64525,1,2,0:0:0:0:
218,329,64618,1,2,0:0:0:0:
290,51,64900,1,12,0:0:0:0:
62,243,65275,5,2,0:0:0:0:
62,243,65368,1,2,0:0:0:0:
392,176,65650,1,2,0:0:0:0:
392,176,65743,1,2,0:0:0:0:
62,243,66025,1,2,0:0:0:0:
62,243,66118,1,2,0:0:0:0:
392,176,66400,1,12,0:0:0:0:
433,38,66775,5,2,0:0:0:0:
433,38,66868,1,2,0:0:0:0:
113,337,67150,1,2,0:0:0:0:
113,337,67243,1,2,0:0:0:0:
445,52,67525,1,2,0:0:0:0:
445,52,67618,1,2,0:0:0:0:
100,322,67900,1,2,0:0:0:0:
100,322,67993,1,2,0:0:0:0:
457,71,68275,1,2,0:0:0:0:
457,71,68368,1,2,0:0:0:0:
113,337,68650,5,2,0:0:0:0:
100,320,68775,5,2,0:0:0:0:
93,300,68900,5,2,0:0:0:0:
92,279,69025,5,2,0:0:0:0:
97,259,69150,5,2,0:0:0:0:
107,240,69275,5,2,0:0:0:0:
122,226,69400,5,14,0:0:0:0:
500,310,69775,5,2,0:0:0:0:
500,310,69868,1,2,0:0:0:0:
16,92,70150,1,2,0:0:0:0:
16,92,70243,1,2,0:0:0:0:
504,14,70525,1,2,0:0:0:0:
504,14,70618,1,2,0:0:0:0:
26,330,70900,1,12,0:0:0:0:
488,359,71275,5,2,0:0:0:0:
488,359,71368,1,2,0:0:0:0:
12,14,71650,1,2,0:0:0:0:
12,14,71743,1,2,0:0:0:0:
500,30,72025,1,2,0:0:0:0:
500,30,72119,1,2,0:0:0:0:
45,380,72400,1,12,0:0:0:0:
246,4,72775,5,2,0:0:0:0:
246,4,72868,1,2,0:0:0:0:
266,379,73150,1,2,0:0:0:0:
266,379,73243,1,2,0:0:0:0:
9,63,73525,1,2,0:0:0:0:
9,63,73618,1,2,0:0:0:0:
499,315,73900,1,2,0:0:0:0:
494,316,73993,5,2,0:0:0:0:
489,318,74087,5,2,0:0:0:0:
484,320,74181,5,2,0:0:0:0:
480,321,74275,5,2,0:0:0:0:
475,323,74368,5,2,0:0:0:0:
470,325,74462,5,2,0:0:0:0:
466,326,74556,5,2,0:0:0:0:
461,328,74650,5,2,0:0:0:0:
456,330,74743,5,2,0:0:0:0:
452,332,74837,5,2,0:0:0:0:
447,333,74931,5,2,0:0:0:0:
442,336,75025,6,8,L|451:357,1,12.5
382,359,75118,6,8,L|378:376,1,12.5
318,344,75212,6,8,L|304:361,1,12.5
275,294,75306,6,8,L|255:302,1,12.5
251,235,75400,6,6,P|251:178|314:130,1,100
349,131,75681,1,0,0:0:0:0:
414,167,75775,2,8,L|423:226,1,50
162,104,75962,2,8,L|153:163,1,50
397,75,76150,6,2,P|422:127|407:178,1,100,2|10,0:0|0:0,0:0:0:0:
321,128,76431,1,0,0:0:0:0:
413,43,76525,1,8,0:0:0:0:
439,189,76618,1,0,0:0:0:0:
300,117,76712,1,8,0:0:0:0:
438,25,76806,1,0,0:0:0:0:
440,220,76900,6,6,B|432:263|432:263|337:292,1,100
305,297,77181,1,0,0:0:0:0:
379,305,77275,2,8,P|378:277|367:246,1,50
277,46,77462,2,8,P|253:60|231:85,1,50
117,275,77650,2,2,P|141:288|220:288,1,100
258,231,77931,1,0,0:0:0:0:
209,143,78025,1,8,0:0:0:0:
87,165,78118,1,0,0:0:0:0:
62,313,78212,1,8,0:0:0:0:
231,359,78306,1,0,0:0:0:0:
278,216,78400,6,6,P|266:159|215:110,1,100
197,65,78681,1,0,0:0:0:0:
271,53,78775,2,8,P|298:49|342:30,1,50
501,193,78962,2,8,P|474:189|430:170,1,50
255,339,79150,6,2,P|282:335|365:298,1,100
385,214,79431,1,0,0:0:0:0:
364,337,79525,1,0,0:0:0:0:
323,193,79618,1,0,0:0:0:0:
435,328,79712,1,0,0:0:0:0:
262,225,79806,1,0,0:0:0:0:
483,269,79900,6,6,B|497:217|497:217|481:153,1,100
460,101,80181,1,0,0:0:0:0:
393,66,80275,2,8,L|331:81,1,50
119,66,80462,2,8,L|181:81,1,50
355,153,80650,5,8,0:0:0:0:
355,153,80743,1,0,0:0:0:0:
157,153,80837,1,8,0:0:0:0:
157,153,80930,1,0,0:0:0:0:
326,243,81025,5,8,0:0:0:0:
326,243,81118,1,0,0:0:0:0:
189,243,81212,1,8,0:0:0:0:
189,243,81305,1,0,0:0:0:0:
355,306,81400,5,2,0:0:0:0:
262,207,81494,1,2,0:0:0:0:
395,233,81588,1,2,0:0:0:0:
273,291,81682,1,2,0:0:0:0:
338,171,81775,1,10,0:0:0:0:
355,306,81868,1,6,0:0:0:0:
354,319,82150,5,2,0:0:0:0:
253,191,82244,1,2,0:0:0:0:
410,236,82338,1,2,0:0:0:0:
258,292,82432,1,2,0:0:0:0:
348,156,82525,1,10,0:0:0:0:
354,319,82618,1,6,0:0:0:0:
352,335,82900,5,2,0:0:0:0:
245,171,82994,1,2,0:0:0:0:
427,241,83088,1,2,0:0:0:0:
240,293,83182,1,2,0:0:0:0:
362,139,83275,1,10,0:0:0:0:
352,335,83368,1,6,0:0:0:0:
347,354,83650,5,2,0:0:0:0:
237,146,83744,1,2,0:0:0:0:
447,249,83838,1,2,0:0:0:0:
218,291,83932,1,2,0:0:0:0:
380,121,84025,1,10,0:0:0:0:
347,354,84118,1,6,0:0:0:0:
237,146,84212,2,0,P|226:119|220:82,1,50,2|2,0:0|0:0,0:0:0:0:
446,27,84400,5,10,0:0:0:0:
454,50,84493,1,2,0:0:0:0:
366,27,84587,5,10,0:0:0:0:
362,61,84681,1,2,0:0:0:0:
272,25,84775,5,10,0:0:0:0:
277,69,84868,1,2,0:0:0:0:
172,19,84962,5,10,0:0:0:0:
164,73,85056,1,2,0:0:0:0:
63,134,85150,5,10,0:0:0:0:
71,197,85243,1,2,0:0:0:0:
204,158,85337,5,10,0:0:0:0:
196,232,85431,1,2,0:0:0:0:
335,155,85525,5,10,0:0:0:0:
349,238,85618,1,2,0:0:0:0:
482,163,85712,5,10,0:0:0:0:
471,257,85806,1,2,0:0:0:0:
256,20,85900,5,10,0:0:0:0:
296,116,85993,1,6,0:0:0:0:
256,20,86087,5,10,0:0:0:0:
221,129,86181,1,6,0:0:0:0:
256,20,86275,5,10,0:0:0:0:
303,134,86368,1,6,0:0:0:0:
256,20,86462,5,10,0:0:0:0:
213,148,86556,1,6,0:0:0:0:
256,20,86650,5,10,0:0:0:0:
312,152,86743,1,6,0:0:0:0:
256,20,86837,5,10,0:0:0:0:
207,167,86931,1,6,0:0:0:0:
256,20,87025,5,10,0:0:0:0:
320,170,87118,1,6,0:0:0:0:
256,20,87212,5,10,0:0:0:0:
200,186,87306,1,6,0:0:0:0:
256,20,87400,6,6,P|315:21|367:70,1,100
371,113,87681,1,0,0:0:0:0:
320,170,87775,2,8,L|329:234,1,50
113,277,87962,2,8,L|104:341,1,50
378,364,88150,6,2,P|392:313|380:262,1,100
303,206,88431,1,0,0:0:0:0:
298,331,88525,1,8,0:0:0:0:
421,247,88618,1,0,0:0:0:0:
245,237,88712,1,8,0:0:0:0:
404,358,88806,1,0,0:0:0:0:
336,142,88900,6,6,B|285:137|285:137|229:180,1,100
245,237,89181,1,0,0:0:0:0:
224,164,89275,2,8,L|217:100,1,50
469,28,89462,2,8,L|476:92,1,50
267,312,89650,6,2,B|211:328|211:328|142:318,1,100
105,283,89931,1,0,0:0:0:0:
65,190,90025,1,8,0:0:0:0:
130,84,90118,1,0,0:0:0:0:
280,73,90212,1,8,0:0:0:0:
371,222,90306,1,0,0:0:0:0:
204,333,90400,6,10,L|165:328,7,25
269,343,90775,1,6,0:0:0:0:
288,322,91150,6,2,L|271:207,1,100,6|2,0:0|0:0,0:0:0:0:
295,199,91431,6,2,L|309:297,1,100,6|2,0:0|0:0,0:0:0:0:
202,240,91712,6,2,P|204:192|245:156,1,100,6|2,0:0|0:0,0:0:0:0:
221,130,91993,6,2,P|179:164|164:221,1,100,6|2,0:0|0:0,0:0:0:0:
313,116,92275,6,2,B|338:69|338:69|322:5,1,100,6|2,0:0|0:0,0:0:0:0:
352,7,92556,6,2,B|367:68|367:68|346:111,1,100,6|2,0:0|0:0,0:0:0:0:
199,52,92837,1,6,0:0:0:0:
187,42,93025,5,2,0:0:0:0:
366,197,93150,2,0,P|372:219|358:274,1,66.6666666666667,2|2,0:0|0:0,0:0:0:0:
253,377,93400,5,4,0:0:0:0:
271,19,94150,5,0,0:0:0:0:
277,25,94712,2,8,L|276:45,1,12.5
253,377,94900,5,4,0:0:0:0:
271,19,95650,6,8,L|270:37,2,12.5
277,25,96212,2,8,L|276:45,1,12.5
253,377,96400,5,4,0:0:0:0:
271,19,97150,6,8,L|269:40,1,12.5
285,63,97337,2,8,L|283:84,1,12.5
246,105,97525,2,8,L|244:126,1,12.5
289,166,97712,2,8,L|287:187,1,12.5
253,377,97900,6,2,P|268:319|191:360,1,200,4|4,0:0|0:0,0:0:0:0:
459,150,105400,6,0,P|453:199|457:252,1,100,6|0,0:0|0:0,0:0:0:0:
93,270,106525,1,0,0:0:0:0:
93,263,106618,1,0,0:0:0:0:
92,256,106712,1,0,0:0:0:0:
90,249,106806,1,0,0:0:0:0:
88,242,106900,2,0,P|75:196|69:142,1,100,2|0,0:0|0:0,0:0:0:0:
459,125,108400,1,2,0:0:0:0:
471,259,108962,1,2,0:0:0:0:
459,125,109525,1,2,0:0:0:0:
471,259,109900,1,2,0:0:0:0:
56,267,110650,1,8,0:0:0:0:
54,261,110743,1,0,0:0:0:0:
52,254,110837,1,8,0:0:0:0:
51,247,110931,1,0,0:0:0:0:
50,240,111025,1,8,0:0:0:0:
50,233,111118,1,0,0:0:0:0:
50,226,111212,1,8,0:0:0:0:
50,219,111306,1,0,0:0:0:0:
51,210,111400,6,0,P|53:165|60:119,1,87.5,4|0,0:0|0:0,0:0:0:0:
69,52,112150,1,8,0:0:0:0:
200,330,112900,6,0,P|202:285|209:239,1,87.5,4|0,0:0|0:0,0:0:0:0:
218,172,113650,1,8,0:0:0:0:
421,356,114400,5,6,0:0:0:0:
425,344,114493,1,0,0:0:0:0:
428,332,114587,1,2,0:0:0:0:
430,319,114681,1,0,0:0:0:0:
432,307,114775,5,2,0:0:0:0:
433,295,114868,1,0,0:0:0:0:
433,282,114962,1,2,0:0:0:0:
432,270,115056,1,0,0:0:0:0:
430,257,115150,5,2,0:0:0:0:
428,245,115243,1,0,0:0:0:0:
424,233,115337,1,2,0:0:0:0:
420,221,115431,1,0,0:0:0:0:
415,210,115525,5,2,0:0:0:0:
409,199,115618,1,0,0:0:0:0:
403,188,115712,1,2,0:0:0:0:
396,178,115806,1,0,0:0:0:0:
388,168,115900,5,6,0:0:0:0:
379,159,115993,1,0,0:0:0:0:
370,150,116087,1,2,0:0:0:0:
360,143,116181,1,0,0:0:0:0:
350,135,116275,5,2,0:0:0:0:
339,129,116368,1,0,0:0:0:0:
328,123,116462,1,2,0:0:0:0:
317,118,116556,1,0,0:0:0:0:
305,114,116650,5,2,0:0:0:0:
293,111,116743,1,0,0:0:0:0:
281,108,116837,1,2,0:0:0:0:
268,106,116931,1,0,0:0:0:0:
256,106,117025,5,10,0:0:0:0:
243,106,117118,1,0,0:0:0:0:
231,107,117212,1,10,0:0:0:0:
219,108,117306,1,0,0:0:0:0:
206,111,117400,5,14,0:0:0:0:
256,192,117493,12,0,120400,0:0:0:0:
