osu file format v14

[General]
AudioFilename: audio.mp3
AudioLeadIn: 0
PreviewTime: 77240
Countdown: 0
SampleSet: Soft
StackLeniency: 0.3
Mode: 0
LetterboxInBreaks: 0
WidescreenStoryboard: 0

[Editor]
DistanceSpacing: 2.5
BeatDivisor: 4
GridSize: 32
TimelineZoom: 2.3

[Metadata]
Title:Yoru ni Kakeru
TitleUnicode:夜に駆ける
Artist:Sakuyui
ArtistUnicode:さくゆい
Creator:Yugu
Version:You
Source:
Tags:Vtuber virtual youtuber バーチャルyoutuber 2434 Nijisanji にじさんじ japanese pop 笹木咲 Sasaki Saku 椎名唯華 Shiina Yuika eiri- ayyri YOASOBI Ayase gamers ゲーマーズ 幾田りら Ikuta Lilas ikura Rira しぃしぃ shiishii いちご大福 ichigo daifuku cover jpop j-pop
BeatmapID:2574281
BeatmapSetID:1238144

[Difficulty]
HPDrainRate:6
CircleSize:4.5
OverallDifficulty:8.5
ApproachRate:9
SliderMultiplier:2.4
SliderTickRate:1

[Events]
//Background and Video events
0,0,"1803.png",0,0
Video,3,"video.avi"
//Break Periods
//Storyboard Layer 0 (Background)
//Storyboard Layer 1 (Fail)
//Storyboard Layer 2 (Pass)
//Storyboard Layer 3 (Foreground)
//Storyboard Layer 4 (Overlay)
//Storyboard Sound Samples

[TimingPoints]
4090,461.538461538462,4,2,1,30,1,0
4090,-125,4,2,1,30,0,0
11474,-100,4,2,1,50,0,0
17936,-166.666666666667,4,2,1,50,0,0
18397,-100,4,2,1,50,0,0
18859,-83.3333333333333,4,2,1,70,0,0
24397,-90.9090909090909,4,2,1,70,0,0
25782,-100,4,2,1,70,0,0
26243,-83.3333333333333,4,2,1,70,0,0
32705,-100,4,2,1,70,0,0
33628,-111.111111111111,4,2,1,60,0,0
48397,-100,4,2,1,60,0,0
63166,-100,4,2,1,70,0,0
64205,-100,4,2,1,50,0,0
65013,-100,4,2,1,70,0,0
66051,-100,4,2,1,50,0,0
66743,-100,4,2,1,70,0,0
76090,-83.3333333333333,4,2,1,70,0,0
77243,-83.3333333333333,4,2,1,40,0,0
77936,-76.9230769230769,4,2,1,85,0,0
104590,-125,4,2,1,70,0,0
105166,-100,4,2,1,70,0,0
105628,-83.3333333333333,4,2,1,70,0,0
111166,-90.9090909090909,4,2,1,70,0,0
112551,-100,4,2,1,70,0,0
113012,-83.3333333333333,4,2,1,70,0,0
119474,-100,4,2,1,70,0,0
120397,-100,4,2,1,60,0,0
133551,-100,4,2,1,70,0,0
135166,-100,4,2,1,75,0,0
147628,-125,4,2,1,70,0,0
148090,-166.666666666667,4,2,1,40,0,0
154436,-166.666666666667,4,2,1,50,0,0
162397,-166.666666666667,4,2,1,60,0,0
162859,-90.9090909090909,4,2,1,70,0,0
177628,-125,4,2,1,70,0,0
178666,-125,4,2,1,50,0,0
179474,-125,4,2,1,70,0,0
180513,-125,4,2,1,50,0,0
181205,-100,4,2,1,70,0,0
193551,-166.666666666667,4,2,1,40,0,0
201628,-125,4,2,1,50,0,0
207282,-125,4,2,1,53,0,0
207397,-125,4,2,1,55,0,0
207513,-125,4,2,1,58,0,0
207628,-125,4,2,1,60,0,0
207743,-125,4,2,1,63,0,0
207859,-125,4,2,1,65,0,0
207974,-125,4,2,1,68,0,0
208090,-125,4,2,1,70,0,0
208205,-125,4,2,1,73,0,0
208320,-125,4,2,1,75,0,0
208436,-125,4,2,1,78,0,0
208551,-125,4,2,1,20,0,0
209013,-125,4,2,1,75,0,0
209936,-90.9090909090909,4,2,1,80,0,0
210859,-76.9230769230769,4,2,1,90,0,0
236705,-90.9090909090909,4,2,1,90,0,0
244897,-181.818181818182,4,2,1,90,0,0
245243,-90.9090909090909,4,2,1,90,0,0
245474,-90.9090909090909,4,2,1,40,0,0
245936,-83.3333333333333,4,2,1,70,0,0
251474,-90.9090909090909,4,2,1,70,0,0
253320,-83.3333333333333,4,2,1,70,0,0

[Colours]
Combo1 : 241,200,222
Combo2 : 239,154,175

[HitObjects]
256,64,3628,5,2,0:0:0:0:
256,64,3859,1,2,0:0:0:0:
116,126,4090,6,0,B|107:109|107:109|118:33,1,96,2|0,0:0|0:0,0:0:0:0:
186,95,4436,2,0,B|195:112|195:112|183:187,1,96,2|0,0:0|0:0,0:0:0:0:
183,187,4782,1,2,0:0:0:0:
26,130,5013,1,2,0:0:0:0:
162,263,5243,2,0,P|209:260|247:232,2,96,0|2|0,0:0|0:0|0:0,0:0:0:0:
57,358,5936,6,0,L|2:347,1,48,2|0,0:0|0:0,0:0:0:0:
151,339,6166,1,2,0:0:0:0:
156,352,6282,2,0,P|202:357|245:337,1,96,2|0,0:0|0:0,0:0:0:0:
255,325,6628,2,0,L|310:336,1,48,2|0,0:0|0:0,0:0:0:0:
381,311,6859,1,2,0:0:0:0:
381,311,7320,5,2,0:0:0:0:
457,348,7551,1,2,0:0:0:0:
489,205,7782,2,0,P|441:206|393:209,1,96,2|0,0:0|0:0,0:0:0:0:
386,132,8128,2,0,P|433:128|481:127,1,96,2|0,0:0|0:0,0:0:0:0:
481,127,8474,1,2,0:0:0:0:
432,28,8705,1,2,0:0:0:0:
231,204,8936,5,2,0:0:0:0:
257,127,9166,1,2,0:0:0:0:
310,187,9397,1,2,0:0:0:0:
136,330,9628,6,0,L|40:320,1,96,2|0,0:0|0:0,0:0:0:0:
139,252,9974,2,0,L|43:242,1,96,2|0,0:0|0:0,0:0:0:0:
44,243,10320,1,2,0:0:0:0:
231,204,10551,1,2,0:0:0:0:
85,140,10782,1,2,0:0:0:0:
175,89,11013,1,2,0:0:0:0:
141,0,11243,1,2,0:0:0:0:
51,51,11474,6,0,P|55:115|54:183,1,120,10|0,0:0|0:0,0:0:0:0:
37,195,11820,1,2,0:0:0:0:
37,195,11936,1,10,0:0:0:0:
106,293,12166,1,2,0:0:0:0:
157,185,12397,1,10,0:0:0:0:
232,364,12628,2,0,P|231:304|235:244,2,120,2|10|2,0:0|0:0|0:0,0:0:0:0:
336,230,13320,5,10,0:0:0:0:
387,338,13551,1,2,0:0:0:0:
456,240,13782,2,0,P|453:210|447:180,1,60,10|0,0:0|0:0,0:0:0:0:
511,111,14013,2,0,P|469:152|411:164,1,120,2|10,0:0|0:0,0:0:0:0:
291,87,14474,1,2,0:0:0:0:
318,238,14705,1,8,0:0:0:0:
215,179,14936,1,2,0:0:0:0:
215,179,15051,1,2,0:0:0:0:
214,179,15166,6,0,P|155:171|95:167,1,120,10|2,0:0|0:0,0:0:0:0:
34,227,15513,1,2,0:0:0:0:
34,227,15628,2,0,P|32:256|29:286,1,60,10|0,0:0|0:0,0:0:0:0:
69,92,15859,2,0,P|67:62|64:32,1,60,2|0,0:0|0:0,0:0:0:0:
119,268,16090,6,0,P|178:260|238:256,1,120,10|0,0:0|0:0,0:0:0:0:
266,266,16436,1,2,0:0:0:0:
266,266,16551,1,10,0:0:0:0:
396,163,16782,1,2,0:0:0:0:
398,174,16897,1,2,0:0:0:0:
400,185,17013,1,0,0:0:0:0:
155,137,17243,5,2,0:0:0:0:
157,126,17475,1,2,0:0:0:0:
274,40,17705,1,0,0:0:0:0:
276,51,17820,1,0,0:0:0:0:
278,62,17936,2,0,P|281:97|281:133,1,71.9999978027344,2|0,0:0|0:0,0:0:0:0:
275,150,18282,1,2,0:0:0:0:
219,206,18397,6,0,P|215:235|215:265,1,60,2|2,0:0|0:0,0:0:0:0:
277,313,18628,2,0,P|280:342|280:372,1,60,2|2,0:0|0:0,0:0:0:0:
495,245,18859,5,14,0:0:0:0:
501,265,18974,2,0,B|408:242|448:281|358:259,1,143.999995605469,2|2,0:0|0:0,0:0:0:0:
344,232,19320,2,0,P|309:226|273:231,1,71.9999978027344,0|0,1:0|0:0,0:0:0:0:
52,320,19551,1,2,0:0:0:0:
135,141,19782,1,10,0:0:0:0:
198,353,20013,1,2,0:0:0:0:
116,131,20243,2,0,L|121:202,1,71.9999978027344,2|2,1:2|0:0,0:0:0:0:
179,343,20474,2,0,L|173:271,1,71.9999978027344,2|2,0:0|0:0,0:0:0:0:
261,75,20704,5,10,0:0:0:0:
261,96,20820,2,0,B|327:99|327:99|341:107|341:107|402:111,1,143.999995605469,2|2,0:0|0:0,0:0:0:0:
426,95,21166,2,0,L|499:89,1,71.9999978027344,0|0,1:0|0:0,0:0:0:0:
358,23,21397,1,2,0:0:0:0:
336,243,21628,1,10,0:0:0:0:
465,163,21859,1,2,0:0:0:0:
436,258,22090,1,2,1:2:0:0:
365,148,22320,1,2,0:0:0:0:
395,350,22551,5,10,0:0:0:0:
409,333,22666,2,0,P|337:322|265:318,1,143.999995605469,2|2,0:0|0:0,0:0:0:0:
239,332,23013,2,0,P|204:329|168:326,1,71.9999978027344,0|0,1:0|0:0,0:0:0:0:
46,251,23243,1,2,0:0:0:0:
161,211,23474,1,10,0:0:0:0:
161,211,23705,1,2,0:0:0:0:
86,366,23936,1,2,1:2:0:0:
86,366,24167,1,2,0:0:0:0:
18,227,24397,6,0,P|50:230|82:238,1,66.0000020141602,10|0,0:0|0:0,0:0:0:0:
174,121,24628,1,2,0:0:0:0:
174,121,24743,2,0,P|108:129|45:147,1,132.00000402832,2|0,0:0|0:0,0:0:0:0:
18,70,25090,1,2,0:0:0:0:
247,156,25320,1,10,0:0:0:0:
162,37,25551,1,2,0:0:0:0:
162,37,25666,1,2,0:0:0:0:
162,37,25782,6,0,P|192:36|222:31,1,60,2|2,1:2|0:0,0:0:0:0:
310,67,26013,2,0,P|339:68|369:73,1,60,2|2,0:0|0:0,0:0:0:0:
244,261,26243,5,14,0:0:0:0:
248,238,26359,2,0,P|177:223|105:220,1,143.999995605469,2|2,0:0|0:0,0:0:0:0:
85,240,26705,2,0,L|7:231,1,71.9999978027344,0|0,1:0|0:0,0:0:0:0:
161,335,26936,1,2,0:0:0:0:
464,290,27166,1,10,0:0:0:0:
248,238,27397,1,2,0:0:0:0:
474,270,27628,2,0,L|402:262,1,71.9999978027344,2|2,1:2|0:0,0:0:0:0:
238,218,27859,2,0,L|309:225,1,71.9999978027344,2|2,0:0|0:0,0:0:0:0:
466,158,28090,5,10,0:0:0:0:
445,163,28205,2,0,B|439:109|439:109|469:-7,1,143.999995605469,2|2,0:0|0:0,0:0:0:0:
436,7,28551,2,0,L|508:-1,1,71.9999978027344,0|0,1:0|0:0,0:0:0:0:
360,102,28782,1,2,0:0:0:0:
278,23,29013,1,10,0:0:0:0:
278,23,29128,1,2,0:0:0:0:
278,23,29243,1,2,0:0:0:0:
178,198,29474,2,0,B|172:180|172:180|178:118,1,71.9999978027344,2|2,1:2|0:0,0:0:0:0:
109,8,29705,2,0,B|103:26|103:26|109:88,1,71.9999978027344,2|2,0:0|0:0,0:0:0:0:
31,251,29936,5,10,0:0:0:0:
24,229,30051,2,0,P|91:236|115:301,1,143.999995605469,2|2,0:0|0:0,0:0:0:0:
99,325,30397,2,0,L|188:312,1,71.9999978027344,0|0,1:0|0:0,0:0:0:0:
293,264,30628,1,2,0:0:0:0:
234,375,30859,1,10,0:0:0:0:
234,375,31090,1,2,0:0:0:0:
211,216,31320,1,2,1:2:0:0:
211,216,31551,1,2,0:0:0:0:
374,251,31782,5,14,0:0:0:0:
374,251,32013,1,10,0:0:0:0:
363,216,32128,1,10,0:0:0:0:
367,180,32243,1,2,1:2:0:0:
391,153,32359,1,10,0:0:0:0:
422,136,32474,1,10,0:0:0:0:
443,107,32590,1,10,0:0:0:0:
446,71,32705,6,0,P|417:63|388:53,1,60,10|10,0:0|0:0,0:0:0:0:
307,95,32936,2,0,P|278:102|249:112,1,60,10|10,0:0|0:0,0:0:0:0:
154,59,33166,2,0,L|2:49,1,120,2|0,1:2|0:0,0:0:0:0:
133,305,33628,6,0,P|79:298|25:295,2,107.999996704102,14|2|10,0:0|0:0|0:0,0:0:0:0:
183,224,34320,2,0,P|236:217|290:214,1,107.999996704102,2|0,0:0|0:0,0:0:0:0:
276,316,34782,1,2,0:0:0:0:
276,316,35013,1,10,0:0:0:0:
362,153,35243,6,0,P|368:206|371:260,1,107.999996704102,2|8,0:0|0:0,0:0:0:0:
465,360,35705,2,0,P|468:306|474:252,1,107.999996704102,2|10,0:0|0:0,0:0:0:0:
494,233,36051,1,2,0:0:0:0:
494,233,36166,1,2,0:0:0:0:
494,233,36397,5,10,0:0:0:0:
371,260,36628,1,2,0:0:0:0:
371,260,36859,1,10,0:0:0:0:
411,163,37090,1,0,0:0:0:0:
288,190,37320,6,0,P|234:182|180:181,1,107.999996704102,10|2,0:0|0:0,0:0:0:0:
100,254,37782,2,0,P|92:307|91:361,1,107.999996704102,10|0,0:0|0:0,0:0:0:0:
171,328,38243,1,10,0:0:0:0:
18,295,38474,1,0,0:0:0:0:
176,216,38705,1,10,0:0:0:0:
105,150,38936,6,0,P|51:158|0:173,1,107.999996704102,2|8,0:0|0:0,0:0:0:0:
100,50,39397,2,0,P|151:65|205:73,1,107.999996704102,2|10,0:0|0:0,0:0:0:0:
225,54,39743,1,2,0:0:0:0:
225,54,39859,1,2,0:0:0:0:
360,112,40090,5,10,0:0:0:0:
248,148,40320,1,2,0:0:0:0:
368,88,40551,1,10,1:2:0:0:
354,211,40782,1,2,0:0:0:0:
474,163,41013,6,0,P|486:216|480:269,1,107.999996704102,14|0,0:0|0:0,0:0:0:0:
285,361,41474,2,0,P|278:307|290:255,1,107.999996704102,2|2,1:2|0:0,0:0:0:0:
388,174,41936,2,0,P|284:171|217:158,1,161.999995056153,10|2,0:0|0:0,0:0:0:0:
202,132,42397,1,2,1:2:0:0:
150,258,42628,2,0,P|146:228|145:197,1,53.9999983520508,2|0,0:0|0:0,0:0:0:0:
122,100,42859,6,0,P|68:90|14:88,1,107.999996704102,10|2,0:0|0:0,0:0:0:0:
2,124,43205,2,0,P|28:122|55:118,1,53.9999983520508,2|0,0:0|1:0,0:0:0:0:
174,43,43436,2,0,P|268:54|326:69,1,107.999996704102,2|0,0:0|0:0,0:0:0:0:
314,73,43782,1,10,0:0:0:0:
314,73,43897,1,2,0:0:0:0:
314,73,44013,1,2,0:0:0:0:
297,228,44243,2,0,P|308:158|374:183,1,161.999995056153,2|0,1:2|0:0,0:0:0:0:
410,194,44705,6,0,P|398:246|392:300,1,107.999996704102,10|2,0:0|0:0,0:0:0:0:
486,357,45166,1,2,1:2:0:0:
302,272,45397,2,0,P|317:323|338:373,1,107.999996704102,2|10,0:0|0:0,0:0:0:0:
210,294,45859,1,2,0:0:0:0:
95,360,46090,1,0,1:0:0:0:
95,360,46205,1,0,1:0:0:0:
95,360,46320,2,0,P|109:307|120:255,1,107.999996704102,6|8,0:0|0:0,0:0:0:0:
120,254,46782,5,2,0:0:0:0:
47,140,47013,1,2,1:2:0:0:
47,140,47128,1,2,0:0:0:0:
47,140,47243,1,2,0:0:0:0:
47,140,47359,1,2,0:0:0:0:
47,140,47474,1,14,0:0:0:0:
281,92,47820,1,14,0:0:0:0:
205,318,48166,1,14,0:0:0:0:
157,198,48397,6,0,B|182:189|182:189|297:202,1,120,14|2,0:0|0:0,0:0:0:0:
315,186,48743,1,2,0:0:0:0:
315,186,48859,1,2,1:2:0:0:
403,277,49090,2,0,L|408:348,1,60,2|0,0:0|0:0,0:0:0:0:
497,216,49320,1,10,0:0:0:0:
497,216,49436,2,0,L|502:287,1,60,2|0,0:0|0:0,0:0:0:0:
415,109,49666,1,2,0:0:0:0:
415,109,49782,2,0,L|410:180,1,60,2|0,1:2|0:0,0:0:0:0:
484,38,50013,5,2,0:0:0:0:
484,38,50128,1,2,0:0:0:0:
484,38,50243,2,0,B|451:23|451:23|333:34,2,120,2|2|2,0:0|0:0|1:2,0:0:0:0:
331,131,50936,1,2,0:0:0:0:
219,33,51166,1,10,0:0:0:0:
219,33,51282,2,0,B|207:57|207:57|211:96,1,60,2|0,0:0|0:0,0:0:0:0:
274,195,51513,1,2,0:0:0:0:
274,195,51628,2,0,B|286:219|286:219|282:258,1,60,2|0,1:2|0:0,0:0:0:0:
161,159,51859,5,2,0:0:0:0:
161,159,51974,1,2,0:0:0:0:
161,159,52090,2,0,L|16:137,1,120,10|2,0:0|0:0,0:0:0:0:
18,175,52436,1,2,0:0:0:0:
18,175,52551,2,0,B|28:234|28:234|33:329,1,120,2|2,1:2|0:0,0:0:0:0:
212,348,53013,1,10,0:0:0:0:
212,348,53128,2,0,B|246:349|246:349|289:336,1,60,2|0,0:0|0:0,0:0:0:0:
260,222,53359,1,2,0:0:0:0:
260,222,53474,2,0,B|226:221|226:221|183:234,1,60,2|0,1:2|0:0,0:0:0:0:
339,276,53705,5,2,0:0:0:0:
339,276,53820,1,2,0:0:0:0:
339,276,53936,2,0,L|455:258,1,60,10|0,0:0|0:0,0:0:0:0:
458,156,54166,1,2,0:0:0:0:
463,363,54397,2,0,P|475:290|494:230,1,120,2|2,1:2|0:0,0:0:0:0:
366,111,54859,5,10,0:0:0:0:
512,67,55090,1,0,0:0:0:0:
445,174,55320,1,2,1:2:0:0:
427,39,55551,1,0,0:0:0:0:
284,139,55782,6,0,P|224:134|168:155,1,120,14|2,0:0|0:0,0:0:0:0:
127,144,56128,1,2,0:0:0:0:
127,144,56243,2,0,P|73:170|35:215,1,120,2|0,1:2|0:0,0:0:0:0:
48,45,56705,1,10,0:0:0:0:
48,45,56820,2,0,L|109:57,1,60,2|0,0:0|0:0,0:0:0:0:
208,97,57051,1,2,0:0:0:0:
208,97,57166,2,0,L|269:109,1,60,2|0,1:2|0:0,0:0:0:0:
334,16,57397,2,0,P|346:42|343:72,1,60,2|0,0:0|0:0,0:0:0:0:
282,223,57628,6,0,P|308:170|361:144,1,120,10|2,0:0|0:0,0:0:0:0:
397,166,57974,2,0,P|401:136|420:113,1,60,2|0,0:0|1:0,0:0:0:0:
488,63,58205,2,0,L|496:194,1,120,2|0,0:0|0:0,0:0:0:0:
477,221,58551,1,10,0:0:0:0:
477,221,58666,2,0,L|482:312,2,60,2|0|2,0:0|0:0|0:0,0:0:0:0:
373,281,59013,2,0,P|315:273|284:224,1,120,2|2,1:2|0:0,0:0:0:0:
305,186,59359,1,2,0:0:0:0:
305,186,59474,5,10,0:0:0:0:
211,267,59705,1,2,0:0:0:0:
110,179,59936,2,0,P|139:181|169:187,1,60,2|0,1:2|0:0,0:0:0:0:
275,97,60166,2,0,L|155:106,1,120,0|2,0:0|0:0,0:0:0:0:
13,24,60628,1,2,0:0:0:0:
45,119,60859,1,2,1:2:0:0:
144,27,61090,1,2,0:0:0:0:
144,27,61205,1,2,0:0:0:0:
144,27,61320,6,0,B|150:62|150:62|144:98,1,60,10|0,0:0|0:0,0:0:0:0:
25,137,61551,2,0,L|90:133,1,60,2|0,0:0|0:0,0:0:0:0:
260,189,61782,2,0,B|202:174|202:174|148:201,1,120,2|0,1:2|0:0,0:0:0:0:
112,223,62128,1,0,0:0:0:0:
112,223,62243,1,10,0:0:0:0:
188,322,62474,5,2,0:0:0:0:
214,335,62590,1,2,0:0:0:0:
243,336,62705,1,2,1:2:0:0:
270,325,62820,1,8,0:0:0:0:
288,301,62936,1,10,0:0:0:0:
315,288,63051,1,8,0:0:0:0:
344,285,63166,6,0,L|349:359,1,60,14|0,0:0|0:0,0:0:0:0:
464,234,63397,1,2,0:0:0:0:
493,241,63513,2,0,L|498:167,1,60,2|0,0:0|1:0,0:0:0:0:
375,72,63743,1,2,0:0:0:0:
346,65,63859,2,0,L|354:189,1,120,2|8,0:0|0:0,0:0:0:0:
259,138,64205,5,2,0:0:0:0:
259,138,64320,1,2,0:0:0:0:
259,138,64436,1,2,0:0:0:0:
259,138,64551,2,0,P|200:124|141:115,1,120,2|2,1:2|0:0,0:0:0:0:
44,353,65013,6,0,L|37:293,1,60,10|0,0:0|0:0,0:0:0:0:
151,204,65243,1,10,0:0:0:0:
180,210,65359,2,0,L|173:269,1,60,10|0,0:0|1:0,0:0:0:0:
277,356,65590,1,2,0:0:0:0:
306,350,65706,2,0,L|291:218,1,120,10|8,0:0|0:0,0:0:0:0:
357,150,66051,1,2,0:0:0:0:
357,150,66166,1,2,0:0:0:0:
357,150,66282,1,2,0:0:0:0:
357,150,66397,2,0,L|430:140,2,60,2|2|2,1:2|0:0|0:0,0:0:0:0:
485,181,66743,6,0,P|464:237|451:295,1,120,6|0,0:0|0:0,0:0:0:0:
365,358,67090,1,2,0:0:0:0:
365,358,67205,1,2,0:0:0:0:
365,358,67320,1,2,1:2:0:0:
365,358,67436,2,0,L|292:348,1,60,2|2,0:0|0:0,0:0:0:0:
181,295,67666,2,0,P|240:289|296:268,1,120,6|0,0:0|0:0,0:0:0:0:
218,127,68013,6,0,L|142:135,1,60,2|2,0:0|0:0,0:0:0:0:
41,246,68243,2,0,L|100:252,1,60,2|2,1:2|0:0,0:0:0:0:
84,54,68474,1,2,0:0:0:0:
84,54,68590,2,0,P|65:128|66:181,1,120,6|10,0:0|0:0,0:0:0:0:
187,237,68936,1,10,0:0:0:0:
187,237,69051,2,0,B|192:269|192:269|172:312,1,60,10|2,0:0|1:2,0:0:0:0:
325,237,69282,2,0,B|320:269|320:269|340:312,1,60,10|10,0:0|0:0,0:0:0:0:
256,144,69513,1,10,0:0:0:0:
256,114,69628,6,0,L|256:-32,1,120,14|8,0:0|0:0,0:0:0:0:
340,39,69974,1,10,0:0:0:0:
340,39,70090,2,0,B|366:34|366:34|413:56,1,60,2|0,1:2|0:0,0:0:0:0:
446,165,70320,2,0,B|472:170|472:170|519:148,1,60,8|8,0:0|0:0,0:0:0:0:
507,33,70551,5,14,0:0:0:0:
507,33,70782,1,2,0:0:0:0:
347,56,71013,1,2,1:2:0:0:
447,184,71243,1,2,0:0:0:0:
251,298,71474,5,10,0:0:0:0:
379,135,71705,1,2,0:0:0:0:
396,280,71936,1,2,1:2:0:0:
233,152,72166,1,2,0:0:0:0:
150,352,72397,6,0,P|137:293|119:236,1,120,10|2,0:0|0:0,0:0:0:0:
40,127,72859,1,2,1:2:0:0:
0,291,73090,2,0,B|42:264|65:226|65:226|127:269|202:275,1,240,2|2,0:0|0:0,0:0:0:0:
314,213,73782,2,0,P|295:270|283:328,1,120,2|8,1:2|0:0,0:0:0:0:
423,233,74243,5,14,0:0:0:0:
230,153,74474,1,2,0:0:0:0:
393,83,74705,1,2,1:2:0:0:
198,25,74936,5,2,0:0:0:0:
186,52,75051,1,2,0:0:0:0:
184,81,75166,1,8,0:0:0:0:
315,153,75397,1,10,0:0:0:0:
327,180,75513,1,10,0:0:0:0:
329,209,75628,2,0,L|315:278,1,60,2|8,1:2|0:0,0:0:0:0:
213,310,75859,2,0,L|227:379,1,60,10|8,0:0|0:0,0:0:0:0:
317,350,76090,5,14,0:0:0:0:
198,229,76320,1,10,0:0:0:0:
160,224,76436,2,0,P|125:229|95:248,1,71.9999978027344,10|0,0:0|0:0,0:0:0:0:
22,139,76666,1,10,0:0:0:0:
59,143,76782,2,0,P|94:138|124:119,2,71.9999978027344,10|10|10,0:0|0:0|0:0,0:0:0:0:
175,29,77243,5,2,2:3:0:0:
189,32,77474,1,2,2:3:0:0:
203,35,77705,1,2,2:3:0:0:
305,110,77936,6,0,B|289:216|260:156|241:247,1,155.999992858887,14|0,0:0|0:0,0:0:0:0:
305,325,78282,1,2,0:0:0:0:
350,315,78397,2,0,B|383:310|383:310|451:327,1,77.9999964294435,0|0,1:0|0:0,0:0:0:0:
167,226,78628,2,0,B|134:221|134:221|66:238,1,77.9999964294435,2|0,0:0|0:0,0:0:0:0:
191,384,78859,2,0,P|181:346|183:307,1,77.9999964294435,10|0,0:0|0:0,0:0:0:0:
350,205,79090,1,2,0:0:0:0:
150,129,79320,1,2,1:2:0:0:
390,57,79551,1,2,0:0:0:0:
232,0,79782,6,0,B|228:65|228:65|235:94|235:94|230:154,1,155.999992858887,8|2,0:0|0:0,0:0:0:0:
191,182,80128,2,0,L|111:152,1,77.9999964294435,0|2,0:0|1:2,0:0:0:0:
333,105,80359,1,2,0:0:0:0:
342,150,80474,2,0,L|356:234,1,77.9999964294435,0|2,0:0|0:0,0:0:0:0:
317,360,80705,1,10,0:0:0:0:
491,267,80936,1,2,0:0:0:0:
276,233,81166,1,2,1:2:0:0:
495,244,81397,1,2,0:0:0:0:
338,365,81628,6,0,B|328:330|328:330|352:267,1,77.9999964294435,10|0,0:0|0:0,0:0:0:0:
409,159,81859,2,0,L|417:260,1,77.9999964294435,2|0,0:0|0:0,0:0:0:0:
237,296,82090,2,0,P|209:269|202:231,1,77.9999964294435,2|0,1:2|0:0,0:0:0:0:
385,138,82320,2,0,P|423:134|462:133,1,77.9999964294435,2|0,0:0|0:0,0:0:0:0:
251,65,82551,2,0,P|213:61|174:60,1,77.9999964294435,10|0,0:0|0:0,0:0:0:0:
364,0,82782,2,0,P|367:37|344:68,1,77.9999964294435,2|0,0:0|0:0,0:0:0:0:
110,115,83013,2,0,B|71:105|71:105|33:109,1,77.9999964294435,2|0,1:2|0:0,0:0:0:0:
201,231,83243,2,0,P|224:200|234:163,1,77.9999964294435,2|0,0:0|0:0,0:0:0:0:
84,210,83474,6,0,L|93:369,1,155.999992858887,10|0,0:0|0:0,0:0:0:0:
241,380,83820,1,2,0:0:0:0:
276,349,83936,2,0,L|283:262,1,77.9999964294435,0|0,1:0|0:0,0:0:0:0:
95,199,84166,2,0,L|18:187,1,77.9999964294435,2|0,0:0|0:0,0:0:0:0:
327,147,84397,6,0,B|426:148|383:182|476:184,1,155.999992858887,10|2,0:0|0:0,0:0:0:0:
180,11,84859,1,2,1:2:0:0:
201,231,85090,1,2,0:0:0:0:
358,64,85320,6,0,B|259:65|301:99|208:101,1,155.999992858887,14|0,0:0|0:0,0:0:0:0:
163,91,85666,2,0,B|149:130|149:130|187:176|201:231,1,155.999992858887,2|0,0:0|0:0,0:0:0:0:
167,293,86013,2,0,P|205:301|242:289,1,77.9999964294435,2|0,0:0|0:0,0:0:0:0:
327,147,86243,1,10,0:0:0:0:
94,234,86474,1,2,0:0:0:0:
338,236,86705,2,0,P|311:309|291:384,1,155.999992858887,2|2,1:2|0:0,0:0:0:0:
87,384,87166,6,0,P|80:345|72:307,1,77.9999964294435,10|0,0:0|0:0,0:0:0:0:
35,170,87397,1,2,0:0:0:0:
27,192,87513,2,0,P|63:205|100:217,1,77.9999964294435,2|0,0:0|1:0,0:0:0:0:
239,254,87743,1,2,0:0:0:0:
223,236,87859,2,0,P|193:260|164:286,1,77.9999964294435,2|0,0:0|0:0,0:0:0:0:
18,88,88090,2,0,P|92:111|165:138,1,155.999992858887,10|0,0:0|0:0,0:0:0:0:
303,376,88551,6,0,P|308:337|303:299,1,77.9999964294435,2|0,1:2|0:0,0:0:0:0:
208,299,88782,2,0,P|202:337|208:375,1,77.9999964294435,2|0,0:0|0:0,0:0:0:0:
427,245,89013,2,0,P|388:239|349:237,1,77.9999964294435,10|0,0:0|0:0,0:0:0:0:
85,245,89243,2,0,P|123:239|162:237,1,77.9999964294435,2|0,0:0|0:0,0:0:0:0:
331,163,89474,2,0,P|334:124|346:87,1,77.9999964294435,2|0,1:2|0:0,0:0:0:0:
181,163,89705,2,0,P|177:124|165:87,1,77.9999964294435,2|0,0:0|0:0,0:0:0:0:
256,0,89936,6,0,L|256:160,1,155.999992858887,10|0,0:0|0:0,0:0:0:0:
183,235,90282,1,2,0:0:0:0:
195,254,90397,2,0,P|205:291|215:329,1,77.9999964294435,2|0,1:2|0:0,0:0:0:0:
296,329,90628,2,0,P|306:291|317:254,1,77.9999964294435,2|0,0:0|0:0,0:0:0:0:
101,168,90859,5,10,0:0:0:0:
411,216,91090,1,2,0:0:0:0:
376,85,91320,1,6,1:2:0:0:
136,299,91551,5,10,0:0:0:0:
158,339,91666,1,10,0:0:0:0:
199,360,91782,1,14,0:0:0:0:
245,354,91897,1,8,0:0:0:0:
281,325,92013,1,10,0:0:0:0:
294,281,92128,1,8,0:0:0:0:
281,237,92243,2,0,P|272:206|268:139,1,77.9999964294435,6|8,1:2|0:0,0:0:0:0:
449,34,92474,1,2,1:2:0:0:
449,34,92590,1,2,1:2:0:0:
449,34,92705,6,0,P|440:124|410:209,1,155.999992858887,14|0,0:0|0:0,0:0:0:0:
387,315,93051,1,2,0:0:0:0:
377,270,93166,2,0,L|483:257,1,77.9999964294435,0|0,1:0|0:0,0:0:0:0:
358,88,93397,2,0,L|252:75,1,77.9999964294435,2|0,0:0|0:0,0:0:0:0:
188,173,93628,2,0,L|82:186,1,77.9999964294435,10|0,0:0|0:0,0:0:0:0:
220,18,93859,1,2,0:0:0:0:
205,253,94090,1,2,1:2:0:0:
280,78,94320,1,2,0:0:0:0:
95,272,94551,6,0,P|24:250|14:176,1,155.999992858887,10|2,0:0|0:0,0:0:0:0:
48,145,94897,2,0,P|87:141|122:157,1,77.9999964294435,0|2,0:0|1:2,0:0:0:0:
256,331,95128,1,2,0:0:0:0:
215,353,95243,2,0,P|192:321|188:283,1,77.9999964294435,0|2,0:0|0:0,0:0:0:0:
312,106,95474,1,10,0:0:0:0:
369,283,95705,1,2,0:0:0:0:
512,151,95936,1,2,1:2:0:0:
263,209,96166,1,2,0:0:0:0:
438,46,96397,6,0,P|439:85|434:124,1,77.9999964294435,10|0,0:0|0:0,0:0:0:0:
369,283,96628,2,0,B|359:239|359:239|372:193,1,77.9999964294435,2|2,0:0|0:0,0:0:0:0:
296,85,96859,2,0,L|202:72,1,77.9999964294435,2|0,1:2|0:0,0:0:0:0:
86,168,97090,2,0,P|99:203|134:219,1,77.9999964294435,2|0,0:0|0:0,0:0:0:0:
144,34,97320,2,0,P|141:72|143:111,1,77.9999964294435,10|0,0:0|0:0,0:0:0:0:
188,338,97551,2,0,L|200:250,1,77.9999964294435,2|0,0:0|0:0,0:0:0:0:
9,151,97782,2,0,P|47:157|85:167,1,77.9999964294435,2|0,1:2|0:0,0:0:0:0:
328,189,98013,2,0,P|289:195|251:205,1,77.9999964294435,2|0,0:0|0:0,0:0:0:0:
22,316,98243,6,0,B|120:331|56:343|170:359,1,155.999992858887,10|2,0:0|0:0,0:0:0:0:
298,357,98590,1,2,0:0:0:0:
318,315,98705,2,0,P|354:300|393:292,1,77.9999964294435,2|2,1:2|0:0,0:0:0:0:
220,219,98936,2,0,P|227:257|232:295,1,77.9999964294435,2|0,0:0|0:0,0:0:0:0:
461,360,99166,6,0,P|471:282|487:206,1,155.999992858887,10|2,0:0|0:0,0:0:0:0:
297,26,99628,1,2,1:2:0:0:
378,215,99859,1,2,0:0:0:0:
512,107,100090,6,0,B|447:98|447:98|417:115|417:115|361:107,1,155.999992858887,14|0,0:0|0:0,0:0:0:0:
321,131,100436,2,0,P|245:144|179:106,1,155.999992858887,2|0,0:0|0:0,0:0:0:0:
152,21,100782,2,0,B|165:42|165:42|153:116,1,77.9999964294435,2|0,0:0|0:0,0:0:0:0:
98,273,101013,1,10,0:0:0:0:
35,76,101243,1,2,0:0:0:0:
17,215,101474,2,0,P|86:183|162:197,1,155.999992858887,2|2,1:2|0:0,0:0:0:0:
217,344,101936,5,10,0:0:0:0:
262,62,102166,1,2,0:0:0:0:
372,277,102397,1,2,1:2:0:0:
481,144,102628,2,0,B|422:126|422:126|311:142,1,155.999992858887,2|10,0:0|0:0,0:0:0:0:
296,380,103090,1,2,0:0:0:0:
258,216,103320,1,2,1:2:0:0:
467,306,103551,1,2,0:0:0:0:
180,257,103782,5,14,0:0:0:0:
175,210,103897,1,8,0:0:0:0:
190,165,104013,1,10,0:0:0:0:
223,132,104128,1,10,0:0:0:0:
245,90,104243,1,2,1:2:0:0:
251,43,104359,1,8,0:0:0:0:
227,2,104474,1,10,0:0:0:0:
211,7,104590,6,0,P|221:78|226:150,1,144,14|14,0:0|0:0,0:0:0:0:
18,241,105166,6,0,P|46:249|74:259,1,60,2|2,0:0|0:0,0:0:0:0:
180,257,105397,2,0,P|200:278|220:301,1,60,2|2,0:0|0:0,0:0:0:0:
336,357,105628,5,14,0:0:0:0:
316,363,105743,2,0,B|339:270|300:310|322:220,1,143.999995605469,2|2,0:0|0:0,0:0:0:0:
345,204,106090,2,0,L|441:193,1,71.9999978027344,0|0,1:0|0:0,0:0:0:0:
226,150,106320,1,2,0:0:0:0:
420,68,106551,1,10,0:0:0:0:
417,296,106782,1,2,0:0:0:0:
444,61,107013,6,0,P|453:95|457:131,1,71.9999978027344,2|2,1:2|0:0,0:0:0:0:
441,303,107243,2,0,P|431:268|427:232,1,71.9999978027344,2|2,0:0|0:0,0:0:0:0:
296,151,107474,5,10,0:0:0:0:
282,134,107590,2,0,L|119:106,1,143.999995605469,2|2,0:0|0:0,0:0:0:0:
125,84,107936,2,0,B|114:56|114:56|133:2,1,71.9999978027344,0|0,1:0|0:0,0:0:0:0:
273,49,108166,1,2,0:0:0:0:
150,258,108397,1,10,0:0:0:0:
86,182,108628,1,2,0:0:0:0:
174,144,108859,1,2,1:2:0:0:
238,220,109090,1,2,0:0:0:0:
41,362,109320,5,10,0:0:0:0:
19,355,109436,2,0,P|20:283|16:211,1,143.999995605469,2|2,0:0|0:0,0:0:0:0:
3,185,109782,2,0,L|11:107,1,71.9999978027344,0|0,1:0|0:0,0:0:0:0:
103,28,110012,1,2,0:0:0:0:
174,144,110243,1,10,0:0:0:0:
174,144,110474,1,2,0:0:0:0:
262,57,110705,1,2,1:2:0:0:
262,57,110936,1,2,0:0:0:0:
209,227,111166,6,0,L|216:314,1,66.0000020141602,10|0,0:0|0:0,0:0:0:0:
301,334,111397,1,2,0:0:0:0:
301,334,111513,2,0,L|315:156,1,132.00000402832,2|0,0:0|0:0,0:0:0:0:
363,130,111859,1,2,0:0:0:0:
409,325,112089,1,10,0:0:0:0:
488,179,112320,1,2,0:0:0:0:
488,179,112436,1,2,0:0:0:0:
487,179,112551,6,0,P|483:149|469:122,1,60,2|2,1:2|0:0,0:0:0:0:
406,66,112782,2,0,P|378:54|348:53,1,60,2|2,0:0|0:0,0:0:0:0:
221,231,113013,5,14,0:0:0:0:
203,243,113128,2,0,B|164:208|164:208|197:70,1,143.999995605469,2|2,0:0|0:0,0:0:0:0:
210,105,113474,2,0,B|193:34,1,71.9999978027344,0|0,1:0|0:0,0:0:0:0:
290,0,113705,1,2,0:0:0:0:
107,107,113936,1,10,0:0:0:0:
203,243,114166,1,2,0:0:0:0:
92,117,114397,2,0,B|21:100,1,71.9999978027344,2|2,1:2|0:0,0:0:0:0:
210,258,114628,2,0,B|281:275,1,71.9999978027344,2|2,0:0|0:0,0:0:0:0:
193,34,114859,5,10,0:0:0:0:
174,22,114974,2,0,B|192:81|186:138|186:138|167:156,1,143.999995605469,2|2,0:0|0:0,0:0:0:0:
146,178,115320,2,0,P|133:210|131:246,1,71.9999978027344,0|0,1:0|0:0,0:0:0:0:
204,379,115551,1,2,0:0:0:0:
18,273,115782,1,10,0:0:0:0:
18,273,115897,1,2,0:0:0:0:
18,273,116012,1,2,0:0:0:0:
280,274,116243,6,0,B|209:290,1,71.9999978027344,2|2,1:2|0:0,0:0:0:0:
122,358,116474,2,0,B|52:342,1,71.9999978027344,2|2,0:0|0:0,0:0:0:0:
52,151,116705,5,10,0:0:0:0:
39,131,116820,2,0,P|105:120|145:176,1,143.999995605469,2|2,0:0|0:0,0:0:0:0:
160,201,117166,2,0,P|195:206|228:193,1,71.9999978027344,0|0,1:0|0:0,0:0:0:0:
343,104,117397,1,2,0:0:0:0:
330,206,117628,1,10,0:0:0:0:
330,206,117859,1,2,0:0:0:0:
241,91,118090,1,2,1:2:0:0:
241,91,118320,1,2,0:0:0:0:
462,35,118551,5,14,0:0:0:0:
462,35,118782,1,10,0:0:0:0:
476,67,118897,1,10,0:0:0:0:
476,103,119012,1,2,1:2:0:0:
461,135,119128,1,10,0:0:0:0:
447,168,119243,1,10,0:0:0:0:
447,204,119358,1,10,0:0:0:0:
462,236,119474,6,0,L|456:315,1,60,10|10,0:0|0:0,0:0:0:0:
361,345,119705,2,0,L|355:266,1,60,10|10,0:0|0:0,0:0:0:0:
267,184,119936,2,0,L|256:325,1,120,2|0,1:2|0:0,0:0:0:0:
141,350,120397,6,0,P|122:326|112:298,1,60,14|0,0:0|0:0,0:0:0:0:
0,240,120628,1,2,0:0:0:0:
0,240,120743,2,0,P|29:235|58:241,1,60,2|0,0:0|1:0,0:0:0:0:
165,172,120975,1,2,0:0:0:0:
165,172,121090,2,0,P|154:199|134:222,1,60,2|0,0:0|0:0,0:0:0:0:
34,147,121320,6,0,L|31:27,1,120,10|0,0:0|0:0,0:0:0:0:
124,64,121666,1,2,0:0:0:0:
124,64,121782,2,0,L|198:75,1,60,2|0,1:2|0:0,0:0:0:0:
267,131,122013,2,0,P|347:124|383:26,1,180,2|0,0:0|0:0,0:0:0:0:
371,15,122474,1,2,0:0:0:0:
283,46,122705,1,0,1:0:0:0:
464,95,122936,6,0,B|471:112|471:112|458:170,1,60,2|0,0:0|0:0,0:0:0:0:
340,221,123166,2,0,B|351:206|351:206|407:188,1,60,10|0,0:0|0:0,0:0:0:0:
512,265,123397,2,0,B|493:262|493:262|450:222,1,60,2|0,0:0|0:0,0:0:0:0:
267,131,123628,2,0,L|275:227,1,60,2|0,1:2|0:0,0:0:0:0:
392,360,123859,2,0,L|396:300,1,60,2|2,0:0|0:0,0:0:0:0:
245,267,124090,6,0,P|215:273|188:285,1,60,10|0,0:0|0:0,0:0:0:0:
153,189,124320,1,2,0:0:0:0:
153,189,124436,2,0,P|131:209|112:233,1,60,2|0,0:0|1:0,0:0:0:0:
34,167,124666,1,2,0:0:0:0:
34,167,124782,2,0,P|25:195|21:225,1,60,2|0,0:0|0:0,0:0:0:0:
40,355,125013,6,0,B|80:346|80:346|157:359,1,120,10|0,0:0|0:0,0:0:0:0:
264,340,125359,1,2,0:0:0:0:
264,340,125474,2,0,L|258:270,1,60,2|0,1:2|0:0,0:0:0:0:
317,176,125705,2,0,B|439:194|349:223|480:241,1,180,2|0,0:0|0:0,0:0:0:0:
505,226,126166,1,2,0:0:0:0:
304,74,126397,5,0,1:0:0:0:
304,74,126513,1,2,0:0:0:0:
322,105,126628,1,2,0:0:0:0:
327,141,126743,1,2,0:0:0:0:
317,176,126859,2,0,P|303:202|302:232,1,60,10|2,0:0|0:0,0:0:0:0:
247,134,127090,2,0,P|217:129|188:137,1,60,2|2,0:0|0:0,0:0:0:0:
265,55,127320,2,0,P|260:25|243:0,1,60,2|2,1:2|0:0,0:0:0:0:
345,47,127551,2,0,P|371:33|389:9,1,60,2|2,0:0|0:0,0:0:0:0:
377,119,127782,6,0,L|500:145,1,120,10|2,0:0|0:0,0:0:0:0:
473,222,128128,1,2,0:0:0:0:
473,222,128243,2,0,B|486:255|486:255|476:291,1,60,2|2,1:2|0:0,0:0:0:0:
380,294,128474,2,0,B|367:261|367:261|377:225,1,60,2|2,0:0|0:0,0:0:0:0:
427,384,128705,6,0,L|304:358,1,120,10|2,0:0|0:0,0:0:0:0:
249,309,129051,2,0,L|181:322,1,60,2|0,0:0|1:0,0:0:0:0:
117,224,129282,1,2,0:0:0:0:
117,223,129397,2,0,P|113:252|122:281,1,60,2|2,0:0|0:0,0:0:0:0:
188,161,129628,5,10,0:0:0:0:
196,126,129743,1,2,0:0:0:0:
194,89,129859,1,2,0:0:0:0:
177,57,129974,1,2,0:0:0:0:
151,31,130090,2,0,L|82:36,1,60,2|2,1:2|0:0,0:0:0:0:
13,128,130320,2,0,P|23:156|30:185,1,60,2|2,0:0|0:0,0:0:0:0:
13,325,130551,5,10,0:0:0:0:
36,322,130666,1,2,0:0:0:0:
59,319,130782,1,2,0:0:0:0:
82,316,130897,1,2,0:0:0:0:
107,313,131013,2,0,B|214:313|174:361|276:361,1,180,2|0,1:2|0:0,0:0:0:0:
297,287,131474,6,0,P|294:257|279:231,1,60,10|2,0:0|0:0,0:0:0:0:
371,231,131705,2,0,P|395:213|410:188,1,60,2|2,0:0|0:0,0:0:0:0:
456,267,131936,2,0,P|482:279|512:279,1,60,2|2,1:2|0:0,0:0:0:0:
490,107,132166,1,2,0:0:0:0:
465,108,132282,1,2,0:0:0:0:
441,109,132397,1,10,0:0:0:0:
416,110,132513,1,2,0:0:0:0:
392,111,132628,2,0,L|332:113,1,60,2|2,0:0|0:0,0:0:0:0:
256,0,132859,5,0,1:2:0:0:
241,33,132974,1,2,1:2:0:0:
256,66,133090,1,10,0:0:0:0:
271,33,133205,1,10,0:0:0:0:
256,0,133320,1,10,0:0:0:0:
178,219,133551,5,10,0:0:0:0:
144,230,133666,2,0,P|120:211|95:194,1,60,2|0,0:0|1:0,0:0:0:0:
328,230,133898,5,10,0:0:0:0:
360,247,134013,2,0,P|363:277|367:307,1,60,2|8,0:0|0:0,0:0:0:0:
219,117,134244,5,10,0:0:0:0:
204,85,134359,2,0,P|219:59|233:32,1,60,2|8,0:0|0:0,0:0:0:0:
241,273,134590,5,10,0:0:0:0:
234,308,134705,2,0,P|207:320|180:333,1,60,4|8,1:2|0:0,0:0:0:0:
315,134,134936,5,10,0:0:0:0:
341,110,135051,1,10,0:0:0:0:
367,86,135166,2,0,P|396:92|426:97,1,60,14|0,0:0|0:0,0:0:0:0:
466,205,135397,5,2,0:0:0:0:
473,240,135513,1,2,0:0:0:0:
479,275,135628,2,0,P|421:286|361:292,1,120,2|2,1:2|0:0,0:0:0:0:
269,317,135974,1,2,0:0:0:0:
234,308,136090,2,0,P|236:291|239:230,1,60,10|2,0:0|0:0,0:0:0:0:
160,97,136320,5,2,0:0:0:0:
162,133,136436,1,2,0:0:0:0:
164,168,136551,2,0,P|104:158|45:151,1,120,2|2,1:2|0:0,0:0:0:0:
9,265,136897,1,2,0:0:0:0:
16,300,137013,6,0,P|46:297|76:293,1,60,10|0,0:0|0:0,0:0:0:0:
227,273,137243,1,0,0:0:0:0:
234,308,137359,2,0,P|263:305|293:301,1,60,2|0,0:0|1:0,0:0:0:0:
444,281,137589,1,2,0:0:0:0:
451,316,137705,2,0,P|480:313|510:309,1,60,2|0,0:0|0:0,0:0:0:0:
367,360,137936,2,0,P|370:300|368:240,1,120,10|2,0:0|1:2,0:0:0:0:
286,42,138397,5,2,1:2:0:0:
250,34,138513,1,0,0:0:0:0:
214,41,138628,1,2,0:0:0:0:
185,62,138743,1,2,0:0:0:0:
172,95,138859,2,0,P|175:155|173:215,1,120,10|2,0:0|0:0,0:0:0:0:
19,353,139320,5,2,1:2:0:0:
10,317,139436,1,2,0:0:0:0:
26,285,139551,1,2,0:0:0:0:
61,278,139666,1,2,0:0:0:0:
93,293,139782,2,0,L|172:286,1,60,8|2,0:0|0:0,0:0:0:0:
224,345,140013,5,2,0:0:0:0:
259,340,140128,1,2,0:0:0:0:
287,317,140243,2,0,P|291:258|287:198,1,120,2|2,1:2|0:0,0:0:0:0:
333,122,140590,1,2,0:0:0:0:
368,124,140705,6,0,L|476:132,1,60,10|0,0:0|0:0,0:0:0:0:
225,138,140936,1,2,0:0:0:0:
227,103,141051,2,0,L|235:-5,1,60,2|0,0:0|1:0,0:0:0:0:
120,108,141282,1,2,0:0:0:0:
85,106,141397,2,0,L|-23:98,1,60,2|0,0:0|0:0,0:0:0:0:
169,241,141628,2,0,B|188:301|188:301|173:356,1,120,10|2,0:0|1:2,0:0:0:0:
91,303,141974,1,2,0:0:0:0:
91,303,142090,5,2,1:2:0:0:
55,296,142205,1,2,0:0:0:0:
26,274,142320,1,2,0:0:0:0:
10,241,142436,1,2,0:0:0:0:
7,204,142551,2,0,P|62:181|121:174,1,120,14|2,0:0|0:0,0:0:0:0:
206,131,142897,1,2,0:0:0:0:
206,131,143013,5,2,1:2:0:0:
241,135,143128,1,2,0:0:0:0:
276,142,143243,1,2,0:0:0:0:
310,152,143359,1,2,0:0:0:0:
342,166,143474,2,0,B|354:105|354:105|336:31,1,120,10|2,0:0|0:0,0:0:0:0:
264,5,143820,1,2,0:0:0:0:
264,5,143936,5,2,1:2:0:0:
228,7,144051,1,2,0:0:0:0:
192,9,144166,1,2,0:0:0:0:
155,11,144282,1,2,0:0:0:0:
118,13,144397,2,0,P|128:71|132:131,1,120,10|2,0:0|0:0,0:0:0:0:
190,210,144743,1,2,0:0:0:0:
190,210,144859,6,0,P|184:239|177:268,1,60,2|0,1:2|0:0,0:0:0:0:
254,291,145090,2,0,P|261:262|268:233,1,60,2|0,0:0|0:0,0:0:0:0:
95,110,145320,2,0,P|101:139|108:168,1,60,10|0,0:0|0:0,0:0:0:0:
30,191,145551,2,0,P|22:161|16:132,1,60,2|0,0:0|0:0,0:0:0:0:
74,382,145782,2,0,P|44:374|15:368,1,60,2|0,1:2|0:0,0:0:0:0:
37,291,146013,2,0,P|66:297|95:304,1,60,2|0,0:0|0:0,0:0:0:0:
205,133,146243,5,14,0:0:0:0:
252,124,146359,1,8,0:0:0:0:
297,137,146474,1,10,0:0:0:0:
327,174,146590,1,10,0:0:0:0:
345,217,146704,1,2,1:2:0:0:
375,254,146820,1,10,0:0:0:0:
420,267,146936,1,10,0:0:0:0:
467,258,147051,1,10,0:0:0:0:
503,227,147166,5,14,0:0:0:0:
319,41,147628,2,0,L|264:31,3,48,14|10|10|10,0:0|0:0|0:0|0:0,0:0:0:0:
194,78,148090,5,10,0:0:0:0:
194,78,148205,1,2,0:0:0:0:
194,78,148320,2,0,L|200:122,1,35.9999989013672,2|2,0:0|0:0,0:0:0:0:
114,89,148666,5,2,0:0:0:0:
114,89,148781,2,0,L|120:133,1,35.9999989013672,0|2,0:0|0:0,0:0:0:0:
34,100,149128,5,2,0:0:0:0:
34,100,149243,2,0,L|40:144,1,35.9999989013672,10|2,0:0|0:0,0:0:0:0:
194,78,149474,2,0,L|200:122,3,35.9999989013672,2|2|2|2,1:2|0:0|0:0|0:0,0:0:0:0:
265,172,149936,5,2,0:0:0:0:
265,172,150051,2,0,L|259:216,1,35.9999989013672,2|0,0:0|0:0,0:0:0:0:
345,183,150282,1,2,0:0:0:0:
345,183,150397,2,0,L|339:227,1,35.9999989013672,2|0,1:2|0:0,0:0:0:0:
425,194,150628,1,2,0:0:0:0:
425,194,150743,2,0,L|419:238,1,35.9999989013672,10|0,0:0|0:0,0:0:0:0:
505,205,150974,1,2,0:0:0:0:
505,205,151090,1,10,0:0:0:0:
505,205,151205,1,2,0:0:0:0:
505,205,151320,2,0,L|499:249,1,35.9999989013672,2|2,1:2|0:0,0:0:0:0:
345,183,151551,2,0,L|340:218,1,35.9999989013672,2|2,0:0|0:0,0:0:0:0:
268,271,151782,5,10,0:0:0:0:
268,271,151897,1,2,0:0:0:0:
268,271,152013,2,0,L|274:315,1,35.9999989013672,2|2,0:0|0:0,0:0:0:0:
188,282,152359,5,2,0:0:0:0:
188,282,152474,2,0,L|194:326,1,35.9999989013672,2|2,0:0|0:0,0:0:0:0:
108,293,152820,5,2,0:0:0:0:
108,293,152935,2,0,L|114:337,1,35.9999989013672,10|2,0:0|0:0,0:0:0:0:
268,271,153166,2,0,L|274:315,3,35.9999989013672,2|0|2|2,1:2|0:0|0:0|0:0,0:0:0:0:
352,335,153628,5,2,0:0:0:0:
352,335,153743,2,0,L|346:379,1,35.9999989013672,2|0,0:0|0:0,0:0:0:0:
432,346,153974,1,2,0:0:0:0:
432,346,154089,2,0,L|426:390,1,35.9999989013672,2|0,1:2|0:0,0:0:0:0:
512,357,154320,1,2,0:0:0:0:
512,357,154436,2,0,L|501:282,1,71.9999978027344,10|2,0:0|0:0,0:0:0:0:
439,214,154782,5,10,0:0:0:0:
422,190,154897,1,2,0:0:0:0:
419,161,155013,1,2,1:2:0:0:
432,135,155128,1,2,0:0:0:0:
455,118,155243,1,10,0:0:0:0:
473,95,155359,1,2,0:0:0:0:
474,66,155474,5,10,0:0:0:0:
474,66,155590,2,0,L|408:52,1,35.9999989013672,2|0,0:0|0:0,0:0:0:0:
360,63,155820,1,2,0:0:0:0:
360,63,155936,2,0,L|294:49,1,35.9999989013672,2|0,1:2|0:0,0:0:0:0:
246,60,156166,1,2,0:0:0:0:
246,60,156282,2,0,L|180:46,1,35.9999989013672,2|0,0:0|0:0,0:0:0:0:
132,57,156513,5,2,0:0:0:0:
132,57,156628,1,2,0:0:0:0:
132,57,156743,1,2,0:0:0:0:
132,57,156859,2,0,L|66:43,1,35.9999989013672,2|2,1:2|0:0,0:0:0:0:
360,63,157090,2,0,L|324:55,1,35.9999989013672,2|2,0:0|0:0,0:0:0:0:
42,151,157320,5,10,0:0:0:0:
42,151,157436,2,0,L|108:137,1,35.9999989013672,2|0,0:0|0:0,0:0:0:0:
156,148,157666,1,2,0:0:0:0:
156,148,157782,2,0,L|222:134,1,35.9999989013672,2|0,1:2|0:0,0:0:0:0:
270,145,158013,1,2,0:0:0:0:
270,145,158128,2,0,L|336:131,1,35.9999989013672,2|0,0:0|0:0,0:0:0:0:
384,142,158359,5,2,0:0:0:0:
384,142,158474,1,2,0:0:0:0:
384,142,158590,1,2,0:0:0:0:
384,142,158705,2,0,L|450:128,1,35.9999989013672,2|0,1:2|0:0,0:0:0:0:
156,148,158936,2,0,L|191:140,1,35.9999989013672,2|2,0:0|0:0,0:0:0:0:
474,241,159166,5,10,0:0:0:0:
474,241,159282,1,2,0:0:0:0:
474,241,159397,2,0,L|408:227,1,35.9999989013672,2|2,0:0|0:0,0:0:0:0:
360,238,159743,5,2,0:0:0:0:
360,238,159859,2,0,L|294:224,1,35.9999989013672,2|2,0:0|0:0,0:0:0:0:
246,235,160205,5,2,0:0:0:0:
246,235,160320,2,0,L|180:221,1,35.9999989013672,2|2,0:0|0:0,0:0:0:0:
132,232,160551,2,0,L|66:218,1,35.9999989013672,2|2,1:2|0:0,0:0:0:0:
360,238,160782,2,0,L|324:230,1,35.9999989013672,2|2,0:0|0:0,0:0:0:0:
161,355,161013,5,10,0:0:0:0:
189,349,161128,1,2,0:0:0:0:
231,354,161243,1,2,0:0:0:0:
259,348,161358,1,2,0:0:0:0:
301,353,161474,2,0,L|336:345,1,35.9999989013672,2|2,1:2|0:0,0:0:0:0:
474,241,161705,2,0,L|438:233,1,35.9999989013672,2|2,0:0|0:0,0:0:0:0:
345,73,161936,5,10,0:0:0:0:
344,87,162051,1,10,0:0:0:0:
340,122,162166,1,10,0:0:0:0:
339,136,162281,1,10,0:0:0:0:
335,171,162397,2,2,L|360:165,6,17.9999994506836,6|0|0|0|0|0|0,1:2|0:0|0:0|0:0|0:0|0:0|0:0,0:1:0:0:
246,235,162859,6,0,P|216:219|186:206,1,66.0000020141602,14|0,0:0|0:0,0:0:0:0:
91,86,163090,1,2,0:0:0:0:
72,79,163205,1,2,0:0:0:0:
64,158,163320,2,0,P|127:154|167:103,1,132.00000402832,2|2,1:2|0:0,0:0:0:0:
258,31,163666,1,2,0:0:0:0:
276,23,163782,2,0,L|283:139,1,66.0000020141602,10|0,0:0|0:0,0:0:0:0:
389,207,164013,1,2,0:0:0:0:
458,174,164128,2,0,P|409:132|345:141,1,132.00000402832,2|0,0:0|0:0,0:0:0:0:
169,291,164474,1,2,0:0:0:0:
165,270,164590,6,0,P|230:261|294:247,1,132.00000402832,2|0,0:0|0:0,0:0:0:0:
337,308,164936,2,0,L|260:287,1,66.0000020141602,2|0,0:0|0:0,0:0:0:0:
87,231,165166,2,0,B|76:258|76:258|83:312,1,66.0000020141602,2|0,1:2|0:0,0:0:0:0:
200,178,165397,2,0,L|213:97,1,66.0000020141602,2|0,0:0|0:0,0:0:0:0:
112,26,165628,2,0,P|81:37|49:44,1,66.0000020141602,10|0,0:0|0:0,0:0:0:0:
284,90,165859,1,2,0:0:0:0:
279,70,165974,2,0,B|310:62|310:62|361:74,1,66.0000020141602,2|0,0:0|1:0,0:0:0:0:
445,33,166205,2,0,L|509:19,1,66.0000020141602,2|0,0:0|0:0,0:0:0:0:
408,235,166436,6,0,P|399:169|415:106,1,132.00000402832,2|0,0:0|0:0,0:0:0:0:
511,149,166782,1,2,0:0:0:0:
512,167,166897,2,0,P|509:199|498:230,1,66.0000020141602,2|0,0:0|1:0,0:0:0:0:
492,358,167128,2,0,P|481:326|462:299,1,66.0000020141602,2|0,0:0|0:0,0:0:0:0:
295,223,167359,2,0,L|120:194,1,132.00000402832,2|0,0:0|0:0,0:0:0:0:
62,265,167705,2,0,B|96:274|96:274|125:264,1,66.0000020141602,2|0,0:0|0:0,0:0:0:0:
169,128,167936,2,0,L|160:40,1,66.0000020141602,2|0,1:2|0:0,0:0:0:0:
46,267,168166,2,0,L|37:355,1,66.0000020141602,2|0,0:0|0:0,0:0:0:0:
0,139,168397,6,0,L|65:149,1,66.0000020141602,10|0,0:0|0:0,0:0:0:0:
200,238,168628,1,2,0:0:0:0:
255,182,168743,2,0,L|320:171,1,66.0000020141602,2|0,0:0|1:0,0:0:0:0:
441,252,168974,2,0,B|452:287|452:287|443:314,1,66.0000020141602,2|0,0:0|0:0,0:0:0:0:
410,156,169205,2,0,P|421:90|427:25,1,132.00000402832,2|0,0:0|0:0,0:0:0:0:
500,27,169551,2,0,L|434:37,1,66.0000020141602,2|0,0:0|0:0,0:0:0:0:
247,92,169782,1,2,1:2:0:0:
410,156,170013,1,2,0:0:0:0:
175,0,170243,6,0,B|170:23|170:23|177:78,1,66.0000020141602,14|0,0:0|0:0,0:0:0:0:
115,226,170474,1,2,0:0:0:0:
120,206,170590,1,2,0:0:0:0:
177,266,170705,2,0,P|122:300|62:278,1,132.00000402832,2|2,1:2|0:0,0:0:0:0:
23,136,171051,1,0,0:0:0:0:
42,141,171166,2,0,B|50:75,1,66.0000020141602,10|0,0:0|0:0,0:0:0:0:
261,149,171397,1,2,0:0:0:0:
193,106,171513,2,0,B|191:133|180:157|180:157|204:200|207:230,1,132.00000402832,2|0,0:0|0:0,0:0:0:0:
366,305,171858,1,2,0:0:0:0:
369,285,171974,6,0,P|309:264|259:304,1,132.00000402832,2|0,0:0|0:0,0:0:0:0:
200,358,172320,2,0,P|167:356|140:337,1,66.0000020141602,2|0,0:0|0:0,0:0:0:0:
46,248,172551,2,0,P|78:246|105:227,1,66.0000020141602,2|0,1:2|0:0,0:0:0:0:
193,106,172782,2,0,L|185:29,1,66.0000020141602,2|0,0:0|0:0,0:0:0:0:
0,128,173013,2,0,B|43:90|98:108|98:108|117:73,1,132.00000402832,10|2,0:0|0:0,0:0:0:0:
271,60,173359,1,0,0:0:0:0:
289,66,173474,2,0,L|281:143,1,66.0000020141602,2|0,1:2|0:0,0:0:0:0:
198,281,173705,2,0,L|190:204,1,66.0000020141602,2|0,0:0|0:0,0:0:0:0:
402,137,173936,6,0,P|434:134|466:126,1,66.0000020141602,10|0,0:0|0:0,0:0:0:0:
326,314,174166,2,0,P|325:346|319:379,1,66.0000020141602,2|0,0:0|0:0,0:0:0:0:
512,213,174397,2,0,P|447:227|381:233,1,132.00000402832,2|2,1:2|0:0,0:0:0:0:
198,281,174743,1,2,0:0:0:0:
180,272,174859,2,0,P|147:264|115:260,1,66.0000020141602,10|0,0:0|0:0,0:0:0:0:
150,64,175090,2,0,P|182:71|214:75,1,66.0000020141602,2|0,0:0|0:0,0:0:0:0:
61,183,175320,2,0,P|68:150|72:118,1,66.0000020141602,2|0,1:2|0:0,0:0:0:0:
269,153,175551,2,0,P|261:185|257:217,1,66.0000020141602,2|0,0:0|0:0,0:0:0:0:
134,35,175782,6,0,L|58:45,1,66.0000020141602,10|0,0:0|0:0,0:0:0:0:
278,0,176013,1,2,0:0:0:0:
278,0,176128,1,2,0:0:0:0:
278,0,176243,1,6,1:2:0:0:
317,3,176358,1,0,0:0:0:0:
353,17,176473,1,2,0:0:0:0:
381,44,176589,1,0,0:0:0:0:
398,79,176705,6,0,B|385:109|385:109|381:149,1,66.0000020141602,10|2,0:0|0:0,0:0:0:0:
144,131,176936,2,0,B|157:161|157:161|161:201,1,66.0000020141602,10|2,0:0|0:0,0:0:0:0:
282,345,177166,1,2,1:2:0:0:
292,306,177282,1,10,0:0:0:0:
275,270,177397,1,2,1:2:0:0:
285,231,177513,1,2,1:2:0:0:
267,152,177628,5,14,0:0:0:0:
143,353,177859,1,2,0:0:0:0:
169,296,177974,1,10,0:0:0:0:
3,152,178205,1,2,0:0:0:0:
15,214,178320,2,0,B|59:218|59:218|75:226|75:226|108:230,1,96,2|0,0:0|0:0,0:0:0:0:
180,172,178666,1,2,0:0:0:0:
180,172,178782,2,0,L|250:158,1,48,2|2,0:0|0:0,0:0:0:0:
163,90,179013,2,0,L|67:77,1,96,2|8,1:2|0:0,0:0:0:0:
309,18,179474,5,10,0:0:0:0:
476,115,179705,1,2,0:0:0:0:
463,175,179820,1,10,0:0:0:0:
312,244,180051,1,2,0:0:0:0:
323,306,180166,2,0,P|370:312|417:323,1,96,10|0,0:0|0:0,0:0:0:0:
464,267,180513,1,2,0:0:0:0:
464,267,180628,2,0,P|487:261|509:251,1,48,2|2,0:0|0:0,0:0:0:0:
366,223,180859,2,0,P|342:217|320:207,2,48,2|2|2,1:2|0:0|0:0,0:0:0:0:
326,128,181205,6,0,P|270:146|240:197,1,120,14|0,0:0|0:0,0:0:0:0:
144,282,181551,2,0,L|203:272,1,60,2|0,0:0|0:0,0:0:0:0:
103,183,181782,1,2,1:2:0:0:
79,178,181897,1,2,0:0:0:0:
55,173,182013,1,2,0:0:0:0:
31,168,182128,6,0,B|12:131|12:131|59:45,1,120,2|0,0:0|0:0,0:0:0:0:
156,1,182474,2,0,P|167:28|168:58,1,60,2|2,0:0|0:0,0:0:0:0:
206,220,182705,1,2,1:2:0:0:
230,215,182820,1,2,0:0:0:0:
254,210,182936,1,2,0:0:0:0:
279,205,183051,6,0,B|357:221|321:244|385:255,1,120,10|0,0:0|0:0,0:0:0:0:
447,368,183397,2,0,B|440:335|440:335|447:309,1,60,2|2,0:0|0:0,0:0:0:0:
512,227,183628,1,6,1:2:0:0:
321,90,183859,1,10,0:0:0:0:
341,60,183974,1,10,0:0:0:0:
373,46,184090,2,0,P|314:44|255:32,1,120,14|10,0:0|0:0,0:0:0:0:
114,126,184436,1,10,0:0:0:0:
81,112,184552,2,0,P|140:110|199:98,1,120,6|2,1:2|0:0,0:0:0:0:
2,6,185013,6,0,P|10:34|17:63,1,60,14|0,0:0|0:0,0:0:0:0:
36,242,185243,1,2,0:0:0:0:
53,247,185359,2,0,P|61:218|68:189,1,60,2|0,0:0|1:0,0:0:0:0:
199,97,185590,1,2,0:0:0:0:
216,99,185705,2,0,L|303:109,1,60,2|0,0:0|0:0,0:0:0:0:
408,209,185936,5,8,0:0:0:0:
408,209,186051,1,2,0:0:0:0:
376,192,186166,1,2,0:0:0:0:
340,191,186282,1,2,0:0:0:0:
309,208,186397,1,2,1:2:0:0:
288,237,186513,1,2,0:0:0:0:
283,272,186628,1,2,0:0:0:0:
296,305,186743,1,2,0:0:0:0:
322,329,186859,6,0,P|331:301|340:272,1,60,10|0,0:0|0:0,0:0:0:0:
189,264,187090,1,2,0:0:0:0:
187,246,187205,2,0,P|178:217|168:188,1,60,2|0,0:0|1:0,0:0:0:0:
323,106,187436,1,2,0:0:0:0:
325,88,187551,2,0,P|333:59|343:30,1,60,2|0,0:0|0:0,0:0:0:0:
167,104,187782,2,0,L|47:95,1,120,10|2,0:0|0:0,0:0:0:0:
9,162,188128,1,0,0:0:0:0:
9,162,188243,5,2,1:2:0:0:
44,169,188359,1,0,0:0:0:0:
74,187,188474,1,10,0:0:0:0:
95,216,188590,1,10,0:0:0:0:
104,249,188705,6,0,P|109:279|111:309,1,60,14|0,0:0|0:0,0:0:0:0:
178,209,188936,2,0,P|189:268|194:328,1,120,2|0,0:0|1:0,0:0:0:0:
318,328,189282,1,2,0:0:0:0:
318,328,189397,2,0,P|322:268|333:209,1,120,2|10,0:0|0:0,0:0:0:0:
400,309,189743,2,0,P|402:279|407:249,1,60,2|0,0:0|0:0,0:0:0:0:
372,106,189974,1,2,0:0:0:0:
371,106,190090,2,0,P|343:116|316:130,1,60,10|8,1:2|0:0,0:0:0:0:
141,106,190320,2,0,P|168:116|195:130,1,60,10|8,0:0|0:0,0:0:0:0:
371,106,190551,5,14,0:0:0:0:
324,51,190666,1,10,0:0:0:0:
256,26,190782,1,10,0:0:0:0:
188,51,190897,1,10,0:0:0:0:
141,106,191013,2,0,P|153:133|162:162,1,60,10|10,1:2|0:0,0:0:0:0:
370,106,191243,2,0,P|358:133|349:162,1,60,10|10,0:0|0:0,0:0:0:0:
256,384,191474,5,10,0:0:0:0:
202,335,191590,1,8,0:0:0:0:
256,288,191705,1,10,0:0:0:0:
310,335,191820,1,8,0:0:0:0:
256,384,191936,1,14,1:2:0:0:
256,384,192166,1,10,0:0:0:0:
255,383,193551,6,0,P|252:348|246:312,2,71.9999978027344,2|0|2,0:0|0:0|0:0,0:0:0:0:
337,290,194243,2,0,P|390:294|443:305,1,107.999996704102,10|2,0:0|0:0,0:0:0:0:
443,305,194936,1,0,0:0:0:0:
480,235,195166,1,10,0:0:0:0:
435,168,195397,2,0,P|437:133|444:97,2,71.9999978027344,0|2|0,0:0|1:2|0:0,0:0:0:0:
317,199,196090,6,0,P|281:200|245:203,1,71.9999978027344,10|2,0:0|0:0,0:0:0:0:
230,187,196436,2,0,P|194:185|158:182,1,71.9999978027344,2|2,0:0|0:0,0:0:0:0:
158,182,197013,1,10,0:0:0:0:
59,268,197474,2,0,P|62:303|65:339,1,71.9999978027344,2|0,1:2|0:0,0:0:0:0:
139,368,197936,5,10,0:0:0:0:
212,340,198166,1,2,0:0:0:0:
291,335,198397,2,0,P|326:337|361:345,1,71.9999978027344,2|0,1:2|0:0,0:0:0:0:
425,265,198859,5,10,0:0:0:0:
352,237,199090,1,2,0:0:0:0:
273,232,199320,2,0,P|237:234|202:242,1,71.9999978027344,2|2,1:2|0:0,0:0:0:0:
123,229,199782,5,10,0:0:0:0:
187,48,200128,1,2,0:0:0:0:
187,48,200243,2,0,P|203:99|207:137,2,71.9999978027344,2|2|10,1:2|0:0|0:0,0:0:0:0:
36,196,201166,2,0,P|75:232|97:263,1,71.9999978027344,2|2,0:0|0:0,0:0:0:0:
152,330,201628,6,0,P|198:316|245:309,1,96,10|0,0:0|0:0,0:0:0:0:
263,280,201974,2,0,P|310:279|358:284,1,96,10|0,0:0|0:0,0:0:0:0:
390,295,202320,1,10,0:0:0:0:
476,337,202551,1,10,0:0:0:0:
468,240,202782,2,0,P|469:193|476:145,2,96,2|10|2,0:0|0:0|0:0,0:0:0:0:
390,295,203474,5,10,0:0:0:0:
348,213,203705,1,2,0:0:0:0:
348,213,203820,2,0,P|301:204|254:194,1,96,10|2,0:0|0:0,0:0:0:0:
254,194,204397,1,10,0:0:0:0:
155,365,204859,2,0,P|148:317|141:269,1,96,10|2,0:0|0:0,0:0:0:0:
67,208,205320,5,10,0:0:0:0:
50,113,205551,1,2,0:0:0:0:
139,146,205782,2,0,P|145:98|152:50,1,96,10|2,0:0|0:0,0:0:0:0:
278,22,206243,5,10,0:0:0:0:
261,117,206474,1,2,0:0:0:0:
350,84,206705,2,0,P|356:131|363:179,1,96,10|2,0:0|0:0,0:0:0:0:
256,192,207166,12,0,208551,0:0:0:0:
305,197,209013,5,14,0:0:0:0:
256,192,209129,1,10,0:0:0:0:
208,185,209244,1,10,0:0:0:0:
236,145,209359,5,14,0:0:0:0:
266,106,209474,1,10,0:0:0:0:
296,67,209590,1,10,0:0:0:0:
317,112,209705,5,14,0:0:0:0:
335,157,209820,1,10,0:0:0:0:
353,201,209936,2,0,P|361:234|363:267,1,66.0000020141602,14|10,0:0|0:0,0:0:0:0:
158,201,210166,2,0,P|150:234|148:267,1,66.0000020141602,10|10,0:0|0:0,0:0:0:0:
419,161,210397,2,0,P|434:190|444:221,1,66.0000020141602,2|2,1:2|1:2,0:0:0:0:
93,161,210628,2,0,P|77:190|67:221,1,66.0000020141602,2|2,1:2|1:2,0:0:0:0:
256,384,210859,6,0,P|259:306|256:228,1,155.999992858887,14|0,0:0|0:0,0:0:0:0:
206,91,211205,2,0,P|168:81|129:74,1,77.9999964294435,2|0,0:0|1:0,0:0:0:0:
256,152,211436,1,2,0:0:0:0:
306,91,211551,2,0,P|343:81|382:74,1,77.9999964294435,2|0,0:0|0:0,0:0:0:0:
256,0,211782,1,10,0:0:0:0:
160,192,212013,1,2,0:0:0:0:
256,384,212243,1,2,1:2:0:0:
352,192,212474,1,2,0:0:0:0:
113,126,212705,6,0,P|74:118|38:105,1,77.9999964294435,10|0,0:0|0:0,0:0:0:0:
160,192,212936,1,2,0:0:0:0:
113,258,213051,2,0,P|74:265|38:278,1,77.9999964294435,2|0,0:0|1:0,0:0:0:0:
256,192,213282,2,0,L|448:192,1,155.999992858887,2|0,0:0|0:0,0:0:0:0:
512,192,213628,1,10,0:0:0:0:
256,288,213859,1,2,0:0:0:0:
0,192,214089,1,2,1:2:0:0:
256,96,214320,1,2,0:0:0:0:
346,277,214551,6,0,L|326:366,1,77.9999964294435,10|0,0:0|0:0,0:0:0:0:
166,277,214782,2,0,L|186:366,1,77.9999964294435,2|2,0:0|0:0,0:0:0:0:
387,250,215013,2,0,L|298:230,1,77.9999964294435,2|0,1:2|0:0,0:0:0:0:
125,250,215243,2,0,L|214:230,1,77.9999964294435,2|0,0:0|0:0,0:0:0:0:
435,185,215474,2,0,L|452:108,1,77.9999964294435,10|0,0:0|0:0,0:0:0:0:
77,185,215705,2,0,L|59:108,1,77.9999964294435,2|0,0:0|0:0,0:0:0:0:
492,80,215936,2,0,L|415:62,1,77.9999964294435,2|0,1:2|0:0,0:0:0:0:
19,81,216166,2,0,L|95:63,1,77.9999964294435,2|0,0:0|0:0,0:0:0:0:
315,81,216397,6,0,P|332:46|329:7,1,77.9999964294435,10|0,0:0|0:0,0:0:0:0:
256,32,216628,1,2,0:0:0:0:
196,81,216743,2,0,P|179:46|182:7,1,77.9999964294435,2|0,0:0|1:0,0:0:0:0:
256,130,216974,2,0,B|228:166|253:201|256:203|258:205|283:240|256:276,1,155.999992858887,2|0,0:0|0:0,0:0:0:0:
214,384,217320,6,0,P|256:299|298:384,1,233.999989288331,10|0,0:0|0:0,0:0:0:0:
380,311,217782,1,2,1:2:0:0:
132,311,218013,1,2,0:0:0:0:
334,185,218243,6,0,B|346:150|346:150|311:99|308:37,1,155.999992858887,14|0,0:0|0:0,0:0:0:0:
203,38,218590,2,0,B|201:99|166:150|166:150|178:185,1,155.999992858887,2|0,0:0|0:0,0:0:0:0:
256,302,218936,2,0,L|256:224,1,77.9999964294435,2|0,0:0|0:0,0:0:0:0:
256,144,219166,1,10,0:0:0:0:
256,384,219397,1,2,0:0:0:0:
64,192,219628,1,2,1:2:0:0:
448,192,219859,1,2,0:0:0:0:
179,341,220090,6,0,L|158:265,1,77.9999964294435,10|0,0:0|0:0,0:0:0:0:
256,384,220320,1,2,0:0:0:0:
333,341,220436,2,0,L|353:265,1,77.9999964294435,2|0,0:0|1:0,0:0:0:0:
319,101,220666,2,0,B|298:131|256:142|256:142|213:131|192:99,1,155.999992858887,2|0,0:0|0:0,0:0:0:0:
256,32,221013,1,10,0:0:0:0:
256,224,221243,1,2,0:0:0:0:
106,103,221474,1,2,1:2:0:0:
406,103,221705,1,2,0:0:0:0:
34,69,221936,6,0,P|63:43|98:25,1,77.9999964294435,10|0,0:0|0:0,0:0:0:0:
478,69,222166,2,0,P|449:43|414:25,1,77.9999964294435,2|2,0:0|0:0,0:0:0:0:
106,103,222397,2,0,P|123:137|149:166,1,77.9999964294435,2|0,1:2|0:0,0:0:0:0:
406,103,222628,2,0,P|388:137|362:166,1,77.9999964294435,2|0,0:0|0:0,0:0:0:0:
150,263,222859,6,0,P|184:245|213:219,1,77.9999964294435,10|0,0:0|0:0,0:0:0:0:
362,263,223090,2,0,P|327:245|298:219,1,77.9999964294435,2|0,0:0|0:0,0:0:0:0:
196,331,223320,2,0,B|235:301|255:281|255:281|275:301|315:331,1,155.999992858887,2|2,1:2|0:0,0:0:0:0:
256,376,223666,1,2,0:0:0:0:
256,384,223782,5,10,0:0:0:0:
64,192,224013,1,2,0:0:0:0:
256,0,224243,1,6,1:2:0:0:
448,192,224474,5,10,0:0:0:0:
398,252,224590,1,10,0:0:0:0:
332,293,224705,1,14,0:0:0:0:
256,315,224820,1,8,0:0:0:0:
180,293,224936,1,10,0:0:0:0:
114,252,225051,1,8,0:0:0:0:
64,192,225166,1,6,1:2:0:0:
256,185,225397,5,2,1:2:0:0:
256,192,225512,1,2,1:2:0:0:
190,143,225628,6,0,P|255:107|321:142,1,155.999992858887,14|0,0:0|0:0,0:0:0:0:
359,220,225974,2,0,P|343:255|332:293,1,77.9999964294435,2|0,0:0|1:0,0:0:0:0:
256,333,226205,1,2,0:0:0:0:
180,293,226320,2,0,P|168:255|152:220,1,77.9999964294435,2|0,0:0|0:0,0:0:0:0:
256,51,226551,1,10,0:0:0:0:
448,192,226782,1,2,0:0:0:0:
256,333,227013,1,2,1:2:0:0:
64,192,227243,1,2,0:0:0:0:
171,15,227474,6,0,P|181:52|188:90,1,77.9999964294435,10|0,0:0|0:0,0:0:0:0:
256,51,227705,1,2,0:0:0:0:
341,15,227820,2,0,P|330:52|323:90,1,77.9999964294435,2|0,0:0|1:0,0:0:0:0:
226,206,228051,2,0,B|211:162|256:144|256:144|300:162|285:206,1,155.999992858887,2|0,0:0|0:0,0:0:0:0:
256,280,228397,1,10,0:0:0:0:
96,192,228628,1,2,0:0:0:0:
256,104,228859,1,2,1:2:0:0:
416,192,229090,1,2,0:0:0:0:
175,370,229320,6,0,B|168:349|168:349|178:294,1,77.9999964294435,10|0,0:0|0:0,0:0:0:0:
337,370,229551,2,0,B|344:349|344:349|333:294,1,77.9999964294435,2|2,0:0|0:0,0:0:0:0:
102,290,229782,2,0,B|123:283|123:283|177:293,1,77.9999964294435,2|0,1:2|0:0,0:0:0:0:
410,290,230013,2,0,B|389:283|389:283|334:293,1,77.9999964294435,2|0,0:0|0:0,0:0:0:0:
132,207,230243,2,0,B|139:186|139:186|128:131,1,77.9999964294435,10|0,0:0|0:0,0:0:0:0:
380,207,230474,2,0,B|373:186|373:186|383:131,1,77.9999964294435,2|0,0:0|0:0,0:0:0:0:
52,134,230705,2,0,B|73:141|73:141|128:131,1,77.9999964294435,2|0,1:2|0:0,0:0:0:0:
459,134,230936,2,0,B|438:141|438:141|384:131,1,77.9999964294435,2|0,0:0|0:0,0:0:0:0:
185,67,231166,6,0,B|168:50|168:33|168:33|168:16|185:0,1,77.9999964294435,10|0,0:0|0:0,0:0:0:0:
256,33,231397,1,2,0:0:0:0:
327,67,231513,2,0,B|343:50|343:33|343:33|343:16|327:0,1,77.9999964294435,2|0,0:0|1:0,0:0:0:0:
256,112,231743,2,0,B|243:130|243:130|268:239|268:239|256:257,1,155.999992858887,2|0,0:0|0:0,0:0:0:0:
204,384,232090,6,0,B|186:349|186:349|256:314|256:314|325:349|325:349|308:384,1,233.999989288331,10|0,0:0|0:0,0:0:0:0:
398,316,232551,1,2,1:2:0:0:
114,316,232782,1,2,0:0:0:0:
351,185,233013,6,0,B|374:147|368:108|368:108|330:75|313:32,1,155.999992858887,14|0,0:0|0:0,0:0:0:0:
190,49,233359,2,0,B|182:75|144:108|144:108|138:147|161:185,1,155.999992858887,2|0,0:0|0:0,0:0:0:0:
217,243,233705,2,0,P|255:236|294:243,1,77.9999964294435,2|0,0:0|0:0,0:0:0:0:
256,140,233936,1,10,0:0:0:0:
0,224,234166,1,2,0:0:0:0:
256,308,234397,1,2,1:2:0:0:
512,224,234627,1,2,0:0:0:0:
167,369,234859,6,0,P|156:331|145:294,1,77.9999964294435,10|0,0:0|0:0,0:0:0:0:
345,369,235090,2,0,P|355:331|366:294,1,77.9999964294435,2|0,0:0|0:0,0:0:0:0:
256,32,235320,2,0,L|256:160,1,77.9999964294435,2|0,1:2|0:0,0:0:0:0:
142,192,235551,2,0,B|227:164|256:277|283:164|368:192,1,233.999989288331,2|0,0:0|0:0,0:0:0:0:
448,192,236013,1,2,0:0:0:0:
256,308,236243,1,2,1:2:0:0:
64,192,236474,1,2,0:0:0:0:
256,308,236705,5,10,0:0:0:0:
153,358,236936,1,2,0:0:0:0:
118,339,237051,1,2,0:0:0:0:
78,334,237166,6,0,L|64:267,1,66.0000020141602,2|0,1:2|0:0,0:0:0:0:
141,253,237397,2,0,L|154:317,1,66.0000020141602,2|0,0:0|0:0,0:0:0:0:
434,334,237628,2,0,L|448:267,1,66.0000020141602,10|0,0:0|0:0,0:0:0:0:
371,253,237859,2,0,L|357:317,1,66.0000020141602,2|0,0:0|0:0,0:0:0:0:
216,168,238090,2,0,L|216:102,1,66.0000020141602,2|0,1:2|0:0,0:0:0:0:
295,102,238320,2,0,L|296:168,1,66.0000020141602,2|0,0:0|0:0,0:0:0:0:
256,32,238551,5,10,0:0:0:0:
96,66,238782,1,2,0:0:0:0:
80,102,238897,1,2,0:0:0:0:
50,128,239013,2,0,P|51:160|63:191,1,66.0000020141602,2|0,1:2|0:0,0:0:0:0:
177,324,239243,2,0,P|178:291|190:260,1,66.0000020141602,2|0,0:0|0:0,0:0:0:0:
331,184,239474,5,10,0:0:0:0:
367,199,239590,1,2,0:0:0:0:
405,189,239705,2,0,L|485:181,1,66.0000020141602,2|0,0:0|0:0,0:0:0:0:
395,309,239936,1,2,1:2:0:0:
359,324,240051,1,2,0:0:0:0:
321,314,240167,2,0,L|241:306,1,66.0000020141602,2|0,0:0|0:0,0:0:0:0:
191,70,240397,5,14,0:0:0:0:
321,314,240628,1,2,0:0:0:0:
378,127,240859,1,2,1:2:0:0:
134,257,241090,1,2,0:0:0:0:
181,51,241320,5,10,0:0:0:0:
396,117,241551,1,2,0:0:0:0:
330,332,241782,1,2,1:2:0:0:
115,266,242013,1,2,0:0:0:0:
256,192,242243,5,10,0:0:0:0:
130,365,242474,1,2,0:0:0:0:
96,343,242590,1,2,0:0:0:0:
55,339,242705,2,0,P|47:306|32:277,1,66.0000020141602,2|0,1:2|0:0,0:0:0:0:
194,133,242936,2,0,P|178:162|171:194,1,66.0000020141602,2|0,0:0|0:0,0:0:0:0:
311,313,243166,2,0,P|279:304|246:301,1,66.0000020141602,10|0,0:0|0:0,0:0:0:0:
26,173,243397,2,0,P|57:164|90:161,1,66.0000020141602,2|0,0:0|0:0,0:0:0:0:
291,14,243628,5,2,1:2:0:0:
305,50,243743,1,2,0:0:0:0:
292,87,243859,1,2,0:0:0:0:
306,123,243974,1,2,0:0:0:0:
262,189,244090,6,0,P|287:209|307:236,1,66.0000020141602,14|10,0:0|0:0,0:0:0:0:
505,225,244320,1,10,0:0:0:0:
505,225,244436,2,0,P|472:222|440:213,1,66.0000020141602,10|2,0:0|1:2,0:0:0:0:
397,118,244666,2,0,P|384:148|366:175,1,66.0000020141602,10|10,0:0|0:0,0:0:0:0:
437,361,244897,6,0,P|428:329|428:296,1,66.0000020141602,14|0,0:0|0:0,0:0:0:0:
479,74,245243,2,0,P|487:105|487:138,1,66.0000020141602,14|0,0:0|0:0,0:0:0:0:
437,361,245474,1,2,0:3:0:0:
437,361,245705,1,2,0:3:0:0:
391,287,245936,5,14,0:0:0:0:
370,283,246051,2,0,B|287:288|326:332|242:339,1,143.999995605469,2|2,0:0|0:0,0:0:0:0:
166,360,246397,2,0,B|160:321|178:290,1,71.9999978027344,0|0,1:0|0:0,0:0:0:0:
249,165,246628,2,0,B|255:204|236:234,1,71.9999978027344,2|0,0:0|0:0,0:0:0:0:
145,351,246859,1,10,0:0:0:0:
132,109,247090,1,2,0:0:0:0:
76,302,247320,5,2,1:2:0:0:
122,237,247436,1,2,0:0:0:0:
76,173,247552,1,2,0:0:0:0:
0,198,247667,1,2,0:0:0:0:
0,277,247782,5,10,0:0:0:0:
16,261,247897,2,0,P|82:280|99:346,1,143.999995605469,2|2,0:0|0:0,0:0:0:0:
182,297,248243,2,0,P|216:288|252:286,1,71.9999978027344,0|0,1:0|0:0,0:0:0:0:
216,119,248474,2,0,P|213:83|208:47,1,71.9999978027344,2|0,0:0|0:0,0:0:0:0:
76,173,248705,1,10,0:0:0:0:
334,201,248936,1,2,0:0:0:0:
136,85,249166,1,2,1:2:0:0:
288,64,249397,1,2,0:0:0:0:
202,212,249628,5,10,0:0:0:0:
195,191,249743,2,0,B|218:178|218:178|333:200,1,143.999995605469,2|2,0:0|0:0,0:0:0:0:
410,118,250090,2,0,L|414:189,1,71.9999978027344,0|0,1:0|0:0,0:0:0:0:
479,314,250320,2,0,L|476:243,1,71.9999978027344,2|0,0:0|0:0,0:0:0:0:
316,275,250551,1,10,0:0:0:0:
476,243,250782,1,2,0:0:0:0:
412,368,251013,1,2,1:2:0:0:
384,200,251243,1,2,0:0:0:0:
250,343,251474,6,0,P|218:333|186:327,1,66.0000020141602,10|0,0:0|0:0,0:0:0:0:
46,281,251705,1,2,0:0:0:0:
46,281,251820,2,0,P|107:258|172:244,1,132.00000402832,2|0,0:0|0:0,0:0:0:0:
233,179,252166,1,2,0:0:0:0:
162,347,252397,1,10,0:0:0:0:
53,288,252628,1,2,0:0:0:0:
53,288,252743,1,2,0:0:0:0:
53,288,252859,5,2,1:2:0:0:
67,230,252974,1,2,0:0:0:0:
72,170,253090,1,2,0:0:0:0:
64,111,253205,1,2,0:0:0:0:
41,56,253320,5,14,0:0:0:0:
50,36,253436,2,0,B|111:31|111:31|135:37|135:37|192:32,1,143.999995605469,2|2,0:0|0:0,0:0:0:0:
273,69,253782,2,0,B|353:75,1,71.9999978027344,0|0,1:0|0:0,0:0:0:0:
497,33,254013,2,0,B|416:39,1,71.9999978027344,2|0,0:0|0:0,0:0:0:0:
316,153,254243,1,10,0:0:0:0:
494,186,254474,1,2,0:0:0:0:
353,354,254705,5,2,1:2:0:0:
313,285,254820,1,2,0:0:0:0:
366,225,254935,1,2,0:0:0:0:
438,258,255051,1,2,0:0:0:0:
431,337,255166,5,10,0:0:0:0:
420,317,255282,2,0,B|372:316|351:336|351:336|329:308|291:299,1,143.999995605469,2|2,0:0|0:0,0:0:0:0:
205,382,255628,2,0,P|210:346|212:310,1,71.9999978027344,0|0,1:0|0:0,0:0:0:0:
86,260,255859,2,0,P|121:256|157:250,1,71.9999978027344,2|0,0:0|0:0,0:0:0:0:
275,206,256090,1,10,0:0:0:0:
275,206,256205,1,2,0:0:0:0:
275,206,256320,1,2,0:0:0:0:
39,71,256551,5,2,1:2:0:0:
71,17,256666,1,2,0:0:0:0:
134,5,256782,1,2,0:0:0:0:
185,42,256897,1,2,0:0:0:0:
194,104,257012,5,10,0:0:0:0:
179,108,257128,2,0,P|162:177|156:249,1,143.999995605469,2|2,0:0|0:0,0:0:0:0:
56,358,257474,2,0,P|81:333|113:315,1,71.9999978027344,0|0,1:0|0:0,0:0:0:0:
254,361,257705,2,0,P|228:336|196:318,1,71.9999978027344,2|0,0:0|0:0,0:0:0:0:
66,248,257936,1,10,0:0:0:0:
244,215,258166,1,2,0:0:0:0:
146,182,258397,1,2,1:2:0:0:
164,281,258628,1,2,0:0:0:0:
272,54,258859,5,8,0:0:0:0:
272,54,259090,1,10,0:0:0:0:
230,44,259205,1,10,0:0:0:0:
190,59,259320,1,2,1:2:0:0:
171,97,259436,1,10,0:0:0:0:
160,138,259551,1,10,0:0:0:0:
126,163,259666,1,10,0:0:0:0:
83,164,259782,6,0,P|75:129|65:95,1,71.9999978027344,14|0,0:0|0:0,0:0:0:0:
429,164,260013,1,2,0:0:0:0:
429,164,260128,2,0,P|436:129|446:95,1,71.9999978027344,14|0,0:0|0:0,0:0:0:0:
256,320,260359,5,2,0:0:0:0:
256,241,260474,2,0,L|256:145,1,71.9999978027344,14|0,0:0|0:0,0:0:0:0:
