osu file format v14

[General]
AudioFilename: audio.mp3
AudioLeadIn: 0
PreviewTime: 61192
Countdown: 0
SampleSet: Soft
StackLeniency: 0.7
Mode: 0
LetterboxInBreaks: 0
WidescreenStoryboard: 0

[Editor]
DistanceSpacing: 0.8
BeatDivisor: 4
GridSize: 4
TimelineZoom: 1.8

[Metadata]
Title:Pastel Pink na Koi
TitleUnicode:パステルピンクな恋
Artist:Sakuyahime
ArtistUnicode:サクヤヒメ
Creator:jossieP
Version:M@STER
Source:THE iDOLM@STER CINDERELLA GIRLS
Tags:imas im@s idolmaster Mimura Kanako Ohtsubo Yuka Sachiko Koshimizu Taketatsu Ayana Sakuma Mayu Makino Yui Ogata Chieri Oozora Naomi Cute Jewelries 003 Tetsuya Uchida marhy Starlight Stage
BeatmapID:1037671
BeatmapSetID:486660

[Difficulty]
HPDrainRate:7
CircleSize:5
OverallDifficulty:7
ApproachRate:9
SliderMultiplier:2.2
SliderTickRate:1

[Events]
//Background and Video events
0,0,"aaaaaaaaaaaaaaaa.jpg",0,0
//Break Periods
//Storyboard Layer 0 (Background)
//Storyboard Layer 1 (Fail)
//Storyboard Layer 2 (Pass)
//Storyboard Layer 3 (Foreground)
//Storyboard Sound Samples

[TimingPoints]
850,342.857142857143,4,2,0,85,1,0
5478,-200,4,2,0,85,0,0
6335,-100,4,2,0,85,0,0
12335,-200,4,2,0,85,0,0
12850,-100,4,2,0,85,0,0
15764,-200,4,2,0,85,0,0
17135,-100,4,2,0,85,0,0
21250,-200,4,2,0,85,0,0
22792,-133.333333333333,4,2,0,85,0,0
31021,-100,4,2,0,85,0,0
33764,-133.333333333333,4,2,0,85,0,0
61192,-100,4,2,0,85,0,1
72164,-100,4,2,0,85,0,0
76107,-200,4,2,0,85,0,0
77650,-133.333333333333,4,2,0,85,0,0
85878,-100,4,2,0,85,0,0
88621,-133.333333333333,4,2,0,85,0,0
116050,-133.333333333333,4,2,0,85,0,1
127021,-133.333333333333,4,2,0,85,0,0

[Colours]
Combo1 : 0,128,255
Combo2 : 255,0,0
Combo3 : 255,255,0

[HitObjects]
112,192,849,5,2,0:0:0:0:
176,256,1021,1,2,0:0:0:0:
196,172,1192,2,0,L|280:92,1,110
196,172,1450,1,2,0:0:0:0:
196,172,1535,2,0,L|224:64,1,110
376,100,1878,5,2,0:0:0:0:
388,120,1964,1,0,0:0:0:0:
404,136,2050,1,0,0:0:0:0:
424,144,2135,1,0,0:0:0:0:
448,144,2221,2,0,P|384:200|376:228,1,110
160,224,2564,6,0,B|160:192|192:168|192:168|180:144|188:120,1,110,2|0,0:0|0:0,0:0:0:0:
100,108,2907,1,0,0:0:0:0:
92,88,2992,1,2,0:0:0:0:
72,84,3078,1,0,0:0:0:0:
152,48,3250,1,0,0:0:0:0:
172,56,3335,1,2,0:0:0:0:
192,48,3421,1,0,0:0:0:0:
256,308,3592,5,0,0:0:0:0:
336,192,3764,1,2,0:0:0:0:
176,192,3935,2,0,P|152:148|180:100,1,110
176,192,4192,1,2,0:0:0:0:
176,192,4278,2,0,P|108:196|76:232,1,110
256,204,4621,5,2,0:0:0:0:
256,180,4707,1,0,0:0:0:0:
256,160,4792,1,2,0:0:0:0:
256,140,4878,1,0,0:0:0:0:
256,61,4964,6,0,L|256:116,1,55,4|0,0:0|0:0,0:0:0:0:
112,108,5135,2,0,L|152:160,1,55,2|0,0:0|0:0,0:0:0:0:
400,108,5307,2,0,L|360:160,1,55,0|0,1:0|0:0,0:0:0:0:
316,256,5478,6,0,P|255:303|196:256,1,165,4|2,0:1|0:0,0:0:0:0:
256,236,6335,6,0,L|256:116,1,110,4|2,1:2|0:0,0:0:0:0:
192,64,6678,1,4,0:0:0:0:
136,132,6850,1,0,1:0:0:0:
23,266,7021,2,0,L|52:160,1,110,0|2,1:0|0:0,0:0:0:0:
460,160,7364,2,0,L|488:266,1,110,0|0,0:0|1:0,0:0:0:0:
140,332,7707,5,0,0:0:0:0:
256,144,7878,1,0,1:0:0:0:
372,332,8050,1,0,0:0:0:0:
256,216,8221,1,0,1:0:0:0:
216,288,8392,1,0,1:0:0:0:
296,288,8564,1,2,0:0:0:0:
124,128,8735,5,0,0:0:0:0:
116,216,8907,1,2,0:0:0:0:
192,176,9078,2,0,L|80:168,1,110,0|0,1:0|0:0,0:0:0:0:
192,176,9421,2,0,L|256:84,1,110,0|0,0:0|1:0,0:0:0:0:
192,176,9764,2,0,L|244:280,1,110,0|0,1:0|0:0,0:0:0:0:
352,184,10107,5,0,0:0:0:0:
380,268,10278,2,0,P|440:168|352:96,1,220,4|0,1:2|0:0,0:0:0:0:
322,267,10792,2,0,P|262:182|324:99,2,220,4|4|2,1:2|0:0|0:0,0:0:0:0:
228,272,11650,6,0,L|128:176,1,110,0|0,1:0|1:0,0:0:0:0:
140,176,11907,1,0,0:0:0:0:
148,156,11992,1,0,0:0:0:0:
164,140,12078,1,0,0:0:0:0:
184,136,12164,1,4,0:1:0:0:
352,36,12335,6,0,B|328:72|296:80|296:80|264:112,1,110,0|0,1:1|0:0,0:0:0:0:
256,192,12850,5,0,1:0:0:0:
399,328,13021,2,0,L|320:252,1,110
232,268,13364,1,0,0:0:0:0:
180,196,13535,2,0,P|220:128|328:184,1,220,0|2,1:0|0:0,0:0:0:0:
180,196,14050,5,2,0:0:0:0:
136,120,14221,1,2,0:0:0:0:
52,92,14392,2,0,B|96:112|152:76|160:32|160:32|276:68,1,220,4|0,1:0|0:0,0:0:0:0:
256,264,14907,5,0,0:0:0:0:
470,229,15078,2,0,P|405:151|316:200,1,220,4|0,1:0|0:0,0:0:0:0:
256,264,15592,1,0,0:0:0:0:
172,76,15764,6,0,B|208:112|208:112|232:96|232:96|256:128|280:96|280:96|304:112|304:112|340:76,1,220,0|2,1:0|0:0,0:0:0:0:
256,32,16792,1,2,0:0:0:0:
256,256,17135,5,2,1:2:0:0:
180,296,17307,2,0,L|132:180,1,110,4|0,1:2|0:0,0:0:0:0:
208,140,17650,1,8,0:0:0:0:
284,188,17821,1,0,1:0:0:0:
368,208,17992,2,0,L|324:100,1,110,0|0,1:0|0:0,0:0:0:0:
124,48,18335,6,0,L|244:68,1,110,8|0,0:0|1:0,0:0:0:0:
124,48,18592,1,0,0:0:0:0:
124,48,18678,2,0,L|212:128,1,110,0|0,0:0|1:0,0:0:0:0:
168,260,19021,6,0,L|184:208,1,55,8|0,0:0|0:0,0:0:0:0:
336,132,19192,2,0,L|312:212,1,55,0|0,1:0|0:0,0:0:0:0:
184,256,19364,2,0,L|199:203,1,55,0|0,1:0|0:0,0:0:0:0:
328,128,19535,2,0,L|312:180,1,55
232,136,19707,5,8,0:0:0:0:
160,84,19878,1,0,0:0:0:0:
72,88,20050,2,0,P|120:56|144:8,1,110,4|0,1:2|0:0,0:0:0:0:
280,248,20392,5,8,0:0:0:0:
352,300,20563,1,0,1:0:0:0:
440,296,20735,2,0,P|392:328|368:376,2,110,0|0|8,1:0|0:0|0:0,0:0:0:0:
68,256,21250,6,0,L|160:236,1,82.5,0|0,1:0|0:0,0:0:0:0:
452,120,21592,6,0,B|456:168|456:168|432:220,1,82.5,0|0,1:0|0:0,0:0:0:0:
140,88,21935,6,0,P|216:80|256:100,1,110,0|4,1:0|1:2,0:0:0:0:
128,336,22792,6,0,P|180:296|232:300,1,82.5000031471254,2|0,0:0|0:0,0:0:0:0:
260,312,23135,1,0,1:0:0:0:
280,248,23307,1,0,0:0:0:0:
340,276,23478,2,0,P|368:204|352:184,1,82.5000031471254,2|0,0:0|1:0,0:0:0:0:
364,94,23821,6,0,P|336:120|332:168,1,82.5000031471254,0|0,0:0|1:0,0:0:0:0:
396,156,24164,2,0,B|454:145|454:145|428:104|432:72|460:48,2,165.000006294251,2|2|2,0:0|1:3|0:0,0:0:0:0:
124,108,25020,5,0,1:2:0:0:
180,156,25192,1,0,0:0:0:0:
248,180,25363,1,0,1:0:0:0:
324,176,25535,2,0,P|264:212|224:296,2,165.000006294251,2|2|2,0:0|1:3|0:0,0:0:0:0:
84,112,26392,5,0,1:0:0:0:
52,180,26564,1,0,0:0:0:0:
128,176,26735,2,0,P|156:124|96:40,1,165.000006294251,0|2,1:0|0:0,0:0:0:0:
232,112,27250,5,0,1:0:0:0:
304,104,27421,1,2,0:0:0:0:
368,64,27592,1,0,1:0:0:0:
368,64,27764,2,0,L|376:172,1,82.5000031471254,2|0,0:0|1:0,0:0:0:0:
192,260,28107,2,0,L|288:272,1,82.5000031471254,2|4,0:0|0:0,0:0:0:0:
273,270,28621,6,0,B|264:228|272:224|272:224|264:216|268:180,1,82.5000031471254
280,116,28964,1,0,0:0:0:0:
216,156,29135,1,0,0:0:0:0:
144,148,29307,1,0,0:0:0:0:
88,100,29478,1,0,0:0:0:0:
280,116,29650,6,0,P|328:100|408:188,1,165.000006294251
384,228,30335,2,0,P|336:244|256:156,1,165.000006294251
256,176,31021,5,0,0:0:0:0:
112,68,31192,1,0,0:0:0:0:
144,168,31364,1,0,0:0:0:0:
400,68,31535,1,0,0:0:0:0:
256,176,31707,1,0,0:0:0:0:
368,168,31878,1,0,0:0:0:0:
368,168,32221,6,0,P|320:96|176:100,1,220
156,168,32735,2,0,B|226:178|243:223|243:223|294:199|358:263,2,220
156,168,33764,6,0,B|116:136|76:144|76:144|140:64,1,165.000006294251
156,168,34278,1,0,0:0:0:0:
220,180,34450,2,0,P|264:180|312:152,1,82.5000031471254
380,40,34792,2,0,P|334:68|315:111,1,82.5000031471254
396,160,35135,6,0,B|424:244|424:244|388:316,1,165.000006294251
256,296,35650,1,0,0:0:0:0:
132,248,35821,2,0,B|216:200|196:108,2,165.000006294251
72,132,36678,5,0,0:0:0:0:
84,68,36850,2,0,P|140:56|164:32,1,82.5000031471254
224,44,37192,1,0,0:0:0:0:
351,96,37364,2,0,P|326:64|288:52,1,82.5000031471254
416,60,37707,6,0,P|420:128|336:168,1,165.000006294251
180,132,38221,1,0,0:0:0:0:
252,280,38392,1,0,0:0:0:0:
256,112,38564,1,0,0:0:0:0:
180,216,38735,1,0,0:0:0:0:
332,216,38907,1,0,0:0:0:0:
332,132,39078,1,0,0:0:0:0:
256,192,39250,6,0,B|256:104|256:104|248:96|248:96|264:96|264:96|256:88|256:88|256:32,1,165.000006294251
188,185,39764,2,0,P|244:257|316:225,1,165.000006294251
344,184,40278,2,0,P|304:240|324:328,2,165.000006294251
396,232,41307,2,0,P|400:148|328:116,1,165.000006294251
335,115,41992,5,0,0:0:0:0:
92,80,42164,1,0,0:0:0:0:
272,136,42335,1,0,0:0:0:0:
144,120,42507,1,0,0:0:0:0:
208,136,42678,1,0,0:0:0:0:
471,115,42850,6,0,P|403:75|335:115,1,165.000006294251
92,80,43364,1,0,0:0:0:0:
472,116,43535,2,0,P|420:152|440:220,1,123.750004720688
448,228,43878,2,0,P|336:224|304:256,1,165.000006294251
256,308,44307,5,0,0:0:0:0:
256,308,44392,2,0,L|256:192,1,82.5000031471254
204,136,44735,2,0,P|256:164|308:136,1,123.750004720688
256,96,45078,2,0,P|202:70|140:152,1,165.000006294251
36,276,45592,5,0,0:0:0:0:
100,264,45764,1,0,0:0:0:0:
132,204,45935,2,0,P|136:136|96:100,1,123.750004720688
68,88,46278,1,0,0:0:0:0:
256,40,46450,5,0,0:0:0:0:
68,88,46621,1,0,0:0:0:0:
36,276,46792,1,0,0:0:0:0:
16,176,46964,1,0,0:0:0:0:
496,176,47135,6,0,L|414:162,1,82.5000031471254
348,152,47478,1,0,0:0:0:0:
348,152,47821,6,0,P|304:108|292:196,1,165.000006294251
204,284,48335,1,0,0:0:0:0:
252,240,48506,1,0,0:0:0:0:
265,176,48678,2,0,P|212:160|192:140,2,82.5000031471254
212,80,49192,6,0,P|152:96|132:132,1,82.5000031471254
74,234,49535,2,0,P|106:208|124:172,1,82.5000031471254
76,124,49878,1,0,0:0:0:0:
140,109,50050,1,0,0:0:0:0:
123,172,50221,1,0,0:0:0:0:
123,172,50564,6,0,B|216:132|216:132|216:144|216:144|272:120,1,165.000006294251
324,100,51078,1,0,0:0:0:0:
384,72,51250,1,0,0:0:0:0:
414,227,51421,2,0,B|404:144|404:144|392:140|392:140|384:72,1,165.000006294251
324,48,51935,6,0,B|284:52|264:36|264:36|236:60,1,82.5000031471254
188,84,52278,1,0,0:0:0:0:
172,88,52364,1,0,0:0:0:0:
156,88,52450,1,0,0:0:0:0:
140,80,52535,1,0,0:0:0:0:
128,68,52621,2,0,P|136:124|120:172,1,82.5000031471254
256,336,52964,6,0,P|200:288|184:244,1,82.5000031471254
256,192,53307,1,0,0:0:0:0:
256,336,53478,2,0,P|289:315|340:192,1,165.000006294251
392,40,53992,5,0,0:0:0:0:
416,100,54164,1,0,0:0:0:0:
468,144,54335,2,0,P|388:136|368:148,1,82.5000031471254
348,84,54678,1,0,0:0:0:0:
222,68,54850,2,0,P|242:142|320:144,1,165.000006294251
222,68,55364,5,0,0:0:0:0:
156,68,55535,1,0,0:0:0:0:
96,40,55707,2,0,P|116:120|76:200,1,165.000006294251
83,191,56392,5,0,0:0:0:0:
198,197,56564,2,0,P|141:175|83:191,1,123.750004720688
52,200,56907,2,0,P|130:133|136:64,1,165.000006294251
256,48,57421,5,0,0:0:0:0:
320,192,57592,1,0,0:0:0:0:
344,132,57764,2,0,B|392:120|400:64|400:64|468:136,1,165.000006294251
392,320,58364,6,0,L|344:288,1,41.2500015735627
92,64,58707,2,0,L|72:120,1,41.2500015735627
116,276,59050,2,0,L|148:236,1,41.2500015735627
184,192,59307,2,0,B|216:156|216:156|224:128|224:128|256:92,1,123.750004720688
328,192,59650,6,0,P|256:226|184:192,1,165.000006294251
254,93,60164,1,0,0:0:0:0:
352,192,60335,2,0,P|256:258|160:192,1,247.500009441376
256,136,61192,5,0,0:0:0:0:
340,104,61364,1,0,0:0:0:0:
388,32,61535,1,0,0:0:0:0:
158,191,61707,2,0,P|80:125|123:32,1,220
172,104,62221,1,0,0:0:0:0:
256,136,62392,2,0,P|256:200|380:200,1,220
320,168,62907,6,0,P|220:196|192:104,1,220
256,280,63421,1,0,0:0:0:0:
320,168,63592,1,0,0:0:0:0:
192,168,63764,1,0,0:0:0:0:
256,108,63935,6,0,P|304:80|356:88,1,110
384,232,64278,2,0,P|336:260|284:252,1,110
224,188,64621,1,0,0:0:0:0:
416,152,64792,1,0,0:0:0:0:
355,87,64964,1,0,0:0:0:0:
384,232,65135,6,0,P|312:232|336:96,1,220
372,52,65650,2,0,P|304:108|192:64,1,220
372,52,66164,5,0,0:0:0:0:
432,116,66335,1,0,0:0:0:0:
452,28,66507,1,0,0:0:0:0:
416,208,66678,6,0,L|404:332,1,110
360,160,67021,2,0,L|240:168,1,110
276,314,67364,2,0,L|344:228,1,110
96,208,67707,5,0,0:0:0:0:
167,227,67878,2,0,P|160:160|208:104,2,110
100,280,68392,2,0,P|24:224|88:140,1,220
256,152,68907,1,0,0:0:0:0:
168,168,69079,1,0,0:0:0:0:
200,252,69250,6,0,B|228:268|264:248|280:216|280:216|304:248|352:264|404:220,1,220
416,148,69764,1,0,0:0:0:0:
332,164,69935,2,0,P|340:104|480:92,1,220
332,164,70450,5,0,0:0:0:0:
388,232,70621,2,0,P|280:236|257:118,1,220
268,60,71135,1,0,0:0:0:0:
184,88,71307,6,0,L|48:104,2,110
160,172,71821,1,0,0:0:0:0:
176,260,71992,1,0,0:0:0:0:
444,292,72164,6,0,B|384:300|384:300|320:264,1,110
388,200,72507,2,0,B|448:192|448:192|512:228,1,110
340,275,72850,1,0,0:0:0:0:
388,200,73021,1,0,0:0:0:0:
304,228,73192,1,0,0:0:0:0:
351,152,73363,1,0,0:0:0:0:
184,204,73535,6,0,L|68:252,1,110
272,120,73878,2,0,L|320:16,1,110
128,80,74221,5,0,0:0:0:0:
388,200,74392,1,0,0:0:0:0:
112,164,74564,1,0,0:0:0:0:
340,275,74735,1,0,0:0:0:0:
180,316,74907,6,0,B|228:312|248:268|244:228|208:200|208:200|240:168|280:160,1,220
224,84,75421,1,0,0:0:0:0:
136,80,75592,1,0,0:0:0:0:
92,156,75764,1,0,0:0:0:0:
88,244,75935,1,0,0:0:0:0:
456,192,76107,6,0,B|428:172|428:172|408:176|408:176|400:152|376:144,1,82.5
256,344,76450,6,0,B|240:324|256:312|256:312|240:288|256:256,1,82.5
103,162,76792,6,0,B|136:136|136:136|160:144|160:144|176:132|200:136,1,110
200,136,77650,6,0,B|184:92|164:72|111:67|111:67|144:24,1,165.000006294251
204,32,78164,1,0,0:0:0:0:
268,36,78335,2,0,P|324:44|360:76,1,82.5000031471254
297,143,78678,2,0,P|331:120|372:120,1,82.5000031471254
398,238,79021,2,0,B|392:216|400:184|420:164|420:164|440:148|448:104|428:80,1,165.000006294251
297,143,79535,5,0,0:0:0:0:
232,148,79707,2,0,P|188:136|156:104,2,82.5000031471254
264,208,80221,1,0,0:0:0:0:
123,235,80392,6,0,P|164:232|200:212,1,82.5000031471254
189,331,80735,2,0,P|220:305|236:268,1,82.5000031471254
264,208,81078,1,0,0:0:0:0:
328,220,81250,2,0,P|312:168|208:176,1,165.000006294251
192,104,81764,6,0,P|270:82|353:118,1,165.000006294251
400,152,82278,1,0,0:0:0:0:
436,208,82450,2,0,P|456:260|444:308,2,82.5000031471254
400,152,82964,1,0,0:0:0:0:
376,36,83135,6,0,B|320:84|268:72|268:72|272:132,2,165.000006294251
428,76,83992,2,0,P|380:120|352:128,1,82.5000031471254
322,259,84335,2,0,P|316:219|328:180,1,82.5000031471254
392,188,84850,6,0,P|328:140|240:144,1,165.000006294251
169,324,85364,2,0,P|162:283|172:244,1,82.5000031471254
196,184,85707,1,0,0:0:0:0:
160,48,85878,5,0,0:0:0:0:
352,48,86050,1,0,0:0:0:0:
256,76,86221,1,0,0:0:0:0:
316,140,86392,1,0,0:0:0:0:
196,140,86564,1,0,0:0:0:0:
256,204,86735,1,0,0:0:0:0:
432,192,87078,6,0,B|396:236|416:300|416:300|352:272|304:308,1,220
232,272,87592,2,0,P|276:224|332:216,1,110
280,112,87935,2,0,P|236:160|180:168,1,110
108,192,88278,1,0,0:0:0:0:
404,192,88621,6,0,P|288:232|260:284,1,165.000006294251
216,220,89135,1,0,0:0:0:0:
220,152,89307,2,0,P|252:112|292:96,1,82.5000031471254
340,68,89650,2,0,P|296:32|260:20,1,82.5000031471254
56,68,89992,6,0,P|88:104|92:156,1,82.5000031471254
72,200,90335,1,0,0:0:0:0:
120,248,90507,2,0,L|208:264,1,82.5000031471254
248,308,90850,1,0,0:0:0:0:
404,268,91021,5,0,0:0:0:0:
344,152,91192,1,0,0:0:0:0:
388,204,91364,2,0,P|410:168|368:88,1,123.750004720688
276,136,91707,6,0,P|284:192|312:216,2,82.5000031471254
120,24,92221,1,0,0:0:0:0:
160,76,92392,1,0,0:0:0:0:
212,116,92564,2,0,P|140:164|128:248,1,165.000006294251
256,348,93078,5,0,0:0:0:0:
386,236,93250,1,0,0:0:0:0:
340,304,93421,1,0,0:0:0:0:
172,304,93592,1,0,0:0:0:0:
256,348,93764,1,0,0:0:0:0:
125,236,93935,1,0,0:0:0:0:
264,204,94107,6,0,P|304:176|320:128,1,82.5000031471254
264,204,94364,1,0,0:0:0:0:
264,204,94450,2,0,P|248:160|264:124,1,82.5000031471254
308,84,94792,1,0,0:0:0:0:
412,112,94964,6,0,L|432:208,1,82.5000031471254
100,272,95307,2,0,L|80:176,1,82.5000031471254
