osu file format v14

[General]
AudioFilename: audio.mp3
AudioLeadIn: 0
PreviewTime: 0
Countdown: 0
SampleSet: Normal
StackLeniency: 0.7
Mode: 1
LetterboxInBreaks: 0
WidescreenStoryboard: 0

[Editor]
DistanceSpacing: 0.5
BeatDivisor: 6
GridSize: 32
TimelineZoom: 2.799999

[Metadata]
Title:Ai Sakura
TitleUnicode:藍桜
Artist:Sakuya [CV-Sakakibara Yui]
ArtistUnicode:サクヤ [CV-榊原ゆい]
Creator:kiminokokoro
Version:Ura Sakura
Source:Stella Glow
Tags:yassu- cherry blossom ステラ グロウ sega atlus nintendo 3ds fire witch 火の魔女 game セが 星光幻歌
BeatmapID:1039505
BeatmapSetID:483600

[Difficulty]
HPDrainRate:4
CircleSize:2
OverallDifficulty:6
ApproachRate:5
SliderMultiplier:1.4
SliderTickRate:1

[Events]
//Background and Video events
0,0,"Sakuya 2.jpg",0,0
//Break Periods
//Storyboard Layer 0 (Background)
//Storyboard Layer 1 (Fail)
//Storyboard Layer 2 (Pass)
//Storyboard Layer 3 (Foreground)
//Storyboard Sound Samples

[TimingPoints]
731,333.333333333333,4,1,0,90,1,0
731,-133.333333333333,4,1,0,90,0,0
6064,-100,4,1,0,80,0,0
16730,-100,4,1,0,60,0,0
24730,-100,4,1,0,90,0,0
27397,-100,4,1,0,80,0,0
35397,-100,4,1,0,90,0,0
38064,-100,4,1,0,80,0,0
53897,-100,4,1,0,85,0,0
59397,-133.333333333333,4,1,0,60,0,0
60730,-100,4,1,0,90,0,1
84730,-100,4,1,0,80,0,0
95397,-133.333333333333,4,1,0,60,0,0
96730,-125,4,1,0,65,0,0
98064,-125,4,1,0,70,0,0
99397,-117.647058823529,4,1,0,75,0,0
100730,-111.111111111111,4,1,0,80,0,0
102064,-105.263157894737,4,1,0,85,0,0
103397,-100,4,1,0,90,0,0
106064,-100,4,1,0,80,0,0
114064,-100,4,1,0,90,0,0
116730,-100,4,1,0,80,0,0
132564,-100,4,1,0,85,0,0
138064,-133.333333333333,4,1,0,60,0,0
139397,-100,4,1,0,90,0,1
163397,-100,4,1,0,80,0,0
164730,-95.2380952380952,4,1,0,81,0,0
166230,-90.9090909090909,4,1,0,82,0,0
167397,-86.9565217391304,4,1,0,83,0,0
168897,-83.3333333333333,4,1,0,84,0,0
170064,-80,4,1,0,85,0,0
171314,-76.9230769230769,4,1,0,86,0,0
172064,-74.0740740740741,4,1,0,87,0,0
172730,-71.4285714285714,4,1,0,88,0,0
173230,-68.9655172413793,4,1,0,89,0,0
174064,-66.6666666666667,4,1,0,90,0,1
184730,-100,4,1,0,90,0,0

[HitObjects]
224,128,731,5,0,0:0:0:0:
384,128,1064,1,8,0:0:0:0:
192,64,1230,1,0,0:0:0:0:
320,64,1397,1,8,0:0:0:0:
192,96,1730,1,8,0:0:0:0:
256,128,1897,1,0,0:0:0:0:
352,128,2064,1,0,0:0:0:0:
224,96,2397,1,0,0:0:0:0:
320,160,2730,1,0,0:0:0:0:
288,128,3064,1,8,0:0:0:0:
192,64,3397,1,8,0:0:0:0:
192,128,3564,1,8,0:0:0:0:
256,96,3730,1,8,0:0:0:0:
288,64,3897,1,0,0:0:0:0:
416,64,4064,1,8,0:0:0:0:
416,128,4397,1,8,0:0:0:0:
384,160,4564,1,8,0:0:0:0:
224,64,4730,1,0,0:0:0:0:
256,160,4897,1,0,0:0:0:0:
352,128,5064,1,8,0:0:0:0:
320,128,5230,1,0,0:0:0:0:
320,128,5397,1,8,0:0:0:0:
32,128,5730,1,8,0:0:0:0:
256,128,6064,1,0,0:0:0:0:
320,96,6397,1,8,0:0:0:0:
224,96,6564,1,0,0:0:0:0:
192,64,6730,1,8,0:0:0:0:
61,148,6814,1,0,0:0:0:0:
288,184,6897,1,0,0:0:0:0:
133,181,6980,1,0,0:0:0:0:
288,64,7064,1,8,0:0:0:0:
32,96,7230,1,0,0:0:0:0:
288,96,7397,1,8,0:0:0:0:
288,128,7564,1,8,0:0:0:0:
192,64,7730,1,0,0:0:0:0:
160,96,7897,1,8,0:0:0:0:
224,192,8064,1,0,0:0:0:0:
384,224,8147,1,0,0:0:0:0:
224,160,8230,1,8,0:0:0:0:
352,64,8314,1,8,0:0:0:0:
256,64,8397,1,0,0:0:0:0:
64,64,8564,1,8,0:0:0:0:
192,64,8730,1,0,0:0:0:0:
128,160,9064,1,8,0:0:0:0:
256,160,9230,1,0,0:0:0:0:
128,224,9314,1,8,0:0:0:0:
32,160,9397,1,8,0:0:0:0:
384,128,9480,1,8,0:0:0:0:
320,224,9564,1,0,0:0:0:0:
352,160,9730,1,8,0:0:0:0:
192,128,9897,1,8,0:0:0:0:
224,64,10064,1,0,0:0:0:0:
320,96,10397,1,0,0:0:0:0:
256,96,10730,1,8,0:0:0:0:
96,128,10897,1,8,0:0:0:0:
96,128,11064,1,8,0:0:0:0:
160,128,11230,1,0,0:0:0:0:
224,96,11397,1,0,0:0:0:0:
352,96,11730,1,8,0:0:0:0:
352,128,11897,1,0,0:0:0:0:
32,96,12064,1,8,0:0:0:0:
224,224,12175,1,0,0:0:0:0:
192,192,12286,1,0,0:0:0:0:
160,64,12397,1,8,0:0:0:0:
96,192,12564,1,0,0:0:0:0:
448,160,12730,1,8,0:0:0:0:
32,128,12897,5,8,0:0:0:0:
192,224,13064,1,0,0:0:0:0:
192,128,13230,1,0,0:0:0:0:
128,64,13397,1,0,0:0:0:0:
160,96,13564,1,8,0:0:0:0:
288,160,13675,1,0,0:0:0:0:
320,192,13786,1,0,0:0:0:0:
384,64,13897,1,8,0:0:0:0:
320,32,13980,1,8,0:0:0:0:
256,96,14064,1,0,0:0:0:0:
256,32,14397,1,8,0:0:0:0:
192,64,14564,5,0,0:0:0:0:
160,128,14647,1,0,0:0:0:0:
224,160,14730,1,8,0:0:0:0:
416,160,14897,1,0,0:0:0:0:
352,96,15064,1,8,0:0:0:0:
352,96,15230,1,8,0:0:0:0:
256,64,15397,1,0,0:0:0:0:
192,128,15480,1,0,0:0:0:0:
160,96,15564,1,0,0:0:0:0:
256,192,15730,1,0,0:0:0:0:
384,128,15897,1,0,0:0:0:0:
416,64,16064,1,0,0:0:0:0:
288,64,16147,1,8,0:0:0:0:
192,96,16230,1,0,0:0:0:0:
288,96,16397,1,8,0:0:0:0:
256,128,16730,1,8,0:0:0:0:
160,96,17064,1,8,0:0:0:0:
160,96,17147,1,8,0:0:0:0:
256,64,17230,1,0,0:0:0:0:
352,32,17397,1,0,0:0:0:0:
352,128,17480,1,0,0:0:0:0:
352,128,17564,1,8,0:0:0:0:
96,128,17647,1,0,0:0:0:0:
32,64,17730,1,8,0:0:0:0:
256,192,17897,1,8,0:0:0:0:
192,96,18064,1,0,0:0:0:0:
288,288,18397,1,0,0:0:0:0:
352,192,18480,1,8,0:0:0:0:
352,96,18647,1,8,0:0:0:0:
256,96,18730,1,0,0:0:0:0:
352,160,18897,1,8,0:0:0:0:
160,128,19064,1,8,0:0:0:0:
64,160,19230,1,8,0:0:0:0:
256,128,19397,1,0,0:0:0:0:
416,96,19730,1,0,0:0:0:0:
256,64,19897,1,8,0:0:0:0:
128,224,20064,1,0,0:0:0:0:
128,32,20230,1,0,0:0:0:0:
0,64,20314,1,0,0:0:0:0:
224,128,20397,1,8,0:0:0:0:
256,192,20564,1,8,0:0:0:0:
160,96,20730,1,0,0:0:0:0:
224,128,21064,1,0,0:0:0:0:
416,192,21230,1,8,0:0:0:0:
192,128,21397,1,0,0:0:0:0:
160,192,21480,1,0,0:0:0:0:
224,128,21564,1,8,0:0:0:0:
320,224,21730,1,8,0:0:0:0:
224,64,21897,1,8,0:0:0:0:
352,32,22064,1,0,0:0:0:0:
416,96,22175,1,8,0:0:0:0:
192,224,22286,1,8,0:0:0:0:
320,96,22397,1,0,0:0:0:0:
128,128,22508,1,8,0:0:0:0:
128,128,22619,1,8,0:0:0:0:
384,160,22730,1,0,0:0:0:0:
288,192,22842,1,8,0:0:0:0:
320,224,22953,1,0,0:0:0:0:
320,224,23064,1,8,0:0:0:0:
352,192,23230,1,8,0:0:0:0:
256,192,23397,1,0,0:0:0:0:
0,128,23508,1,8,0:0:0:0:
416,128,23619,1,8,0:0:0:0:
224,64,23730,1,0,0:0:0:0:
160,160,23842,1,8,0:0:0:0:
192,96,23953,1,8,0:0:0:0:
160,192,24064,1,0,0:0:0:0:
96,64,24175,5,8,0:0:0:0:
256,64,24286,1,0,0:0:0:0:
384,64,24397,5,8,0:0:0:0:
416,160,24564,1,8,0:0:0:0:
480,96,24730,1,8,0:0:0:0:
224,192,24814,1,8,0:0:0:0:
128,192,24897,1,0,0:0:0:0:
352,192,25008,1,8,0:0:0:0:
160,32,25064,1,8,0:0:0:0:
256,192,25119,1,8,0:0:0:0:
160,128,25230,1,0,0:0:0:0:
192,96,25342,1,8,0:0:0:0:
96,160,25397,1,8,0:0:0:0:
224,32,25453,1,8,0:0:0:0:
288,96,25564,1,0,0:0:0:0:
256,128,25647,1,0,0:0:0:0:
128,96,25730,1,8,0:0:0:0:
128,96,25814,1,8,0:0:0:0:
416,128,25897,1,0,0:0:0:0:
96,32,26008,1,0,0:0:0:0:
320,128,26064,1,8,0:0:0:0:
165,53,26119,1,8,0:0:0:0:
357,121,26175,1,8,0:0:0:0:
423,207,26230,1,0,0:0:0:0:
256,64,26314,1,8,0:0:0:0:
96,256,26397,1,0,0:0:0:0:
96,128,26480,1,0,0:0:0:0:
224,192,26564,1,8,0:0:0:0:
352,96,26675,5,8,0:0:0:0:
96,96,26730,1,0,0:0:0:0:
384,224,27064,1,8,0:0:0:0:
320,256,27147,1,0,0:0:0:0:
416,192,27230,1,8,0:0:0:0:
384,64,27397,1,0,0:0:0:0:
64,96,27647,1,0,0:0:0:0:
128,192,27730,1,8,0:0:0:0:
224,160,27897,1,8,0:0:0:0:
288,224,27980,1,0,0:0:0:0:
320,160,28064,1,0,0:0:0:0:
416,64,28230,1,8,0:0:0:0:
256,128,28397,1,8,0:0:0:0:
160,64,28480,1,0,0:0:0:0:
0,64,28730,1,0,0:0:0:0:
224,64,28980,1,0,0:0:0:0:
288,64,29064,1,8,0:0:0:0:
288,192,29230,1,0,0:0:0:0:
224,160,29314,1,8,0:0:0:0:
384,64,29397,1,0,0:0:0:0:
256,128,29480,1,0,0:0:0:0:
160,96,29564,1,8,0:0:0:0:
256,192,29647,1,0,0:0:0:0:
256,64,29730,1,8,0:0:0:0:
64,64,29814,1,8,0:0:0:0:
320,128,30064,1,0,0:0:0:0:
224,128,30314,1,0,0:0:0:0:
192,64,30397,1,8,0:0:0:0:
0,160,30564,1,8,0:0:0:0:
128,128,30647,1,0,0:0:0:0:
160,192,30730,1,0,0:0:0:0:
288,128,30897,1,0,0:0:0:0:
416,128,30980,1,8,0:0:0:0:
320,64,31064,1,8,0:0:0:0:
352,64,31230,1,0,0:0:0:0:
0,160,31314,1,0,0:0:0:0:
192,288,31397,1,0,0:0:0:0:
96,96,31480,1,8,0:0:0:0:
96,224,31564,1,0,0:0:0:0:
192,96,31730,1,8,0:0:0:0:
288,128,31897,1,0,0:0:0:0:
288,160,31980,1,0,0:0:0:0:
320,192,32147,1,0,0:0:0:0:
384,32,32230,1,8,0:0:0:0:
288,32,32397,1,8,0:0:0:0:
64,64,32480,1,0,0:0:0:0:
416,224,32730,1,0,0:0:0:0:
160,160,32980,1,0,0:0:0:0:
288,224,33064,1,8,0:0:0:0:
416,128,33147,1,0,0:0:0:0:
32,160,33230,1,8,0:0:0:0:
32,192,33314,1,8,0:0:0:0:
192,64,33397,1,0,0:0:0:0:
224,256,33564,1,8,0:0:0:0:
160,256,33647,1,0,0:0:0:0:
320,128,33730,1,8,0:0:0:0:
352,160,33814,1,8,0:0:0:0:
320,64,34064,1,0,0:0:0:0:
288,288,34147,1,8,0:0:0:0:
224,160,34230,1,0,0:0:0:0:
384,224,34314,1,0,0:0:0:0:
320,192,34397,1,8,0:0:0:0:
192,32,34480,1,8,0:0:0:0:
0,160,34647,1,8,0:0:0:0:
192,160,34730,1,0,0:0:0:0:
192,224,34814,1,0,0:0:0:0:
320,64,34897,1,8,0:0:0:0:
448,256,34980,1,0,0:0:0:0:
352,160,35064,1,8,0:0:0:0:
416,128,35397,1,8,0:0:0:0:
192,96,35508,1,8,0:0:0:0:
256,64,35564,1,8,0:0:0:0:
256,224,35675,1,8,0:0:0:0:
256,224,35730,1,0,0:0:0:0:
160,64,35786,1,8,0:0:0:0:
192,128,35897,1,0,0:0:0:0:
160,256,35980,1,0,0:0:0:0:
96,192,36064,1,8,0:0:0:0:
320,32,36119,1,8,0:0:0:0:
288,160,36175,1,8,0:0:0:0:
352,128,36230,1,0,0:0:0:0:
0,128,36314,1,8,0:0:0:0:
160,64,36397,1,8,0:0:0:0:
448,128,36480,1,0,0:0:0:0:
320,128,36564,1,8,0:0:0:0:
320,192,36647,1,8,0:0:0:0:
128,192,36730,1,0,0:0:0:0:
118,118,36786,1,0,0:0:0:0:
61,40,36897,1,8,0:0:0:0:
224,160,36980,1,8,0:0:0:0:
256,96,37064,1,0,0:0:0:0:
256,160,37119,1,8,0:0:0:0:
224,192,37175,1,8,0:0:0:0:
231,226,37230,1,0,0:0:0:0:
256,32,37342,1,0,0:0:0:0:
320,64,37397,1,8,0:0:0:0:
128,160,37730,1,8,0:0:0:0:
32,128,37814,1,0,0:0:0:0:
352,128,37897,1,8,0:0:0:0:
352,32,38064,1,0,0:0:0:0:
224,224,38397,1,8,0:0:0:0:
128,224,38564,1,0,0:0:0:0:
320,160,38730,1,8,0:0:0:0:
320,96,38897,1,0,0:0:0:0:
192,32,38980,1,0,0:0:0:0:
224,96,39064,1,8,0:0:0:0:
192,160,39147,1,0,0:0:0:0:
128,64,39230,1,0,0:0:0:0:
320,160,39397,1,0,0:0:0:0:
384,96,39480,1,0,0:0:0:0:
384,192,39564,1,8,0:0:0:0:
384,192,39647,1,0,0:0:0:0:
256,64,39730,1,8,0:0:0:0:
224,96,40064,1,0,0:0:0:0:
320,96,40147,1,0,0:0:0:0:
96,128,40230,1,8,0:0:0:0:
320,192,40314,1,0,0:0:0:0:
192,128,40397,1,8,0:0:0:0:
388,124,40564,1,0,0:0:0:0:
288,96,40730,1,8,0:0:0:0:
96,224,40897,1,0,0:0:0:0:
192,256,40980,1,0,0:0:0:0:
256,192,41064,1,8,0:0:0:0:
192,128,41230,1,0,0:0:0:0:
160,96,41397,1,8,0:0:0:0:
320,160,41564,1,0,0:0:0:0:
320,160,41647,1,0,0:0:0:0:
288,96,41730,1,8,0:0:0:0:
288,64,41897,1,0,0:0:0:0:
384,32,42064,1,8,0:0:0:0:
192,96,42147,1,0,0:0:0:0:
192,128,42230,1,0,0:0:0:0:
352,96,42397,1,8,0:0:0:0:
288,128,42480,1,8,0:0:0:0:
288,160,42564,1,0,0:0:0:0:
224,96,42647,1,0,0:0:0:0:
128,96,42814,1,0,0:0:0:0:
192,32,42897,1,8,0:0:0:0:
192,160,42980,1,0,0:0:0:0:
288,192,43064,1,8,0:0:0:0:
384,128,43147,1,8,0:0:0:0:
320,160,43230,1,0,0:0:0:0:
128,192,43314,1,8,0:0:0:0:
288,32,43397,1,0,0:0:0:0:
32,96,43480,1,8,0:0:0:0:
192,128,43647,1,0,0:0:0:0:
256,128,43730,1,8,0:0:0:0:
256,64,43897,1,0,0:0:0:0:
160,64,43980,1,0,0:0:0:0:
288,128,44064,1,8,0:0:0:0:
128,96,44397,1,0,0:0:0:0:
192,64,44730,1,8,0:0:0:0:
320,64,45064,1,8,0:0:0:0:
224,128,45147,1,0,0:0:0:0:
256,128,45230,1,8,0:0:0:0:
320,128,45397,1,0,0:0:0:0:
192,256,45564,1,0,0:0:0:0:
32,192,45730,1,8,0:0:0:0:
128,96,45897,1,0,0:0:0:0:
128,192,46064,5,0,0:0:0:0:
320,96,46230,1,8,0:0:0:0:
256,160,46314,1,8,0:0:0:0:
384,160,46397,1,8,0:0:0:0:
352,128,46453,1,0,0:0:0:0:
320,224,46508,1,8,0:0:0:0:
320,224,46564,1,0,0:0:0:0:
256,96,46619,1,8,0:0:0:0:
192,128,46730,1,8,0:0:0:0:
352,64,46814,1,0,0:0:0:0:
224,32,46897,1,0,0:0:0:0:
128,128,47008,1,8,0:0:0:0:
64,96,47064,1,0,0:0:0:0:
224,128,47119,1,8,0:0:0:0:
224,256,47175,1,8,0:0:0:0:
224,256,47230,1,8,0:0:0:0:
288,192,47314,1,0,0:0:0:0:
224,96,47397,1,0,0:0:0:0:
416,160,47564,1,0,0:0:0:0:
384,96,47730,1,8,0:0:0:0:
352,64,47897,1,0,0:0:0:0:
192,160,48064,1,0,0:0:0:0:
288,64,48147,1,8,0:0:0:0:
256,160,48314,1,8,0:0:0:0:
128,96,48480,1,8,0:0:0:0:
224,96,48564,1,0,0:0:0:0:
384,128,48730,1,0,0:0:0:0:
288,64,49064,1,8,0:0:0:0:
192,128,49314,1,8,0:0:0:0:
96,160,49397,1,0,0:0:0:0:
288,128,49564,1,8,0:0:0:0:
448,160,49647,1,8,0:0:0:0:
32,64,49730,1,8,0:0:0:0:
192,96,49814,1,0,0:0:0:0:
224,224,49897,1,8,0:0:0:0:
320,160,50064,1,8,0:0:0:0:
288,192,50230,1,0,0:0:0:0:
192,160,50314,1,0,0:0:0:0:
256,96,50397,1,8,0:0:0:0:
224,128,50480,1,0,0:0:0:0:
352,64,50647,1,0,0:0:0:0:
352,128,50814,1,0,0:0:0:0:
288,96,50897,1,8,0:0:0:0:
160,64,51064,1,8,0:0:0:0:
128,160,51397,1,0,0:0:0:0:
224,64,51480,1,0,0:0:0:0:
192,160,51564,1,8,0:0:0:0:
128,32,51730,1,8,0:0:0:0:
320,128,51814,1,0,0:0:0:0:
224,192,51980,1,8,0:0:0:0:
192,224,52064,1,0,0:0:0:0:
224,96,52230,1,8,0:0:0:0:
160,128,52314,1,8,0:0:0:0:
128,160,52397,1,8,0:0:0:0:
352,96,52564,1,0,0:0:0:0:
288,160,52730,1,0,0:0:0:0:
288,64,52814,1,0,0:0:0:0:
288,96,52897,1,8,0:0:0:0:
224,128,52980,1,0,0:0:0:0:
192,96,53064,1,0,0:0:0:0:
192,192,53147,1,8,0:0:0:0:
192,128,53230,1,0,0:0:0:0:
192,128,53314,1,8,0:0:0:0:
352,96,53397,1,8,0:0:0:0:
256,64,53480,1,8,0:0:0:0:
416,160,53564,1,0,0:0:0:0:
160,64,53647,1,0,0:0:0:0:
320,160,53730,1,8,0:0:0:0:
288,128,53897,1,0,0:0:0:0:
224,192,54008,1,8,0:0:0:0:
96,224,54064,1,0,0:0:0:0:
96,160,54230,1,0,0:0:0:0:
448,64,54397,1,8,0:0:0:0:
224,64,54508,5,8,0:0:0:0:
384,192,54564,1,0,0:0:0:0:
352,64,54730,1,0,0:0:0:0:
224,128,54897,1,0,0:0:0:0:
224,128,55008,1,8,0:0:0:0:
224,128,55064,1,0,0:0:0:0:
64,64,55230,1,0,0:0:0:0:
192,128,55397,1,0,0:0:0:0:
288,128,55508,1,8,0:0:0:0:
288,256,55564,1,0,0:0:0:0:
352,128,55647,1,8,0:0:0:0:
288,192,55730,1,0,0:0:0:0:
288,128,55814,1,0,0:0:0:0:
288,128,55897,1,8,0:0:0:0:
256,128,55980,1,8,0:0:0:0:
256,128,56064,1,8,0:0:0:0:
96,160,56147,1,0,0:0:0:0:
96,128,56230,1,8,0:0:0:0:
192,192,56397,1,8,0:0:0:0:
352,64,56564,1,0,0:0:0:0:
384,96,56647,1,0,0:0:0:0:
288,128,56730,1,8,0:0:0:0:
320,192,56897,1,0,0:0:0:0:
128,256,57064,1,8,0:0:0:0:
288,128,57230,1,0,0:0:0:0:
256,96,57314,1,8,0:0:0:0:
256,96,57480,1,8,0:0:0:0:
224,192,57564,1,0,0:0:0:0:
192,128,57730,1,8,0:0:0:0:
224,64,57842,1,0,0:0:0:0:
288,128,57897,1,0,0:0:0:0:
224,96,57953,1,0,0:0:0:0:
224,128,58008,1,0,0:0:0:0:
32,192,58064,1,8,0:0:0:0:
160,160,58119,1,0,0:0:0:0:
160,64,58175,1,0,0:0:0:0:
288,256,58230,1,0,0:0:0:0:
256,256,58286,1,8,0:0:0:0:
416,128,58397,1,0,0:0:0:0:
384,160,58480,1,8,0:0:0:0:
288,96,58564,1,0,0:0:0:0:
320,64,58647,1,0,0:0:0:0:
352,64,58730,1,8,0:0:0:0:
96,160,58786,1,0,0:0:0:0:
128,224,58842,1,8,0:0:0:0:
224,128,58897,1,8,0:0:0:0:
96,64,58953,1,8,0:0:0:0:
416,96,59008,1,8,0:0:0:0:
192,64,59064,1,0,0:0:0:0:
320,128,59397,1,0,0:0:0:0:
288,224,59730,1,8,0:0:0:0:
448,128,60064,1,8,0:0:0:0:
448,128,60397,1,8,0:0:0:0:
192,128,60730,1,0,0:0:0:0:
192,96,60814,1,0,0:0:0:0:
128,192,60897,1,8,0:0:0:0:
256,64,60980,1,0,0:0:0:0:
320,64,61064,1,8,0:0:0:0:
352,192,61147,1,0,0:0:0:0:
256,160,61230,1,8,0:0:0:0:
160,96,61314,1,0,0:0:0:0:
192,160,61397,1,0,0:0:0:0:
224,160,61480,1,8,0:0:0:0:
192,160,61564,1,8,0:0:0:0:
128,192,61619,1,0,0:0:0:0:
128,256,61675,1,0,0:0:0:0:
224,160,61730,1,8,0:0:0:0:
384,64,61814,1,8,0:0:0:0:
384,128,61897,1,0,0:0:0:0:
384,32,61980,1,8,0:0:0:0:
256,64,62064,1,0,0:0:0:0:
320,64,62119,1,0,0:0:0:0:
288,160,62175,1,0,0:0:0:0:
288,160,62230,1,8,0:0:0:0:
96,96,62314,1,0,0:0:0:0:
128,128,62397,1,8,0:0:0:0:
192,96,62480,1,0,0:0:0:0:
192,160,62564,1,8,0:0:0:0:
128,64,62619,1,8,0:0:0:0:
192,96,62675,1,8,0:0:0:0:
224,64,62730,1,0,0:0:0:0:
128,32,62786,1,8,0:0:0:0:
320,128,62897,1,8,0:0:0:0:
32,192,62980,1,0,0:0:0:0:
32,128,63064,1,8,0:0:0:0:
256,64,63147,1,8,0:0:0:0:
160,160,63230,1,0,0:0:0:0:
160,256,63314,1,0,0:0:0:0:
416,128,63397,1,0,0:0:0:0:
288,96,63453,1,8,0:0:0:0:
288,128,63508,1,8,0:0:0:0:
320,256,63564,1,8,0:0:0:0:
128,64,63619,1,8,0:0:0:0:
0,96,63730,1,8,0:0:0:0:
288,192,63814,1,0,0:0:0:0:
288,256,63897,1,8,0:0:0:0:
384,192,63980,1,0,0:0:0:0:
320,192,64064,1,0,0:0:0:0:
192,64,64147,1,8,0:0:0:0:
160,128,64230,5,8,0:0:0:0:
256,32,64314,1,0,0:0:0:0:
160,256,64397,1,8,0:0:0:0:
352,32,64480,1,8,0:0:0:0:
384,64,64564,1,8,0:0:0:0:
288,96,64647,1,0,0:0:0:0:
0,64,64730,1,8,0:0:0:0:
384,160,64814,1,0,0:0:0:0:
288,224,64897,1,8,0:0:0:0:
288,224,64980,1,8,0:0:0:0:
256,192,65064,1,0,0:0:0:0:
192,96,65147,1,8,0:0:0:0:
192,160,65230,1,8,0:0:0:0:
192,192,65314,1,8,0:0:0:0:
160,96,65397,1,0,0:0:0:0:
256,128,65480,1,0,0:0:0:0:
256,128,65564,1,8,0:0:0:0:
288,128,65647,1,8,0:0:0:0:
288,128,65730,1,8,0:0:0:0:
320,128,65814,1,0,0:0:0:0:
352,96,65897,1,8,0:0:0:0:
320,96,65980,1,8,0:0:0:0:
448,64,66064,1,0,0:0:0:0:
224,128,66175,1,8,0:0:0:0:
224,256,66286,1,8,0:0:0:0:
352,64,66397,1,8,0:0:0:0:
352,192,66508,1,8,0:0:0:0:
352,224,66619,1,8,0:0:0:0:
320,256,66730,1,0,0:0:0:0:
320,128,66786,1,8,0:0:0:0:
320,160,66842,1,8,0:0:0:0:
96,64,66897,1,8,0:0:0:0:
64,160,67008,1,0,0:0:0:0:
256,224,67064,1,8,0:0:0:0:
160,192,67230,1,8,0:0:0:0:
160,224,67286,1,8,0:0:0:0:
160,224,67342,1,8,0:0:0:0:
384,192,67397,1,0,0:0:0:0:
384,96,67508,1,8,0:0:0:0:
192,64,67564,1,0,0:0:0:0:
128,32,67647,1,8,0:0:0:0:
160,160,67730,1,8,0:0:0:0:
96,192,67814,1,0,0:0:0:0:
256,128,67897,1,0,0:0:0:0:
256,192,68064,1,8,0:0:0:0:
256,224,68230,1,0,0:0:0:0:
256,224,68397,1,8,0:0:0:0:
352,96,68730,1,4,0:0:0:0:
416,160,68897,5,12,0:0:0:0:
480,64,69230,1,12,0:0:0:0:
96,192,69564,1,4,0:0:0:0:
128,96,69897,1,8,0:0:0:0:
256,64,69980,1,8,0:0:0:0:
320,256,70064,1,8,0:0:0:0:
352,64,70147,1,0,0:0:0:0:
320,128,70314,5,0,0:0:0:0:
288,128,70397,1,8,0:0:0:0:
320,128,70564,1,8,0:0:0:0:
160,128,70730,1,0,0:0:0:0:
320,64,70814,1,8,0:0:0:0:
288,128,70897,1,8,0:0:0:0:
416,64,70980,1,8,0:0:0:0:
192,192,71064,1,8,0:0:0:0:
224,160,71147,1,0,0:0:0:0:
256,224,71230,1,0,0:0:0:0:
256,224,71314,1,0,0:0:0:0:
160,96,71397,1,8,0:0:0:0:
192,64,71453,1,8,0:0:0:0:
448,160,71508,1,0,0:0:0:0:
128,32,71564,1,8,0:0:0:0:
416,256,71619,1,8,0:0:0:0:
96,192,71730,1,0,0:0:0:0:
416,96,71814,1,8,0:0:0:0:
96,128,71897,1,0,0:0:0:0:
320,64,71980,1,0,0:0:0:0:
0,96,72064,1,0,0:0:0:0:
224,128,72119,1,8,0:0:0:0:
224,160,72175,1,0,0:0:0:0:
256,192,72230,1,8,0:0:0:0:
320,128,72314,1,0,0:0:0:0:
32,192,72397,1,8,0:0:0:0:
256,256,72480,1,8,0:0:0:0:
192,96,72564,1,0,0:0:0:0:
128,96,72619,1,8,0:0:0:0:
96,128,72675,1,8,0:0:0:0:
128,224,72730,1,0,0:0:0:0:
384,160,72786,5,8,0:0:0:0:
416,32,72897,1,0,0:0:0:0:
288,96,72980,1,0,0:0:0:0:
352,192,73064,1,8,0:0:0:0:
384,128,73147,1,0,0:0:0:0:
32,64,73230,1,8,0:0:0:0:
160,160,73314,1,0,0:0:0:0:
64,128,73397,1,0,0:0:0:0:
192,96,73453,1,8,0:0:0:0:
192,160,73508,1,0,0:0:0:0:
192,224,73564,1,8,0:0:0:0:
448,96,73619,1,8,0:0:0:0:
288,128,73730,1,0,0:0:0:0:
352,64,73814,1,0,0:0:0:0:
352,160,73897,1,0,0:0:0:0:
256,160,73980,1,0,0:0:0:0:
256,64,74064,1,8,0:0:0:0:
224,96,74147,1,0,0:0:0:0:
224,128,74230,1,0,0:0:0:0:
192,64,74314,1,8,0:0:0:0:
128,96,74397,1,8,0:0:0:0:
160,160,74480,1,0,0:0:0:0:
160,224,74564,1,8,0:0:0:0:
160,224,74647,1,8,0:0:0:0:
224,160,74730,1,8,0:0:0:0:
128,224,74814,1,0,0:0:0:0:
160,256,74897,1,0,0:0:0:0:
352,256,74980,1,8,0:0:0:0:
352,128,75064,1,0,0:0:0:0:
416,96,75147,1,0,0:0:0:0:
320,64,75230,1,8,0:0:0:0:
256,96,75314,1,0,0:0:0:0:
224,96,75397,1,8,0:0:0:0:
160,192,75480,1,8,0:0:0:0:
224,160,75564,1,0,0:0:0:0:
224,224,75647,1,8,0:0:0:0:
128,64,75730,1,0,0:0:0:0:
160,128,75814,1,0,0:0:0:0:
416,192,75897,1,0,0:0:0:0:
384,160,75980,1,0,0:0:0:0:
352,160,76064,1,8,0:0:0:0:
224,256,76147,1,8,0:0:0:0:
160,288,76230,1,8,0:0:0:0:
160,192,76314,1,0,0:0:0:0:
352,64,76397,1,8,0:0:0:0:
160,192,76480,1,8,0:0:0:0:
160,192,76564,1,0,0:0:0:0:
160,160,76647,1,8,0:0:0:0:
256,96,76730,1,0,0:0:0:0:
192,128,76842,1,0,0:0:0:0:
256,224,76953,1,0,0:0:0:0:
352,256,77064,1,8,0:0:0:0:
384,192,77175,1,0,0:0:0:0:
288,96,77286,1,8,0:0:0:0:
192,96,77397,1,8,0:0:0:0:
160,160,77453,1,0,0:0:0:0:
160,192,77508,1,8,0:0:0:0:
64,160,77564,1,8,0:0:0:0:
224,128,77675,1,0,0:0:0:0:
288,288,77730,1,8,0:0:0:0:
320,128,77897,1,8,0:0:0:0:
352,96,77953,1,0,0:0:0:0:
352,128,78008,1,0,0:0:0:0:
288,256,78064,1,0,0:0:0:0:
288,160,78175,1,8,0:0:0:0:
160,96,78230,1,0,0:0:0:0:
224,96,78314,1,8,0:0:0:0:
128,160,78397,1,0,0:0:0:0:
224,192,78480,1,8,0:0:0:0:
416,96,78564,1,8,0:0:0:0:
352,64,78730,1,8,0:0:0:0:
320,160,78897,1,8,0:0:0:0:
160,96,79064,1,8,0:0:0:0:
320,96,79397,1,4,0:0:0:0:
416,64,79564,1,12,0:0:0:0:
256,128,79897,1,12,0:0:0:0:
352,96,80230,1,4,0:0:0:0:
288,96,80564,1,12,0:0:0:0:
96,160,80897,1,8,0:0:0:0:
160,192,80953,1,8,0:0:0:0:
320,32,81008,1,8,0:0:0:0:
416,32,81064,1,0,0:0:0:0:
320,192,81230,1,0,0:0:0:0:
96,64,81397,1,0,0:0:0:0:
160,128,81564,1,0,0:0:0:0:
256,64,81730,1,8,0:0:0:0:
288,160,82064,1,0,0:0:0:0:
320,96,82397,1,8,0:0:0:0:
352,128,82730,1,0,0:0:0:0:
288,128,83064,1,0,0:0:0:0:
160,96,83397,1,8,0:0:0:0:
288,96,83508,1,8,0:0:0:0:
320,160,83730,1,0,0:0:0:0:
224,128,84064,1,8,0:0:0:0:
224,128,84175,1,8,0:0:0:0:
160,64,84397,1,8,0:0:0:0:
416,128,84564,1,8,0:0:0:0:
288,128,84730,1,0,0:0:0:0:
256,160,85064,1,8,0:0:0:0:
160,128,85230,1,0,0:0:0:0:
256,64,85397,1,8,0:0:0:0:
334,90,85480,1,0,0:0:0:0:
286,145,85564,5,0,0:0:0:0:
354,139,85647,1,0,0:0:0:0:
224,192,85730,1,8,0:0:0:0:
64,96,85897,1,0,0:0:0:0:
288,160,86064,1,8,0:0:0:0:
192,160,86230,1,8,0:0:0:0:
224,128,86397,1,0,0:0:0:0:
256,160,86564,1,8,0:0:0:0:
320,96,86730,1,0,0:0:0:0:
352,96,86814,1,0,0:0:0:0:
384,192,86897,1,8,0:0:0:0:
192,176,86980,1,8,0:0:0:0:
77,192,87064,1,0,0:0:0:0:
192,224,87230,1,8,0:0:0:0:
288,96,87397,1,0,0:0:0:0:
128,64,87730,1,8,0:0:0:0:
192,96,87897,1,0,0:0:0:0:
252,188,88064,1,0,0:0:0:0:
168,195,88147,1,8,0:0:0:0:
286,238,88230,1,8,0:0:0:0:
286,238,88314,1,8,0:0:0:0:
197,120,88397,1,0,0:0:0:0:
32,128,88564,1,8,0:0:0:0:
384,96,88730,1,0,0:0:0:0:
184,48,88897,1,0,0:0:0:0:
448,164,89064,1,8,0:0:0:0:
357,195,89230,1,0,0:0:0:0:
256,160,89397,1,8,0:0:0:0:
192,256,89564,1,0,0:0:0:0:
448,128,89730,1,8,0:0:0:0:
160,96,89897,1,8,0:0:0:0:
288,128,90064,1,0,0:0:0:0:
256,160,90398,1,8,0:0:0:0:
160,128,90564,1,0,0:0:0:0:
256,64,90731,1,8,0:0:0:0:
128,64,90842,1,0,0:0:0:0:
224,192,90953,1,0,0:0:0:0:
224,192,91064,1,8,0:0:0:0:
128,160,91230,1,0,0:0:0:0:
288,160,91398,1,8,0:0:0:0:
192,160,91564,1,8,0:0:0:0:
224,128,91731,1,0,0:0:0:0:
256,160,91898,1,8,0:0:0:0:
320,96,92064,1,0,0:0:0:0:
352,96,92148,1,0,0:0:0:0:
384,192,92231,1,8,0:0:0:0:
30,104,92314,5,8,0:0:0:0:
118,194,92397,1,0,0:0:0:0:
192,224,92564,1,8,0:0:0:0:
160,128,92730,1,8,0:0:0:0:
160,128,92786,1,8,0:0:0:0:
384,160,92842,1,8,0:0:0:0:
224,160,92897,1,0,0:0:0:0:
224,64,92953,1,8,0:0:0:0:
256,64,93008,1,8,0:0:0:0:
320,192,93064,1,8,0:0:0:0:
256,64,93230,5,8,0:0:0:0:
64,224,93397,1,0,0:0:0:0:
224,160,93564,1,0,0:0:0:0:
320,96,93730,1,8,0:0:0:0:
320,160,93897,1,8,0:0:0:0:
256,128,94064,1,0,0:0:0:0:
320,96,94119,1,0,0:0:0:0:
352,96,94230,1,0,0:0:0:0:
160,96,94342,1,0,0:0:0:0:
160,128,94397,1,8,0:0:0:0:
224,96,94508,1,0,0:0:0:0:
256,64,94619,1,0,0:0:0:0:
256,96,94675,1,0,0:0:0:0:
256,160,94730,1,8,0:0:0:0:
256,160,94786,1,0,0:0:0:0:
288,128,94897,1,8,0:0:0:0:
320,160,95008,1,0,0:0:0:0:
320,160,95064,1,8,0:0:0:0:
320,64,95397,1,8,0:0:0:0:
320,128,96397,1,8,0:0:0:0:
320,128,96564,1,8,0:0:0:0:
384,224,97730,1,8,0:0:0:0:
352,224,97897,1,8,0:0:0:0:
320,224,99064,1,8,0:0:0:0:
320,224,99230,1,8,0:0:0:0:
320,128,100397,1,8,0:0:0:0:
320,128,100564,1,8,0:0:0:0:
320,160,101730,1,8,0:0:0:0:
288,192,101897,1,8,0:0:0:0:
352,160,103064,1,8,0:0:0:0:
352,160,103230,1,8,0:0:0:0:
384,64,103397,1,0,0:0:0:0:
256,64,103480,1,0,0:0:0:0:
320,64,103564,1,8,0:0:0:0:
192,224,103675,1,0,0:0:0:0:
256,288,103730,1,0,0:0:0:0:
416,288,103786,1,0,0:0:0:0:
352,224,103897,1,8,0:0:0:0:
352,160,104008,1,0,0:0:0:0:
448,192,104064,1,0,0:0:0:0:
448,192,104119,1,0,0:0:0:0:
416,64,104230,1,8,0:0:0:0:
160,160,104314,1,8,0:0:0:0:
32,96,104397,1,0,0:0:0:0:
224,288,104480,1,0,0:0:0:0:
32,224,104564,1,8,0:0:0:0:
320,64,104675,1,8,0:0:0:0:
288,128,104730,1,0,0:0:0:0:
320,224,104786,1,0,0:0:0:0:
135,89,104842,1,0,0:0:0:0:
446,90,104897,1,8,0:0:0:0:
416,191,104980,1,0,0:0:0:0:
224,256,105064,1,8,0:0:0:0:
224,96,105147,1,8,0:0:0:0:
288,64,105230,1,0,0:0:0:0:
0,160,105342,1,0,0:0:0:0:
128,224,105397,1,8,0:0:0:0:
256,160,105730,1,0,0:0:0:0:
352,224,105814,1,8,0:0:0:0:
480,160,105897,1,0,0:0:0:0:
384,64,106064,1,0,0:0:0:0:
128,192,106314,1,0,0:0:0:0:
0,128,106397,1,8,0:0:0:0:
224,160,106564,1,8,0:0:0:0:
288,224,106647,1,0,0:0:0:0:
320,160,106731,1,0,0:0:0:0:
416,64,106897,1,8,0:0:0:0:
256,128,107064,1,8,0:0:0:0:
160,64,107147,1,0,0:0:0:0:
288,256,107397,1,0,0:0:0:0:
224,64,107647,1,0,0:0:0:0:
288,64,107731,1,8,0:0:0:0:
288,192,107897,1,0,0:0:0:0:
416,160,107980,1,0,0:0:0:0:
128,160,108064,1,8,0:0:0:0:
256,128,108147,1,0,0:0:0:0:
160,96,108231,1,8,0:0:0:0:
256,192,108314,1,0,0:0:0:0:
128,256,108397,1,0,0:0:0:0:
32,96,108480,1,8,0:0:0:0:
320,128,108731,1,0,0:0:0:0:
224,128,108981,1,0,0:0:0:0:
192,64,109064,1,8,0:0:0:0:
256,64,109231,1,0,0:0:0:0:
128,128,109314,1,0,0:0:0:0:
128,128,109397,1,8,0:0:0:0:
288,128,109564,1,0,0:0:0:0:
288,128,109647,1,0,0:0:0:0:
320,64,109731,1,8,0:0:0:0:
256,224,109897,1,8,0:0:0:0:
416,128,109980,1,0,0:0:0:0:
128,32,110064,1,8,0:0:0:0:
160,96,110147,1,8,0:0:0:0:
128,192,110230,1,0,0:0:0:0:
64,128,110397,1,0,0:0:0:0:
288,128,110564,1,0,0:0:0:0:
416,192,110647,1,8,0:0:0:0:
320,192,110814,1,0,0:0:0:0:
384,32,110897,1,8,0:0:0:0:
288,32,111064,1,8,0:0:0:0:
32,64,111147,1,0,0:0:0:0:
288,160,111397,1,0,0:0:0:0:
352,224,111647,5,0,0:0:0:0:
320,96,111730,1,8,0:0:0:0:
128,128,111814,1,0,0:0:0:0:
64,96,111897,1,8,0:0:0:0:
32,160,111980,1,8,0:0:0:0:
192,64,112064,1,0,0:0:0:0:
192,192,112231,1,0,0:0:0:0:
384,128,112314,1,0,0:0:0:0:
320,128,112397,1,8,0:0:0:0:
128,192,112480,1,8,0:0:0:0:
320,64,112731,1,0,0:0:0:0:
192,96,112814,1,8,0:0:0:0:
256,128,112897,1,8,0:0:0:0:
32,96,112980,1,0,0:0:0:0:
416,160,113064,1,8,0:0:0:0:
256,256,113147,1,0,0:0:0:0:
96,192,113314,1,8,0:0:0:0:
192,160,113397,1,0,0:0:0:0:
192,224,113481,1,0,0:0:0:0:
320,64,113564,1,8,0:0:0:0:
288,96,113647,1,0,0:0:0:0:
288,128,113731,1,8,0:0:0:0:
416,128,114064,1,8,0:0:0:0:
192,96,114175,1,8,0:0:0:0:
256,64,114231,1,8,0:0:0:0:
256,224,114342,1,8,0:0:0:0:
256,224,114397,1,0,0:0:0:0:
160,64,114453,1,8,0:0:0:0:
192,128,114564,1,0,0:0:0:0:
160,256,114647,1,0,0:0:0:0:
96,192,114731,1,8,0:0:0:0:
320,32,114786,1,8,0:0:0:0:
288,160,114842,1,8,0:0:0:0:
352,128,114897,1,0,0:0:0:0:
480,128,114980,1,8,0:0:0:0:
0,64,115064,1,0,0:0:0:0:
64,128,115147,1,0,0:0:0:0:
320,128,115231,1,8,0:0:0:0:
320,192,115314,1,8,0:0:0:0:
128,192,115397,1,0,0:0:0:0:
192,96,115453,1,0,0:0:0:0:
352,128,115564,1,8,0:0:0:0:
224,160,115647,1,8,0:0:0:0:
256,96,115731,1,0,0:0:0:0:
256,160,115786,1,8,0:0:0:0:
224,192,115842,1,8,0:0:0:0:
88,206,115897,1,0,0:0:0:0:
256,32,116009,1,0,0:0:0:0:
320,64,116064,1,8,0:0:0:0:
64,128,116397,1,8,0:0:0:0:
256,128,116480,1,0,0:0:0:0:
288,128,116564,1,8,0:0:0:0:
352,32,116730,1,0,0:0:0:0:
224,224,117063,1,8,0:0:0:0:
128,224,117230,1,0,0:0:0:0:
320,160,117396,1,8,0:0:0:0:
320,96,117563,1,0,0:0:0:0:
192,32,117646,1,0,0:0:0:0:
224,96,117730,1,8,0:0:0:0:
192,160,117813,1,0,0:0:0:0:
128,64,117896,1,0,0:0:0:0:
320,160,118063,1,0,0:0:0:0:
384,96,118146,1,0,0:0:0:0:
384,192,118230,1,8,0:0:0:0:
384,192,118313,1,0,0:0:0:0:
256,64,118396,1,8,0:0:0:0:
224,96,118730,1,0,0:0:0:0:
320,96,118813,1,0,0:0:0:0:
320,192,118896,1,0,0:0:0:0:
320,192,118980,1,0,0:0:0:0:
192,128,119063,1,8,0:0:0:0:
12,116,119230,1,8,0:0:0:0:
448,128,119397,1,0,0:0:0:0:
320,64,119563,1,0,0:0:0:0:
224,128,119646,1,0,0:0:0:0:
256,192,119730,1,8,0:0:0:0:
192,128,119896,1,0,0:0:0:0:
160,96,120063,1,8,0:0:0:0:
320,160,120230,1,0,0:0:0:0:
320,160,120313,1,0,0:0:0:0:
288,96,120396,1,8,0:0:0:0:
288,64,120563,1,0,0:0:0:0:
384,32,120730,1,8,0:0:0:0:
192,96,120813,1,0,0:0:0:0:
192,128,120896,1,0,0:0:0:0:
352,96,121063,1,8,0:0:0:0:
288,128,121146,1,8,0:0:0:0:
288,160,121230,1,0,0:0:0:0:
224,96,121313,1,0,0:0:0:0:
128,96,121480,1,0,0:0:0:0:
192,32,121563,1,8,0:0:0:0:
192,160,121646,1,0,0:0:0:0:
288,192,121730,1,8,0:0:0:0:
384,128,121813,1,8,0:0:0:0:
320,160,121896,1,0,0:0:0:0:
128,192,121980,1,8,0:0:0:0:
288,32,122063,1,0,0:0:0:0:
32,96,122146,1,8,0:0:0:0:
192,128,122313,1,0,0:0:0:0:
256,128,122396,1,8,0:0:0:0:
416,128,122564,1,8,0:0:0:0:
160,64,122646,1,0,0:0:0:0:
320,224,122730,1,0,0:0:0:0:
416,256,123064,5,8,0:0:0:0:
128,128,123397,1,0,0:0:0:0:
320,64,123730,1,8,0:0:0:0:
224,128,123813,1,0,0:0:0:0:
256,128,123896,1,8,0:0:0:0:
320,128,124063,1,0,0:0:0:0:
192,256,124230,1,0,0:0:0:0:
160,192,124397,1,8,0:0:0:0:
128,96,124563,1,0,0:0:0:0:
192,64,124730,1,8,0:0:0:0:
320,96,124896,1,8,0:0:0:0:
256,160,124980,1,8,0:0:0:0:
384,128,125063,1,0,0:0:0:0:
352,128,125119,1,0,0:0:0:0:
320,224,125174,1,8,0:0:0:0:
320,224,125230,1,0,0:0:0:0:
256,96,125285,1,8,0:0:0:0:
192,128,125396,1,8,0:0:0:0:
352,64,125480,1,0,0:0:0:0:
224,32,125563,1,0,0:0:0:0:
128,128,125674,1,8,0:0:0:0:
64,96,125730,1,0,0:0:0:0:
224,128,125785,1,8,0:0:0:0:
224,256,125841,1,8,0:0:0:0:
224,256,125896,1,8,0:0:0:0:
288,192,125980,1,0,0:0:0:0:
224,96,126063,1,0,0:0:0:0:
416,160,126230,1,0,0:0:0:0:
384,96,126396,1,8,0:0:0:0:
352,64,126563,1,0,0:0:0:0:
192,160,126730,1,0,0:0:0:0:
288,64,126813,1,8,0:0:0:0:
256,160,126980,1,8,0:0:0:0:
128,96,127146,1,8,0:0:0:0:
224,96,127230,1,0,0:0:0:0:
384,128,127396,1,0,0:0:0:0:
288,64,127730,1,8,0:0:0:0:
192,128,127980,1,8,0:0:0:0:
96,160,128063,1,0,0:0:0:0:
288,128,128230,1,8,0:0:0:0:
448,160,128313,1,8,0:0:0:0:
96,64,128397,1,8,0:0:0:0:
192,96,128480,1,0,0:0:0:0:
224,224,128563,1,8,0:0:0:0:
320,160,128730,1,8,0:0:0:0:
288,192,128813,1,0,0:0:0:0:
288,192,128896,1,0,0:0:0:0:
192,160,128980,1,0,0:0:0:0:
256,96,129063,1,8,0:0:0:0:
224,128,129146,1,0,0:0:0:0:
352,64,129313,1,0,0:0:0:0:
352,128,129480,1,0,0:0:0:0:
288,96,129563,1,8,0:0:0:0:
160,64,129730,1,8,0:0:0:0:
128,160,130063,1,0,0:0:0:0:
224,64,130146,1,0,0:0:0:0:
192,160,130230,1,8,0:0:0:0:
64,64,130397,1,8,0:0:0:0:
320,128,130480,1,0,0:0:0:0:
224,192,130646,1,8,0:0:0:0:
192,224,130730,1,0,0:0:0:0:
224,96,130896,1,8,0:0:0:0:
160,128,130980,1,8,0:0:0:0:
128,160,131063,1,8,0:0:0:0:
352,96,131230,1,0,0:0:0:0:
288,160,131396,1,0,0:0:0:0:
288,64,131480,1,0,0:0:0:0:
288,96,131563,1,8,0:0:0:0:
224,128,131646,1,0,0:0:0:0:
192,96,131730,1,0,0:0:0:0:
192,192,131813,1,8,0:0:0:0:
192,128,131896,1,0,0:0:0:0:
192,128,131980,1,8,0:0:0:0:
352,96,132063,1,8,0:0:0:0:
256,64,132146,1,8,0:0:0:0:
416,160,132230,1,0,0:0:0:0:
160,64,132313,1,0,0:0:0:0:
320,160,132396,1,8,0:0:0:0:
288,128,132564,1,0,0:0:0:0:
224,192,132675,1,8,0:0:0:0:
96,224,132731,1,0,0:0:0:0:
448,128,132897,1,0,0:0:0:0:
160,64,133064,1,8,0:0:0:0:
384,192,133175,1,8,0:0:0:0:
384,192,133231,1,0,0:0:0:0:
32,192,133397,1,0,0:0:0:0:
224,128,133564,1,0,0:0:0:0:
224,128,133675,1,8,0:0:0:0:
224,128,133731,1,0,0:0:0:0:
64,64,133897,1,0,0:0:0:0:
192,128,134064,1,0,0:0:0:0:
448,192,134175,1,8,0:0:0:0:
288,256,134231,1,0,0:0:0:0:
352,128,134314,1,8,0:0:0:0:
288,192,134397,1,0,0:0:0:0:
288,128,134481,1,0,0:0:0:0:
288,128,134564,1,8,0:0:0:0:
256,128,134647,1,8,0:0:0:0:
256,128,134731,1,8,0:0:0:0:
96,160,134814,1,0,0:0:0:0:
96,128,134897,1,8,0:0:0:0:
160,224,135064,1,8,0:0:0:0:
352,64,135231,1,0,0:0:0:0:
384,96,135314,1,0,0:0:0:0:
288,128,135397,1,8,0:0:0:0:
416,224,135564,1,0,0:0:0:0:
96,128,135730,1,8,0:0:0:0:
288,128,135897,1,0,0:0:0:0:
256,96,135981,1,8,0:0:0:0:
256,96,136147,1,8,0:0:0:0:
224,192,136231,1,0,0:0:0:0:
192,128,136397,1,8,0:0:0:0:
224,64,136509,1,0,0:0:0:0:
288,128,136564,1,0,0:0:0:0:
224,96,136620,1,0,0:0:0:0:
224,128,136675,1,0,0:0:0:0:
32,192,136731,1,8,0:0:0:0:
160,160,136786,1,0,0:0:0:0:
160,64,136842,1,0,0:0:0:0:
288,256,136897,1,0,0:0:0:0:
256,256,136953,1,8,0:0:0:0:
416,128,137064,1,0,0:0:0:0:
384,160,137147,1,8,0:0:0:0:
288,96,137231,1,0,0:0:0:0:
320,64,137314,1,0,0:0:0:0:
352,64,137397,1,8,0:0:0:0:
96,160,137453,1,0,0:0:0:0:
128,224,137509,1,8,0:0:0:0:
224,128,137564,1,8,0:0:0:0:
128,96,137619,1,8,0:0:0:0:
480,64,137675,1,8,0:0:0:0:
192,64,137731,1,0,0:0:0:0:
320,64,138064,1,0,0:0:0:0:
288,192,138397,1,8,0:0:0:0:
320,224,138731,1,8,0:0:0:0:
320,128,139064,1,8,0:0:0:0:
416,128,139397,1,8,0:0:0:0:
192,96,139481,1,0,0:0:0:0:
128,192,139564,1,8,0:0:0:0:
256,64,139647,1,0,0:0:0:0:
352,160,139730,1,0,0:0:0:0:
64,96,139814,1,0,0:0:0:0:
256,160,139897,1,8,0:0:0:0:
160,96,139981,1,0,0:0:0:0:
352,256,140064,1,8,0:0:0:0:
416,224,140147,1,0,0:0:0:0:
192,160,140231,1,8,0:0:0:0:
160,224,140286,1,0,0:0:0:0:
160,224,140342,1,0,0:0:0:0:
224,160,140397,1,8,0:0:0:0:
384,64,140481,1,8,0:0:0:0:
384,128,140564,1,0,0:0:0:0:
384,32,140647,1,8,0:0:0:0:
256,64,140731,1,0,0:0:0:0:
320,64,140786,1,0,0:0:0:0:
288,160,140842,1,0,0:0:0:0:
288,160,140897,1,8,0:0:0:0:
96,96,140981,1,0,0:0:0:0:
128,128,141064,1,8,0:0:0:0:
192,96,141147,1,0,0:0:0:0:
192,160,141231,1,8,0:0:0:0:
128,64,141286,1,8,0:0:0:0:
192,96,141342,1,8,0:0:0:0:
224,64,141397,1,0,0:0:0:0:
256,160,141453,1,8,0:0:0:0:
224,96,141564,1,8,0:0:0:0:
416,64,141647,1,0,0:0:0:0:
448,160,141730,1,8,0:0:0:0:
256,64,141814,1,8,0:0:0:0:
160,160,141897,1,0,0:0:0:0:
160,256,141981,1,0,0:0:0:0:
32,128,142064,1,0,0:0:0:0:
288,96,142120,1,8,0:0:0:0:
288,128,142175,1,8,0:0:0:0:
320,256,142231,1,8,0:0:0:0:
224,96,142286,1,8,0:0:0:0:
480,128,142397,1,8,0:0:0:0:
288,192,142481,1,0,0:0:0:0:
288,256,142564,1,8,0:0:0:0:
384,192,142647,1,0,0:0:0:0:
320,192,142731,1,0,0:0:0:0:
192,64,142814,1,8,0:0:0:0:
160,128,142897,5,8,0:0:0:0:
256,32,142981,1,0,0:0:0:0:
160,256,143064,1,8,0:0:0:0:
352,32,143147,1,8,0:0:0:0:
384,64,143231,1,8,0:0:0:0:
128,96,143314,1,0,0:0:0:0:
384,96,143397,1,8,0:0:0:0:
352,192,143480,1,8,0:0:0:0:
416,192,143564,1,0,0:0:0:0:
32,96,143647,1,8,0:0:0:0:
256,192,143731,1,0,0:0:0:0:
192,96,143814,1,8,0:0:0:0:
192,160,143897,1,8,0:0:0:0:
192,192,143981,1,8,0:0:0:0:
160,96,144064,1,0,0:0:0:0:
256,128,144147,1,0,0:0:0:0:
256,128,144231,1,8,0:0:0:0:
288,128,144314,1,8,0:0:0:0:
288,128,144397,1,8,0:0:0:0:
320,128,144481,1,0,0:0:0:0:
352,96,144564,1,8,0:0:0:0:
320,96,144647,1,8,0:0:0:0:
0,160,144730,1,0,0:0:0:0:
224,128,144842,1,8,0:0:0:0:
224,256,144953,1,8,0:0:0:0:
128,160,145064,1,0,0:0:0:0:
352,192,145175,1,8,0:0:0:0:
352,224,145286,1,8,0:0:0:0:
320,256,145397,1,0,0:0:0:0:
320,128,145453,1,8,0:0:0:0:
320,160,145509,1,8,0:0:0:0:
96,64,145564,1,8,0:0:0:0:
448,160,145675,5,0,0:0:0:0:
416,224,145730,1,8,0:0:0:0:
160,192,145897,1,8,0:0:0:0:
160,224,145953,1,8,0:0:0:0:
160,224,146009,1,8,0:0:0:0:
320,64,146064,1,0,0:0:0:0:
384,96,146175,1,8,0:0:0:0:
192,64,146231,1,0,0:0:0:0:
128,32,146314,1,8,0:0:0:0:
32,96,146397,1,8,0:0:0:0:
96,192,146481,1,0,0:0:0:0:
256,128,146564,1,0,0:0:0:0:
256,192,146731,1,8,0:0:0:0:
256,224,146897,1,0,0:0:0:0:
256,224,147064,1,8,0:0:0:0:
352,96,147397,1,4,0:0:0:0:
416,160,147564,5,12,0:0:0:0:
320,64,147897,1,12,0:0:0:0:
448,160,148230,5,4,0:0:0:0:
128,96,148564,1,8,0:0:0:0:
256,64,148647,1,8,0:0:0:0:
320,256,148731,1,8,0:0:0:0:
352,64,148814,1,0,0:0:0:0:
320,128,148981,5,0,0:0:0:0:
288,128,149064,1,8,0:0:0:0:
320,128,149231,1,8,0:0:0:0:
160,128,149397,1,0,0:0:0:0:
32,64,149480,1,8,0:0:0:0:
288,256,149564,1,8,0:0:0:0:
288,256,149647,1,8,0:0:0:0:
256,96,149730,1,0,0:0:0:0:
480,160,149814,1,8,0:0:0:0:
480,160,149897,1,8,0:0:0:0:
384,64,149980,1,8,0:0:0:0:
160,64,150064,1,0,0:0:0:0:
224,256,150119,1,0,0:0:0:0:
448,256,150175,1,8,0:0:0:0:
64,192,150230,1,0,0:0:0:0:
160,224,150286,1,0,0:0:0:0:
0,96,150397,1,8,0:0:0:0:
64,192,150480,1,0,0:0:0:0:
96,128,150564,1,0,0:0:0:0:
320,64,150647,1,0,0:0:0:0:
160,160,150731,1,8,0:0:0:0:
384,192,150786,1,0,0:0:0:0:
224,160,150842,1,0,0:0:0:0:
256,192,150897,1,8,0:0:0:0:
320,128,150981,1,0,0:0:0:0:
224,64,151064,1,8,0:0:0:0:
224,256,151147,1,8,0:0:0:0:
192,96,151231,1,0,0:0:0:0:
128,96,151286,1,8,0:0:0:0:
96,128,151342,1,8,0:0:0:0:
128,224,151397,1,0,0:0:0:0:
192,64,151453,1,8,0:0:0:0:
416,32,151564,1,0,0:0:0:0:
288,96,151647,1,0,0:0:0:0:
352,192,151731,1,8,0:0:0:0:
384,128,151814,1,0,0:0:0:0:
64,128,151897,1,8,0:0:0:0:
128,192,151980,1,0,0:0:0:0:
192,128,152064,1,8,0:0:0:0:
192,96,152120,1,8,0:0:0:0:
192,160,152175,1,0,0:0:0:0:
192,224,152231,1,8,0:0:0:0:
224,64,152286,1,0,0:0:0:0:
96,384,152397,1,8,0:0:0:0:
352,64,152481,1,0,0:0:0:0:
352,160,152564,1,0,0:0:0:0:
256,160,152647,1,0,0:0:0:0:
256,64,152731,1,8,0:0:0:0:
224,96,152814,1,0,0:0:0:0:
224,128,152897,1,0,0:0:0:0:
192,64,152981,1,8,0:0:0:0:
128,96,153064,1,8,0:0:0:0:
160,160,153147,1,0,0:0:0:0:
160,224,153231,1,8,0:0:0:0:
160,224,153314,1,8,0:0:0:0:
224,160,153397,1,8,0:0:0:0:
128,224,153481,1,0,0:0:0:0:
160,256,153564,1,0,0:0:0:0:
352,256,153647,1,8,0:0:0:0:
32,192,153730,1,8,0:0:0:0:
416,96,153814,1,0,0:0:0:0:
320,64,153897,1,8,0:0:0:0:
256,96,153981,1,0,0:0:0:0:
224,96,154064,1,8,0:0:0:0:
160,192,154147,1,8,0:0:0:0:
224,160,154231,1,0,0:0:0:0:
224,224,154314,1,8,0:0:0:0:
128,64,154397,1,0,0:0:0:0:
160,128,154481,1,0,0:0:0:0:
416,192,154564,1,0,0:0:0:0:
384,160,154647,1,0,0:0:0:0:
352,160,154731,1,8,0:0:0:0:
224,256,154814,1,8,0:0:0:0:
160,288,154897,1,8,0:0:0:0:
160,192,154981,1,0,0:0:0:0:
352,64,155064,1,8,0:0:0:0:
160,192,155147,1,8,0:0:0:0:
160,192,155231,1,0,0:0:0:0:
160,160,155314,1,8,0:0:0:0:
256,96,155397,1,0,0:0:0:0:
192,128,155509,1,0,0:0:0:0:
256,224,155620,1,0,0:0:0:0:
352,256,155731,1,8,0:0:0:0:
384,192,155842,1,0,0:0:0:0:
288,96,155953,1,8,0:0:0:0:
192,96,156064,1,8,0:0:0:0:
160,160,156120,1,0,0:0:0:0:
160,192,156175,1,8,0:0:0:0:
64,160,156231,1,8,0:0:0:0:
224,128,156342,1,0,0:0:0:0:
288,288,156397,1,8,0:0:0:0:
320,128,156564,1,8,0:0:0:0:
352,96,156620,1,0,0:0:0:0:
352,128,156675,1,0,0:0:0:0:
416,224,156730,1,8,0:0:0:0:
64,64,156842,1,0,0:0:0:0:
160,96,156897,1,0,0:0:0:0:
224,96,156981,1,8,0:0:0:0:
128,160,157064,1,0,0:0:0:0:
224,192,157147,1,8,0:0:0:0:
416,96,157231,1,8,0:0:0:0:
352,64,157397,1,8,0:0:0:0:
64,160,157564,1,0,0:0:0:0:
160,96,157731,1,8,0:0:0:0:
320,96,158064,1,4,0:0:0:0:
416,64,158231,1,12,0:0:0:0:
256,128,158564,1,12,0:0:0:0:
352,96,158897,1,4,0:0:0:0:
288,96,159231,1,12,0:0:0:0:
96,160,159564,1,8,0:0:0:0:
160,192,159620,1,8,0:0:0:0:
416,224,159675,1,8,0:0:0:0:
384,96,159730,1,0,0:0:0:0:
320,192,159897,1,0,0:0:0:0:
96,96,160064,1,0,0:0:0:0:
160,128,160231,1,0,0:0:0:0:
256,64,160397,1,8,0:0:0:0:
288,160,160731,1,0,0:0:0:0:
320,96,161064,1,8,0:0:0:0:
352,128,161397,1,0,0:0:0:0:
288,128,161731,1,0,0:0:0:0:
160,96,162064,1,8,0:0:0:0:
288,96,162175,1,8,0:0:0:0:
320,160,162397,1,0,0:0:0:0:
224,128,162731,1,8,0:0:0:0:
224,128,162842,1,8,0:0:0:0:
160,64,163064,1,8,0:0:0:0:
256,320,163230,1,8,0:0:0:0:
288,128,163397,1,0,0:0:0:0:
256,160,163731,1,8,0:0:0:0:
160,128,163897,1,0,0:0:0:0:
256,64,164064,1,8,0:0:0:0:
352,128,164147,1,0,0:0:0:0:
384,256,164230,1,0,0:0:0:0:
384,256,164314,1,0,0:0:0:0:
224,192,164397,1,8,0:0:0:0:
128,128,164564,1,0,0:0:0:0:
288,160,164731,1,8,0:0:0:0:
192,160,164897,1,8,0:0:0:0:
224,128,165064,1,0,0:0:0:0:
256,160,165231,1,8,0:0:0:0:
448,96,165397,1,0,0:0:0:0:
96,128,165480,1,0,0:0:0:0:
64,192,165564,1,8,0:0:0:0:
224,288,165647,1,8,0:0:0:0:
224,256,165730,1,0,0:0:0:0:
384,160,165897,1,8,0:0:0:0:
288,96,166064,1,0,0:0:0:0:
128,64,166397,1,8,0:0:0:0:
192,96,166564,1,0,0:0:0:0:
192,256,166730,1,8,0:0:0:0:
256,96,166814,1,0,0:0:0:0:
256,96,166897,1,0,0:0:0:0:
320,160,166980,1,0,0:0:0:0:
416,256,167064,1,8,0:0:0:0:
416,96,167230,1,8,0:0:0:0:
384,96,167397,1,0,0:0:0:0:
177,66,167480,1,8,0:0:0:0:
89,77,167564,1,8,0:0:0:0:
352,128,167731,1,0,0:0:0:0:
8,160,167897,1,8,0:0:0:0:
256,160,168064,1,8,0:0:0:0:
148,231,168119,1,8,0:0:0:0:
141,143,168175,5,8,0:0:0:0:
192,160,168230,1,8,0:0:0:0:
320,96,168396,1,0,0:0:0:0:
160,96,168563,1,8,0:0:0:0:
288,128,168730,1,0,0:0:0:0:
256,160,169064,1,8,0:0:0:0:
160,128,169230,1,0,0:0:0:0:
256,64,169397,1,8,0:0:0:0:
128,64,169508,1,0,0:0:0:0:
224,192,169619,1,0,0:0:0:0:
224,192,169730,1,8,0:0:0:0:
96,160,169897,1,0,0:0:0:0:
288,160,170064,1,8,0:0:0:0:
192,160,170230,1,8,0:0:0:0:
224,128,170397,1,0,0:0:0:0:
256,160,170564,1,8,0:0:0:0:
320,96,170730,1,0,0:0:0:0:
352,96,170814,1,0,0:0:0:0:
384,192,170897,1,8,0:0:0:0:
72,249,170980,1,8,0:0:0:0:
94,178,171064,1,0,0:0:0:0:
181,290,171147,1,8,0:0:0:0:
192,224,171230,1,8,0:0:0:0:
160,128,171396,1,8,0:0:0:0:
160,128,171452,1,8,0:0:0:0:
384,160,171508,1,8,0:0:0:0:
224,160,171563,1,0,0:0:0:0:
224,64,171619,1,8,0:0:0:0:
256,64,171674,1,8,0:0:0:0:
320,192,171730,1,8,0:0:0:0:
256,64,171896,5,8,0:0:0:0:
288,96,172063,1,8,0:0:0:0:
224,160,172230,1,0,0:0:0:0:
320,96,172396,1,8,0:0:0:0:
192,96,172480,1,8,0:0:0:0:
256,256,172564,1,0,0:0:0:0:
416,64,172730,1,0,0:0:0:0:
384,192,172786,1,0,0:0:0:0:
448,224,172842,1,0,0:0:0:0:
448,224,172897,1,8,0:0:0:0:
256,64,173008,1,8,0:0:0:0:
384,128,173064,1,8,0:0:0:0:
160,96,173230,1,0,0:0:0:0:
224,224,173397,1,8,0:0:0:0:
256,128,173453,1,8,0:0:0:0:
320,160,173508,1,0,0:0:0:0:
96,64,173564,1,8,0:0:0:0:
64,192,173619,1,8,0:0:0:0:
160,160,173675,1,0,0:0:0:0:
288,96,173730,1,8,0:0:0:0:
352,64,173786,1,8,0:0:0:0:
480,192,173842,1,0,0:0:0:0:
0,192,173897,1,8,0:0:0:0:
0,64,174064,1,0,0:0:0:0:
384,224,174119,1,8,0:0:0:0:
384,224,174175,1,8,0:0:0:0:
384,224,174230,1,0,0:0:0:0:
448,96,174314,1,8,0:0:0:0:
64,160,174397,1,8,0:0:0:0:
64,256,174480,1,0,0:0:0:0:
160,96,174564,1,0,0:0:0:0:
160,224,174619,1,8,0:0:0:0:
160,224,174675,1,8,0:0:0:0:
256,128,174730,1,0,0:0:0:0:
224,96,174786,1,0,0:0:0:0:
224,160,174842,1,8,0:0:0:0:
384,64,174897,1,8,0:0:0:0:
320,128,174953,1,0,0:0:0:0:
0,64,175008,1,8,0:0:0:0:
320,64,175064,1,8,0:0:0:0:
96,64,175175,1,0,0:0:0:0:
416,192,175230,1,0,0:0:0:0:
192,192,175286,1,8,0:0:0:0:
32,160,175397,1,8,0:0:0:0:
160,32,175453,1,8,0:0:0:0:
256,64,175508,5,8,0:0:0:0:
416,96,175564,1,0,0:0:0:0:
416,96,175619,1,8,0:0:0:0:
96,128,175730,1,0,0:0:0:0:
96,160,175786,1,8,0:0:0:0:
96,160,175842,1,8,0:0:0:0:
352,128,175897,1,0,0:0:0:0:
32,64,175953,1,8,0:0:0:0:
352,64,176064,1,0,0:0:0:0:
224,128,176119,1,8,0:0:0:0:
288,128,176230,1,8,0:0:0:0:
256,224,176286,5,0,0:0:0:0:
256,224,176342,1,0,0:0:0:0:
128,224,176397,1,8,0:0:0:0:
192,32,176453,1,0,0:0:0:0:
384,192,176564,1,0,0:0:0:0:
384,96,176730,1,0,0:0:0:0:
32,160,176786,1,0,0:0:0:0:
96,64,176842,1,0,0:0:0:0:
160,64,176897,1,8,0:0:0:0:
128,288,176980,1,0,0:0:0:0:
32,224,177064,5,8,0:0:0:0:
0,96,177147,1,0,0:0:0:0:
160,192,177230,1,0,0:0:0:0:
256,64,177286,1,0,0:0:0:0:
288,160,177342,1,0,0:0:0:0:
320,192,177397,1,8,0:0:0:0:
384,224,177453,1,0,0:0:0:0:
384,224,177508,1,0,0:0:0:0:
416,96,177564,1,8,0:0:0:0:
64,160,177619,1,0,0:0:0:0:
96,96,177675,1,0,0:0:0:0:
384,160,177730,1,8,0:0:0:0:
96,32,177842,1,0,0:0:0:0:
224,256,177897,1,0,0:0:0:0:
192,64,177953,1,8,0:0:0:0:
256,160,178064,5,0,0:0:0:0:
256,64,178119,1,0,0:0:0:0:
288,96,178175,1,0,0:0:0:0:
288,32,178230,1,8,0:0:0:0:
32,96,178286,1,0,0:0:0:0:
384,64,178397,5,8,0:0:0:0:
256,64,178453,1,0,0:0:0:0:
416,160,178508,1,0,0:0:0:0:
128,128,178564,1,8,0:0:0:0:
480,128,178619,1,0,0:0:0:0:
320,160,178730,1,8,0:0:0:0:
64,160,178786,1,0,0:0:0:0:
384,224,178897,1,0,0:0:0:0:
64,64,178953,1,8,0:0:0:0:
128,96,179008,1,8,0:0:0:0:
224,160,179064,5,0,0:0:0:0:
352,160,179119,1,8,0:0:0:0:
160,128,179230,1,8,0:0:0:0:
256,96,179397,1,0,0:0:0:0:
256,224,179453,1,8,0:0:0:0:
192,64,179508,1,8,0:0:0:0:
320,64,179564,1,0,0:0:0:0:
480,64,179647,1,8,0:0:0:0:
128,224,179730,1,8,0:0:0:0:
416,64,179814,1,0,0:0:0:0:
352,128,179897,1,0,0:0:0:0:
0,64,179953,1,8,0:0:0:0:
64,192,180008,1,8,0:0:0:0:
256,128,180064,1,8,0:0:0:0:
32,128,180119,1,0,0:0:0:0:
64,128,180175,1,0,0:0:0:0:
224,96,180230,1,0,0:0:0:0:
96,32,180286,1,8,0:0:0:0:
320,160,180342,1,8,0:0:0:0:
192,192,180397,1,8,0:0:0:0:
384,192,180508,1,0,0:0:0:0:
256,256,180564,1,0,0:0:0:0:
288,192,180619,1,8,0:0:0:0:
352,320,180730,1,8,0:0:0:0:
160,32,180786,1,8,0:0:0:0:
256,64,180841,5,8,0:0:0:0:
416,96,180897,1,0,0:0:0:0:
416,96,180952,1,8,0:0:0:0:
416,224,181008,1,8,0:0:0:0:
96,128,181063,1,0,0:0:0:0:
96,160,181119,1,8,0:0:0:0:
96,160,181175,1,8,0:0:0:0:
352,128,181230,1,0,0:0:0:0:
32,64,181286,1,8,0:0:0:0:
352,64,181397,1,0,0:0:0:0:
224,128,181452,1,8,0:0:0:0:
288,128,181563,1,8,0:0:0:0:
256,224,181619,5,0,0:0:0:0:
256,224,181675,1,0,0:0:0:0:
128,224,181730,1,8,0:0:0:0:
192,32,181786,1,0,0:0:0:0:
384,192,181897,1,0,0:0:0:0:
32,192,182064,1,0,0:0:0:0:
192,96,182119,1,0,0:0:0:0:
96,64,182175,1,0,0:0:0:0:
128,96,182230,1,8,0:0:0:0:
32,224,182286,1,0,0:0:0:0:
32,224,182342,1,0,0:0:0:0:
416,128,182397,1,8,0:0:0:0:
320,64,182564,1,8,0:0:0:0:
192,192,182619,1,8,0:0:0:0:
192,256,182675,1,8,0:0:0:0:
352,160,182730,1,0,0:0:0:0:
96,192,182786,1,8,0:0:0:0:
96,192,182842,1,8,0:0:0:0:
416,64,182897,1,0,0:0:0:0:
448,224,183064,1,8,0:0:0:0:
224,128,183230,1,8,0:0:0:0:
160,288,183286,1,8,0:0:0:0:
160,288,183342,1,8,0:0:0:0:
192,192,183397,1,0,0:0:0:0:
256,256,183453,1,8,0:0:0:0:
256,288,183508,1,8,0:0:0:0:
320,64,183564,1,8,0:0:0:0:
384,96,183675,1,8,0:0:0:0:
352,160,183730,1,0,0:0:0:0:
256,192,183786,1,8,0:0:0:0:
256,192,183842,1,8,0:0:0:0:
288,224,183897,1,8,0:0:0:0:
224,192,184008,1,8,0:0:0:0:
192,64,184064,1,0,0:0:0:0:
64,64,184119,1,8,0:0:0:0:
64,128,184175,1,8,0:0:0:0:
256,32,184230,1,8,0:0:0:0:
224,96,184286,1,0,0:0:0:0:
320,192,184342,1,8,0:0:0:0:
352,64,184397,1,8,0:0:0:0:
