osu file format v14

[General]
AudioFilename: audio.mp3
AudioLeadIn: 0
PreviewTime: 0
Countdown: 0
SampleSet: Normal
StackLeniency: 0.7
Mode: 1
LetterboxInBreaks: 0
WidescreenStoryboard: 0

[Editor]
DistanceSpacing: 0.5
BeatDivisor: 2
GridSize: 32
TimelineZoom: 2.270002

[Metadata]
Title:Ai Sakura
TitleUnicode:藍桜
Artist:Sakuya [CV-Sakakibara Yui]
ArtistUnicode:サクヤ [CV-榊原ゆい]
Creator:kiminokokoro
Version:Futsuu
Source:Stella Glow
Tags:yassu- cherry blossom ステラ グロウ sega atlus nintendo 3ds fire witch 火の魔女 game セが 星光幻歌
BeatmapID:1039501
BeatmapSetID:483600

[Difficulty]
HPDrainRate:6
CircleSize:2
OverallDifficulty:4
ApproachRate:5
SliderMultiplier:1.4
SliderTickRate:1

[Events]
//Background and Video events
0,0,"Stella Glow.jpg",0,100
//Break Periods
2,95597,102197
//Storyboard Layer 0 (Background)
//Storyboard Layer 1 (Fail)
//Storyboard Layer 2 (Pass)
//Storyboard Layer 3 (Foreground)
//Storyboard Sound Samples

[TimingPoints]
731,333.333333333333,4,1,0,90,1,0
731,-111.111111111111,4,1,0,90,0,0
6064,-100,4,1,0,80,0,0
16730,-100,4,1,0,60,0,0
24730,-100,4,1,0,90,0,0
27397,-100,4,1,0,80,0,0
35397,-100,4,1,0,90,0,0
38064,-100,4,1,0,80,0,0
59397,-111.111111111111,4,1,0,60,0,0
60730,-100,4,1,0,90,0,1
84730,-100,4,1,0,80,0,0
95397,-111.111111111111,4,1,0,60,0,0
103397,-100,4,1,0,90,0,0
106064,-100,4,1,0,80,0,0
114064,-100,4,1,0,90,0,0
116730,-100,4,1,0,80,0,0
138064,-111.111111111111,4,1,0,60,0,0
139397,-100,4,1,0,90,0,1
163397,-100,4,1,0,80,0,0
174064,-100,4,1,0,90,0,1
184730,-100,4,1,0,90,0,0

[HitObjects]
288,160,731,5,0,0:0:0:0:
32,160,1397,1,8,0:0:0:0:
256,128,2064,1,0,0:0:0:0:
128,128,2730,1,8,0:0:0:0:
448,64,3397,1,0,0:0:0:0:
288,128,4064,1,8,0:0:0:0:
224,96,4730,1,0,0:0:0:0:
320,128,6064,1,0,0:0:0:0:
96,128,6730,1,0,0:0:0:0:
160,160,7397,1,8,0:0:0:0:
128,160,8730,1,0,0:0:0:0:
256,32,9397,1,8,0:0:0:0:
160,256,9730,1,8,0:0:0:0:
256,128,10064,1,0,0:0:0:0:
480,160,10397,1,0,0:0:0:0:
320,96,10730,1,8,0:0:0:0:
288,192,11397,1,0,0:0:0:0:
320,96,12064,1,8,0:0:0:0:
224,128,12397,1,8,0:0:0:0:
160,160,12730,1,0,0:0:0:0:
192,96,13397,1,8,0:0:0:0:
320,192,14064,1,0,0:0:0:0:
352,128,14397,1,8,0:0:0:0:
352,64,14730,1,0,0:0:0:0:
352,160,15064,1,8,0:0:0:0:
256,96,15397,2,0,B|96:96|32:96|128:96,2,210
448,96,16730,1,8,0:0:0:0:
320,160,17730,1,8,0:0:0:0:
192,192,18730,1,8,0:0:0:0:
128,96,19397,1,8,0:0:0:0:
288,96,20064,1,8,0:0:0:0:
288,160,20564,1,8,0:0:0:0:
384,96,20897,1,0,0:0:0:0:
224,160,21230,1,0,0:0:0:0:
224,96,21564,1,0,0:0:0:0:
320,96,22064,1,8,0:0:0:0:
192,192,22730,1,8,0:0:0:0:
384,96,23397,1,0,0:0:0:0:
224,160,24064,1,0,0:0:0:0:
320,96,24730,1,8,0:0:0:0:
192,160,25230,1,8,0:0:0:0:
320,128,25897,1,0,0:0:0:0:
128,224,26397,1,0,0:0:0:0:
256,256,26730,1,8,0:0:0:0:
320,192,27397,1,0,0:0:0:0:
224,192,28064,1,0,0:0:0:0:
320,96,28730,1,0,0:0:0:0:
160,128,29397,1,0,0:0:0:0:
288,96,30064,1,0,0:0:0:0:
384,128,30730,1,8,0:0:0:0:
256,128,31397,1,8,0:0:0:0:
192,128,32064,1,0,0:0:0:0:
352,64,32730,1,0,0:0:0:0:
5,131,33064,1,8,0:0:0:0:
128,160,33397,1,0,0:0:0:0:
224,96,34064,1,0,0:0:0:0:
375,182,34397,1,8,0:0:0:0:
256,224,34730,1,0,0:0:0:0:
224,96,35397,1,0,0:0:0:0:
96,160,35897,1,0,0:0:0:0:
64,64,36564,1,8,0:0:0:0:
96,160,37064,1,8,0:0:0:0:
448,64,37397,1,8,0:0:0:0:
352,96,38064,1,0,0:0:0:0:
224,64,38397,1,8,0:0:0:0:
288,160,38730,1,0,0:0:0:0:
128,128,39730,1,8,0:0:0:0:
256,224,40064,1,0,0:0:0:0:
384,128,40397,1,8,0:0:0:0:
160,256,41064,1,0,0:0:0:0:
224,224,41397,1,8,0:0:0:0:
192,128,42064,1,8,0:0:0:0:
224,128,42730,1,0,0:0:0:0:
448,256,43064,1,8,0:0:0:0:
384,128,43397,1,0,0:0:0:0:
288,64,44730,1,0,0:0:0:0:
352,128,45064,1,0,0:0:0:0:
128,0,46064,1,8,0:0:0:0:
192,192,46397,1,8,0:0:0:0:
128,128,47064,1,8,0:0:0:0:
352,160,47397,1,8,0:0:0:0:
256,256,48064,1,8,0:0:0:0:
32,192,48730,1,0,0:0:0:0:
288,128,49064,1,8,0:0:0:0:
320,192,49397,1,0,0:0:0:0:
96,128,50397,1,0,0:0:0:0:
352,160,51064,1,8,0:0:0:0:
256,96,51397,1,0,0:0:0:0:
96,128,51897,1,0,0:0:0:0:
192,96,52230,1,8,0:0:0:0:
256,64,52564,1,0,0:0:0:0:
160,224,53397,1,8,0:0:0:0:
224,192,53897,1,8,0:0:0:0:
288,96,54397,1,8,0:0:0:0:
128,96,54730,1,0,0:0:0:0:
384,96,55230,1,8,0:0:0:0:
160,160,55897,1,0,0:0:0:0:
416,96,56564,1,8,0:0:0:0:
256,192,56730,12,0,59064,0:0:0:0:
384,128,59397,5,8,0:0:0:0:
160,224,60064,1,8,0:0:0:0:
224,128,60730,1,0,0:0:0:0:
307,249,61230,1,0,0:0:0:0:
183,155,61564,1,8,0:0:0:0:
367,148,62064,1,0,0:0:0:0:
126,97,62564,1,8,0:0:0:0:
248,171,63064,1,0,0:0:0:0:
326,120,63397,1,0,0:0:0:0:
128,96,63897,1,8,0:0:0:0:
250,133,64564,1,8,0:0:0:0:
78,109,65064,1,0,0:0:0:0:
288,64,65397,1,8,0:0:0:0:
172,178,66064,1,8,0:0:0:0:
160,64,67064,1,8,0:0:0:0:
43,265,67730,1,8,0:0:0:0:
128,96,68064,1,8,0:0:0:0:
330,178,68730,1,4,0:0:0:0:
352,96,69230,1,8,0:0:0:0:
224,224,69564,1,0,0:0:0:0:
160,128,69897,1,8,0:0:0:0:
260,85,70730,1,8,0:0:0:0:
131,163,71397,5,0,0:0:0:0:
259,300,72064,1,8,0:0:0:0:
263,264,72730,1,0,0:0:0:0:
143,323,73230,1,0,0:0:0:0:
175,189,73730,1,0,0:0:0:0:
237,160,74064,1,0,0:0:0:0:
165,111,74564,1,0,0:0:0:0:
352,64,74897,1,8,0:0:0:0:
320,192,75230,1,8,0:0:0:0:
112,192,75730,1,0,0:0:0:0:
174,246,76064,1,8,0:0:0:0:
141,144,76730,1,8,0:0:0:0:
316,80,77730,5,8,0:0:0:0:
414,227,78064,1,8,0:0:0:0:
83,106,78730,1,8,0:0:0:0:
290,120,79397,1,4,0:0:0:0:
320,224,79897,1,8,0:0:0:0:
352,128,80230,1,0,0:0:0:0:
195,160,80564,1,12,0:0:0:0:
317,126,81397,1,0,0:0:0:0:
171,110,81730,1,8,0:0:0:0:
249,135,82064,1,8,0:0:0:0:
280,242,82730,1,0,0:0:0:0:
122,198,83064,1,8,0:0:0:0:
121,162,83397,1,0,0:0:0:0:
270,119,84397,1,0,0:0:0:0:
320,128,84730,1,0,0:0:0:0:
320,160,85230,1,0,0:0:0:0:
256,128,85730,1,0,0:0:0:0:
256,128,86230,1,0,0:0:0:0:
256,160,86730,1,0,0:0:0:0:
255,178,87397,1,0,0:0:0:0:
51,105,87897,1,0,0:0:0:0:
160,256,88397,1,8,0:0:0:0:
160,128,89064,1,0,0:0:0:0:
333,120,89397,5,8,0:0:0:0:
162,99,90064,5,0,0:0:0:0:
160,224,90564,1,0,0:0:0:0:
224,128,91064,1,8,0:0:0:0:
352,224,91397,1,8,0:0:0:0:
105,186,92064,1,8,0:0:0:0:
320,192,92730,1,0,0:0:0:0:
160,96,94064,2,0,L|32:192,4,140.000000596046
256,128,103397,5,0,0:0:0:0:
160,192,103897,1,0,0:0:0:0:
320,128,104564,1,0,0:0:0:0:
160,160,105064,1,0,0:0:0:0:
256,256,105397,1,8,0:0:0:0:
320,192,106064,1,0,0:0:0:0:
160,96,106397,1,8,0:0:0:0:
224,192,106730,1,0,0:0:0:0:
320,96,107397,1,0,0:0:0:0:
256,128,107730,1,8,0:0:0:0:
198,80,108064,1,8,0:0:0:0:
288,96,108730,1,0,0:0:0:0:
224,192,109064,1,0,0:0:0:0:
384,128,109397,1,8,0:0:0:0:
256,128,110064,1,8,0:0:0:0:
384,128,110397,1,8,0:0:0:0:
224,64,111064,1,8,0:0:0:0:
352,64,111397,1,0,0:0:0:0:
123,80,111730,5,8,0:0:0:0:
352,96,112397,1,8,0:0:0:0:
224,96,112730,1,0,0:0:0:0:
352,108,113064,1,8,0:0:0:0:
352,64,113730,1,8,0:0:0:0:
224,96,114064,1,0,0:0:0:0:
96,160,114564,1,0,0:0:0:0:
320,256,115230,1,0,0:0:0:0:
128,128,115730,1,8,0:0:0:0:
448,64,116064,1,8,0:0:0:0:
352,96,116730,1,0,0:0:0:0:
224,64,117064,1,8,0:0:0:0:
288,160,117397,1,0,0:0:0:0:
288,96,118064,1,0,0:0:0:0:
128,128,118397,1,8,0:0:0:0:
384,128,119064,1,8,0:0:0:0:
128,128,119730,1,0,0:0:0:0:
288,64,120064,1,8,0:0:0:0:
288,128,120397,5,0,0:0:0:0:
192,128,120730,1,8,0:0:0:0:
224,128,121397,1,0,0:0:0:0:
448,256,121730,1,8,0:0:0:0:
384,128,122064,1,0,0:0:0:0:
256,160,122730,1,0,0:0:0:0:
288,128,123064,1,8,0:0:0:0:
288,64,123397,1,0,0:0:0:0:
192,128,124064,1,8,0:0:0:0:
128,0,124730,1,8,0:0:0:0:
352,160,125397,1,8,0:0:0:0:
128,128,125730,1,8,0:0:0:0:
352,160,126064,1,8,0:0:0:0:
256,256,126730,1,8,0:0:0:0:
192,128,127397,1,0,0:0:0:0:
288,128,127730,1,8,0:0:0:0:
320,192,128064,1,0,0:0:0:0:
224,224,128564,5,0,0:0:0:0:
160,96,129064,1,0,0:0:0:0:
96,160,129397,1,8,0:0:0:0:
256,96,130064,1,0,0:0:0:0:
192,96,130564,1,0,0:0:0:0:
224,96,131230,1,8,0:0:0:0:
160,192,131730,1,8,0:0:0:0:
160,224,132064,1,8,0:0:0:0:
224,192,132564,1,8,0:0:0:0:
288,96,133064,1,8,0:0:0:0:
128,96,133397,1,0,0:0:0:0:
224,64,133897,1,8,0:0:0:0:
160,160,134564,1,0,0:0:0:0:
256,160,134897,1,8,0:0:0:0:
416,96,135230,1,8,0:0:0:0:
256,192,135397,12,0,137730,0:0:0:0:
384,128,138064,5,8,0:0:0:0:
160,224,138730,1,8,0:0:0:0:
224,128,139397,1,0,0:0:0:0:
307,249,139897,1,0,0:0:0:0:
183,155,140230,1,8,0:0:0:0:
367,148,140730,1,0,0:0:0:0:
126,97,141230,1,8,0:0:0:0:
248,171,141730,1,0,0:0:0:0:
326,120,142064,1,0,0:0:0:0:
192,96,142564,1,8,0:0:0:0:
250,133,143230,1,8,0:0:0:0:
78,109,143730,1,0,0:0:0:0:
226,101,144064,1,8,0:0:0:0:
115,102,144397,1,8,0:0:0:0:
172,178,144730,1,8,0:0:0:0:
263,153,145730,5,0,0:0:0:0:
106,127,146064,6,8,L|327:117,2,210
330,178,147397,1,4,0:0:0:0:
256,64,147897,1,8,0:0:0:0:
192,128,148230,1,0,0:0:0:0:
192,192,148564,1,8,0:0:0:0:
260,85,149397,1,8,0:0:0:0:
131,163,150064,5,0,0:0:0:0:
264,382,150564,1,8,0:0:0:0:
192,64,150897,1,8,0:0:0:0:
263,264,151397,1,0,0:0:0:0:
143,323,151897,1,0,0:0:0:0:
175,189,152397,1,0,0:0:0:0:
237,160,152730,1,0,0:0:0:0:
165,111,153230,1,0,0:0:0:0:
299,57,153564,1,8,0:0:0:0:
250,126,154064,1,8,0:0:0:0:
112,192,154397,1,0,0:0:0:0:
174,246,154730,1,8,0:0:0:0:
141,144,155397,1,8,0:0:0:0:
316,80,156397,5,8,0:0:0:0:
414,227,156730,1,8,0:0:0:0:
183,193,157064,1,0,0:0:0:0:
83,106,157397,1,8,0:0:0:0:
290,120,158064,1,4,0:0:0:0:
352,224,158564,1,8,0:0:0:0:
384,160,158897,1,0,0:0:0:0:
195,160,159230,1,12,0:0:0:0:
317,126,160064,1,0,0:0:0:0:
171,110,160397,1,8,0:0:0:0:
249,135,160730,1,8,0:0:0:0:
280,242,161397,1,0,0:0:0:0:
122,198,161730,1,8,0:0:0:0:
121,162,162064,1,0,0:0:0:0:
408,170,163397,1,0,0:0:0:0:
408,202,163897,1,0,0:0:0:0:
344,170,164397,1,0,0:0:0:0:
408,138,164730,1,0,0:0:0:0:
344,202,165397,1,0,0:0:0:0:
440,138,165730,1,8,0:0:0:0:
216,202,166064,1,0,0:0:0:0:
139,147,166564,1,0,0:0:0:0:
248,298,167064,1,8,0:0:0:0:
248,170,167730,1,0,0:0:0:0:
408,138,168064,1,8,0:0:0:0:
376,234,168730,1,0,0:0:0:0:
248,266,169230,1,0,0:0:0:0:
312,170,169730,1,8,0:0:0:0:
440,266,170064,1,8,0:0:0:0:
128,96,170730,5,0,0:0:0:0:
160,96,171397,1,4,0:0:0:0:
160,160,171564,1,12,0:0:0:0:
384,96,171897,1,12,0:0:0:0:
96,160,172230,1,4,0:0:0:0:
192,64,172564,1,12,0:0:0:0:
251,172,172730,2,0,L|382:179,4,105.000000447034
352,96,174064,1,0,0:0:0:0:
143,230,174564,1,0,0:0:0:0:
0,128,175064,1,8,0:0:0:0:
251,162,175397,1,0,0:0:0:0:
222,257,175897,1,8,0:0:0:0:
352,96,176397,1,8,0:0:0:0:
255,221,176730,1,0,0:0:0:0:
105,153,177230,1,0,0:0:0:0:
121,217,177730,1,8,0:0:0:0:
246,157,178230,1,0,0:0:0:0:
265,213,178730,1,8,0:0:0:0:
243,77,179397,1,0,0:0:0:0:
268,178,179897,1,0,0:0:0:0:
151,129,180397,1,8,0:0:0:0:
256,64,180730,1,0,0:0:0:0:
274,194,181230,1,0,0:0:0:0:
153,182,181730,1,8,0:0:0:0:
416,64,182064,1,4,0:0:0:0:
416,160,182230,1,12,0:0:0:0:
163,148,182564,1,12,0:0:0:0:
263,129,182897,1,4,0:0:0:0:
256,192,183230,12,4,184397,0:0:0:0:
