osu file format v14

[General]
AudioFilename: audio.mp3
AudioLeadIn: 0
PreviewTime: 60768
Countdown: 0
SampleSet: Soft
StackLeniency: 0.7
Mode: 0
LetterboxInBreaks: 0
WidescreenStoryboard: 0

[Editor]
Bookmarks: 23061,28395,38973,54884
DistanceSpacing: 1.3
BeatDivisor: 4
GridSize: 16
TimelineZoom: 1.2

[Metadata]
Title:Don't say "lazy" (TV size Ver.)
TitleUnicode:Don’t say “lazy”(TV size Ver.)
Artist:Sakurakou K-ON Bu
ArtistUnicode:桜高軽音部
Creator:Asuka_-
Version:Yasai's Hard
Source:けいおん!
Tags:HTT 平沢唯 秋山澪 田井中律 琴吹紬 豊崎愛生 日笠陽子佐藤聡美 寿美菜子 Hirasawa Yui Akiyama Mio Tainaka Ritsu Kotobuki Tsumugi Toyosaki Aki Hikasa Youko Satou satomi Kotobuki Minako K-ON! Yasaija 714
BeatmapID:1397849
BeatmapSetID:659531

[Difficulty]
HPDrainRate:5
CircleSize:4
OverallDifficulty:7
ApproachRate:8
SliderMultiplier:1.4
SliderTickRate:1

[Events]
//Background and Video events
0,0,"1920x1080xee66dbc2b80f1b48d3778e.jpg",0,0
//Break Periods
//Storyboard Layer 0 (Background)
//Storyboard Layer 1 (Fail)
//Storyboard Layer 2 (Pass)
//Storyboard Layer 3 (Foreground)
//Storyboard Sound Samples

[TimingPoints]
520,331.491712707182,4,2,1,60,1,0
25630,-100,4,2,1,20,0,0
25713,-100,4,2,1,60,0,0
28365,-125,4,2,1,60,0,0
33669,-100,4,2,1,60,0,0
38973,-111.111111111111,4,2,1,60,0,0
54884,-100,4,2,1,60,0,0
60188,-133.333333333333,4,2,1,60,0,0
60851,331.491712707182,4,2,1,80,1,1
60851,-90.9090909090909,4,2,1,80,0,1
82066,-100,4,2,1,60,0,0

[Colours]
Combo1 : 0,108,108
Combo2 : 157,157,255
Combo3 : 170,0,0
Combo4 : 255,168,255

[HitObjects]
85,315,520,5,4,0:0:0:0:
85,315,851,1,4,0:0:0:0:
85,315,1182,6,0,L|77:275,2,35,8|8|8,0:0|0:0|0:0,0:0:0:0:
187,285,1514,2,0,L|193:250,2,35,8|8|8,0:0|0:0|0:0,0:0:0:0:
284,330,1845,6,0,P|332:336|369:336,1,70,4|0,0:0|0:0,0:0:0:0:
459,343,2177,2,0,P|458:309|452:273,1,70,8|0,0:0|0:0,0:0:0:0:
371,209,2508,1,2,0:0:0:0:
371,209,2674,1,2,0:0:0:0:
470,176,2840,2,0,P|454:142|421:118,1,70,8|0,0:0|0:0,0:0:0:0:
288,148,3171,6,0,P|196:152|138:134,2,140,2|8|2,0:0|0:0|0:0,0:0:0:0:
338,72,4000,1,2,0:0:0:0:
338,72,4166,2,0,P|336:39|325:0,1,70,8|0,0:0|0:0,0:0:0:0:
190,34,4497,5,4,0:0:0:0:
157,242,4829,2,0,P|194:246|235:246,1,70,8|0,0:0|0:0,0:0:0:0:
326,211,5160,2,0,P|363:207|404:207,1,70,2|2,0:0|0:0,0:0:0:0:
490,258,5492,1,8,0:0:0:0:
490,258,5658,1,0,0:0:0:0:
391,352,5823,6,0,B|366:344|332:356|332:356|313:349|313:349|285:362|236:354,1,140,2|8,0:0|0:0,0:0:0:0:
58,277,6486,1,2,0:0:0:0:
58,277,6652,1,2,0:0:0:0:
133,353,6818,2,0,P|140:315|144:265,1,70,8|0,0:0|0:0,0:0:0:0:
76,165,7149,6,0,P|125:170|161:170,1,70,4|0,0:0|0:0,0:0:0:0:
246,135,7481,2,0,B|242:219|242:219|265:272,2,140,8|2|8,0:0|0:0|0:0,0:0:0:0:
305,47,8310,1,0,0:0:0:0:
426,114,8475,6,0,P|385:113|350:105,1,70,2|0,0:0|0:0,0:0:0:0:
503,87,8807,2,0,P|502:128|494:163,1,70,8|0,0:0|0:0,0:0:0:0:
399,251,9138,2,0,P|328:247|260:272,1,140,2|8,0:0|0:0,0:0:0:0:
194,352,9636,1,0,0:0:0:0:
88,265,9801,6,0,L|100:192,1,70,12|0,0:0|0:0,0:0:0:0:
197,154,10133,2,0,L|208:223,1,70,8|0,0:0|0:0,0:0:0:0:
305,181,10464,2,0,L|317:112,2,70,8|2|8,0:0|0:0|0:0,0:0:0:0:
379,258,10961,1,0,0:0:0:0:
464,143,11127,6,0,L|475:212,1,70,8|0,0:0|0:0,0:0:0:0:
367,327,11459,2,0,L|378:257,1,70,8|0,0:0|0:0,0:0:0:0:
305,181,11790,2,0,L|297:133,2,35,10|2|2,0:0|0:0|0:0,0:0:0:0:
219,244,12122,2,0,L|213:278,2,35,10|2|2,0:0|0:0|0:0,0:0:0:0:
107,201,12453,5,4,0:0:0:0:
242,39,12785,2,0,P|281:39|319:45,1,70,8|0,0:0|0:0,0:0:0:0:
371,134,13116,2,0,P|398:106|429:83,1,70,2|2,0:0|0:0,0:0:0:0:
477,182,13448,1,8,0:0:0:0:
477,182,13613,1,0,0:0:0:0:
362,239,13779,6,0,P|291:229|261:227,1,70,2|0,0:0|0:0,0:0:0:0:
183,237,14111,2,0,P|227:180|243:155,1,70,8|0,0:0|0:0,0:0:0:0:
274,82,14442,2,0,P|300:148|314:175,1,70,2|2,0:0|0:0,0:0:0:0:
362,239,14774,2,0,P|433:229|463:227,1,70,8|0,0:0|0:0,0:0:0:0:
469,329,15105,5,4,0:0:0:0:
259,354,15437,2,0,P|251:313|250:261,1,70,8|0,0:0|0:0,0:0:0:0:
225,181,15768,2,0,P|187:188|150:187,1,70,2|2,0:0|0:0,0:0:0:0:
54,159,16100,1,8,0:0:0:0:
54,159,16265,1,0,0:0:0:0:
127,41,16431,6,0,L|206:50,1,70,2|0,0:0|0:0,0:0:0:0:
309,100,16763,2,0,L|230:109,1,70,8|0,0:0|0:0,0:0:0:0:
155,187,17094,2,0,P|157:221|164:256,1,70,2|2,0:0|0:0,0:0:0:0:
259,354,17426,2,0,P|251:313|250:261,1,70,8|0,0:0|0:0,0:0:0:0:
327,186,17757,5,4,0:0:0:0:
482,341,18089,2,0,P|409:350|324:341,1,140,8|2,0:0|0:0,0:0:0:0:
249,284,18586,1,2,0:0:0:0:
249,284,18752,2,0,P|252:242|243:196,1,70,8|0,0:0|0:0,0:0:0:0:
148,146,19083,6,0,B|187:108|187:108|188:21,2,140,2|8|2,0:0|0:0|0:0,0:0:0:0:
53,193,19912,1,2,0:0:0:0:
53,193,20078,2,0,L|53:265,1,70,8|0,0:0|0:0,0:0:0:0:
127,357,20409,6,0,P|156:338|189:326,1,70,12|0,0:0|0:0,0:0:0:0:
126,242,20740,2,0,P|160:240|195:246,1,70,8|0,0:0|0:0,0:0:0:0:
182,141,21072,1,8,0:0:0:0:
182,141,21238,1,2,0:0:0:0:
277,209,21403,2,0,P|311:210|346:204,1,70,8|0,0:0|0:0,0:0:0:0:
426,108,21735,6,0,L|438:188,1,70,8|0,0:0|0:0,0:0:0:0:
334,120,22066,2,0,L|344:50,1,70,8|0,0:0|0:0,0:0:0:0:
240,106,22398,2,0,L|246:149,2,35,10|2|2,0:0|0:0|0:0,0:0:0:0:
135,53,22729,2,0,L|139:18,2,35,10|2|2,0:0|0:0|0:0,0:0:0:0:
52,145,23061,6,2,P|42:223|61:285,1,140,4|8,0:0|0:0,1:0:0:0:
127,340,23558,1,0,0:0:0:0:
127,340,23724,2,2,P|186:311|270:311,1,140,0|8,0:0|0:0,1:0:0:0:
345,337,24221,1,0,0:0:0:0:
345,337,24387,2,2,P|362:269|351:201,1,140,0|8,0:0|0:0,1:0:0:0:
290,134,24884,1,0,0:0:0:0:
290,134,25050,2,2,P|325:133|369:121,1,70,0|0,0:0|0:0,1:0:0:0:
436,54,25381,2,2,L|429:176,1,105,8|0,0:0|0:0,1:0:0:0:
448,201,25713,6,2,P|357:201|297:230,1,140,4|8,0:0|0:0,1:0:0:0:
260,294,26210,1,0,0:0:0:0:
260,294,26376,2,2,B|214:268|214:268|214:168,1,140,0|8,0:0|0:0,1:0:0:0:
213,89,26873,1,0,0:0:0:0:
213,89,27039,2,2,B|144:76|144:76|71:89,1,140,0|8,0:0|0:0,1:0:0:0:
41,173,27536,1,0,0:0:0:0:
41,173,27702,2,2,L|40:252,2,70,0|0|8,0:0|0:0|0:0,1:0:0:0:
88,320,28365,6,0,P|122:310|145:308,1,56,4|0,0:0|0:0,0:0:0:0:
221,338,28696,2,0,P|217:265|223:222,1,112,8|2,0:0|0:0,0:0:0:0:
276,161,29194,2,0,P|310:171|333:173,2,56,0|8|0,0:0|0:0|0:0,0:0:0:0:
197,118,29691,5,2,0:0:0:0:
197,118,29857,1,0,0:0:0:0:
113,153,30022,1,8,0:0:0:0:
113,153,30188,1,0,0:0:0:0:
39,97,30354,2,0,L|33:34,1,56,2|0,0:0|0:0,0:0:0:0:
128,5,30685,2,0,L|122:60,1,56,8|0,0:0|0:0,0:0:0:0:
44,181,31017,6,0,P|42:219|51:256,1,56,2|0,0:0|0:0,0:0:0:0:
105,295,31348,2,0,P|181:282|227:291,1,112,8|2,0:0|0:0,0:0:0:0:
289,324,31845,2,0,P|291:362|282:399,2,56,0|8|0,0:0|0:0|0:0,0:0:0:0:
268,232,32343,5,2,0:0:0:0:
268,232,32508,1,0,0:0:0:0:
362,248,32674,1,8,0:0:0:0:
362,248,32840,1,0,0:0:0:0:
422,178,33006,2,0,L|426:121,1,56,2|0,0:0|0:0,0:0:0:0:
341,50,33337,2,0,L|347:146,1,84,8|0,0:0|0:0,0:0:0:0:
326,175,33669,6,2,P|261:160|180:181,1,140,4|8,0:0|0:0,1:0:0:0:
129,233,34166,1,0,0:0:0:0:
129,233,34332,2,2,B|143:302|143:302|125:334|129:377,1,140,0|8,0:0|0:0,1:0:0:0:
211,353,34829,1,0,0:0:0:0:
211,353,34995,2,2,B|246:340|280:349|280:349|317:336|334:299,1,140,0|8,0:0|0:0,1:0:0:0:
332,220,35492,1,0,0:0:0:0:
332,220,35658,2,2,P|380:217|408:210,1,70,0|0,0:0|0:0,1:0:0:0:
452,145,35989,2,2,P|388:134|338:115,1,105,8|0,0:0|0:0,1:0:0:0:
337,79,36321,6,2,P|266:104|188:97,1,140,4|8,0:0|0:0,1:0:0:0:
127,63,36818,1,0,0:0:0:0:
127,63,36984,2,2,B|133:132|133:132|113:205,1,140,0|8,0:0|0:0,1:0:0:0:
79,276,37481,1,0,0:0:0:0:
79,276,37647,2,2,B|113:286|113:286|183:276|183:276|218:287,1,140,0|8,0:0|0:0,1:0:0:0:
305,351,38144,1,0,0:0:0:0:
305,351,38310,2,0,L|390:350,1,70,0|8,0:0|0:0,0:0:0:0:
374,350,38558,1,8,0:0:0:0:
374,350,38641,2,0,P|398:323|441:311,1,70,8|8,0:0|0:0,0:0:0:0:
430,312,38890,1,8,0:0:0:0:
430,312,38973,6,0,P|405:249|401:185,1,125.999996154785,4|8,0:0|0:0,0:0:0:0:
460,81,39470,2,0,B|398:81|398:81|334:55,1,125.999996154785,2|0,0:0|0:0,0:0:0:0:
258,8,39967,1,8,0:0:0:0:
258,8,40133,2,0,P|244:66|294:140,1,125.999996154785,2|0,0:0|0:0,0:0:0:0:
333,196,40630,2,0,P|347:254|297:328,2,125.999996154785,8|0|8,0:0|0:0|0:0,0:0:0:0:
252,245,41459,1,2,0:0:0:0:
252,245,41624,6,0,B|189:250|189:250|118:224,1,125.999996154785,2|8,0:0|0:0,0:0:0:0:
74,151,42122,2,0,P|84:89|68:19,1,125.999996154785,2|0,0:0|0:0,0:0:0:0:
169,9,42619,2,0,P|164:61|168:101,1,62.9999980773926,8|0,0:0|0:0,0:0:0:0:
201,162,42950,6,0,L|272:153,1,62.9999980773926,2|0,0:0|0:0,0:0:0:0:
332,84,43282,2,0,L|403:93,1,62.9999980773926,8|0,0:0|0:0,0:0:0:0:
483,152,43613,2,0,P|486:120|485:89,2,62.9999980773926,2|0|8,0:0|0:0|0:0,0:0:0:0:
425,228,44111,1,0,0:0:0:0:
477,308,44276,6,0,P|400:302|345:314,1,125.999996154785,2|8,0:0|0:0,0:0:0:0:
265,354,44774,2,0,P|188:360|133:348,1,125.999996154785,2|0,0:0|0:0,0:0:0:0:
72,285,45271,1,8,0:0:0:0:
72,285,45437,1,0,0:0:0:0:
150,221,45602,6,0,P|156:184|156:151,1,62.9999980773926,2|0,0:0|0:0,0:0:0:0:
239,88,45934,2,0,P|239:119|245:150,1,62.9999980773926,8|0,0:0|0:0,0:0:0:0:
302,230,46265,1,2,0:0:0:0:
302,230,46431,1,2,0:0:0:0:
377,167,46597,2,0,P|383:130|383:97,1,62.9999980773926,8|0,0:0|0:0,0:0:0:0:
474,37,46928,6,0,P|471:123|490:188,1,125.999996154785,2|8,0:0|0:0,0:0:0:0:
506,255,47426,1,0,0:0:0:0:
506,255,47591,2,0,L|493:326,2,62.9999980773926,2|0|8,0:0|0:0|0:0,0:0:0:0:
479,161,48089,1,0,0:0:0:0:
414,238,48254,6,0,P|381:244|346:244,1,62.9999980773926,2|2,0:0|0:0,0:0:0:0:
266,124,48586,2,0,P|256:156|242:187,1,62.9999980773926,4|0,0:0|0:0,0:0:0:0:
114,192,48917,1,2,0:0:0:0:
209,282,49083,2,0,P|195:310|187:341,2,62.9999980773926,2|8|0,0:0|0:0|0:0,0:0:0:0:
342,335,49580,6,0,P|406:326|465:287,1,125.999996154785,4|8,0:0|0:0,0:0:0:0:
478,202,50078,2,0,B|447:141|515:141|478:67,1,125.999996154785,2|0,0:0|0:0,0:0:0:0:
410,21,50575,2,0,P|379:29|338:32,1,62.9999980773926,8|0,0:0|0:0,0:0:0:0:
254,23,50906,6,0,B|264:88|264:88|257:156,2,125.999996154785,2|8|2,0:0|0:0|0:0,0:0:0:0:
168,72,51735,1,0,0:0:0:0:
168,72,51901,2,0,P|137:80|89:80,1,62.9999980773926,8|0,0:0|0:0,0:0:0:0:
0,76,52232,6,0,P|14:162|14:208,1,125.999996154785,2|8,0:0|0:0,0:0:0:0:
0,298,52729,2,0,P|86:284|132:284,1,125.999996154785,2|0,0:0|0:0,0:0:0:0:
221,308,53227,2,0,P|269:312|290:312,1,62.9999980773926,8|0,0:0|0:0,0:0:0:0:
373,265,53558,6,0,L|385:334,1,62.9999980773926,2|0,0:0|0:0,0:0:0:0:
476,278,53890,2,0,L|486:215,1,62.9999980773926,8|0,0:0|0:0,0:0:0:0:
404,148,54221,2,0,P|360:144|335:150,1,62.9999980773926,2|0,0:0|0:0,0:0:0:0:
253,196,54553,2,4,P|256:131|249:86,1,94.499997116089,12|0,0:0|0:0,0:0:0:0:
227,68,54884,6,0,P|184:74|76:58,1,140,4|8,0:0|0:0,0:0:0:0:
31,0,55381,2,0,L|44:153,1,140,2|0,0:0|0:0,0:0:0:0:
94,206,55879,1,8,0:0:0:0:
58,281,56044,1,0,0:0:0:0:
115,342,56210,6,0,P|157:331|197:329,1,70,2|0,0:0|0:0,0:0:0:0:
296,279,56542,2,0,P|261:275|227:265,1,70,8|0,0:0|0:0,0:0:0:0:
172,139,56873,2,0,L|176:219,1,70,2|2,0:0|0:0,0:0:0:0:
294,116,57205,2,0,L|290:196,1,70,8|0,0:0|0:0,0:0:0:0:
281,333,57536,5,12,0:0:0:0:
281,333,57702,1,0,0:0:0:0:
383,268,57868,1,8,0:0:0:0:
383,268,58033,1,0,0:0:0:0:
290,185,58199,2,0,P|251:186|209:193,1,70,8|0,0:0|0:0,0:0:0:0:
157,326,58531,2,0,P|158:287|165:245,1,70,8|0,0:0|0:0,0:0:0:0:
177,103,58862,6,0,L|260:113,1,70,8|0,0:0|0:0,0:0:0:0:
359,152,59194,2,0,L|442:142,1,70,8|0,0:0|0:0,0:0:0:0:
434,13,59525,2,0,L|398:11,3,35,8|8|8|8,0:0|0:0|0:0|0:0,0:0:0:0:
353,36,59857,2,0,L|311:34,3,35,8|8|8|8,0:0|0:0|0:0|0:0,0:0:0:0:
271,57,60188,6,0,L|268:117,1,52.5000020027161,2|0,2:0|0:0,0:0:0:0:
144,109,60519,2,0,L|139:55,1,52.5000020027161,2|0,2:0|0:0,0:0:0:0:
38,19,60851,6,0,L|49:114,1,77.0000023498536,4|0,0:0|0:0,0:0:0:0:
96,201,61182,1,8,0:0:0:0:
144,109,61348,1,0,0:0:0:0:
276,176,61513,2,0,P|231:171|191:175,1,77.0000023498536,2|2,0:0|0:0,0:0:0:0:
303,253,61845,2,0,P|348:258|388:254,1,77.0000023498536,8|0,0:0|0:0,0:0:0:0:
483,152,62176,6,0,P|469:79|479:-1,2,154.000004699707,2|8|2,0:0|0:0|0:0,0:0:0:0:
507,281,63005,1,2,0:0:0:0:
507,281,63171,2,0,P|467:278|427:284,1,77.0000023498536,8|0,0:0|0:0,0:0:0:0:
311,336,63502,5,4,0:0:0:0:
378,127,63834,2,0,L|299:136,1,77.0000023498536,8|0,0:0|0:0,0:0:0:0:
177,196,64165,2,0,L|100:187,1,77.0000023498536,2|2,0:0|0:0,0:0:0:0:
0,98,64497,1,8,0:0:0:0:
32,225,64663,1,0,0:0:0:0:
154,104,64828,6,0,B|160:137|150:166|150:166|159:187|159:187|144:219|158:266,1,154.000004699707,2|8,0:0|0:0,0:0:0:0:
409,317,65491,1,2,0:0:0:0:
282,351,65657,1,2,0:0:0:0:
251,222,65823,2,0,L|245:143,1,77.0000023498536,8|0,0:0|0:0,0:0:0:0:
303,27,66154,5,4,0:0:0:0:
484,219,66486,2,0,P|406:249|325:249,2,154.000004699707,8|2|8,0:0|0:0|0:0,0:0:0:0:
484,219,67315,1,0,0:0:0:0:
434,364,67480,6,0,L|422:287,1,77.0000023498536,2|0,0:0|0:0,0:0:0:0:
348,174,67812,2,0,L|336:250,1,77.0000023498536,8|0,0:0|0:0,0:0:0:0:
246,346,68143,2,0,P|165:351|89:326,1,154.000004699707,2|8,0:0|0:0,0:0:0:0:
23,219,68641,1,0,0:0:0:0:
177,138,68806,6,0,L|164:222,1,77.0000023498536,12|0,0:0|0:0,0:0:0:0:
285,165,69138,2,0,L|273:88,1,77.0000023498536,8|0,0:0|0:0,0:0:0:0:
396,47,69469,2,0,L|384:123,2,77.0000023498536,8|2|8,0:0|0:0|0:0,0:0:0:0:
512,103,69967,1,2,0:0:0:0:
461,220,70132,6,0,L|381:211,1,77.0000023498536,8|0,0:0|0:0,0:0:0:0:
307,131,70464,2,0,L|383:122,1,77.0000023498536,8|0,0:0|0:0,0:0:0:0:
280,43,70795,1,10,0:0:0:0:
280,43,70878,1,2,0:0:0:0:
280,43,70961,1,2,0:0:0:0:
169,127,71127,1,10,0:0:0:0:
169,127,71210,1,2,0:0:0:0:
169,127,71292,1,2,0:0:0:0:
286,236,71458,5,4,0:0:0:0:
44,268,71790,2,0,P|38:219|41:175,1,77.0000023498536,8|0,0:0|0:0,0:0:0:0:
168,209,72121,2,0,P|187:163|211:126,1,77.0000023498536,2|2,0:0|0:0,0:0:0:0:
308,63,72453,1,8,0:0:0:0:
368,178,72618,1,0,0:0:0:0:
226,278,72784,6,0,L|141:298,1,77.0000023498536,2|0,0:0|0:0,0:0:0:0:
41,353,73116,2,0,L|66:269,1,77.0000023498536,8|0,0:0|0:0,0:0:0:0:
68,155,73447,2,0,L|127:218,1,77.0000023498536,2|2,0:0|0:0,0:0:0:0:
226,278,73779,2,0,L|300:260,1,77.0000023498536,8|0,0:0|0:0,0:0:0:0:
431,273,74110,5,4,0:0:0:0:
270,43,74442,2,0,P|262:89|275:147,1,77.0000023498536,8|0,0:0|0:0,0:0:0:0:
416,90,74773,2,0,P|370:82|312:95,1,77.0000023498536,2|2,0:0|0:0,0:0:0:0:
466,163,75105,1,8,0:0:0:0:
335,163,75270,1,0,0:0:0:0:
378,312,75436,6,0,P|364:250|366:214,1,77.0000023498536,2|0,0:0|0:0,0:0:0:0:
254,335,75768,2,0,P|272:274|292:244,1,77.0000023498536,8|0,0:0|0:0,0:0:0:0:
314,123,76099,1,2,0:0:0:0:
363,236,76265,1,2,0:0:0:0:
192,242,76431,2,0,P|161:264|135:292,1,77.0000023498536,8|0,0:0|0:0,0:0:0:0:
29,370,76762,5,4,0:0:0:0:
35,102,77094,2,0,B|83:119|83:119|186:89,1,154.000004699707,8|2,0:0|0:0,0:0:0:0:
294,22,77591,1,2,0:0:0:0:
243,143,77757,2,0,P|242:197|249:233,1,77.0000023498536,8|0,0:0|0:0,0:0:0:0:
381,262,78088,6,0,B|432:241|432:241|448:189|429:135,2,154.000004699707,2|8|2,0:0|0:0|0:0,0:0:0:0:
254,300,78917,1,2,0:0:0:0:
254,300,79083,2,0,L|331:332,1,77.0000023498536,8|0,0:0|0:0,0:0:0:0:
462,373,79414,6,0,P|472:330|472:292,1,77.0000023498536,12|0,0:0|0:0,0:0:0:0:
408,182,79746,2,0,P|365:192|327:192,1,77.0000023498536,8|0,0:0|0:0,0:0:0:0:
220,124,80077,1,8,0:0:0:0:
220,124,80243,1,2,0:0:0:0:
323,43,80409,2,0,L|313:123,1,77.0000023498536,8|2,0:0|0:0,0:0:0:0:
252,248,80740,6,0,L|262:328,1,77.0000023498536,8|0,0:0|0:0,0:0:0:0:
261,324,80989,1,2,0:0:0:0:
261,324,81071,2,0,L|176:315,1,77.0000023498536,8|2,0:0|0:0,0:0:0:0:
52,319,81403,2,0,L|63:365,2,38.5000011749268,10|2|2,0:0|0:0|0:0,0:0:0:0:
157,241,81734,2,0,L|165:203,2,38.5000011749268,10|2|2,0:0|0:0|0:0,0:0:0:0:
65,105,82066,6,2,P|136:124|208:118,1,140,4|8,0:0|0:0,1:0:0:0:
289,103,82563,1,0,0:0:0:0:
289,103,82729,2,2,P|293:178|275:253,1,140,0|8,0:0|0:0,1:0:0:0:
232,311,83226,1,0,0:0:0:0:
232,311,83392,2,2,B|162:295|162:295|92:320,1,140,0|8,0:0|0:0,1:0:0:0:
30,368,83889,1,0,0:0:0:0:
30,368,84055,2,2,L|17:289,1,70,0|0,0:0|0:0,1:0:0:0:
62,227,84386,2,2,L|75:121,1,105,8|0,0:0|0:0,1:0:0:0:
107,95,84718,6,2,P|179:104|250:85,1,140,4|8,0:0|0:0,1:0:0:0:
307,33,85215,1,0,0:0:0:0:
307,33,85381,2,2,P|311:131|332:183,1,140,0|8,0:0|0:0,1:0:0:0:
373,238,85878,1,0,0:0:0:0:
373,238,86044,2,2,B|271:249|271:249|229:222,1,140,0|8,0:0|0:0,1:0:0:0:
176,173,86541,1,0,0:0:0:0:
176,173,86707,2,0,L|161:256,1,70,8|8,0:0|0:0,0:0:0:0:
79,241,87038,2,0,L|66:172,1,70,12|8,0:0|0:0,0:0:0:0:
88,15,87370,5,8,0:0:0:0:
224,92,87536,1,4,0:0:0:0:
