osu file format v14

[General]
AudioFilename: audio.mp3
AudioLeadIn: 0
PreviewTime: 60768
Countdown: 0
SampleSet: Soft
StackLeniency: 0.7
Mode: 0
LetterboxInBreaks: 0
WidescreenStoryboard: 0

[Editor]
Bookmarks: 23061,28395,38973,54884
DistanceSpacing: 1
BeatDivisor: 2
GridSize: 16
TimelineZoom: 1.2

[Metadata]
Title:Don't say "lazy" (TV size Ver.)
TitleUnicode:Don’t say “lazy”(TV size Ver.)
Artist:Sakurakou K-ON Bu
ArtistUnicode:桜高軽音部
Creator:Asuka_-
Version:Normal
Source:けいおん!
Tags:HTT 平沢唯 秋山澪 田井中律 琴吹紬 豊崎愛生 日笠陽子佐藤聡美 寿美菜子 Hirasawa Yui Akiyama Mio Tainaka Ritsu Kotobuki Tsumugi Toyosaki Aki Hikasa Youko Satou satomi Kotobuki Minako K-ON! Yasaija 714
BeatmapID:1398433
BeatmapSetID:659531

[Difficulty]
HPDrainRate:4
CircleSize:3.5
OverallDifficulty:4
ApproachRate:5
SliderMultiplier:1
SliderTickRate:1

[Events]
//Background and Video events
0,0,"1920x1080xee66dbc2b80f1b48d3778e.jpg",0,0
//Break Periods
//Storyboard Layer 0 (Background)
//Storyboard Layer 1 (Fail)
//Storyboard Layer 2 (Pass)
//Storyboard Layer 3 (Foreground)
//Storyboard Sound Samples

[TimingPoints]
520,331.491712707182,4,2,1,60,1,0
60851,331.491712707182,4,2,1,60,1,1
82066,-100,4,2,1,60,0,0

[Colours]
Combo1 : 0,108,108
Combo2 : 157,157,255
Combo3 : 170,0,0
Combo4 : 255,168,255

[HitObjects]
1,284,520,5,6,0:0:0:0:
75,349,851,1,6,0:0:0:0:
166,308,1182,2,0,P|192:301|230:304,1,50,8|8,0:0|0:0,0:0:0:0:
260,321,1514,2,0,P|282:327|313:325,1,50,8|8,0:0|0:0,0:0:0:0:
339,286,1845,5,6,0:0:0:0:
284,201,2177,2,0,P|254:202|231:206,1,50,8|0,0:0|0:0,0:0:0:0:
185,217,2508,2,0,P|136:215|63:206,1,100,2|8,0:0|0:0,0:0:0:0:
17,135,3171,1,2,0:0:0:0:
82,59,3503,1,8,0:0:0:0:
174,96,3834,2,0,P|223:100|291:93,1,100,2|8,0:0|0:0,0:0:0:0:
352,34,4497,5,6,0:0:0:0:
449,56,4829,2,0,P|445:84|440:117,1,50,8|0,0:0|0:0,0:0:0:0:
421,150,5160,2,0,P|425:202|429:262,1,100,2|8,0:0|0:0,0:0:0:0:
382,338,5823,1,2,0:0:0:0:
298,282,6155,1,8,0:0:0:0:
219,344,6486,2,0,P|169:347|115:349,1,100,2|8,0:0|0:0,0:0:0:0:
30,301,7149,5,6,0:0:0:0:
62,206,7481,2,0,P|67:181|72:142,1,50,8|0,0:0|0:0,0:0:0:0:
79,107,7812,2,0,P|131:94|185:125,1,100,2|8,0:0|0:0,0:0:0:0:
217,200,8475,1,2,0:0:0:0:
311,166,8807,1,8,0:0:0:0:
398,213,9138,2,0,L|416:98,1,100,6|8,0:0|0:0,0:0:0:0:
375,21,9801,6,0,P|346:23|314:26,1,50,6|2,0:0|0:0,0:0:0:0:
292,62,10133,2,0,P|256:65|185:72,1,100,8|8,0:0|0:0,0:0:0:0:
145,161,10796,1,8,0:0:0:0:
201,243,11127,2,0,P|228:240|263:237,1,50,8|2,0:0|0:0,0:0:0:0:
291,267,11459,2,0,P|340:262|404:257,1,100,8|8,0:0|0:0,0:0:0:0:
466,323,12122,1,8,0:0:0:0:
379,372,12453,5,6,0:0:0:0:
280,352,12785,2,0,P|254:353|230:359,1,50,8|0,0:0|0:0,0:0:0:0:
181,366,13116,2,0,L|195:257,1,100,2|8,0:0|0:0,0:0:0:0:
192,166,13779,1,2,0:0:0:0:
283,207,14111,1,8,0:0:0:0:
355,138,14442,2,0,P|398:122|459:145,1,100,2|8,0:0|0:0,0:0:0:0:
487,228,15105,5,6,0:0:0:0:
437,315,15437,2,0,P|409:319|382:322,1,50,8|0,0:0|0:0,0:0:0:0:
340,304,15768,2,0,P|295:296|225:292,1,100,2|8,0:0|0:0,0:0:0:0:
141,278,16431,1,2,0:0:0:0:
97,187,16763,1,8,0:0:0:0:
145,99,17094,2,0,P|191:92|255:89,1,100,2|8,0:0|0:0,0:0:0:0:
334,132,17757,5,6,0:0:0:0:
301,226,18089,2,0,P|308:254|320:288,1,50,8|0,0:0|0:0,0:0:0:0:
349,310,18420,2,0,P|395:323|453:291,1,100,2|8,0:0|0:0,0:0:0:0:
499,222,19083,1,2,0:0:0:0:
438,142,19415,1,8,0:0:0:0:
472,48,19746,2,0,P|421:50|367:56,1,100,6|8,0:0|0:0,0:0:0:0:
275,81,20409,6,0,P|240:79|211:76,1,50,6|2,0:0|0:0,0:0:0:0:
177,62,20740,2,0,P|175:107|177:171,1,100,8|8,0:0|0:0,0:0:0:0:
220,251,21403,1,8,0:0:0:0:
308,204,21735,2,0,P|333:199|371:206,1,50,8|2,0:0|0:0,0:0:0:0:
400,227,22066,2,0,P|395:271|390:327,1,100,8|8,0:0|0:0,0:0:0:0:
484,359,22729,1,8,0:0:0:0:
505,263,23061,5,6,0:0:0:0:
505,263,23227,2,0,P|495:204|491:143,1,100,2|0,0:0|0:0,0:0:0:0:
501,114,23724,1,6,0:0:0:0:
501,114,23890,2,0,P|446:127|393:123,1,100,2|0,0:0|0:0,0:0:0:0:
371,85,24387,1,6,0:0:0:0:
371,85,24553,2,0,P|367:136|349:198,1,100,2|0,0:0|0:0,0:0:0:0:
321,220,25050,1,6,0:0:0:0:
245,154,25381,1,12,0:0:0:0:
174,224,25713,5,6,0:0:0:0:
174,224,25879,2,0,P|115:215|54:215,1,100,2|0,0:0|0:0,0:0:0:0:
25,224,26376,1,6,0:0:0:0:
25,224,26542,2,0,P|28:179|18:112,1,100,2|0,0:0|0:0,0:0:0:0:
6,77,27039,1,6,0:0:0:0:
6,77,27205,2,0,P|56:79|114:65,1,100,2|0,0:0|0:0,0:0:0:0:
147,48,27702,1,6,0:0:0:0:
236,91,28033,1,12,0:0:0:0:
334,74,28365,6,0,P|340:120|352:188,2,100,6|8|0,0:0|0:0|0:0,0:0:0:0:
340,24,29194,1,2,0:0:0:0:
340,24,29359,1,8,0:0:0:0:
248,64,29691,1,2,0:0:0:0:
160,15,30022,1,8,0:0:0:0:
95,92,30354,2,0,P|91:145|86:204,1,100,2|8,0:0|0:0,0:0:0:0:
118,230,30851,1,0,0:0:0:0:
118,230,31017,6,0,P|62:240|6:254,2,100,2|8|0,0:0|0:0|0:0,0:0:0:0:
164,248,31845,1,2,0:0:0:0:
164,248,32011,1,8,0:0:0:0:
228,171,32343,1,2,0:0:0:0:
164,95,32674,1,8,0:0:0:0:
238,28,33006,2,0,P|277:18|337:15,1,100,2|8,0:0|0:0,0:0:0:0:
423,64,33669,5,6,0:0:0:0:
423,64,33835,2,0,P|421:124|407:183,1,100,2|0,0:0|0:0,0:0:0:0:
383,203,34332,1,6,0:0:0:0:
383,203,34498,2,0,P|335:212|279:201,1,100,2|0,0:0|0:0,0:0:0:0:
241,178,34995,1,6,0:0:0:0:
241,178,35161,2,0,P|242:122|257:58,1,100,2|0,0:0|0:0,0:0:0:0:
284,42,35658,1,6,0:0:0:0:
188,12,35989,1,12,0:0:0:0:
100,59,36321,5,6,0:0:0:0:
100,59,36487,2,0,P|94:117|103:165,1,100,2|0,0:0|0:0,0:0:0:0:
129,200,36984,1,6,0:0:0:0:
129,200,37150,2,0,P|182:203|231:197,1,100,2|0,0:0|0:0,0:0:0:0:
264,162,37647,1,6,0:0:0:0:
264,162,37813,2,0,P|272:114|269:60,1,100,2|0,0:0|0:0,0:0:0:0:
227,35,38310,1,6,0:0:0:0:
134,71,38641,2,0,P|104:71|63:62,1,50,8|0,0:0|0:0,0:0:0:0:
40,42,38973,6,0,P|45:89|45:150,1,100,6|8,0:0|0:0,0:0:0:0:
29,189,39470,1,2,0:0:0:0:
108,248,39801,1,2,0:0:0:0:
196,192,40133,2,0,P|225:186|257:193,1,50,2|2,0:0|0:0,0:0:0:0:
286,215,40464,1,2,0:0:0:0:
286,215,40630,2,0,P|336:227|390:213,1,100,8|2,0:0|0:0,0:0:0:0:
436,132,41293,1,8,0:0:0:0:
383,47,41624,6,0,L|276:60,1,100,6|8,0:0|0:0,0:0:0:0:
234,51,42121,1,2,0:0:0:0:
147,101,42452,1,2,0:0:0:0:
59,53,42784,2,0,P|52:82|50:112,1,50,2|2,0:0|0:0,0:0:0:0:
67,148,43115,1,2,0:0:0:0:
67,148,43281,2,0,P|74:193|75:248,1,100,8|2,0:0|0:0,0:0:0:0:
51,344,43944,1,8,0:0:0:0:
144,309,44276,6,0,P|194:295|243:297,1,100,6|8,0:0|0:0,0:0:0:0:
285,322,44774,2,0,P|325:338|398:322,1,100,2|2,0:0|0:0,0:0:0:0:
422,303,45271,2,0,P|426:282|435:244,1,50,8|2,0:0|0:0,0:0:0:0:
455,209,45602,1,2,0:0:0:0:
382,140,45934,1,8,0:0:0:0:
315,210,46265,1,2,0:0:0:0:
245,137,46597,1,8,0:0:0:0:
181,213,46928,6,0,P|184:273|186:317,1,100,2|8,0:0|0:0,0:0:0:0:
160,356,47426,1,0,0:0:0:0:
160,356,47591,2,0,P|109:365|46:357,1,100,2|8,0:0|0:0,0:0:0:0:
22,328,48089,1,0,0:0:0:0:
22,328,48254,2,0,P|17:300|18:260,1,50,2|2,0:0|0:0,0:0:0:0:
45,237,48586,2,0,P|46:203|39:126,1,100,12|2,0:0|0:0,0:0:0:0:
7,99,49083,1,8,0:0:0:0:
7,99,49249,2,0,P|17:76|32:47,1,50,8|0,0:0|0:0,0:0:0:0:
77,46,49580,6,0,P|126:37|186:43,1,100,6|8,0:0|0:0,0:0:0:0:
213,73,50077,1,2,0:0:0:0:
180,167,50408,1,2,0:0:0:0:
228,254,50740,2,0,P|255:252|292:245,1,50,2|2,0:0|0:0,0:0:0:0:
327,241,51071,1,2,0:0:0:0:
327,241,51237,2,0,L|344:139,1,100,8|2,0:0|0:0,0:0:0:0:
295,56,51900,1,8,0:0:0:0:
222,125,52232,6,0,P|177:140|117:136,1,100,6|8,0:0|0:0,0:0:0:0:
79,116,52728,1,2,0:0:0:0:
14,195,53061,1,2,0:0:0:0:
72,276,53392,2,0,P|98:275|132:270,1,50,2|2,0:0|0:0,0:0:0:0:
168,252,53724,1,2,0:0:0:0:
168,252,53890,2,0,P|219:242|285:256,1,100,8|2,0:0|0:0,0:0:0:0:
346,309,54553,1,8,0:0:0:0:
430,254,54884,6,0,P|440:205|449:148,1,100,6|8,0:0|0:0,0:0:0:0:
429,108,55381,2,0,P|384:93|317:106,1,100,2|2,0:0|0:0,0:0:0:0:
298,135,55878,2,0,P|272:135|230:124,1,50,8|2,0:0|0:0,0:0:0:0:
206,103,56209,1,2,0:0:0:0:
129,167,56541,1,8,0:0:0:0:
206,229,56872,1,2,0:0:0:0:
125,288,57204,1,8,0:0:0:0:
196,357,57536,6,0,P|252:342|309:349,1,100,6|8,0:0|0:0,0:0:0:0:
342,356,58033,1,0,0:0:0:0:
342,356,58199,2,0,P|350:304|361:238,1,100,2|8,0:0|0:0,0:0:0:0:
344,158,58862,2,0,P|292:175|235:173,1,100,2|8,0:0|0:0,0:0:0:0:
208,143,59359,1,2,0:0:0:0:
208,143,59525,2,0,L|190:251,1,100,2|8,0:0|0:0,0:0:0:0:
148,332,60188,6,0,P|126:339|84:339,1,50,0|0,0:0|0:0,0:0:0:0:
53,321,60519,2,0,L|46:261,1,50,0|0,0:0|0:0,0:0:0:0:
71,227,60851,5,6,0:0:0:0:
60,127,61183,2,0,P|86:133|127:133,1,50,8|0,0:0|0:0,0:0:0:0:
152,108,61514,2,0,P|203:102|255:108,1,100,2|8,0:0|0:0,0:0:0:0:
325,174,62176,1,2,0:0:0:0:
269,257,62508,1,8,0:0:0:0:
321,342,62840,2,0,P|364:360|431:342,1,100,2|8,0:0|0:0,0:0:0:0:
467,266,63503,5,6,0:0:0:0:
433,171,63835,2,0,P|439:139|447:107,1,50,8|0,0:0|0:0,0:0:0:0:
455,73,64166,2,0,P|401:76|347:74,1,100,2|8,0:0|0:0,0:0:0:0:
261,37,64828,1,2,0:0:0:0:
164,64,65160,1,8,0:0:0:0:
71,29,65492,2,0,L|58:139,1,100,2|8,0:0|0:0,0:0:0:0:
30,224,66155,5,6,0:0:0:0:
74,313,66487,2,0,P|90:312|138:304,1,50,8|0,0:0|0:0,0:0:0:0:
168,284,66818,2,0,P|219:282|282:289,1,100,2|8,0:0|0:0,0:0:0:0:
361,321,67480,1,2,0:0:0:0:
409,233,67812,1,8,0:0:0:0:
354,148,68144,2,0,P|308:139|247:140,1,100,6|8,0:0|0:0,0:0:0:0:
155,139,68806,6,0,P|162:106|166:73,1,50,6|2,0:0|0:0,0:0:0:0:
126,56,69138,2,0,P|91:44|23:74,1,100,8|8,0:0|0:0,0:0:0:0:
4,159,69801,1,8,0:0:0:0:
57,243,70133,2,0,P|92:253|113:256,1,50,8|2,0:0|0:0,0:0:0:0:
155,250,70464,2,0,P|201:244|262:230,1,100,8|8,0:0|0:0,0:0:0:0:
312,151,71127,1,8,0:0:0:0:
258,68,71459,5,6,0:0:0:0:
345,18,71791,2,0,P|373:13|397:14,1,50,8|0,0:0|0:0,0:0:0:0:
439,35,72122,2,0,L|444:145,1,100,2|8,0:0|0:0,0:0:0:0:
447,234,72784,1,2,0:0:0:0:
351,205,73116,1,8,0:0:0:0:
267,261,73448,2,0,P|219:268|154:268,1,100,2|8,0:0|0:0,0:0:0:0:
105,190,74111,5,6,0:0:0:0:
184,129,74443,2,0,P|188:103|194:65,1,50,8|0,0:0|0:0,0:0:0:0:
168,35,74774,2,0,P|117:24|61:45,1,100,2|8,0:0|0:0,0:0:0:0:
34,129,75436,1,2,0:0:0:0:
88,213,75768,1,8,0:0:0:0:
45,303,76100,2,0,P|100:301|153:297,1,100,2|8,0:0|0:0,0:0:0:0:
244,285,76763,5,6,0:0:0:0:
328,231,77095,2,0,P|336:201|338:167,1,50,8|0,0:0|0:0,0:0:0:0:
328,132,77426,2,0,P|268:107|222:118,1,100,2|8,0:0|0:0,0:0:0:0:
167,185,78088,1,2,0:0:0:0:
230,262,78420,1,8,0:0:0:0:
184,351,78752,2,0,L|81:357,1,100,6|8,0:0|0:0,0:0:0:0:
13,286,79414,6,0,P|16:262|24:220,1,50,6|2,0:0|0:0,0:0:0:0:
45,194,79746,2,0,P|44:136|45:71,1,100,8|8,0:0|0:0,0:0:0:0:
129,40,80409,1,8,0:0:0:0:
214,91,80740,2,0,P|215:128|212:154,1,50,8|10,0:0|0:0,0:0:0:0:
201,189,81071,2,0,P|207:250|217:318,1,100,8|8,0:0|0:0,0:0:0:0:
295,344,81734,1,8,0:0:0:0:
395,331,82067,5,6,0:0:0:0:
395,331,82233,2,0,L|406:218,1,100,2|0,0:0|0:0,0:0:0:0:
430,188,82730,1,6,0:0:0:0:
430,188,82896,2,0,P|373:188|318:175,1,100,2|0,0:0|0:0,0:0:0:0:
289,152,83393,1,6,0:0:0:0:
289,152,83559,2,0,P|244:151|182:160,1,100,2|0,0:0|0:0,0:0:0:0:
142,175,84056,1,6,0:0:0:0:
83,258,84387,1,12,0:0:0:0:
141,339,84719,5,6,0:0:0:0:
141,339,84885,2,0,P|193:340|252:333,1,100,2|0,0:0|0:0,0:0:0:0:
289,323,85382,1,6,0:0:0:0:
289,323,85547,2,0,P|281:277|276:224,1,100,2|0,0:0|0:0,0:0:0:0:
303,181,86045,1,6,0:0:0:0:
303,181,86211,2,0,P|298:126|292:78,1,100,2|0,0:0|0:0,0:0:0:0:
260,42,86708,1,6,0:0:0:0:
191,114,87039,1,8,0:0:0:0:
117,46,87370,6,0,L|63:40,1,50,12|8,0:0|0:0,0:0:0:0:
