osu file format v14

[General]
AudioFilename: audio.mp3
AudioLeadIn: 0
PreviewTime: 60768
Countdown: 0
SampleSet: Soft
StackLeniency: 0.7
Mode: 0
LetterboxInBreaks: 0
WidescreenStoryboard: 0

[Editor]
Bookmarks: 23061,28395,38973,54884
DistanceSpacing: 0.2
BeatDivisor: 4
GridSize: 16
TimelineZoom: 1

[Metadata]
Title:Don't say "lazy" (TV size Ver.)
TitleUnicode:Don’t say “lazy”(TV size Ver.)
Artist:Sakurakou K-ON Bu
ArtistUnicode:桜高軽音部
Creator:Asuka_-
Version:Insane
Source:けいおん!
Tags:HTT 平沢唯 秋山澪 田井中律 琴吹紬 豊崎愛生 日笠陽子佐藤聡美 寿美菜子 Hirasawa Yui Akiyama Mio Tainaka Ritsu Kotobuki Tsumugi Toyosaki Aki Hikasa Youko Satou satomi Kotobuki Minako K-ON! Yasaija 714
BeatmapID:1396767
BeatmapSetID:659531

[Difficulty]
HPDrainRate:6
CircleSize:4
OverallDifficulty:8
ApproachRate:9
SliderMultiplier:1.6
SliderTickRate:1

[Events]
//Background and Video events
0,0,"1920x1080xee66dbc2b80f1b48d3778e.jpg",0,0
//Break Periods
//Storyboard Layer 0 (Background)
//Storyboard Layer 1 (Fail)
//Storyboard Layer 2 (Pass)
//Storyboard Layer 3 (Foreground)
//Storyboard Sound Samples

[TimingPoints]
520,331.491712707182,4,2,1,60,1,0
3420,-100,4,2,1,30,0,0
3503,-100,4,2,1,60,0,0
4083,-100,4,2,1,30,0,0
4166,-100,4,2,1,60,0,0
6072,-100,4,2,1,30,0,0
6155,-100,4,2,1,60,0,0
6735,-100,4,2,1,30,0,0
6818,-100,4,2,1,60,0,0
14028,-100,4,2,1,30,0,0
14111,-100,4,2,1,60,0,0
14691,-100,4,2,1,30,0,0
14774,-100,4,2,1,60,0,0
16680,-100,4,2,1,30,0,0
16763,-100,4,2,1,60,0,0
17343,-100,4,2,1,30,0,0
17426,-100,4,2,1,60,0,0
28365,-125,4,2,1,50,0,0
33669,-100,4,2,1,60,0,0
38973,-100,4,2,1,50,0,0
60188,-100,4,2,1,25,0,0
60851,331.491712707182,4,2,1,70,1,1
62425,-100,4,2,1,30,0,1
62508,-100,4,2,1,70,0,1
63088,-100,4,2,1,30,0,1
63171,-100,4,2,1,70,0,1
65077,-100,4,2,1,30,0,1
65160,-100,4,2,1,70,0,1
65740,-100,4,2,1,30,0,1
65823,-100,4,2,1,70,0,1
73033,-100,4,2,1,30,0,1
73116,-100,4,2,1,70,0,1
73696,-100,4,2,1,30,0,1
73779,-100,4,2,1,70,0,1
75685,-100,4,2,1,30,0,1
75768,-100,4,2,1,70,0,1
76348,-100,4,2,1,30,0,1
76431,-100,4,2,1,70,0,1
82066,-100,4,2,1,60,0,0

[Colours]
Combo1 : 0,108,108
Combo2 : 157,157,255
Combo3 : 170,0,0
Combo4 : 255,168,255

[HitObjects]
99,134,520,5,6,0:0:0:0:
422,221,851,1,6,0:0:0:0:
213,27,1182,1,8,0:0:0:0:
213,27,1265,1,8,0:0:0:0:
213,27,1348,1,8,0:0:0:0:
297,134,1514,1,8,0:0:0:0:
297,134,1597,1,8,0:0:0:0:
297,134,1680,1,8,0:0:0:0:
133,91,1845,6,0,P|127:134|118:191,1,80,6|0,0:0|0:0,0:0:0:0:
47,288,2177,2,0,P|81:275|154:273,1,80,8|0,0:0|0:0,0:0:0:0:
306,302,2508,1,2,0:0:0:0:
222,213,2674,1,2,0:0:0:0:
376,104,2840,2,0,P|369:147|356:206,1,80,8|0,0:0|0:0,0:0:0:0:
139,346,3171,6,0,P|127:278|114:194,1,120,2|0,0:0|0:0,0:0:0:0:
166,159,3503,2,0,P|130:176|57:170,1,80,8|0,0:0|0:0,0:0:0:0:
272,37,3834,2,0,P|282:96|292:155,1,120,2|0,0:0|0:0,0:0:0:0:
246,227,4166,2,0,P|281:210|321:206,1,80,8|0,0:0|0:0,0:0:0:0:
425,359,4497,6,0,P|435:322|452:263,1,80,6|0,0:0|0:0,0:0:0:0:
512,126,4829,1,8,0:0:0:0:
400,185,4995,1,0,0:0:0:0:
310,62,5160,2,0,P|269:65|231:76,1,80,2|2,0:0|0:0,0:0:0:0:
105,132,5492,2,0,P|110:98|118:37,1,80,8|0,0:0|0:0,0:0:0:0:
283,151,5823,6,0,L|266:295,1,120,2|0,0:0|0:0,0:0:0:0:
241,318,6155,2,0,P|201:319|165:301,1,80,8|0,0:0|0:0,0:0:0:0:
28,190,6486,2,0,L|49:60,1,120,2|0,0:0|0:0,0:0:0:0:
80,30,6818,2,0,P|122:29|163:51,1,80,8|0,0:0|0:0,0:0:0:0:
241,228,7149,6,0,L|223:329,1,80,6|0,0:0|0:0,0:0:0:0:
312,99,7481,1,8,0:0:0:0:
176,156,7647,1,0,0:0:0:0:
335,252,7812,2,0,P|375:249|427:227,1,80,2|2,0:0|0:0,0:0:0:0:
165,129,8144,2,0,P|121:132|82:146,1,80,8|0,0:0|0:0,0:0:0:0:
240,319,8475,5,2,0:0:0:0:
147,241,8641,1,2,0:0:0:0:
90,340,8807,1,8,0:0:0:0:
243,218,8973,1,2,0:0:0:0:
42,126,9138,2,0,P|50:87|59:39,1,80,6|0,0:0|0:0,0:0:0:0:
147,241,9470,1,8,0:0:0:0:
250,125,9636,1,2,0:0:0:0:
56,245,9801,5,6,0:0:0:0:
163,336,9967,1,2,0:0:0:0:
243,217,10133,1,8,0:0:0:0:
340,331,10299,1,2,0:0:0:0:
477,189,10464,6,0,L|463:287,1,80,8|2,0:0|0:0,0:0:0:0:
332,124,10796,1,8,0:0:0:0:
476,59,10961,1,2,0:0:0:0:
343,218,11127,5,8,0:0:0:0:
269,55,11293,1,2,0:0:0:0:
148,204,11459,1,8,0:0:0:0:
91,45,11624,1,2,0:0:0:0:
256,156,11790,5,8,0:0:0:0:
51,212,11956,1,8,0:0:0:0:
51,212,12039,1,8,0:0:0:0:
51,212,12122,1,8,0:0:0:0:
168,118,12287,1,8,0:0:0:0:
211,361,12453,6,0,P|164:357|121:346,1,80,6|0,0:0|0:0,0:0:0:0:
354,229,12785,2,0,L|368:316,1,80,8|0,0:0|0:0,0:0:0:0:
168,118,13116,1,2,0:0:0:0:
305,47,13282,1,2,0:0:0:0:
251,251,13448,2,0,P|213:241|155:238,1,80,8|0,0:0|0:0,0:0:0:0:
65,321,13779,6,0,P|53:253|40:169,1,120,2|0,0:0|0:0,0:0:0:0:
55,157,14111,2,0,P|94:136|130:136,1,80,8|0,0:0|0:0,0:0:0:0:
264,64,14442,2,0,P|274:123|284:182,1,120,2|0,0:0|0:0,0:0:0:0:
305,226,14774,2,0,P|353:229|391:218,1,80,8|0,0:0|0:0,0:0:0:0:
502,56,15105,6,0,P|491:94|484:135,1,80,6|0,0:0|0:0,0:0:0:0:
496,240,15437,1,8,0:0:0:0:
385,133,15603,1,0,0:0:0:0:
232,210,15768,2,0,P|244:177|248:130,1,80,2|2,0:0|0:0,0:0:0:0:
45,90,16100,2,0,P|32:131|29:180,1,80,8|0,0:0|0:0,0:0:0:0:
152,325,16431,6,0,L|272:305,1,120,2|0,0:0|0:0,0:0:0:0:
359,273,16763,2,0,P|319:274|283:256,1,80,8|0,0:0|0:0,0:0:0:0:
171,62,17094,2,0,L|290:80,1,120,2|0,0:0|0:0,0:0:0:0:
373,132,17426,2,0,P|336:115|297:117,1,80,8|0,0:0|0:0,0:0:0:0:
132,197,17757,6,0,P|123:241|114:298,1,80,6|0,0:0|0:0,0:0:0:0:
319,362,18089,1,8,0:0:0:0:
228,253,18255,1,0,0:0:0:0:
352,131,18420,2,0,P|396:120|441:121,1,80,2|2,0:0|0:0,0:0:0:0:
211,271,18752,2,0,P|166:267|130:255,1,80,8|0,0:0|0:0,0:0:0:0:
66,108,19083,5,2,0:0:0:0:
182,183,19249,1,2,0:0:0:0:
43,212,19415,1,8,0:0:0:0:
181,92,19580,1,2,0:0:0:0:
293,249,19746,2,0,P|301:213|315:162,1,80,6|0,0:0|0:0,0:0:0:0:
400,16,20078,1,8,0:0:0:0:
292,75,20244,1,2,0:0:0:0:
458,128,20409,5,6,0:0:0:0:
313,52,20575,1,2,0:0:0:0:
388,218,20741,1,8,0:0:0:0:
216,127,20907,1,2,0:0:0:0:
281,339,21072,6,0,P|322:330|363:327,1,80,8|2,0:0|0:0,0:0:0:0:
235,241,21404,1,8,0:0:0:0:
173,378,21569,1,2,0:0:0:0:
136,205,21735,5,8,0:0:0:0:
281,339,21901,1,2,0:0:0:0:
267,126,22067,1,8,0:0:0:0:
401,261,22232,1,2,0:0:0:0:
235,240,22398,5,8,0:0:0:0:
406,124,22564,1,8,0:0:0:0:
406,124,22647,1,8,0:0:0:0:
406,124,22730,1,8,0:0:0:0:
290,24,22895,1,8,0:0:0:0:
361,227,23061,5,6,0:0:0:0:
239,343,23227,2,0,P|281:334|336:329,1,80,2|12,0:0|0:0,0:0:0:0:
211,373,23558,1,0,0:0:0:0:
361,226,23724,5,6,0:0:0:0:
197,194,23890,2,0,P|158:203|117:203,1,80,2|12,0:0|0:0,0:0:0:0:
226,165,24221,1,0,0:0:0:0:
361,227,24387,5,6,0:0:0:0:
472,88,24553,2,0,P|461:131|458:175,1,80,2|12,0:0|0:0,0:0:0:0:
494,57,24884,1,0,0:0:0:0:
477,322,25050,6,0,P|420:322|384:302,1,80,6|0,0:0|0:0,0:0:0:0:
512,358,25381,2,0,P|473:378|410:376,1,80,12|0,0:0|0:0,0:0:0:0:
196,306,25713,5,6,0:0:0:0:
314,163,25879,2,0,P|302:200|298:243,1,80,2|12,0:0|0:0,0:0:0:0:
341,136,26210,1,0,0:0:0:0:
196,306,26376,5,6,0:0:0:0:
56,199,26542,2,0,P|92:213|142:214,1,80,2|12,0:0|0:0,0:0:0:0:
25,172,26873,1,0,0:0:0:0:
196,306,27039,5,6,0:0:0:0:
298,158,27205,2,0,P|293:200|284:236,1,80,2|12,0:0|0:0,0:0:0:0:
273,116,27536,1,0,0:0:0:0:
196,306,27702,5,6,0:0:0:0:
376,230,27868,1,8,0:0:0:0:
376,230,27950,1,8,0:0:0:0:
376,230,28033,1,12,0:0:0:0:
273,116,28199,1,2,0:0:0:0:
312,332,28365,6,0,P|353:322|397:322,1,64,6|0,0:0|0:0,0:0:0:0:
470,369,28696,2,0,P|479:317|494:236,1,128,8|0,0:0|0:0,0:0:0:0:
394,120,29194,1,2,0:0:0:0:
417,227,29359,1,8,0:0:0:0:
440,101,29525,1,0,0:0:0:0:
315,200,29691,6,0,L|249:208,1,64,2|0,0:0|0:0,0:0:0:0:
164,110,30022,2,0,L|236:120,1,64,8|0,0:0|0:0,0:0:0:0:
328,225,30354,2,0,L|190:237,1,128,2|8,0:0|0:0,0:0:0:0:
89,132,30851,1,0,0:0:0:0:
103,266,31017,6,0,P|108:230|119:194,1,64,2|0,0:0|0:0,0:0:0:0:
174,79,31348,2,0,P|249:77|286:115,1,128,8|0,0:0|0:0,0:0:0:0:
271,275,31845,1,2,0:0:0:0:
211,161,32011,1,8,0:0:0:0:
297,235,32177,1,0,0:0:0:0:
401,133,32343,6,0,L|384:201,1,64,2|0,0:0|0:0,0:0:0:0:
287,54,32674,2,0,L|299:129,1,64,8|0,0:0|0:0,0:0:0:0:
197,19,33006,1,2,0:0:0:0:
109,147,33171,1,8,0:0:0:0:
109,147,33254,1,8,0:0:0:0:
109,146,33337,1,8,0:0:0:0:
55,61,33503,1,2,0:0:0:0:
204,137,33669,5,6,0:0:0:0:
108,276,33834,2,0,P|73:274|20:242,1,80,2|12,0:0|0:0,0:0:0:0:
142,260,34166,1,0,0:0:0:0:
204,137,34332,5,6,0:0:0:0:
343,223,34497,2,0,P|363:189|367:137,1,80,2|12,0:0|0:0,0:0:0:0:
309,249,34829,1,0,0:0:0:0:
203,136,34995,5,6,0:0:0:0:
73,55,35160,2,0,P|79:94|81:143,1,80,2|12,0:0|0:0,0:0:0:0:
47,17,35492,1,0,0:0:0:0:
88,286,35658,6,0,P|42:282|5:265,1,80,6|0,0:0|0:0,0:0:0:0:
142,314,35989,2,0,P|101:329|45:334,1,80,12|0,0:0|0:0,0:0:0:0:
279,207,36321,5,6,0:0:0:0:
393,324,36486,2,0,P|405:281|427:238,1,80,2|12,0:0|0:0,0:0:0:0:
391,366,36818,1,0,0:0:0:0:
279,207,36984,5,6,0:0:0:0:
153,325,37149,2,0,P|147:286|123:244,1,80,2|12,0:0|0:0,0:0:0:0:
143,361,37481,1,0,0:0:0:0:
279,207,37647,5,6,0:0:0:0:
379,85,37812,2,0,P|326:75|294:60,1,80,2|12,0:0|0:0,0:0:0:0:
421,66,38144,1,0,0:0:0:0:
279,207,38310,5,6,0:0:0:0:
457,167,38475,2,8,L|437:222,1,40
366,350,38641,2,8,L|356:302,1,40,8|8,0:0|0:0,0:0:0:0:
256,180,38807,2,8,L|244:233,1,40,8|8,0:0|0:0,0:0:0:0:
139,350,38973,6,0,P|130:302|118:239,1,80,6|0,0:0|0:0,0:0:0:0:
99,133,39304,1,8,0:0:0:0:
248,220,39470,2,0,P|283:235|344:245,1,80,2|0,0:0|0:0,0:0:0:0:
120,100,39801,2,0,P|161:83|211:74,1,80,2|8,0:0|0:0,0:0:0:0:
394,144,40133,1,2,0:0:0:0:
297,53,40299,5,2,0:0:0:0:
412,17,40464,1,2,0:0:0:0:
289,206,40630,2,0,P|257:197|187:190,1,80,8|0,0:0|0:0,0:0:0:0:
132,347,40961,2,0,P|177:333|225:326,1,80,2|0,0:0|0:0,0:0:0:0:
40,256,41293,1,8,0:0:0:0:
171,164,41459,1,0,0:0:0:0:
0,57,41624,6,0,P|7:96|15:140,1,80,6|0,0:0|0:0,0:0:0:0:
40,256,41955,1,8,0:0:0:0:
171,164,42121,2,0,P|212:149|271:154,1,80,2|0,0:0|0:0,0:0:0:0:
299,314,42453,2,0,P|249:311|215:299,1,80,2|8,0:0|0:0,0:0:0:0:
343,107,42784,1,2,0:0:0:0:
415,298,42950,5,2,0:0:0:0:
325,217,43116,1,2,0:0:0:0:
462,81,43282,2,0,P|451:121|440:184,1,80,8|0,0:0|0:0,0:0:0:0:
415,298,43613,2,0,P|459:281|510:280,1,80,2|0,0:0|0:0,0:0:0:0:
278,364,43945,1,8,0:0:0:0:
335,207,44111,1,2,0:0:0:0:
168,302,44276,6,0,P|159:260|152:203,1,80,6|0,0:0|0:0,0:0:0:0:
187,72,44608,1,8,0:0:0:0:
343,196,44774,2,0,P|386:187|435:167,1,80,2|0,0:0|0:0,0:0:0:0:
475,20,45105,1,2,0:0:0:0:
364,104,45271,1,8,0:0:0:0:
248,42,45437,1,2,0:0:0:0:
126,176,45602,6,0,P|86:169|32:160,1,80,2|0,0:0|0:0,0:0:0:0:
213,205,45934,2,0,P|179:209|112:223,1,80,8|0,0:0|0:0,0:0:0:0:
320,181,46265,2,0,P|287:178|223:166,1,80,2|0,0:0|0:0,0:0:0:0:
429,198,46597,2,0,P|391:204|346:219,1,80,8|0,0:0|0:0,0:0:0:0:
228,308,46928,5,2,0:0:0:0:
357,360,47094,1,0,0:0:0:0:
264,228,47260,1,8,0:0:0:0:
411,287,47426,1,0,0:0:0:0:
329,111,47591,5,2,0:0:0:0:
150,177,47757,1,2,0:0:0:0:
264,228,47923,1,8,0:0:0:0:
397,167,48089,1,0,0:0:0:0:
510,247,48254,5,2,0:0:0:0:
367,192,48420,1,2,0:0:0:0:
488,58,48586,2,0,P|450:67|391:71,1,80,12|0,0:0|0:0,0:0:0:0:
243,20,48917,1,2,0:0:0:0:
366,191,49083,2,8,P|358:173|350:155,1,40,8|8,0:0|0:0,0:0:0:0:
239,282,49249,2,8,L|231:211,1,40,8|8,0:0|0:0,0:0:0:0:
85,336,49415,2,8,L|92:296,1,40,8|8,0:0|0:0,0:0:0:0:
238,377,49580,6,0,P|231:337|221:298,1,80,6|0,0:0|0:0,0:0:0:0:
55,182,49911,1,8,0:0:0:0:
196,64,50077,2,0,P|156:55|120:40,1,80,2|0,0:0|0:0,0:0:0:0:
154,224,50409,2,0,P|195:207|244:202,1,80,2|8,0:0|0:0,0:0:0:0:
356,278,50740,1,2,0:0:0:0:
303,156,50906,5,2,0:0:0:0:
439,54,51072,2,0,P|429:92|421:137,1,80,2|8,0:0|0:0,0:0:0:0:
453,274,51403,1,0,0:0:0:0:
303,156,51569,2,0,P|262:146|211:150,1,80,2|2,0:0|0:0,0:0:0:0:
100,273,51900,1,8,0:0:0:0:
252,234,52066,1,0,0:0:0:0:
126,63,52232,6,0,P|116:101|105:142,1,80,6|0,0:0|0:0,0:0:0:0:
10,222,52564,1,8,0:0:0:0:
78,365,52729,2,0,P|119:350|178:355,1,80,2|0,0:0|0:0,0:0:0:0:
252,234,53061,2,0,P|199:223|167:201,1,80,2|8,0:0|0:0,0:0:0:0:
348,359,53391,1,2,0:0:0:0:
463,282,53557,5,2,0:0:0:0:
373,177,53724,1,2,0:0:0:0:
232,313,53889,2,0,P|242:273|250:235,1,80,8|0,0:0|0:0,0:0:0:0:
106,111,54221,2,0,P|113:155|118:205,1,80,2|0,0:0|0:0,0:0:0:0:
51,312,54552,1,8,0:0:0:0:
51,312,54718,1,2,0:0:0:0:
240,314,54884,6,0,P|231:272|224:215,1,80,6|0,0:0|0:0,0:0:0:0:
272,94,55216,1,8,0:0:0:0:
369,200,55381,1,2,0:0:0:0:
305,121,55547,1,2,0:0:0:0:
422,72,55713,1,2,0:0:0:0:
296,6,55879,1,8,0:0:0:0:
183,127,56044,1,2,0:0:0:0:
59,10,56210,6,0,P|48:54|38:95,1,80,2|0,0:0|0:0,0:0:0:0:
195,206,56542,2,0,P|189:162|179:107,1,80,8|0,0:0|0:0,0:0:0:0:
360,35,56873,1,2,0:0:0:0:
298,120,57039,1,2,0:0:0:0:
454,83,57205,1,8,0:0:0:0:
361,7,57370,1,0,0:0:0:0:
414,193,57536,6,0,L|516:179,1,80,6|0,0:0|0:0,0:0:0:0:
273,295,57868,2,0,L|351:311,1,80,8|0,0:0|0:0,0:0:0:0:
164,143,58199,2,0,L|262:128,1,80,2|2,0:0|0:0,0:0:0:0:
48,304,58531,2,0,L|144:326,1,80,8|0,0:0|0:0,0:0:0:0:
0,125,58862,5,2,0:0:0:0:
94,208,59028,1,2,0:0:0:0:
221,209,59194,1,8,0:0:0:0:
318,112,59359,1,2,0:0:0:0:
251,227,59525,5,2,0:0:0:0:
335,332,59691,1,8,0:0:0:0:
335,332,59774,1,8,0:0:0:0:
335,332,59857,1,8,0:0:0:0:
486,347,60022,1,2,0:0:0:0:
417,150,60188,5,0,0:0:0:0:
396,233,60354,1,0,0:0:0:0:
479,212,60519,1,0,0:0:0:0:
431,201,60685,1,0,0:0:0:0:
346,53,60851,6,0,P|339:104|328:157,1,80,6|0,0:0|0:0,0:0:0:0:
233,298,61183,2,0,P|189:301|154:288,1,80,8|0,0:0|0:0,0:0:0:0:
117,89,61514,1,2,0:0:0:0:
204,214,61680,1,2,0:0:0:0:
31,154,61846,2,0,P|24:197|19:256,1,80,8|0,0:0|0:0,0:0:0:0:
215,333,62177,6,0,L|200:177,1,120,2|0,0:0|0:0,0:0:0:0:
262,145,62509,2,0,P|226:162|153:156,1,80,8|0,0:0|0:0,0:0:0:0:
392,44,62840,2,0,L|411:172,1,120,2|0,0:0|0:0,0:0:0:0:
363,235,63172,2,0,P|403:215|442:213,1,80,8|0,0:0|0:0,0:0:0:0:
268,363,63503,6,0,P|228:361|166:347,1,80,6|0,0:0|0:0,0:0:0:0:
35,273,63835,1,8,0:0:0:0:
182,187,64001,1,0,0:0:0:0:
101,47,64166,2,0,P|58:58|17:64,1,80,2|2,0:0|0:0,0:0:0:0:
198,218,64497,2,0,P|210:177|227:128,1,80,8|0,0:0|0:0,0:0:0:0:
390,36,64828,6,0,L|408:184,1,120,2|0,0:0|0:0,0:0:0:0:
471,218,65160,2,0,P|441:201|382:209,1,80,8|0,0:0|0:0,0:0:0:0:
212,323,65491,2,0,L|233:193,1,120,2|0,0:0|0:0,0:0:0:0:
182,135,65824,2,0,P|215:155|265:152,1,80,8|0,0:0|0:0,0:0:0:0:
92,45,66155,6,0,P|85:87|74:146,1,80,6|0,0:0|0:0,0:0:0:0:
54,266,66487,1,8,0:0:0:0:
182,135,66652,1,0,0:0:0:0:
246,312,66817,2,0,P|285:311|339:296,1,80,2|2,0:0|0:0,0:0:0:0:
481,198,67150,2,0,P|439:186|401:182,1,80,8|0,0:0|0:0,0:0:0:0:
287,58,67481,5,2,0:0:0:0:
394,159,67647,1,2,0:0:0:0:
251,223,67813,1,8,0:0:0:0:
148,99,67979,1,0,0:0:0:0:
24,273,68144,2,0,P|32:234|41:186,1,80,6|0,0:0|0:0,0:0:0:0:
137,75,68475,1,8,0:0:0:0:
41,169,68642,1,2,0:0:0:0:
185,267,68807,5,6,0:0:0:0:
48,320,68973,1,2,0:0:0:0:
80,169,69138,1,8,0:0:0:0:
198,245,69305,1,2,0:0:0:0:
245,59,69469,6,0,P|203:57|150:52,1,80,8|2,0:0|0:0,0:0:0:0:
387,152,69802,1,8,0:0:0:0:
248,228,69967,1,2,0:0:0:0:
385,300,70133,5,8,0:0:0:0:
426,108,70299,1,2,0:0:0:0:
255,167,70465,1,8,0:0:0:0:
420,253,70630,1,2,0:0:0:0:
314,86,70796,5,8,0:0:0:0:
249,298,70962,1,8,0:0:0:0:
249,298,71045,1,8,0:0:0:0:
249,298,71128,1,8,0:0:0:0:
354,184,71293,1,8,0:0:0:0:
210,78,71459,6,0,P|170:70|120:63,1,80,6|0,0:0|0:0,0:0:0:0:
23,256,71791,2,0,P|68:243|107:234,1,80,8|0,0:0|0:0,0:0:0:0:
271,331,72122,1,2,0:0:0:0:
197,210,72288,1,2,0:0:0:0:
387,261,72454,2,0,P|396:217|406:172,1,80,8|0,0:0|0:0,0:0:0:0:
456,57,72785,6,0,L|320:81,1,120,2|0,0:0|0:0,0:0:0:0:
273,25,73117,2,0,P|293:79|273:121,1,80,8|0,0:0|0:0,0:0:0:0:
166,249,73448,2,0,L|289:263,1,120,2|0,0:0|0:0,0:0:0:0:
311,337,73780,2,0,P|310:300|336:253,1,80,8|0,0:0|0:0,0:0:0:0:
502,172,74111,6,0,P|501:212|484:251,1,80,6|0,0:0|0:0,0:0:0:0:
351,81,74443,1,8,0:0:0:0:
475,10,74607,1,0,0:0:0:0:
365,186,74774,2,0,P|325:192|281:194,1,80,2|2,0:0|0:0,0:0:0:0:
138,284,75106,2,0,P|183:286|222:291,1,80,8|0,0:0|0:0,0:0:0:0:
92,126,75437,6,0,P|160:117|212:106,1,120,2|0,0:0|0:0,0:0:0:0:
301,67,75769,2,0,P|261:68|225:50,1,80,8|0,0:0|0:0,0:0:0:0:
356,242,76099,2,0,P|294:233|226:220,1,120,2|0,0:0|0:0,0:0:0:0:
146,257,76432,2,0,P|190:258|225:280,1,80,8|0,0:0|0:0,0:0:0:0:
23,307,76763,6,0,P|35:269|44:228,1,80,6|0,0:0|0:0,0:0:0:0:
25,64,77095,1,8,0:0:0:0:
107,152,77259,1,0,0:0:0:0:
213,20,77425,2,0,P|248:27|295:31,1,80,2|2,0:0|0:0,0:0:0:0:
411,143,77758,2,0,P|368:150|325:160,1,80,8|0,0:0|0:0,0:0:0:0:
185,248,78089,5,2,0:0:0:0:
250,114,78255,1,2,0:0:0:0:
118,170,78421,1,8,0:0:0:0:
281,270,78585,1,0,0:0:0:0:
115,382,78752,2,0,P|71:377|35:364,1,80,6|0,0:0|0:0,0:0:0:0:
275,232,79084,1,8,0:0:0:0:
90,289,79248,1,2,0:0:0:0:
286,379,79415,5,6,0:0:0:0:
222,230,79581,1,2,0:0:0:0:
411,268,79747,1,8,0:0:0:0:
347,104,79911,1,2,0:0:0:0:
368,300,80077,6,0,P|331:297|288:290,1,80,8|2,0:0|0:0,0:0:0:0:
151,190,80410,1,8,0:0:0:0:
267,138,80575,1,2,0:0:0:0:
135,290,80740,5,8,0:0:0:0:
66,108,80907,1,10,0:0:0:0:
66,108,80989,1,8,0:0:0:0:
66,108,81071,1,8,0:0:0:0:
18,226,81237,1,10,0:0:0:0:
227,143,81403,5,8,0:0:0:0:
227,143,81486,1,8,0:0:0:0:
227,143,81569,1,8,0:0:0:0:
227,143,81652,1,8,0:0:0:0:
227,143,81734,2,8,L|282:136,1,40
57,233,81900,2,8,L|-8:221,1,40
189,325,82066,5,6,0:0:0:0:
327,264,82232,2,0,P|316:306|311:347,1,80,2|12,0:0|0:0,0:0:0:0:
363,222,82564,1,0,0:0:0:0:
189,325,82729,5,6,0:0:0:0:
50,229,82895,2,0,P|56:278|49:316,1,80,2|12,0:0|0:0,0:0:0:0:
30,179,83227,1,0,0:0:0:0:
189,325,83392,5,6,0:0:0:0:
343,269,83558,2,0,P|332:299|329:356,1,80,2|12,0:0|0:0,0:0:0:0:
370,225,83890,1,0,0:0:0:0:
194,113,84055,6,0,P|177:71|170:28,1,80,6|0,0:0|0:0,0:0:0:0:
224,139,84386,2,0,P|225:91|246:49,1,80,12|0,0:0|0:0,0:0:0:0:
436,57,84718,5,6,0:0:0:0:
359,218,84884,2,0,P|404:202|460:194,1,80,2|12,0:0|0:0,0:0:0:0:
328,254,85215,1,0,0:0:0:0:
436,57,85381,5,6,0:0:0:0:
239,93,85547,2,0,P|275:107|325:108,1,80,2|12,0:0|0:0,0:0:0:0:
207,57,85878,1,0,0:0:0:0:
436,57,86044,5,6,0:0:0:0:
418,259,86210,2,0,P|405:224|405:176,1,80,2|12,0:0|0:0,0:0:0:0:
445,290,86541,1,0,0:0:0:0:
436,57,86707,5,6,0:0:0:0:
259,117,86873,1,8,0:0:0:0:
259,117,86955,1,8,0:0:0:0:
259,117,87038,1,8,0:0:0:0:
337,45,87204,1,2,0:0:0:0:
285,209,87370,5,12,0:0:0:0:
159,28,87536,1,8,0:0:0:0:
