osu file format v14

[General]
AudioFilename: audio.mp3
AudioLeadIn: 0
PreviewTime: 60768
Countdown: 0
SampleSet: Soft
StackLeniency: 0.7
Mode: 0
LetterboxInBreaks: 0
WidescreenStoryboard: 0

[Editor]
Bookmarks: 23061,28395,38973,54884
DistanceSpacing: 1.13
BeatDivisor: 2
GridSize: 16
TimelineZoom: 1.2

[Metadata]
Title:Don't say "lazy" (TV size Ver.)
TitleUnicode:Don’t say “lazy”(TV size Ver.)
Artist:Sakurakou K-ON Bu
ArtistUnicode:桜高軽音部
Creator:Asuka_-
Version:Easy
Source:けいおん!
Tags:HTT 平沢唯 秋山澪 田井中律 琴吹紬 豊崎愛生 日笠陽子佐藤聡美 寿美菜子 Hirasawa Yui Akiyama Mio Tainaka Ritsu Kotobuki Tsumugi Toyosaki Aki Hikasa Youko Satou satomi Kotobuki Minako K-ON! Yasaija 714
BeatmapID:1398468
BeatmapSetID:659531

[Difficulty]
HPDrainRate:2
CircleSize:3
OverallDifficulty:2
ApproachRate:3
SliderMultiplier:0.7
SliderTickRate:1

[Events]
//Background and Video events
0,0,"1920x1080xee66dbc2b80f1b48d3778e.jpg",0,0
//Break Periods
//Storyboard Layer 0 (Background)
//Storyboard Layer 1 (Fail)
//Storyboard Layer 2 (Pass)
//Storyboard Layer 3 (Foreground)
//Storyboard Sound Samples

[TimingPoints]
520,331.491712707182,4,2,1,60,1,0
60851,331.491712707182,4,2,1,60,1,1
82066,-100,4,2,1,60,0,0

[Colours]
Combo1 : 0,108,108
Combo2 : 157,157,255
Combo3 : 170,0,0
Combo4 : 255,168,255

[HitObjects]
33,362,520,6,0,P|64:371|104:369,1,70,6|6,0:0|0:0,0:0:0:0:
170,331,1182,2,0,L|184:254,1,70,8|8,0:0|0:0,0:0:0:0:
160,186,1845,5,6,0:0:0:0:
202,119,2177,2,0,P|270:103|327:145,1,140,8|8,0:0|0:0,0:0:0:0:
366,207,3171,2,0,P|375:151|397:54,2,140,2|2|6,0:0|0:0|0:0,0:0:0:0:
365,286,4829,6,0,P|298:320|225:279,1,140,8|8,0:0|0:0,0:0:0:0:
188,239,5823,2,0,L|37:255,2,140,2|2|6,0:0|0:0|0:0,0:0:0:0:
260,206,7481,6,0,P|294:129|261:74,1,140,8|8,0:0|0:0,0:0:0:0:
216,27,8475,2,0,P|147:32|59:46,1,140,2|6,0:0|0:0,0:0:0:0:
15,93,9470,1,8,0:0:0:0:
54,160,9801,6,0,P|44:231|40:299,1,140,6|8,0:0|0:0,0:0:0:0:
91,359,10795,1,8,0:0:0:0:
152,309,11127,2,0,P|236:266|349:311,1,210,8|8,0:0|0:0,0:0:0:0:
404,348,12453,1,4,0:0:0:0:
471,306,12785,6,0,L|483:156,1,140,8|8,0:0|0:0,0:0:0:0:
489,87,13779,2,0,P|428:55|358:81,2,140,2|2|6,0:0|0:0|0:0,0:0:0:0:
482,166,15437,2,0,P|416:186|356:154,1,140,8|8,0:0|0:0,0:0:0:0:
279,137,16431,2,0,L|254:290,2,140,2|2|6,0:0|0:0|0:0,0:0:0:0:
252,62,18089,6,0,P|189:29|106:57,1,140,8|8,0:0|0:0,0:0:0:0:
66,96,19083,2,0,P|72:179|75:252,1,140,2|6,0:0|0:0,0:0:0:0:
122,300,20078,1,8,0:0:0:0:
181,248,20409,6,0,P|246:221|326:248,1,140,6|8,0:0|0:0,0:0:0:0:
365,295,21403,1,8,0:0:0:0:
415,234,21735,2,0,P|432:164|439:77,1,140,8|8,0:0|0:0,0:0:0:0:
379,43,22729,1,8,0:0:0:0:
316,91,23061,6,0,L|152:116,2,140,6|2|2,0:0|0:0|0:0,0:0:0:0:
459,157,25049,2,0,P|453:196|454:234,1,70,2|8,0:0|0:0,0:0:0:0:
453,305,25713,6,0,L|294:333,2,140,6|2|2,0:0|0:0|0:0,0:0:0:0:
368,170,27701,2,0,P|327:180|271:188,1,70,2|8,0:0|0:0,0:0:0:0:
232,142,28365,6,0,P|197:136|145:138,1,70,6|8,0:0|0:0,0:0:0:0:
62,258,29359,1,8,0:0:0:0:
98,329,29691,2,0,P|153:358|239:326,1,140,2|2,0:0|0:0,0:0:0:0:
272,275,30685,1,8,0:0:0:0:
244,200,31017,6,0,P|245:168|249:123,1,70,2|8,0:0|0:0,0:0:0:0:
394,68,32011,1,8,0:0:0:0:
454,118,32343,2,0,P|471:186|429:253,1,140,2|2,0:0|0:0,0:0:0:0:
377,294,33337,1,8,0:0:0:0:
306,257,33669,6,0,L|139:240,2,140,6|6|6,0:0|0:0|0:0,0:0:0:0:
449,190,35658,2,0,P|455:164|456:107,1,70,6|12,0:0|0:0,0:0:0:0:
423,49,36321,6,0,L|264:31,2,140,6|6|6,0:0|0:0|0:0,0:0:0:0:
348,188,38310,2,0,P|308:189|257:172,1,70,6|8,0:0|0:0,0:0:0:0:
224,124,38973,6,0,P|175:105|108:118,1,105,6|2,0:0|0:0,0:0:0:0:
51,141,39801,1,2,0:0:0:0:
4,205,40133,2,0,P|8:253|20:337,1,105,2|8,0:0|0:0,0:0:0:0:
75,360,40961,2,0,P|106:366|153:360,1,70,2|8,0:0|0:0,0:0:0:0:
204,310,41624,6,0,L|221:189,1,105,6|2,0:0|0:0,0:0:0:0:
239,129,42452,1,2,0:0:0:0:
280,61,42784,2,0,P|340:54|389:84,1,105,2|8,0:0|0:0,0:0:0:0:
413,144,43613,2,0,P|408:186|398:231,1,70,2|8,0:0|0:0,0:0:0:0:
349,272,44276,6,0,P|296:277|250:256,1,105,6|2,0:0|0:0,0:0:0:0:
141,208,45271,1,8,0:0:0:0:
62,214,45602,2,0,L|79:75,1,140,2|2,0:0|0:0,0:0:0:0:
143,27,46597,1,8,0:0:0:0:
201,80,46928,6,0,P|260:105|332:70,2,140,2|2|2,0:0|0:0|0:0,0:0:0:0:
143,27,48586,1,12,0:0:0:0:
78,75,48917,2,0,P|78:113|81:154,1,70,2|8,0:0|0:0,0:0:0:0:
112,217,49580,6,0,P|157:229|228:235,1,105,6|2,0:0|0:0,0:0:0:0:
290,259,50408,1,2,0:0:0:0:
364,232,50740,2,0,P|388:194|387:118,1,105,2|8,0:0|0:0,0:0:0:0:
353,66,51569,2,0,P|315:66|278:69,1,70,2|8,0:0|0:0,0:0:0:0:
205,84,52232,6,0,P|174:128|181:185,1,105,6|2,0:0|0:0,0:0:0:0:
212,248,53061,1,2,0:0:0:0:
275,294,53392,2,0,P|333:291|383:282,1,105,2|8,0:0|0:0,0:0:0:0:
452,253,54221,2,0,P|462:213|471:156,1,70,2|8,0:0|0:0,0:0:0:0:
447,108,54884,6,0,P|406:85|335:97,1,105,6|2,0:0|0:0,0:0:0:0:
237,125,55879,1,8,0:0:0:0:
160,103,56210,2,0,L|141:251,1,140,2|2,0:0|0:0,0:0:0:0:
177,313,57205,1,8,0:0:0:0:
237,364,57536,6,0,P|308:382|380:325,1,140,6|2,0:0|0:0,0:0:0:0:
404,283,58531,2,0,P|410:250|415:211,1,70,8|2,0:0|0:0,0:0:0:0:
365,63,59525,1,2,0:0:0:0:
97,231,60851,5,6,0:0:0:0:
124,304,61182,2,0,P|181:332|266:287,1,140,8|8,0:0|0:0,0:0:0:0:
297,244,62176,2,0,P|307:181|316:91,2,140,2|2|6,0:0|0:0|0:0,0:0:0:0:
334,314,63834,6,0,P|395:342|459:318,1,140,8|8,0:0|0:0,0:0:0:0:
494,246,64828,2,0,P|506:182|516:80,2,140,2|2|6,0:0|0:0|0:0,0:0:0:0:
459,318,66486,6,0,P|404:330|312:332,1,140,8|8,0:0|0:0,0:0:0:0:
242,321,67480,2,0,L|256:173,1,140,2|6,0:0|0:0,0:0:0:0:
289,109,68475,1,8,0:0:0:0:
250,39,68806,6,0,P|185:15|100:49,1,140,6|8,0:0|0:0,0:0:0:0:
59,85,69801,1,8,0:0:0:0:
101,151,70132,2,0,L|77:371,1,210,8|8,0:0|0:0,0:0:0:0:
155,379,71458,1,4,0:0:0:0:
229,352,71790,6,0,P|253:309|209:213,1,140,8|8,0:0|0:0,0:0:0:0:
183,160,72784,2,0,P|243:173|339:185,2,140,2|2|6,0:0|0:0|0:0,0:0:0:0:
103,164,74442,6,0,P|63:220|79:298,1,140,8|8,0:0|0:0,0:0:0:0:
138,330,75436,2,0,P|71:331|-13:341,2,140,2|2|6,0:0|0:0|0:0,0:0:0:0:
214,349,77094,6,0,P|270:353|361:351,1,140,8|8,0:0|0:0,0:0:0:0:
428,324,78088,2,0,P|461:285|438:187,1,140,2|6,0:0|0:0,0:0:0:0:
394,145,79083,1,8,0:0:0:0:
333,195,79414,6,0,P|275:201|182:202,1,140,6|8,0:0|0:0,0:0:0:0:
114,200,80408,1,8,0:0:0:0:
37,177,80740,2,0,P|21:103|83:41,1,140,8|8,0:0|0:0,0:0:0:0:
132,27,81734,1,8,0:0:0:0:
205,55,82066,6,0,L|218:209,2,140,6|6|6,0:0|0:0|0:0,0:0:0:0:
335,145,84055,2,0,P|371:143|409:123,1,70,6|12,0:0|0:0,0:0:0:0:
479,117,84718,6,0,L|499:259,2,140,6|6|6,0:0|0:0|0:0,0:0:0:0:
341,37,86707,2,0,P|301:37|261:55,1,70,6|8,0:0|0:0,0:0:0:0:
218,104,87370,6,0,L|222:152,1,35,12|8,0:0|0:0,0:0:0:0:
