osu file format v14

[General]
AudioFilename: audio.mp3
AudioLeadIn: 1657
PreviewTime: 8020
Countdown: 0
SampleSet: Soft
StackLeniency: 0.7
Mode: 0
LetterboxInBreaks: 0
WidescreenStoryboard: 1

[Editor]
Bookmarks: 8108,25049,47637,60343,71637,82931
DistanceSpacing: 0.5
BeatDivisor: 4
GridSize: 32
TimelineZoom: 2

[Metadata]
Title:Cagayake!GIRLS[5nin Ver.] (TV size Ver.)
TitleUnicode:Cagayake!GIRLS[5人Ver.] (TV size Ver.)
Artist:Sakurakou K-ON Bu
ArtistUnicode:桜高軽音部
Creator:Pata-Mon
Version:Yui
Source:けいおん!
Tags:Karen K-on! keion keionbu HO-KAGO TEA TIME HTT 豊崎愛生 Toyosaki Aki 日笠陽子 Hikasa Youko 佐藤聡美 Satou Satomi 寿美菜子 Kotobuki Minako 竹達彩奈 Taketatsu Ayana 平沢唯 Hirasawa Yui 秋山澪 Akiyama Mio 田井中律 Tainaka Ritsu 琴吹紬 Kotobuki Tsumugi 中野梓 Nakano Azusa Anime OP opening tv size
BeatmapID:1427838
BeatmapSetID:666366

[Difficulty]
HPDrainRate:6
CircleSize:4
OverallDifficulty:8
ApproachRate:9
SliderMultiplier:1.8
SliderTickRate:1

[Events]
//Background and Video events
0,0,"BG.jpg",0,0
Video,-280,"video.flv"
//Break Periods
//Storyboard Layer 0 (Background)
//Storyboard Layer 1 (Fail)
//Storyboard Layer 2 (Pass)
//Storyboard Layer 3 (Foreground)
//Storyboard Sound Samples

[TimingPoints]
1049.53841563695,352.941176470588,4,2,1,50,1,0
1137,-133.333333333333,4,2,1,50,0,0
8020,-100,4,2,1,70,0,0
19402,-100,4,2,1,60,0,0
25049,-133.333333333333,4,2,1,55,0,0
58755,-100,4,2,1,70,0,0
60343,-100,4,2,1,70,0,1
82931,-100,4,2,1,60,0,0
87696,304,4,2,1,60,1,0
87848,356,4,2,1,60,1,0

[Colours]
Combo1 : 255,207,95
Combo2 : 255,127,127
Combo3 : 207,95,255
Combo4 : 143,231,183
Combo5 : 159,191,255

[HitObjects]
112,207,343,6,0,L|122:268,1,45,2|0,0:0|0:0,0:0:0:0:
193,164,520,2,0,L|203:225,1,45,2|0,0:0|0:0,0:0:0:0:
274,121,696,2,0,L|284:182,1,45,2|0,0:0|0:0,0:0:0:0:
355,78,873,2,0,L|365:139,1,45,2|0,0:0|0:0,0:0:0:0:
440,181,1049,5,6,0:0:0:0:
366,373,1226,1,2,0:0:0:0:
281,262,1402,1,2,0:0:0:0:
390,282,1578,1,2,0:0:0:0:
390,282,1667,1,2,0:0:0:0:
390,282,1755,2,0,L|486:280,1,67.5000025749208,2|0,0:0|0:0,0:0:0:0:
270,361,2108,2,0,L|174:359,1,67.5000025749208,2|0,0:0|0:0,0:0:0:0:
75,200,2461,5,2,0:0:0:0:
207,267,2637,1,2,0:0:0:0:
291,146,2814,1,2,0:0:0:0:
111,292,2990,2,0,L|114:384,1,67.5000025749208,2|0,0:0|0:0,0:0:0:0:
193,167,3343,2,0,L|191:16,1,135.000005149842,2|0,0:0|0:0,0:0:0:0:
64,14,3873,5,2,0:0:0:0:
0,115,4049,1,2,0:0:0:0:
156,251,4226,1,2,0:0:0:0:
103,116,4402,1,2,0:0:0:0:
103,116,4490,1,2,0:0:0:0:
103,116,4578,1,2,0:0:0:0:
65,308,4755,1,2,0:0:0:0:
0,214,4931,2,0,L|96:205,1,67.5000025749208,2|0,0:0|0:0,0:0:0:0:
195,340,5284,5,2,0:0:0:0:
235,174,5461,1,2,0:0:0:0:
156,251,5637,1,2,0:0:0:0:
178,85,5814,1,2,0:0:0:0:
266,267,5990,1,2,0:0:0:0:
342,112,6167,2,0,P|279:122|230:191,1,135.000005149842,2|0,0:0|0:0,0:0:0:0:
88,184,6696,5,0,1:0:0:0:
101,135,6784,1,0,1:0:0:0:
83,87,6873,1,0,1:0:0:0:
39,62,6961,1,0,1:0:0:0:
16,76,7049,5,0,3:0:0:0:
42,79,7137,1,0,3:0:0:0:
68,83,7226,1,0,3:0:0:0:
94,85,7314,1,0,3:0:0:0:
173,52,7402,5,0,1:0:0:0:
173,52,8108,5,6,0:0:0:0:
220,206,8284,1,0,0:0:0:0:
375,159,8461,1,0,1:0:0:0:
327,4,8637,1,2,0:0:0:0:
331,8,8726,1,2,0:0:0:0:
335,12,8814,1,2,0:0:0:0:
275,108,8990,1,0,0:0:0:0:
364,272,9167,1,0,1:0:0:0:
478,111,9343,6,0,L|468:228,1,90,2|0,0:0|0:0,0:0:0:0:
307,358,9696,1,2,0:0:0:0:
200,197,9873,2,0,P|244:201|297:230,1,90,0|2,1:0|0:0,0:0:0:0:
402,363,10226,2,0,L|496:348,1,90,2|0,0:0|0:0,0:0:0:0:
502,341,10490,1,2,0:0:0:0:
512,332,10578,1,0,1:0:0:0:
470,200,10755,1,0,0:0:0:0:
307,358,10931,5,2,0:0:0:0:
350,266,11108,2,0,L|249:275,1,90,0|0,0:0|1:0,0:0:0:0:
148,219,11461,1,2,0:0:0:0:
148,219,11549,1,2,0:0:0:0:
148,219,11637,1,2,0:0:0:0:
208,359,11814,1,0,0:0:0:0:
298,177,11990,1,0,1:0:0:0:
57,262,12167,6,0,P|49:203|58:151,1,90,2|0,0:0|0:0,0:0:0:0:
225,81,12520,1,2,0:0:0:0:
81,34,12696,1,0,1:0:0:0:
148,219,12873,1,2,0:0:0:0:
160,224,12961,1,2,0:0:0:0:
172,229,13049,2,0,L|274:220,1,90,0|2,0:0|0:0,0:0:0:0:
432,111,13402,1,0,1:0:0:0:
428,133,13490,1,2,0:0:0:0:
424,155,13578,1,2,0:0:0:0:
419,177,13667,1,2,0:0:0:0:
415,199,13755,5,2,0:0:0:0:
368,353,13931,1,0,0:0:0:0:
213,306,14108,1,0,1:0:0:0:
261,151,14284,1,2,0:0:0:0:
257,155,14373,1,2,0:0:0:0:
253,159,14461,1,2,0:0:0:0:
316,261,14637,1,0,0:0:0:0:
328,61,14814,1,0,1:0:0:0:
163,208,14990,6,0,L|148:110,1,90,2|0,0:0|0:0,0:0:0:0:
239,7,15343,1,2,0:0:0:0:
363,167,15520,1,0,1:0:0:0:
444,48,15696,1,2,0:0:0:0:
231,102,15873,6,0,L|172:87,1,45,2|0,0:0|0:0,0:0:0:0:
222,277,16049,2,0,L|264:233,1,45,2|0,0:0|0:0,0:0:0:0:
76,174,16226,2,0,L|92:232,1,45,0|0,1:0|0:0,0:0:0:0:
181,189,16402,1,2,0:0:0:0:
181,189,16490,1,2,0:0:0:0:
181,189,16578,5,2,0:0:0:0:
196,374,16755,1,0,0:0:0:0:
119,309,16931,1,0,1:0:0:0:
297,356,17108,1,0,0:0:0:0:
297,356,17196,1,2,0:0:0:0:
297,356,17284,2,0,L|399:344,1,90,2|0,0:0|0:0,0:0:0:0:
503,235,17637,1,0,1:0:0:0:
354,174,17814,6,0,P|345:218|342:275,1,90,2|0,0:0|0:0,0:0:0:0:
445,131,18167,1,2,0:0:0:0:
426,99,18255,1,0,1:0:0:0:
396,79,18343,1,0,1:0:0:0:
360,71,18431,1,0,1:0:0:0:
323,75,18520,1,2,0:0:0:0:
169,135,18696,1,2,0:0:0:0:
354,174,18873,1,2,0:0:0:0:
374,203,18961,1,0,1:0:0:0:
379,238,19049,1,0,1:0:0:0:
193,355,19226,1,2,0:0:0:0:
278,243,19402,6,0,L|177:236,1,90,6|0,0:0|0:0,0:0:0:0:
154,39,19755,2,0,L|53:32,1,90,0|0,1:0|0:0,0:0:0:0:
0,183,20108,1,2,0:0:0:0:
23,278,20284,1,2,0:0:0:0:
118,306,20461,1,0,1:0:0:0:
102,124,20637,6,0,L|93:231,1,90,2|0,0:0|0:0,0:0:0:0:
185,384,20990,1,0,0:0:0:0:
185,384,21167,2,0,L|278:376,1,90,0|0,1:0|0:0,0:0:0:0:
395,284,21520,1,2,0:0:0:0:
395,284,21696,1,0,0:0:0:0:
232,288,21873,2,0,P|220:242|230:188,1,90,0|0,1:0|0:0,0:0:0:0:
442,105,22226,6,0,L|435:208,1,90,2|0,0:0|0:0,0:0:0:0:
312,32,22578,2,0,L|305:135,1,90,0|0,1:0|0:0,0:0:0:0:
296,137,22843,1,2,0:0:0:0:
285,151,22931,2,0,P|244:165|183:152,1,90,2|2,0:0|0:0,0:0:0:0:
81,31,23284,1,0,1:0:0:0:
107,197,23461,6,0,L|125:305,1,90,2|0,0:0|0:0,0:0:0:0:
241,364,23814,1,0,0:0:0:0:
241,364,23990,2,0,P|246:308|237:263,1,90,0|0,1:0|0:0,0:0:0:0:
277,97,24343,1,2,0:0:0:0:
306,86,24431,1,0,1:0:0:0:
337,87,24520,1,0,1:0:0:0:
363,103,24608,1,0,1:0:0:0:
379,129,24696,1,2,0:0:0:0:
357,308,24873,1,2,0:0:0:0:
450,58,25049,5,6,0:0:0:0:
447,229,25402,2,0,L|345:211,1,101.250003862381,0|0,1:0|0:0,0:0:0:0:
324,218,25755,1,2,0:0:0:0:
213,151,25931,1,2,0:0:0:0:
129,213,26108,2,0,L|145:301,1,67.5000025749208,0|2,1:0|0:0,0:0:0:0:
255,358,26461,2,0,L|267:291,1,67.5000025749208,2|2,0:0|0:0,0:0:0:0:
213,151,26814,5,0,1:0:0:0:
161,384,26990,1,2,0:0:0:0:
161,384,27078,1,0,0:0:0:0:
161,384,27167,2,0,L|74:380,1,67.5000025749208,0|2,0:0|0:0,0:0:0:0:
33,218,27520,1,0,1:0:0:0:
33,218,27696,1,0,0:0:0:0:
238,168,27873,5,2,0:0:0:0:
126,294,28049,1,2,0:0:0:0:
85,119,28226,2,0,L|72:13,1,101.250003862381,0|0,1:0|0:0,0:0:0:0:
91,4,28578,1,2,0:0:0:0:
241,67,28755,1,2,0:0:0:0:
353,26,28931,6,0,L|341:109,1,67.5000025749208,0|2,1:0|0:0,0:0:0:0:
247,234,29284,2,0,L|237:167,1,67.5000025749208,2|0,0:0|0:0,0:0:0:0:
385,259,29637,1,0,1:0:0:0:
472,173,29814,1,2,0:0:0:0:
472,173,29902,1,2,0:0:0:0:
472,173,29990,2,0,L|384:162,1,67.5000025749208,2|2,0:0|0:0,0:0:0:0:
307,320,30343,2,0,L|321:366,3,33.7500012874604,0|0|0|0,1:0|0:0|0:0|0:0,0:0:0:0:
337,363,30696,5,2,0:0:0:0:
66,362,31049,1,0,1:0:0:0:
66,362,31226,1,0,0:0:0:0:
100,268,31402,2,0,L|181:282,1,67.5000025749208,2|0,0:0|0:0,0:0:0:0:
326,218,31755,2,0,L|245:232,1,67.5000025749208,0|2,1:0|0:0,0:0:0:0:
78,143,32108,6,0,P|150:134|216:151,1,135.000005149842,0|0,0:0|1:0,0:0:0:0:
316,54,32637,1,2,0:0:0:0:
316,54,32814,2,0,L|304:133,1,67.5000025749208,2|0,0:0|0:0,0:0:0:0:
124,11,33167,1,0,1:0:0:0:
217,58,33343,1,2,0:0:0:0:
217,58,33431,1,2,0:0:0:0:
217,58,33520,6,0,L|227:203,1,135.000005149842,2|0,0:0|1:0,0:0:0:0:
226,192,34049,1,0,0:0:0:0:
392,284,34226,2,0,L|303:272,1,67.5000025749208,2|0,0:0|0:0,0:0:0:0:
188,384,34578,1,0,1:0:0:0:
188,384,34755,1,2,0:0:0:0:
101,302,34931,6,0,P|165:294|248:299,1,135.000005149842,0|0,0:0|1:0,0:0:0:0:
235,297,35461,1,2,0:0:0:0:
187,196,35637,1,2,0:0:0:0:
347,369,35814,1,0,0:0:0:0:
460,224,35990,1,0,1:0:0:0:
340,274,36167,1,2,0:0:0:0:
340,274,36255,1,2,0:0:0:0:
340,274,36343,5,2,0:0:0:0:
342,41,36696,2,0,L|326:158,1,101.250003862381,0|0,1:0|0:0,0:0:0:0:
310,157,37049,1,2,0:0:0:0:
190,69,37225,1,2,0:0:0:0:
185,163,37402,2,0,L|91:174,1,67.5000025749208,0|2,1:0|0:0,0:0:0:0:
48,0,37755,2,0,L|142:11,1,67.5000025749208,2|2,0:0|0:0,0:0:0:0:
190,69,38108,5,0,1:0:0:0:
28,151,38284,1,0,0:0:0:0:
28,151,38372,1,2,0:0:0:0:
28,151,38461,2,0,L|41:224,1,67.5000025749208,0|2,0:0|0:0,0:0:0:0:
128,309,38814,2,0,L|141:382,1,67.5000025749208,0|0,1:0|0:0,0:0:0:0:
238,168,39167,5,2,0:0:0:0:
119,287,39343,1,2,0:0:0:0:
283,257,39520,2,0,L|400:245,1,101.250003862381,0|0,1:0|0:0,0:0:0:0:
399,228,39872,1,2,0:0:0:0:
269,78,40049,1,2,0:0:0:0:
372,55,40225,6,0,L|360:138,1,67.5000025749208,0|0,1:0|0:0,0:0:0:0:
178,95,40578,2,0,L|168:28,1,67.5000025749208,2|2,0:0|0:0,0:0:0:0:
260,182,40931,1,0,1:0:0:0:
83,119,41108,1,2,0:0:0:0:
83,119,41196,1,0,0:0:0:0:
83,119,41284,2,0,L|-5:108,1,67.5000025749208,0|2,0:0|0:0,0:0:0:0:
104,227,41637,2,0,L|158:220,3,33.7500012874604,0|0|0|0,1:0|0:0|0:0|0:0,0:0:0:0:
154,205,41990,5,2,0:0:0:0:
301,361,42343,1,0,1:0:0:0:
301,361,42520,1,2,0:0:0:0:
208,323,42696,2,0,L|135:335,1,67.5000025749208,2|0,0:0|0:0,0:0:0:0:
254,181,43049,2,0,L|326:193,1,67.5000025749208,0|2,1:0|0:0,0:0:0:0:
489,310,43402,6,0,P|438:321|359:272,1,135.000005149842,0|0,0:0|1:0,0:0:0:0:
451,158,43931,1,2,0:0:0:0:
451,158,44108,2,0,L|439:237,1,67.5000025749208,2|0,0:0|0:0,0:0:0:0:
299,351,44461,1,0,1:0:0:0:
227,145,44637,1,0,0:0:0:0:
227,145,44725,1,0,0:0:0:0:
227,145,44814,6,0,P|234:206|237:290,1,135.000005149842,2|0,0:0|1:0,0:0:0:0:
134,339,45343,1,2,0:0:0:0:
141,218,45520,2,0,L|52:206,1,67.5000025749208,2|0,0:0|0:0,0:0:0:0:
31,115,45872,1,0,1:0:0:0:
31,115,46049,1,2,0:0:0:0:
186,47,46226,6,0,P|245:40|309:86,1,135.000005149842,0|0,0:0|1:0,0:0:0:0:
269,251,46755,1,2,0:0:0:0:
225,142,46931,1,2,0:0:0:0:
376,241,47108,1,0,0:0:0:0:
376,241,47196,1,0,1:0:0:0:
376,241,47284,1,0,1:0:0:0:
436,67,47461,2,0,L|470:76,2,33.7500012874604,0|0|6,0:0|0:0|0:0,0:0:0:0:
421,77,47990,6,0,L|418:161,1,67.5000025749208,0|2,1:0|0:0,0:0:0:0:
209,77,48343,2,0,L|211:9,1,67.5000025749208,0|2,0:0|0:0,0:0:0:0:
284,182,48696,2,0,L|134:161,1,135.000005149842,0|2,1:0|0:0,0:0:0:0:
0,155,49226,5,2,0:0:0:0:
189,76,49402,1,0,1:0:0:0:
0,155,49578,1,2,0:0:0:0:
50,6,49755,2,0,L|130:13,1,67.5000025749208,2|0,0:0|0:0,0:0:0:0:
130,176,50108,2,0,L|197:170,1,67.5000025749208,0|0,1:0|0:0,0:0:0:0:
316,32,50461,6,0,P|318:66|317:100,1,67.5000025749208,2|0,0:0|0:0,0:0:0:0:
276,272,50814,1,0,1:0:0:0:
404,156,50990,2,0,P|414:123|422:91,1,67.5000025749208,2|0,0:0|0:0,0:0:0:0:
288,283,51343,1,2,0:0:0:0:
511,172,51520,2,0,P|495:203|477:231,1,67.5000025749208,0|0,1:0|0:0,0:0:0:0:
302,295,51873,5,2,0:0:0:0:
327,107,52049,1,2,0:0:0:0:
380,353,52226,2,0,L|469:344,1,67.5000025749208,0|2,1:0|0:0,0:0:0:0:
391,187,52578,1,2,0:0:0:0:
302,295,52755,1,0,0:0:0:0:
238,111,52931,1,0,1:0:0:0:
191,220,53108,1,0,0:0:0:0:
191,220,53196,1,0,0:0:0:0:
191,220,53284,6,0,P|191:245|207:314,1,67.5000025749208,2|0,0:0|0:0,0:0:0:0:
238,111,53637,1,0,1:0:0:0:
90,232,53814,2,0,P|93:198|102:166,1,67.5000025749208,2|0,0:0|0:0,0:0:0:0:
245,126,54167,1,2,0:0:0:0:
27,93,54343,2,0,P|14:114|-6:182,1,67.5000025749208,0|0,1:0|0:0,0:0:0:0:
249,143,54696,5,2,0:0:0:0:
178,20,54873,1,2,0:0:0:0:
321,72,55049,2,0,L|387:82,1,67.5000025749208,0|2,1:0|0:0,0:0:0:0:
501,4,55402,2,0,P|492:70|487:156,1,135.000005149842,2|0,0:0|1:0,0:0:0:0:
505,275,55931,1,0,0:0:0:0:
294,198,56108,6,0,P|248:191|216:191,1,67.5000025749208,2|0,0:0|0:0,0:0:0:0:
370,267,56461,1,0,1:0:0:0:
300,98,56637,2,0,P|332:108|363:123,1,67.5000025749208,2|0,0:0|0:0,0:0:0:0:
375,283,56990,1,2,0:0:0:0:
445,67,57167,2,0,P|408:37|380:21,1,67.5000025749208,0|2,1:0|0:0,0:0:0:0:
380,297,57520,5,0,0:0:0:0:
404,161,57696,1,2,0:0:0:0:
483,283,57873,2,0,L|472:379,1,67.5000025749208,0|2,1:0|0:0,0:0:0:0:
310,369,58226,1,0,0:0:0:0:
241,212,58402,2,0,L|189:195,1,33.7500012874604,0|0,1:0|0:0,0:0:0:0:
182,322,58578,2,0,L|234:305,1,33.7500012874604,0|0,1:0|0:0,0:0:0:0:
235,111,58755,5,0,0:0:0:0:
94,149,58931,1,0,1:0:0:0:
87,170,59020,1,0,1:0:0:0:
87,192,59108,1,0,1:0:0:0:
92,213,59196,1,0,1:0:0:0:
131,51,59373,1,0,1:0:0:0:
121,35,59461,1,0,1:0:0:0:
235,111,59637,1,0,1:0:0:0:
416,12,59902,1,0,1:0:0:0:
423,28,59990,2,0,L|409:131,1,90,0|0,1:0|1:0,0:0:0:0:
351,384,60343,5,6,0:0:0:0:
317,226,60519,1,0,0:0:0:0:
475,192,60696,1,0,1:0:0:0:
508,351,60872,1,2,0:0:0:0:
510,345,60961,1,2,0:0:0:0:
512,340,61049,1,2,0:0:0:0:
412,291,61225,1,0,0:0:0:0:
506,101,61402,1,0,1:0:0:0:
423,309,61578,6,0,L|318:311,1,90,2|0,0:0|0:0,0:0:0:0:
223,136,61931,1,2,0:0:0:0:
323,82,62108,2,0,P|336:135|327:185,1,90,0|2,1:0|0:0,0:0:0:0:
265,244,62373,1,2,0:0:0:0:
250,254,62461,1,2,0:0:0:0:
126,96,62637,1,0,0:0:0:0:
192,343,62814,1,0,1:0:0:0:
223,136,62990,1,0,0:0:0:0:
12,262,63166,5,2,0:0:0:0:
97,365,63343,2,0,L|104:275,1,90,2|0,0:0|1:0,0:0:0:0:
29,118,63696,1,2,0:0:0:0:
29,118,63784,1,2,0:0:0:0:
29,118,63872,1,2,0:0:0:0:
143,190,64049,1,2,0:0:0:0:
12,262,64225,1,0,1:0:0:0:
159,178,64402,6,0,L|256:169,1,90,2|0,0:0|0:0,0:0:0:0:
406,117,64755,1,2,0:0:0:0:
240,25,64931,1,0,1:0:0:0:
331,211,65108,1,2,0:0:0:0:
328,228,65196,1,2,0:0:0:0:
325,245,65284,2,0,L|339:358,1,90,2|2,0:0|0:0,0:0:0:0:
496,161,65637,1,0,1:0:0:0:
505,140,65725,1,2,0:0:0:0:
505,117,65813,1,2,0:0:0:0:
503,94,65902,1,2,0:0:0:0:
487,77,65990,5,6,0:0:0:0:
325,85,66166,1,0,0:0:0:0:
333,246,66343,1,0,1:0:0:0:
496,237,66519,1,2,0:0:0:0:
490,240,66608,1,2,0:0:0:0:
484,244,66696,1,2,0:0:0:0:
314,261,66872,1,0,0:0:0:0:
310,63,67049,1,0,1:0:0:0:
403,198,67226,6,0,L|400:311,1,90,2|0,0:0|0:0,0:0:0:0:
229,120,67578,1,2,0:0:0:0:
314,261,67755,1,0,1:0:0:0:
418,92,67931,1,2,0:0:0:0:
209,246,68108,6,0,L|225:304,1,45,2|0,0:0|0:0,0:0:0:0:
364,174,68284,2,0,L|305:159,1,45,2|0,0:0|0:0,0:0:0:0:
355,349,68461,2,0,L|397:305,1,45,0|0,1:0|0:0,0:0:0:0:
314,261,68637,1,2,0:0:0:0:
314,261,68725,1,2,0:0:0:0:
314,261,68813,5,2,0:0:0:0:
188,377,68990,1,0,0:0:0:0:
119,204,69166,1,0,1:0:0:0:
31,317,69343,1,2,0:0:0:0:
31,317,69431,1,2,0:0:0:0:
31,317,69519,2,0,L|133:305,1,90,2|2,0:0|0:0,0:0:0:0:
280,158,69872,1,0,1:0:0:0:
192,32,70049,6,0,P|183:76|180:133,1,90,2|0,0:0|0:0,0:0:0:0:
276,300,70402,1,2,0:0:0:0:
371,98,70578,1,0,1:0:0:0:
437,210,70755,1,2,0:0:0:0:
437,210,70843,1,2,0:0:0:0:
437,210,70931,2,0,L|377:197,1,45,0|0,0:0|0:0,0:0:0:0:
265,208,71108,2,0,L|221:217,1,45,2|0,0:0|1:0,0:0:0:0:
83,185,71284,1,0,1:0:0:0:
54,170,71373,1,0,1:0:0:0:
36,143,71461,1,2,0:0:0:0:
31,111,71549,1,2,0:0:0:0:
41,81,71637,5,6,0:0:0:0:
195,131,71814,1,0,0:0:0:0:
318,26,71990,1,0,1:0:0:0:
494,62,72167,1,2,0:0:0:0:
494,62,72255,1,2,0:0:0:0:
494,62,72343,1,2,0:0:0:0:
301,123,72520,1,0,0:0:0:0:
126,31,72696,1,0,1:0:0:0:
397,91,72873,6,0,L|389:188,1,90,2|0,0:0|0:0,0:0:0:0:
219,230,73226,1,2,0:0:0:0:
221,39,73402,1,0,1:0:0:0:
324,256,73578,1,2,0:0:0:0:
324,256,73667,1,2,0:0:0:0:
324,256,73755,2,0,L|319:307,1,45,2|0,0:0|0:0,0:0:0:0:
147,355,73931,2,0,L|142:310,1,45,0|0,0:0|0:0,0:0:0:0:
216,134,74108,1,0,1:0:0:0:
230,156,74196,1,2,0:0:0:0:
237,181,74284,1,2,0:0:0:0:
234,208,74373,1,2,0:0:0:0:
219,230,74461,5,2,0:0:0:0:
59,170,74637,1,0,0:0:0:0:
234,332,74814,1,0,1:0:0:0:
343,125,74990,1,2,0:0:0:0:
343,125,75078,1,2,0:0:0:0:
343,125,75167,1,2,0:0:0:0:
234,332,75343,1,2,0:0:0:0:
59,170,75520,1,0,1:0:0:0:
219,230,75696,6,0,L|204:119,1,90,2|0,0:0|0:0,0:0:0:0:
286,15,76049,1,2,0:0:0:0:
430,71,76226,2,0,P|442:119|435:178,1,90,0|2,1:0|0:0,0:0:0:0:
383,226,76490,1,2,0:0:0:0:
368,236,76578,2,0,L|316:235,1,45,2|0,0:0|0:0,0:0:0:0:
274,314,76755,1,2,0:0:0:0:
86,260,76931,1,0,1:0:0:0:
89,291,77020,1,2,0:0:0:0:
91,322,77108,1,2,0:0:0:0:
92,353,77196,1,2,0:0:0:0:
93,384,77284,5,6,0:0:0:0:
190,254,77461,1,0,0:0:0:0:
90,127,77637,1,0,1:0:0:0:
187,0,77814,1,0,0:0:0:0:
187,0,77902,1,0,0:0:0:0:
187,0,77990,1,2,0:0:0:0:
101,228,78167,1,0,0:0:0:0:
314,113,78343,1,0,1:0:0:0:
90,240,78520,6,0,L|-8:227,1,90,2|0,0:0|0:0,0:0:0:0:
23,47,78873,1,2,0:0:0:0:
182,173,79049,1,0,1:0:0:0:
279,23,79226,1,2,0:0:0:0:
194,187,79402,2,0,L|195:251,1,45,2|0,0:0|0:0,0:0:0:0:
327,234,79578,2,0,L|271:202,1,45,2|0,0:0|0:0,0:0:0:0:
219,321,79755,2,0,L|273:288,1,45,0|0,1:0|0:0,0:0:0:0:
263,122,79931,1,0,0:0:0:0:
415,202,80108,6,0,L|405:303,1,90,2|0,0:0|0:0,0:0:0:0:
457,109,80461,1,0,1:0:0:0:
327,234,80637,1,2,0:0:0:0:
327,234,80726,1,2,0:0:0:0:
327,234,80814,2,0,L|231:216,1,90,2|2,0:0|0:0,0:0:0:0:
125,38,81167,1,0,1:0:0:0:
152,262,81343,1,2,0:0:0:0:
248,128,81520,5,0,0:0:0:0:
152,262,81696,1,2,0:0:0:0:
223,35,81873,1,0,1:0:0:0:
152,262,82049,1,2,0:0:0:0:
152,262,82137,1,2,0:0:0:0:
152,262,82226,5,2,0:0:0:0:
169,267,82314,1,0,1:0:0:0:
186,269,82402,1,0,1:0:0:0:
203,269,82490,1,0,1:0:0:0:
237,247,82578,5,0,1:0:0:0:
253,209,82667,1,0,1:0:0:0:
241,170,82755,1,0,1:0:0:0:
205,150,82843,1,0,1:0:0:0:
167,165,82931,5,6,0:0:0:0:
167,165,83284,2,0,L|67:155,1,90,0|0,1:0|0:0,0:0:0:0:
68,145,83549,1,2,0:0:0:0:
58,135,83637,1,2,0:0:0:0:
148,16,83814,1,2,0:0:0:0:
277,129,83990,1,0,1:0:0:0:
381,76,84167,6,0,L|370:179,1,90,2|0,0:0|0:0,0:0:0:0:
213,214,84520,2,0,L|222:303,1,90,0|0,0:0|1:0,0:0:0:0:
369,348,84873,1,2,0:0:0:0:
369,348,84961,1,2,0:0:0:0:
369,348,85049,1,2,0:0:0:0:
458,304,85226,1,0,0:0:0:0:
460,205,85402,1,0,1:0:0:0:
460,205,85578,1,0,0:0:0:0:
285,273,85755,6,0,L|188:255,1,90,2|0,0:0|0:0,0:0:0:0:
62,369,86108,2,0,L|159:351,1,90,0|0,1:0|0:0,0:0:0:0:
174,159,86461,1,2,0:0:0:0:
92,272,86637,1,2,0:0:0:0:
0,122,86814,1,0,1:0:0:0:
92,272,86990,6,0,P|87:226|76:174,1,90,2|0,0:0|0:0,0:0:0:0:
277,120,87343,2,0,P|268:164|263:208,1,90,0|0,0:0|1:0,0:0:0:0:
284,367,87696,1,2,0:0:0:0:
284,367,87772,1,2,0:0:0:0:
284,367,87848,2,0,L|336:351,1,45,0|0,0:0|1:0,0:0:0:0:
410,278,88026,1,0,1:0:0:0:
410,255,88115,1,0,1:0:0:0:
