osu file format v14

[General]
AudioFilename: audio.mp3
AudioLeadIn: 1657
PreviewTime: 8020
Countdown: 0
SampleSet: Soft
StackLeniency: 0.7
Mode: 0
LetterboxInBreaks: 0
WidescreenStoryboard: 0

[Editor]
Bookmarks: 8108,25049,47637,60343,71637,82931
DistanceSpacing: 1
BeatDivisor: 2
GridSize: 32
TimelineZoom: 1.3

[Metadata]
Title:Cagayake!GIRLS[5nin Ver.] (TV size Ver.)
TitleUnicode:Cagayake!GIRLS[5人Ver.] (TV size Ver.)
Artist:Sakurakou K-ON Bu
ArtistUnicode:桜高軽音部
Creator:Pata-Mon
Version:Normal
Source:けいおん!
Tags:Karen K-on! keion keionbu HO-KAGO TEA TIME HTT 豊崎愛生 Toyosaki Aki 日笠陽子 Hikasa Youko 佐藤聡美 Satou Satomi 寿美菜子 Kotobuki Minako 竹達彩奈 Taketatsu Ayana 平沢唯 Hirasawa Yui 秋山澪 Akiyama Mio 田井中律 Tainaka Ritsu 琴吹紬 Kotobuki Tsumugi 中野梓 Nakano Azusa Anime OP opening tv size
BeatmapID:1411647
BeatmapSetID:666366

[Difficulty]
HPDrainRate:4
CircleSize:3
OverallDifficulty:4
ApproachRate:5
SliderMultiplier:1.1
SliderTickRate:1

[Events]
//Background and Video events
0,0,"BG.jpg",0,0
Video,-280,"video.flv"
//Break Periods
//Storyboard Layer 0 (Background)
//Storyboard Layer 1 (Fail)
//Storyboard Layer 2 (Pass)
//Storyboard Layer 3 (Foreground)
//Storyboard Sound Samples

[TimingPoints]
1049.53841563695,352.941176470588,4,2,1,50,1,0
8108,-100,4,2,1,70,0,0
19402,-100,4,2,1,60,0,0
25049,-100,4,2,1,55,0,0
58931,-100,4,2,1,65,0,0
60343,-100,4,2,1,70,0,1
82931,-100,4,2,1,60,0,0
87696,304,4,2,1,60,1,0
87848,356,4,2,1,60,1,0

[Colours]
Combo1 : 255,207,95
Combo2 : 255,127,127
Combo3 : 207,95,255
Combo4 : 143,231,183
Combo5 : 159,191,255

[HitObjects]
133,310,343,6,0,L|233:318,1,55,2|0,0:0|0:0,0:0:0:0:
228,276,696,2,0,L|328:268,1,55,2|0,0:0|0:0,0:0:0:0:
338,267,1049,6,0,P|342:318|326:394,2,110,2|2|2,0:0|0:0|0:0,0:0:0:0:
370,223,1931,2,0,P|424:214|478:218,1,110,2|0,0:0|0:0,0:0:0:0:
501,110,2637,2,0,P|418:104|337:118,1,165,2|2,0:0|0:0,0:0:0:0:
293,150,3343,2,0,P|242:154|166:138,1,110,2|0,0:0|0:0,0:0:0:0:
142,180,3873,6,0,P|138:231|154:307,2,110,2|2|0,0:0|0:0|0:0,0:0:0:0:
184,144,4755,2,0,P|188:93|172:17,1,110,2|0,0:0|0:0,0:0:0:0:
284,3,5461,2,0,P|298:84|292:166,1,165,2|2,0:0|0:0,0:0:0:0:
269,216,6167,2,0,P|320:220|396:204,1,110,2|0,0:0|0:0,0:0:0:0:
429,192,6696,6,0,P|433:243|417:319,1,110,0|0,1:0|1:0,0:0:0:0:
324,350,7402,1,0,1:0:0:0:
324,350,7578,2,0,L|254:346,2,55,2|2|2,0:0|0:0|0:0,0:0:0:0:
338,296,8108,6,0,P|342:245|326:169,1,110,6|0,0:0|1:0,0:0:0:0:
265,99,8814,2,0,L|131:108,1,110,2|0,0:0|1:0,0:0:0:0:
107,134,9343,2,0,P|97:188|101:242,1,110,2|2,0:0|0:0,0:0:0:0:
137,284,9873,2,0,L|204:279,1,55,0|0,1:0|0:0,0:0:0:0:
231,241,10226,2,0,L|365:250,1,110,2|0,0:0|1:0,0:0:0:0:
419,171,10931,6,0,P|429:117|425:63,1,110,2|0,0:0|1:0,0:0:0:0:
319,33,11637,2,0,P|309:87|313:141,1,110,2|0,0:0|1:0,0:0:0:0:
281,187,12167,2,0,L|147:196,1,110,2|2,0:0|0:0,0:0:0:0:
125,163,12696,2,0,L|58:158,1,55,0|0,1:0|0:0,0:0:0:0:
34,263,13226,2,0,L|101:268,1,55,2|0,0:0|1:0,0:0:0:0:
193,303,13755,6,0,L|327:294,1,110,6|0,0:0|1:0,0:0:0:0:
412,281,14461,2,0,P|423:233|422:141,1,110,2|0,0:0|1:0,0:0:0:0:
373,155,14990,2,0,P|362:107|363:15,1,110,2|2,0:0|0:0,0:0:0:0:
309,23,15520,2,0,L|242:28,1,55,0|0,1:0|0:0,0:0:0:0:
209,58,15873,2,0,L|142:53,2,55,2|2|0,0:0|0:0|1:0,0:0:0:0:
266,151,16578,6,0,P|264:205|252:259,1,110,2|0,0:0|1:0,0:0:0:0:
142,264,17284,2,0,P|144:210|156:156,1,110,2|0,0:0|1:0,0:0:0:0:
129,107,17814,2,0,P|75:94|20:92,2,110,2|2|2,0:0|0:0|0:0,0:0:0:0:
156,156,18696,2,0,P|210:154|264:142,1,110,2|0,0:0|1:0,0:0:0:0:
311,112,19226,1,2,0:0:0:0:
311,112,19402,6,0,L|319:256,1,110,6|0,0:0|1:0,0:0:0:0:
395,299,20108,2,0,L|391:371,2,55,2|2|0,0:0|0:0|1:0,0:0:0:0:
439,266,20637,2,0,L|431:122,1,110,2|0,0:0|0:0,0:0:0:0:
428,100,21167,1,0,1:0:0:0:
324,61,21520,2,0,P|271:62|179:82,1,110,2|0,0:0|1:0,0:0:0:0:
112,111,22226,6,0,L|120:255,1,110,2|0,0:0|1:0,0:0:0:0:
185,307,22931,2,0,L|181:379,2,55,2|2|0,0:0|0:0|1:0,0:0:0:0:
222,266,23461,2,0,P|259:259|375:262,1,110,2|0,0:0|0:0,0:0:0:0:
385,268,23990,1,0,1:0:0:0:
464,191,24343,2,0,L|456:47,1,110,2|0,0:0|1:0,0:0:0:0:
374,9,25049,6,0,L|274:4,2,55,6|0|0,0:0|0:0|1:0,0:0:0:0:
353,117,25755,2,0,P|317:131|205:128,1,110,2|0,0:0|1:0,0:0:0:0:
194,118,26284,1,2,0:0:0:0:
194,118,26461,2,0,P|139:120|87:138,1,110,2|0,0:0|1:0,0:0:0:0:
51,180,26990,2,0,L|60:327,1,110,2|2,0:0|0:0,0:0:0:0:
85,338,27520,1,0,1:0:0:0:
172,271,27873,6,0,L|167:197,2,55,2|0|0,0:0|0:0|1:0,0:0:0:0:
259,338,28578,2,0,P|295:352|407:349,1,110,2|0,0:0|1:0,0:0:0:0:
421,355,29108,1,2,0:0:0:0:
421,355,29284,2,0,L|412:208,1,110,2|0,0:0|1:0,0:0:0:0:
379,201,29814,2,0,L|388:54,1,110,2|2,0:0|0:0,0:0:0:0:
417,46,30343,1,0,1:0:0:0:
498,119,30696,6,0,L|493:193,2,55,2|0|0,0:0|0:0|1:0,0:0:0:0:
417,46,31402,2,0,P|359:35|308:34,1,110,2|0,0:0|1:0,0:0:0:0:
273,76,31931,2,0,P|215:87|164:88,2,110,2|2|2,0:0|0:0|0:0,0:0:0:0:
299,125,32814,2,0,P|310:183|311:234,1,110,2|0,0:0|1:0,0:0:0:0:
394,306,33520,6,0,L|488:311,2,55,2|0|0,0:0|0:0|1:0,0:0:0:0:
290,342,34226,2,0,P|204:260|216:178,1,110,2|0,0:0|1:0,0:0:0:0:
212,219,34755,2,0,P|157:220|103:231,2,110,2|2|2,0:0|0:0|0:0,0:0:0:0:
267,220,35637,1,2,0:0:0:0:
351,149,35990,2,0,L|354:83,1,55,0|0,1:0|0:0,0:0:0:0:
313,57,36343,6,0,L|310:-9,2,55,2|0|0,0:0|0:0|1:0,0:0:0:0:
241,132,37049,2,0,P|186:131|132:120,1,110,2|0,0:0|1:0,0:0:0:0:
84,92,37578,1,2,0:0:0:0:
84,92,37755,2,0,L|75:239,1,110,2|0,0:0|1:0,0:0:0:0:
31,232,38284,2,0,L|40:379,1,110,2|2,0:0|0:0,0:0:0:0:
74,384,38814,1,0,1:0:0:0:
178,350,39167,6,0,L|235:352,2,55,2|0|0,0:0|0:0|1:0,0:0:0:0:
158,242,39873,2,0,L|272:246,1,110,2|0,0:0|1:0,0:0:0:0:
341,328,40578,2,0,L|455:324,1,110,2|0,0:0|1:0,0:0:0:0:
482,278,41108,2,0,P|492:215|489:135,1,110,2|2,0:0|0:0,0:0:0:0:
482,114,41637,1,0,1:0:0:0:
384,64,41990,6,0,L|381:-16,2,55,2|0|0,0:0|0:0|1:0,0:0:0:0:
341,99,42520,1,2,0:0:0:0:
341,99,42696,2,0,P|292:108|188:106,1,110,2|0,0:0|1:0,0:0:0:0:
192,71,43226,2,0,P|143:62|39:64,1,110,2|2,0:0|0:0,0:0:0:0:
33,84,43755,2,0,L|30:164,1,55,0|0,1:0|0:0,0:0:0:0:
69,178,44108,2,0,L|75:338,1,110,2|0,0:0|1:0,0:0:0:0:
179,260,44814,6,0,L|176:180,2,55,2|0|0,0:0|0:0|1:0,0:0:0:0:
226,287,45343,1,2,0:0:0:0:
226,287,45520,2,0,P|274:296|379:294,1,110,2|0,0:0|1:0,0:0:0:0:
384,273,46049,2,0,L|390:433,2,110,2|2|2,0:0|0:0|0:0,0:0:0:0:
418,229,46931,2,0,L|424:69,1,110,2|0,0:0|1:0,0:0:0:0:
330,57,47637,6,0,P|281:48|194:42,1,110,6|0,0:0|0:0,0:0:0:0:
177,77,48167,2,0,P|168:126|162:213,1,110,2|0,0:0|0:0,0:0:0:0:
197,230,48696,2,0,P|246:239|333:245,1,110,2|0,0:0|0:0,0:0:0:0:
350,210,49226,2,0,P|359:161|365:74,1,110,2|0,0:0|0:0,0:0:0:0:
330,57,49755,1,2,0:0:0:0:
221,43,50108,1,0,1:0:0:0:
134,111,50461,6,0,P|86:126|17:132,1,110,2|0,0:0|0:0,0:0:0:0:
26,187,50990,2,0,P|74:202|143:208,1,110,2|0,0:0|0:0,0:0:0:0:
134,263,51520,2,0,P|86:278|17:284,1,110,2|0,0:0|0:0,0:0:0:0:
26,339,52049,2,0,P|74:354|143:360,1,110,2|0,0:0|0:0,0:0:0:0:
188,359,52578,1,2,0:0:0:0:
244,264,52931,1,0,1:0:0:0:
134,263,53284,6,0,P|163:189|218:157,1,110,2|0,0:0|0:0,0:0:0:0:
238,154,53814,2,0,P|329:194|353:247,1,110,2|0,0:0|0:0,0:0:0:0:
353,251,54343,2,0,P|322:341|269:371,1,110,2|0,0:0|0:0,0:0:0:0:
263,372,54873,2,0,P|184:356|143:306,1,110,2|0,0:0|0:0,0:0:0:0:
137,289,55402,1,2,0:0:0:0:
168,184,55755,1,0,1:0:0:0:
244,264,56108,6,0,P|306:265|376:256,1,110,2|0,0:0|0:0,0:0:0:0:
402,234,56637,2,0,L|390:87,1,110,2|2,0:0|0:0,0:0:0:0:
388,69,57167,1,2,0:0:0:0:
388,69,57343,2,0,P|326:68|256:77,2,110,2|2|2,0:0|0:0|0:0,0:0:0:0:
494,98,58402,2,0,L|500:24,2,55,0|0|0,1:0|1:0|1:0,0:0:0:0:
470,147,58931,6,0,L|482:294,1,110,0|0,1:0|1:0,0:0:0:0:
369,242,59637,1,0,1:0:0:0:
369,242,59814,2,0,L|363:168,2,55,0|0|0,1:0|0:0|1:0,0:0:0:0:
319,266,60343,6,0,P|269:275|188:275,1,110,6|0,0:0|1:0,0:0:0:0:
146,186,61049,2,0,P|96:177|15:177,1,110,2|0,0:0|1:0,0:0:0:0:
0,216,61578,2,0,L|12:363,1,110,2|2,0:0|0:0,0:0:0:0:
47,365,62108,2,0,L|123:361,1,55,0|0,1:0|0:0,0:0:0:0:
145,327,62461,2,0,P|199:328|254:337,1,110,2|0,0:0|1:0,0:0:0:0:
358,372,63167,6,0,L|370:225,1,110,2|0,0:0|1:0,0:0:0:0:
306,169,63873,2,0,L|294:22,1,110,2|0,0:0|1:0,0:0:0:0:
337,22,64402,2,0,P|386:13|486:18,1,110,2|2,0:0|0:0,0:0:0:0:
497,32,64931,2,0,L|491:106,1,55,0|0,1:0|0:0,0:0:0:0:
442,185,65461,2,0,L|448:259,1,55,2|0,0:0|1:0,0:0:0:0:
365,314,65990,6,0,P|316:323|216:318,1,110,6|0,0:0|1:0,0:0:0:0:
164,262,66696,2,0,P|115:253|15:258,1,110,2|0,0:0|1:0,0:0:0:0:
0,261,67226,2,0,L|7:140,1,110,2|2,0:0|0:0,0:0:0:0:
27,100,67755,2,0,L|117:93,1,55,0|0,1:0|0:0,0:0:0:0:
120,56,68108,2,0,L|210:63,2,55,2|0|0,0:0|0:0|1:0,0:0:0:0:
159,159,68814,6,0,P|225:155|291:141,1,110,2|0,0:0|1:0,0:0:0:0:
353,77,69520,2,0,P|419:81|485:95,1,110,2|0,0:0|1:0,0:0:0:0:
512,113,70049,2,0,L|507:260,1,110,2|2,0:0|0:0,0:0:0:0:
504,278,70578,1,0,1:0:0:0:
504,278,70755,2,0,P|449:287|394:289,1,110,2|0,0:0|0:0,0:0:0:0:
341,275,71284,1,0,1:0:0:0:
257,346,71637,6,0,P|191:342|125:328,1,110,6|0,0:0|1:0,0:0:0:0:
44,296,72343,2,0,L|49:149,1,110,2|0,0:0|1:0,0:0:0:0:
85,145,72873,2,0,L|80:-2,1,110,2|2,0:0|0:0,0:0:0:0:
130,9,73402,2,0,P|149:8|194:11,1,55,0|0,1:0|0:0,0:0:0:0:
225,46,73755,2,0,P|284:46|369:33,1,110,2|0,0:0|1:0,0:0:0:0:
443,20,74461,6,0,L|438:167,1,110,2|0,0:0|1:0,0:0:0:0:
355,202,75167,2,0,L|360:349,1,110,2|0,0:0|1:0,0:0:0:0:
313,343,75696,2,0,P|254:343|169:330,1,110,2|2,0:0|0:0,0:0:0:0:
158,304,76226,2,0,L|69:311,1,55,0|0,1:0|0:0,0:0:0:0:
131,201,76755,2,0,L|220:208,1,55,2|0,0:0|1:0,0:0:0:0:
267,132,77284,6,0,P|326:132|411:145,1,110,6|0,0:0|1:0,0:0:0:0:
453,217,77990,2,0,L|448:364,1,110,2|0,0:0|1:0,0:0:0:0:
397,346,78520,2,0,P|338:346|253:333,1,110,2|2,0:0|0:0,0:0:0:0:
249,300,79049,2,0,L|166:305,1,55,0|0,1:0|0:0,0:0:0:0:
148,334,79402,2,0,L|65:329,2,55,2|0|0,0:0|0:0|1:0,0:0:0:0:
122,227,80108,6,0,P|123:170|142:72,1,110,2|0,0:0|1:0,0:0:0:0:
211,43,80814,2,0,L|356:50,1,110,2|0,0:0|1:0,0:0:0:0:
360,86,81343,2,0,L|505:79,2,110,2|2|2,0:0|0:0|0:0,0:0:0:0:
337,136,82226,2,0,P|331:196|337:270,1,110,2|0,0:0|1:0,0:0:0:0:
346,299,82755,1,0,1:0:0:0:
346,299,82931,6,0,L|201:292,1,110,6|0,0:0|1:0,0:0:0:0:
142,235,83637,2,0,L|69:238,2,55,2|2|0,0:0|0:0|1:0,0:0:0:0:
168,186,84167,2,0,P|173:139|173:57,1,110,2|0,0:0|0:0,0:0:0:0:
163,22,84696,1,0,1:0:0:0:
272,7,85049,2,0,P|342:9|416:25,1,110,2|0,0:0|1:0,0:0:0:0:
452,100,85755,6,0,L|447:247,1,110,2|0,0:0|1:0,0:0:0:0:
375,293,86461,2,0,L|377:366,2,55,2|2|0,0:0|0:0|1:0,0:0:0:0:
328,263,86990,2,0,P|280:254|200:251,1,110,2|0,0:0|0:0,0:0:0:0:
164,259,87520,1,0,1:0:0:0:
98,170,87848,2,0,L|101:71,1,82.5,0|0,1:0|1:0,0:0:0:0:
