osu file format v14

[General]
AudioFilename: audio.mp3
AudioLeadIn: 1657
PreviewTime: 8020
Countdown: 0
SampleSet: Soft
StackLeniency: 0.7
Mode: 0
LetterboxInBreaks: 0
WidescreenStoryboard: 0

[Editor]
Bookmarks: 8108,25049,47637,60343,71637,82931
DistanceSpacing: 1.4
BeatDivisor: 4
GridSize: 32
TimelineZoom: 2.1

[Metadata]
Title:Cagayake!GIRLS[5nin Ver.] (TV size Ver.)
TitleUnicode:Cagayake!GIRLS[5人Ver.] (TV size Ver.)
Artist:Sakurakou K-ON Bu
ArtistUnicode:桜高軽音部
Creator:Pata-Mon
Version:Insane
Source:けいおん!
Tags:Karen K-on! keion keionbu HO-KAGO TEA TIME HTT 豊崎愛生 Toyosaki Aki 日笠陽子 Hikasa Youko 佐藤聡美 Satou Satomi 寿美菜子 Kotobuki Minako 竹達彩奈 Taketatsu Ayana 平沢唯 Hirasawa Yui 秋山澪 Akiyama Mio 田井中律 Tainaka Ritsu 琴吹紬 Kotobuki Tsumugi 中野梓 Nakano Azusa Anime OP opening tv size
BeatmapID:1410343
BeatmapSetID:666366

[Difficulty]
HPDrainRate:6
CircleSize:3.8
OverallDifficulty:7
ApproachRate:9
SliderMultiplier:1.6
SliderTickRate:1

[Events]
//Background and Video events
0,0,"BG.jpg",0,0
Video,-280,"video.flv"
//Break Periods
//Storyboard Layer 0 (Background)
//Storyboard Layer 1 (Fail)
//Storyboard Layer 2 (Pass)
//Storyboard Layer 3 (Foreground)
//Storyboard Sound Samples

[TimingPoints]
1049.53841563695,352.941176470588,4,2,1,50,1,0
8108,-83.3333333333333,4,2,1,70,0,0
19402,-100,4,2,1,60,0,0
25049,-100,4,2,1,55,0,0
30343,-50,4,2,1,55,0,0
30696,-100,4,2,1,55,0,0
41637,-50,4,2,1,55,0,0
41990,-100,4,2,1,55,0,0
58931,-100,4,2,1,65,0,0
60343,-83.3333333333333,4,2,1,70,0,1
82931,-100,4,2,1,60,0,0
87696,304,4,2,1,60,1,0
87848,356,4,2,1,60,1,0

[Colours]
Combo1 : 255,207,95
Combo2 : 255,127,127
Combo3 : 207,95,255
Combo4 : 143,231,183
Combo5 : 159,191,255

[HitObjects]
169,121,343,5,2,0:0:0:0:
327,105,520,1,2,0:0:0:0:
343,263,696,1,2,0:0:0:0:
185,279,873,1,2,0:0:0:0:
256,192,1049,6,0,P|250:132|244:93,1,80,6|0,0:0|0:0,0:0:0:0:
163,37,1402,1,2,0:0:0:0:
359,253,1755,2,0,P|364:213|367:173,1,80,2|0,0:0|0:0,0:0:0:0:
256,192,2108,2,0,P|250:132|244:93,1,80,2|0,0:0|0:0,0:0:0:0:
348,63,2461,5,2,0:0:0:0:
359,253,2637,2,0,P|364:213|367:173,1,80,2|0,0:0|0:0,0:0:0:0:
348,63,2990,1,2,0:0:0:0:
262,135,3167,1,0,0:0:0:0:
367,174,3343,2,0,P|457:91|438:-4,1,160,2|0,0:0|0:0,0:0:0:0:
262,135,3873,6,0,P|257:175|254:215,1,80,2|0,0:0|0:0,0:0:0:0:
257,327,4226,1,2,0:0:0:0:
150,99,4578,2,0,P|156:159|162:198,1,80,2|0,0:0|0:0,0:0:0:0:
262,135,4931,2,0,P|257:175|254:215,1,80,2|0,0:0|0:0,0:0:0:0:
257,327,5284,5,2,0:0:0:0:
159,179,5461,2,0,P|165:239|171:278,1,80,2|0,0:0|0:0,0:0:0:0:
257,327,5814,1,2,0:0:0:0:
254,215,5990,1,2,0:0:0:0:
73,152,6167,2,0,P|80:231|91:311,1,160,2|0,0:0|0:0,0:0:0:0:
254,215,6696,5,0,1:0:0:0:
262,167,6784,1,0,1:0:0:0:
258,120,6872,1,0,1:0:0:0:
243,74,6960,1,0,1:0:0:0:
217,34,7048,5,8,0:0:0:0:
189,31,7137,1,8,0:0:0:0:
161,28,7226,1,8,0:0:0:0:
133,25,7314,1,8,0:0:0:0:
105,22,7402,5,0,1:0:0:0:
258,120,7578,2,0,L|373:112,2,80,2|2|2,0:0|0:0|0:0,0:0:0:0:
258,320,8108,5,6,0:0:0:0:
316,220,8284,1,0,0:0:0:0:
142,120,8461,1,0,1:0:0:0:
200,220,8637,1,0,0:0:0:0:
374,120,8814,2,0,P|383:80|385:11,1,95.9999970703126,2|0,0:0|0:0,0:0:0:0:
316,220,9167,1,0,1:0:0:0:
482,159,9343,6,0,P|491:119|500:47,1,95.9999970703126,2|0,0:0|0:0,0:0:0:0:
316,220,9696,2,0,P|306:259|298:332,1,95.9999970703126,2|0,0:0|1:0,0:0:0:0:
391,384,10049,1,2,0:0:0:0:
188,347,10226,2,0,L|70:355,1,95.9999970703126,2|0,0:0|0:0,0:0:0:0:
316,220,10578,2,0,L|434:228,1,95.9999970703126,0|0,1:0|0:0,0:0:0:0:
201,233,10931,5,2,0:0:0:0:
188,118,11108,1,0,0:0:0:0:
303,105,11284,1,0,1:0:0:0:
316,220,11461,1,0,0:0:0:0:
188,118,11637,2,0,P|182:69|182:4,1,95.9999970703126,2|0,0:0|0:0,0:0:0:0:
316,220,11990,1,0,1:0:0:0:
164,280,12167,6,0,P|124:309|68:342,1,95.9999970703126,2|0,0:0|0:0,0:0:0:0:
316,220,12520,2,0,P|361:239|417:271,1,95.9999970703126,2|0,0:0|1:0,0:0:0:0:
188,118,12873,2,0,P|182:69|182:4,1,95.9999970703126,2|0,0:0|0:0,0:0:0:0:
316,220,13226,1,2,0:0:0:0:
404,58,13402,2,0,L|284:66,1,95.9999970703126,0|0,1:0|0:0,0:0:0:0:
112,139,13755,5,2,0:0:0:0:
227,147,13931,1,0,0:0:0:0:
431,212,14108,1,0,1:0:0:0:
316,220,14284,1,0,0:0:0:0:
308,64,14461,2,0,L|428:56,1,95.9999970703126,2|0,0:0|0:0,0:0:0:0:
500,121,14814,1,0,1:0:0:0:
443,307,14990,6,0,P|434:259|431:212,1,95.9999970703126,2|0,0:0|0:0,0:0:0:0:
512,26,15343,2,0,P|507:82|490:159,1,95.9999970703126,2|0,0:0|1:0,0:0:0:0:
431,212,15696,1,2,0:0:0:0:
271,116,15873,1,2,0:0:0:0:
386,106,16049,1,2,0:0:0:0:
245,228,16226,2,0,P|196:229|148:222,1,95.9999970703126,0|0,1:0|0:0,0:0:0:0:
21,120,16578,5,2,0:0:0:0:
136,107,16755,1,0,0:0:0:0:
149,222,16931,1,0,1:0:0:0:
34,235,17108,1,0,0:0:0:0:
136,107,17284,2,0,P|177:90|234:81,1,95.9999970703126,2|0,0:0|0:0,0:0:0:0:
396,123,17637,1,0,1:0:0:0:
284,271,17814,6,0,P|284:223|293:176,1,95.9999970703126,10|0,0:0|0:0,0:0:0:0:
473,37,18167,1,10,0:0:0:0:
501,76,18255,1,0,1:0:0:0:
512,123,18343,1,0,1:0:0:0:
501,170,18431,1,0,1:0:0:0:
473,209,18520,1,10,0:0:0:0:
300,120,18696,6,0,L|396:123,1,95.9999970703126,10|0,0:0|0:0,0:0:0:0:
396,123,18961,1,0,1:0:0:0:
396,123,19049,1,0,1:0:0:0:
360,232,19226,1,10,0:0:0:0:
371,33,19402,6,0,L|467:36,1,80,6|0,0:0|0:0,0:0:0:0:
300,120,19755,2,0,L|204:123,1,80,0|0,1:0|0:0,0:0:0:0:
418,274,20108,1,2,0:0:0:0:
403,163,20284,1,2,0:0:0:0:
388,52,20461,1,0,1:0:0:0:
257,201,20637,6,0,P|334:205|403:163,1,160,2|0,0:0|0:0,0:0:0:0:
163,139,21167,2,0,L|155:240,1,80,0|0,1:0|0:0,0:0:0:0:
264,89,21520,1,2,0:0:0:0:
264,89,21608,2,0,L|260:38,2,40,2|0|0,0:0|0:0|0:0,0:0:0:0:
311,119,21873,2,0,P|356:116|409:97,1,80,0|0,1:0|0:0,0:0:0:0:
235,232,22226,6,0,P|190:229|137:210,1,80,2|0,0:0|0:0,0:0:0:0:
346,222,22578,2,0,L|338:323,1,80,0|0,1:0|0:0,0:0:0:0:
192,104,22931,1,2,0:0:0:0:
303,119,23108,1,2,0:0:0:0:
414,134,23284,1,0,1:0:0:0:
235,207,23461,6,0,P|86:139|103:36,1,160,2|0,0:0|0:0,0:0:0:0:
303,119,23990,2,0,L|414:134,1,80,0|0,1:0|0:0,0:0:0:0:
192,104,24343,1,10,0:0:0:0:
204,66,24431,1,0,1:0:0:0:
229,35,24520,1,0,1:0:0:0:
264,15,24608,1,0,1:0:0:0:
303,7,24696,2,0,L|414:22,1,80,2|0,0:0|0:0,0:0:0:0:
303,231,25049,5,6,0:0:0:0:
303,119,25226,1,2,0:0:0:0:
303,343,25402,2,0,L|414:328,1,80,0|0,1:0|0:0,0:0:0:0:
206,287,25755,2,0,P|191:355|209:405,1,80,2|0,0:0|0:0,0:0:0:0:
303,231,26108,1,0,1:0:0:0:
206,175,26284,1,2,0:0:0:0:
303,343,26461,5,2,0:0:0:0:
206,287,26637,2,0,P|139:308|105:348,1,80,2|0,0:0|1:0,0:0:0:0:
303,231,26990,2,0,L|303:135,1,80,2|0,0:0|0:0,0:0:0:0:
267,44,27343,1,2,0:0:0:0:
114,129,27520,2,0,P|154:134|194:129,1,80,0|0,1:0|0:0,0:0:0:0:
41,44,27873,5,2,0:0:0:0:
3,149,28049,1,2,0:0:0:0:
120,208,28226,2,0,P|120:165|105:102,1,80,0|0,1:0|0:0,0:0:0:0:
64,305,28578,2,0,L|174:315,1,80,2|0,0:0|0:0,0:0:0:0:
322,312,28931,1,0,1:0:0:0:
232,243,29108,1,2,0:0:0:0:
412,243,29284,6,0,L|522:253,1,80,2|0,0:0|0:0,0:0:0:0:
322,312,29637,1,0,1:0:0:0:
412,381,29814,2,0,L|522:371,1,80,2|0,0:0|0:0,0:0:0:0:
322,312,30167,1,2,0:0:0:0:
491,249,30343,6,0,P|490:172|421:161,1,160,0|0,1:0|0:0,0:0:0:0:
322,312,30696,5,2,0:0:0:0:
430,344,30873,1,2,0:0:0:0:
316,200,31049,2,0,P|261:191|205:194,1,80,0|0,1:0|0:0,0:0:0:0:
82,282,31402,2,0,P|122:281|162:274,1,80,2|0,0:0|0:0,0:0:0:0:
168,102,31755,1,0,1:0:0:0:
0,161,31931,6,0,P|55:170|111:167,1,80,2|0,0:0|0:0,0:0:0:0:
247,94,32284,2,0,P|207:95|167:102,1,80,2|0,0:0|1:0,0:0:0:0:
161,274,32637,1,2,0:0:0:0:
316,200,32814,2,0,P|261:191|205:194,1,80,2|0,0:0|0:0,0:0:0:0:
408,263,33167,2,0,L|417:127,1,80,0|0,1:0|0:0,0:0:0:0:
423,25,33520,5,2,0:0:0:0:
497,109,33696,1,2,0:0:0:0:
339,99,33873,2,0,P|297:94|242:69,1,80,0|0,1:0|0:0,0:0:0:0:
101,24,34226,2,0,P|139:10|179:6,1,80,2|0,0:0|0:0,0:0:0:0:
166,140,34578,1,0,1:0:0:0:
12,93,34755,6,0,L|3:-1,1,80,2|0,0:0|0:0,0:0:0:0:
166,140,35108,2,0,L|157:234,1,80,2|0,0:0|1:0,0:0:0:0:
141,330,35461,1,2,0:0:0:0:
270,230,35637,2,0,P|326:221|391:226,1,80,2|0,0:0|0:0,0:0:0:0:
475,317,35990,2,0,L|470:385,1,40,0|0,1:0|0:0,0:0:0:0:
460,206,36167,2,0,L|465:138,1,40,2|0,0:0|0:0,0:0:0:0:
364,332,36343,5,2,0:0:0:0:
475,317,36520,1,2,0:0:0:0:
349,221,36696,2,0,P|310:222|270:230,1,80,0|0,1:0|0:0,0:0:0:0:
115,304,37049,2,0,P|171:313|236:308,1,80,2|0,0:0|0:0,0:0:0:0:
55,210,37402,1,0,1:0:0:0:
3,309,37578,1,2,0:0:0:0:
167,205,37755,5,2,0:0:0:0:
107,111,37931,2,0,P|51:102|-14:107,1,80,2|0,0:0|1:0,0:0:0:0:
167,205,38284,2,0,P|206:204|246:196,1,80,2|0,0:0|0:0,0:0:0:0:
350,154,38637,1,2,0:0:0:0:
252,6,38814,2,0,P|253:45|261:85,1,80,0|0,1:0|0:0,0:0:0:0:
335,265,39167,5,2,0:0:0:0:
350,154,39343,1,2,0:0:0:0:
424,334,39520,2,0,P|356:375|298:371,1,80,0|0,1:0|0:0,0:0:0:0:
439,223,39873,2,0,P|512:264|535:317,1,80,2|0,0:0|0:0,0:0:0:0:
335,265,40226,2,0,P|331:191|376:130,1,80,0|0,1:0|0:0,0:0:0:0:
372,10,40578,5,2,0:0:0:0:
416,113,40755,1,2,0:0:0:0:
261,21,40931,1,0,1:0:0:0:
372,10,41108,2,0,L|326:87,1,80,2|0,0:0|0:0,0:0:0:0:
274,175,41461,1,2,0:0:0:0:
160,70,41637,6,0,P|174:14|261:21,1,160,0|0,1:0|0:0,0:0:0:0:
274,175,41990,5,2,0:0:0:0:
162,182,42167,2,0,P|118:238|116:308,1,80,2|0,0:0|1:0,0:0:0:0:
143,354,42520,1,2,0:0:0:0:
301,285,42696,2,0,P|278:276|223:276,1,80,2|0,0:0|0:0,0:0:0:0:
143,354,43049,1,0,1:0:0:0:
362,379,43226,6,0,P|410:308|404:242,1,80,2|0,0:0|0:0,0:0:0:0:
439,209,43578,1,2,0:0:0:0:
301,285,43755,1,0,1:0:0:0:
408,316,43931,1,2,0:0:0:0:
332,178,44108,2,0,P|251:185|204:229,1,80,2|0,0:0|0:0,0:0:0:0:
111,281,44461,2,0,P|192:274|239:230,1,80,0|0,1:0|0:0,0:0:0:0:
152,62,44814,5,2,0:0:0:0:
142,174,44990,1,2,0:0:0:0:
254,184,45167,1,0,1:0:0:0:
264,72,45343,1,2,0:0:0:0:
142,174,45520,2,0,P|69:138|42:84,1,80,2|0,0:0|0:0,0:0:0:0:
264,72,45873,1,0,1:0:0:0:
292,228,46049,6,0,P|297:309|264:359,1,80,2|0,0:0|0:0,0:0:0:0:
264,72,46402,2,0,P|364:24|403:34,1,80,2|0,0:0|1:0,0:0:0:0:
356,136,46755,1,2,0:0:0:0:
200,164,46931,2,0,P|152:64|162:25,1,80,2|0,0:0|0:0,0:0:0:0:
155,43,47196,1,0,1:0:0:0:
155,43,47284,2,0,L|268:37,1,80,0|0,1:0|0:0,0:0:0:0:
234,270,47637,6,0,L|121:264,1,80,6|0,0:0|0:0,0:0:0:0:
42,260,47990,1,0,1:0:0:0:
200,164,48167,2,0,L|87:158,1,80,2|0,0:0|0:0,0:0:0:0:
8,154,48520,1,2,0:0:0:0:
166,270,48696,6,0,L|279:264,1,80,0|0,1:0|0:0,0:0:0:0:
358,260,49049,1,2,0:0:0:0:
200,164,49226,2,0,L|313:158,1,80,2|0,0:0|1:0,0:0:0:0:
392,154,49579,1,2,0:0:0:0:
193,84,49755,6,0,P|194:120|212:209,1,80,2|0,0:0|0:0,0:0:0:0:
385,233,50108,2,0,P|390:193|391:154,1,80,0|0,1:0|0:0,0:0:0:0:
200,164,50461,6,0,L|87:170,1,80,2|0,0:0|0:0,0:0:0:0:
9,174,50814,1,0,1:0:0:0:
200,276,50990,2,0,L|87:282,1,80,2|0,0:0|0:0,0:0:0:0:
9,286,51343,1,2,0:0:0:0:
200,164,51520,6,0,L|313:170,1,80,0|0,1:0|0:0,0:0:0:0:
391,174,51873,1,2,0:0:0:0:
200,276,52049,2,0,L|313:282,1,80,2|0,0:0|1:0,0:0:0:0:
391,286,52402,1,2,0:0:0:0:
280,168,52578,6,0,P|271:129|270:89,1,80,2|0,0:0|0:0,0:0:0:0:
391,286,52931,2,0,P|389:333|381:365,1,80,0|0,1:0|0:0,0:0:0:0:
200,172,53284,6,0,L|313:166,1,80,2|0,0:0|0:0,0:0:0:0:
391,162,53637,1,0,1:0:0:0:
250,72,53814,2,0,L|363:66,1,80,2|0,0:0|0:0,0:0:0:0:
441,62,54167,1,2,0:0:0:0:
280,168,54343,6,0,L|167:162,1,80,0|0,1:0|0:0,0:0:0:0:
89,158,54696,1,2,0:0:0:0:
230,68,54873,2,0,L|117:62,1,80,2|0,0:0|1:0,0:0:0:0:
39,58,55226,1,2,0:0:0:0:
230,68,55402,6,0,P|240:115|240:178,1,80,2|0,0:0|0:0,0:0:0:0:
78,237,55755,2,0,P|81:197|89:159,1,80,0|0,1:0|0:0,0:0:0:0:
226,257,56108,6,0,P|276:266|355:261,1,80,2|0,0:0|0:0,0:0:0:0:
411,230,56461,1,0,1:0:0:0:
413,87,56637,2,0,P|363:78|284:83,1,80,2|0,0:0|0:0,0:0:0:0:
228,114,56990,1,2,0:0:0:0:
226,257,57167,1,0,1:0:0:0:
392,197,57343,6,0,P|342:188|263:193,1,80,2|0,0:0|0:0,0:0:0:0:
179,322,57696,2,0,P|211:283|246:212,1,80,2|0,0:0|1:0,0:0:0:0:
178,73,58049,2,0,P|195:120|239:186,1,80,2|0,0:0|0:0,0:0:0:0:
333,302,58402,1,0,1:0:0:0:
297,74,58578,1,0,1:0:0:0:
117,218,58755,1,0,1:0:0:0:
315,188,58931,6,0,L|367:188,3,40,0|0|0|0,1:0|1:0|1:0|1:0,0:0:0:0:
397,216,59284,1,10,0:0:0:0:
397,216,59373,1,0,1:0:0:0:
397,216,59461,1,0,1:0:0:0:
225,260,59637,1,0,1:0:0:0:
297,74,59814,1,2,0:0:0:0:
297,74,59902,1,0,1:0:0:0:
297,74,59990,1,0,1:0:0:0:
333,302,60167,1,0,1:0:0:0:
207,146,60343,5,6,0:0:0:0:
423,230,60520,1,0,0:0:0:0:
225,260,60696,1,0,1:0:0:0:
405,116,60873,1,0,0:0:0:0:
333,302,61049,2,0,P|238:375|182:367,1,95.9999970703126,2|0,0:0|0:0,0:0:0:0:
117,218,61402,1,0,1:0:0:0:
220,167,61578,6,0,P|231:206|225:260,1,95.9999970703126,2|0,0:0|0:0,0:0:0:0:
14,269,61931,2,0,P|3:230|9:176,1,95.9999970703126,2|0,0:0|1:0,0:0:0:0:
117,218,62284,1,2,0:0:0:0:
168,321,62461,2,0,P|129:332|75:326,1,95.9999970703126,2|0,0:0|0:0,0:0:0:0:
66,115,62814,2,0,P|105:104|159:110,1,95.9999970703126,0|0,1:0|0:0,0:0:0:0:
303,228,63167,5,2,0:0:0:0:
117,218,63343,1,0,0:0:0:0:
274,116,63520,1,0,1:0:0:0:
207,292,63696,1,0,0:0:0:0:
159,110,63873,1,2,0:0:0:0:
274,116,64049,1,2,0:0:0:0:
389,122,64226,1,0,1:0:0:0:
159,110,64402,6,0,L|165:248,1,95.9999970703126,2|0,0:0|0:0,0:0:0:0:
389,122,64755,2,0,L|395:-16,1,95.9999970703126,2|0,0:0|1:0,0:0:0:0:
274,116,65108,2,0,L|280:254,1,95.9999970703126,2|0,0:0|0:0,0:0:0:0:
504,128,65461,1,2,0:0:0:0:
280,1,65637,2,0,P|196:32|162:90,1,95.9999970703126,0|0,1:0|0:0,0:0:0:0:
131,257,65990,5,6,0:0:0:0:
274,116,66167,1,0,0:0:0:0:
324,308,66343,1,0,1:0:0:0:
162,146,66520,1,0,0:0:0:0:
355,197,66696,2,0,P|427:257|437:330,1,95.9999970703126,2|0,0:0|0:0,0:0:0:0:
243,227,67049,1,0,1:0:0:0:
274,116,67226,6,0,P|374:83|419:101,1,95.9999970703126,2|0,0:0|0:0,0:0:0:0:
324,308,67578,2,0,P|224:341|179:323,1,95.9999970703126,2|0,0:0|1:0,0:0:0:0:
243,227,67931,1,2,0:0:0:0:
436,278,68108,1,2,0:0:0:0:
355,197,68284,1,2,0:0:0:0:
274,116,68461,2,0,P|374:83|419:101,1,95.9999970703126,0|0,1:0|0:0,0:0:0:0:
243,227,68814,5,2,0:0:0:0:
193,35,68990,1,0,0:0:0:0:
355,197,69167,1,0,1:0:0:0:
305,5,69343,1,0,0:0:0:0:
162,146,69520,1,2,0:0:0:0:
274,116,69696,1,2,0:0:0:0:
386,86,69873,1,0,1:0:0:0:
162,146,70049,6,0,P|232:224|287:230,1,95.9999970703126,2|0,0:0|0:0,0:0:0:0:
193,35,70402,2,0,P|104:47|51:118,1,95.9999970703126,2|0,0:0|1:0,0:0:0:0:
274,116,70755,2,0,P|308:43|285:-35,1,95.9999970703126,2|0,0:0|0:0,0:0:0:0:
162,146,71108,1,10,0:0:0:0:
184,188,71196,1,0,1:0:0:0:
221,219,71284,1,0,1:0:0:0:
268,231,71373,1,0,1:0:0:0:
315,223,71461,1,10,0:0:0:0:
193,35,71637,5,6,0:0:0:0:
131,257,71814,1,0,0:0:0:0:
274,116,71990,1,0,1:0:0:0:
50,176,72167,1,0,0:0:0:0:
243,227,72343,2,0,P|344:207|375:171,1,95.9999970703126,2|0,0:0|0:0,0:0:0:0:
162,146,72696,1,0,1:0:0:0:
157,262,72873,6,0,P|201:255|243:227,1,95.9999970703126,2|0,0:0|0:0,0:0:0:0:
167,30,73226,2,0,P|123:37|81:65,1,95.9999970703126,2|0,0:0|1:0,0:0:0:0:
162,146,73578,1,2,0:0:0:0:
278,151,73755,2,0,P|271:107|243:65,1,95.9999970703126,2|0,0:0|0:0,0:0:0:0:
46,141,74108,2,0,P|53:185|81:227,1,95.9999970703126,0|0,1:0|0:0,0:0:0:0:
248,313,74461,5,2,0:0:0:0:
162,146,74637,1,0,0:0:0:0:
134,330,74814,1,0,1:0:0:0:
265,199,74990,1,0,0:0:0:0:
81,227,75167,1,2,0:0:0:0:
162,146,75343,1,2,0:0:0:0:
243,65,75520,1,0,1:0:0:0:
81,227,75696,6,0,P|48:133|68:80,1,95.9999970703126,2|0,0:0|0:0,0:0:0:0:
274,177,76049,2,0,P|193:257|139:259,1,95.9999970703126,2|0,0:0|1:0,0:0:0:0:
131,34,76402,2,0,P|220:47|266:97,1,95.9999970703126,2|0,0:0|0:0,0:0:0:0:
81,227,76755,1,2,0:0:0:0:
274,177,76931,2,0,P|193:257|139:259,1,95.9999970703126,0|0,1:0|0:0,0:0:0:0:
0,308,77284,5,6,0:0:0:0:
162,146,77461,1,0,0:0:0:0:
112,339,77637,1,0,1:0:0:0:
50,115,77814,1,0,0:0:0:0:
193,258,77990,2,0,P|226:323|205:406,1,95.9999970703126,2|0,0:0|0:0,0:0:0:0:
81,227,78343,1,0,1:0:0:0:
162,146,78520,6,0,P|270:172|301:216,1,95.9999970703126,2|0,0:0|0:0,0:0:0:0:
401,276,78873,2,0,P|293:250|262:206,1,95.9999970703126,2|0,0:0|1:0,0:0:0:0:
370,164,79226,1,2,0:0:0:0:
193,258,79402,1,2,0:0:0:0:
315,62,79578,1,2,0:0:0:0:
138,156,79755,2,0,P|87:212|86:302,1,95.9999970703126,0|0,1:0|0:0,0:0:0:0:
254,160,80108,5,2,0:0:0:0:
83,54,80284,1,0,0:0:0:0:
193,258,80461,1,0,1:0:0:0:
22,152,80637,1,0,0:0:0:0:
199,58,80814,1,2,0:0:0:0:
138,156,80990,1,2,0:0:0:0:
77,254,81167,1,0,1:0:0:0:
199,58,81343,6,0,P|91:51|44:90,1,95.9999970703126,2|0,0:0|0:0,0:0:0:0:
254,160,81696,2,0,P|313:73|304:10,1,95.9999970703126,2|0,0:0|1:0,0:0:0:0:
138,156,82049,1,2,0:0:0:0:
193,258,82226,2,0,P|230:273|278:273,3,47.9999985351563,10|0|0|0,0:0|1:0|1:0|1:0,0:0:0:0:
285,271,82578,1,0,1:0:0:0:
328,248,82667,1,0,1:0:0:0:
357,210,82755,1,0,1:0:0:0:
369,163,82843,1,0,1:0:0:0:
360,116,82931,6,0,P|399:108|500:111,1,80,6|0,0:0|0:0,0:0:0:0:
256,159,83284,2,0,P|216:156|176:148,1,80,0|0,1:0|0:0,0:0:0:0:
375,5,83637,1,2,0:0:0:0:
360,116,83814,1,2,0:0:0:0:
345,227,83990,1,0,1:0:0:0:
133,240,84167,6,0,P|180:176|256:159,1,160,2|0,0:0|0:0,0:0:0:0:
295,327,84696,2,0,P|274:313|241:270,1,80,0|0,1:0|0:0,0:0:0:0:
360,116,85049,2,0,L|414:113,2,40,2|0|0,0:0|0:0|0:0,0:0:0:0:
317,154,85314,1,2,0:0:0:0:
317,154,85402,2,0,P|325:193|345:228,1,80,0|0,1:0|0:0,0:0:0:0:
275,49,85755,6,0,L|167:44,1,80,2|0,0:0|0:0,0:0:0:0:
386,66,86108,2,0,L|494:61,1,80,0|0,1:0|0:0,0:0:0:0:
359,259,86461,1,2,0:0:0:0:
317,154,86637,1,2,0:0:0:0:
275,49,86814,1,0,1:0:0:0:
248,242,86990,6,0,P|201:263|65:244,1,160,2|0,0:0|0:0,0:0:0:0:
317,154,87520,2,0,L|425:159,1,80,0|0,1:0|0:0,0:0:0:0:
248,242,87848,1,0,1:0:0:0:
222,212,87937,1,0,1:0:0:0:
207,175,88026,1,0,1:0:0:0:
206,135,88115,1,0,1:0:0:0:
