osu file format v14

[General]
AudioFilename: audio.mp3
AudioLeadIn: 1657
PreviewTime: 8020
Countdown: 0
SampleSet: Soft
StackLeniency: 0.7
Mode: 0
LetterboxInBreaks: 0
WidescreenStoryboard: 0

[Editor]
Bookmarks: 8108,25049,47637,60343,71637,82931
DistanceSpacing: 1
BeatDivisor: 2
GridSize: 32
TimelineZoom: 1

[Metadata]
Title:Cagayake!GIRLS[5nin Ver.] (TV size Ver.)
TitleUnicode:Cagayake!GIRLS[5人Ver.] (TV size Ver.)
Artist:Sakurakou K-ON Bu
ArtistUnicode:桜高軽音部
Creator:Pata-Mon
Version:Easy
Source:けいおん!
Tags:Karen K-on! keion keionbu HO-KAGO TEA TIME HTT 豊崎愛生 Toyosaki Aki 日笠陽子 Hikasa Youko 佐藤聡美 Satou Satomi 寿美菜子 Kotobuki Minako 竹達彩奈 Taketatsu Ayana 平沢唯 Hirasawa Yui 秋山澪 Akiyama Mio 田井中律 Tainaka Ritsu 琴吹紬 Kotobuki Tsumugi 中野梓 Nakano Azusa Anime OP opening tv size
BeatmapID:1411646
BeatmapSetID:666366

[Difficulty]
HPDrainRate:2
CircleSize:2.5
OverallDifficulty:2
ApproachRate:3
SliderMultiplier:0.9
SliderTickRate:1

[Events]
//Background and Video events
0,0,"BG.jpg",0,0
Video,-280,"video.flv"
//Break Periods
//Storyboard Layer 0 (Background)
//Storyboard Layer 1 (Fail)
//Storyboard Layer 2 (Pass)
//Storyboard Layer 3 (Foreground)
//Storyboard Sound Samples

[TimingPoints]
1049.53841563695,352.941176470588,4,2,1,50,1,0
8108,-100,4,2,1,70,0,0
19402,-100,4,2,1,60,0,0
25049,-100,4,2,1,55,0,0
58931,-100,4,2,1,65,0,0
60343,-100,4,2,1,70,0,1
82931,-100,4,2,1,60,0,0
87696,304,4,2,1,60,1,0
87848,356,4,2,1,60,1,0

[Colours]
Combo1 : 255,207,95
Combo2 : 255,127,127
Combo3 : 207,95,255
Combo4 : 143,231,183
Combo5 : 159,191,255

[HitObjects]
220,186,343,6,0,B|263:199|263:199|306:186,1,90,2|2,0:0|0:0,0:0:0:0:
383,138,1049,6,0,P|452:222|440:393,1,270,6|2,0:0|0:0,0:0:0:0:
370,332,2461,2,0,P|345:300|298:278,1,90,2|0,0:0|0:0,0:0:0:0:
211,279,3167,2,0,P|171:298|142:333,1,90,2|0,0:0|0:0,0:0:0:0:
64,377,3873,6,0,P|60:222|130:137,1,270,2|2,0:0|0:0,0:0:0:0:
210,98,5284,2,0,L|300:98,1,90,2|0,0:0|0:0,0:0:0:0:
300,8,5990,2,0,L|210:8,1,90,2|0,0:0|0:0,0:0:0:0:
123,54,6696,6,0,P|105:96|98:140,2,90,0|8|0,1:0|0:0|1:0,0:0:0:0:
303,54,8108,6,0,P|321:96|328:140,1,90,6|0,0:0|1:0,0:0:0:0:
258,196,8814,2,0,L|98:196,2,135,2|2|0,0:0|0:0|1:0,0:0:0:0:
328,253,10226,2,0,P|321:297|304:339,1,90,2|0,0:0|1:0,0:0:0:0:
221,373,10931,6,0,L|93:373,1,90,2|0,0:0|1:0,0:0:0:0:
47,339,11637,2,0,P|29:297|22:253,1,90,2|0,0:0|1:0,0:0:0:0:
45,214,12167,2,0,P|38:170|21:128,2,90,2|2|2,0:0|0:0|0:0,0:0:0:0:
133,233,13226,2,0,L|189:229,1,45,2|0,0:0|1:0,0:0:0:0:
255,183,13755,6,0,L|381:191,1,90,6|0,0:0|1:0,0:0:0:0:
411,249,14461,2,0,P|426:319|421:403,2,135,2|2|0,0:0|0:0|1:0,0:0:0:0:
345,189,15873,2,0,L|352:68,1,90,2|0,0:0|1:0,0:0:0:0:
279,42,16578,6,0,P|238:35|159:45,1,90,2|0,0:0|1:0,0:0:0:0:
113,86,17284,2,0,L|106:207,1,90,2|0,0:0|1:0,0:0:0:0:
146,199,17814,2,0,P|167:283|124:393,2,180,2|2|2,0:0|0:0|0:0,0:0:0:0:
108,176,19402,6,0,L|115:55,1,90,6|0,0:0|1:0,0:0:0:0:
195,49,20108,2,0,B|261:33|261:69|327:49,1,135,2|2,0:0|0:0,0:0:0:0:
412,18,20990,2,0,B|428:84|392:84|412:150,1,135,2|2,0:0|0:0,0:0:0:0:
443,235,21873,1,0,1:0:0:0:
375,294,22226,6,0,P|349:299|272:298,1,90,2|0,0:0|1:0,0:0:0:0:
219,239,22931,2,0,P|163:222|70:222,1,135,2|2,0:0|0:0,0:0:0:0:
17,277,23814,2,0,P|34:221|34:128,1,135,2|2,0:0|0:0,0:0:0:0:
23,55,24696,1,0,1:0:0:0:
107,22,25049,6,0,P|157:13|224:14,1,90,6|0,0:0|1:0,0:0:0:0:
265,69,25755,2,0,P|315:78|382:77,1,90,2|0,0:0|1:0,0:0:0:0:
443,67,26461,2,0,P|442:147|434:229,2,135,2|2|0,0:0|0:0|1:0,0:0:0:0:
365,22,27873,6,0,P|315:13|248:14,1,90,2|0,0:0|1:0,0:0:0:0:
207,69,28578,2,0,P|157:78|90:77,1,90,2|0,0:0|1:0,0:0:0:0:
29,67,29284,2,0,P|29:147|38:229,2,135,2|2|0,0:0|0:0|1:0,0:0:0:0:
107,22,30696,6,0,P|151:23|196:32,1,90,2|0,0:0|1:0,0:0:0:0:
268,87,31402,2,0,P|348:86|430:78,2,135,2|2|0,0:0|0:0|1:0,0:0:0:0:
196,32,32814,2,0,P|202:148|244:174,1,90,2|0,0:0|1:0,0:0:0:0:
252,176,33520,6,0,P|256:220|239:261,1,90,2|0,0:0|1:0,0:0:0:0:
167,206,34226,2,0,P|87:207|5:215,2,135,2|2|0,0:0|0:0|1:0,0:0:0:0:
239,262,35637,2,0,P|289:271|356:270,1,90,2|0,0:0|1:0,0:0:0:0:
410,234,36343,6,0,L|403:107,1,90,6|0,0:0|1:0,0:0:0:0:
494,153,37049,2,0,L|501:280,1,90,2|0,0:0|1:0,0:0:0:0:
447,317,37755,2,0,P|405:331|311:335,2,135,2|2|0,0:0|0:0|1:0,0:0:0:0:
499,243,39167,6,0,L|492:116,1,90,2|0,0:0|1:0,0:0:0:0:
405,144,39873,2,0,L|412:271,1,90,2|0,0:0|1:0,0:0:0:0:
358,308,40578,2,0,P|316:322|222:326,2,135,2|2|0,0:0|0:0|1:0,0:0:0:0:
410,234,41990,6,0,L|403:107,1,90,2|0,0:0|1:0,0:0:0:0:
366,63,42696,2,0,P|461:73|495:133,2,135,2|2|0,0:0|0:0|1:0,0:0:0:0:
315,137,44108,2,0,P|279:145|197:148,1,90,2|0,0:0|1:0,0:0:0:0:
136,138,44814,6,0,L|143:265,1,90,2|0,0:0|1:0,0:0:0:0:
180,309,45520,2,0,P|85:299|51:239,2,135,2|2|0,0:0|0:0|1:0,0:0:0:0:
231,235,46931,2,0,P|267:227|349:224,1,90,2|0,0:0|1:0,0:0:0:0:
408,241,47637,6,0,P|418:175|418:89,2,135,6|2|2,0:0|0:0|0:0,0:0:0:0:
272,241,49226,2,0,P|262:175|262:89,1,135,2|2,0:0|0:0,0:0:0:0:
306,29,50108,1,0,1:0:0:0:
216,29,50461,6,0,P|152:35|59:60,2,135,2|2|2,0:0|0:0|0:0,0:0:0:0:
216,164,52049,2,0,P|152:158|59:133,1,135,2|2,0:0|0:0,0:0:0:0:
5,97,52931,1,0,1:0:0:0:
83,52,53284,6,0,P|148:35|216:29,2,135,2|2|2,0:0|0:0|0:0,0:0:0:0:
83,187,54873,2,0,P|148:204|216:210,1,135,2|2,0:0|0:0,0:0:0:0:
304,194,55755,1,0,1:0:0:0:
375,249,56108,6,0,P|392:314|398:382,2,135,2|2|2,0:0|0:0|0:0,0:0:0:0:
344,216,57343,2,0,L|349:123,2,90,2|2|2,0:0|0:0|0:0,0:0:0:0:
271,269,58402,2,0,L|273:315,2,45,2|2|2,0:0|0:0|0:0,0:0:0:0:
235,240,58931,6,0,P|150:172|262:164,1,270,0|0,1:0|1:0,0:0:0:0:
321,213,60343,6,0,P|305:297|253:328,1,90,6|0,0:0|1:0,0:0:0:0:
358,369,61049,2,0,P|428:369|523:346,2,135,2|2|0,0:0|0:0|1:0,0:0:0:0:
304,298,62461,2,0,P|253:287|197:290,1,90,2|0,0:0|1:0,0:0:0:0:
129,315,63167,6,0,L|121:195,1,90,2|0,0:0|1:0,0:0:0:0:
163,145,63873,2,0,P|214:134|270:137,1,90,2|0,0:0|1:0,0:0:0:0:
280,169,64402,2,0,P|331:180|387:177,2,90,2|2|2,0:0|0:0|0:0,0:0:0:0:
243,252,65461,2,0,L|241:329,1,45,2|0,0:0|1:0,0:0:0:0:
319,343,65990,6,0,P|363:343|407:333,1,90,6|0,0:0|1:0,0:0:0:0:
438,247,66696,2,0,L|431:92,2,135,2|2|0,0:0|0:0|1:0,0:0:0:0:
407,332,68108,2,0,P|363:342|319:343,1,90,2|0,0:0|1:0,0:0:0:0:
242,293,68814,6,0,P|198:293|154:303,1,90,2|0,0:0|1:0,0:0:0:0:
81,248,69520,2,0,L|87:132,1,90,2|0,0:0|1:0,0:0:0:0:
122,131,70049,2,0,L|116:15,1,90,2|2,0:0|0:0,0:0:0:0:
206,26,70755,2,0,P|264:28|361:47,1,135,2|0,0:0|1:0,0:0:0:0:
413,92,71637,6,0,L|407:208,1,90,6|2,0:0|0:0,0:0:0:0:
364,261,72343,2,0,P|390:339|440:361,2,135,2|2|0,0:0|0:0|1:0,0:0:0:0:
318,184,73755,2,0,P|275:177|185:180,1,90,2|0,0:0|1:0,0:0:0:0:
140,193,74461,6,0,L|134:77,1,90,2|0,0:0|1:0,0:0:0:0:
48,127,75167,2,0,L|54:243,1,90,2|0,0:0|1:0,0:0:0:0:
75,256,75696,2,0,L|69:372,2,90,2|2|2,0:0|0:0|0:0,0:0:0:0:
140,193,76755,2,0,L|199:197,1,45,2|0,0:0|1:0,0:0:0:0:
260,247,77284,6,0,L|378:239,1,90,6|0,0:0|1:0,0:0:0:0:
412,176,77990,2,0,P|409:101|388:7,2,135,2|2|0,0:0|0:0|1:0,0:0:0:0:
349,241,79402,2,0,L|231:249,1,90,2|0,0:0|1:0,0:0:0:0:
185,196,80108,6,0,L|67:188,1,90,2|0,0:0|1:0,0:0:0:0:
25,132,80814,2,0,P|25:87|34:43,1,90,2|0,0:0|1:0,0:0:0:0:
68,13,81343,2,0,L|304:29,2,180,2|2|2,0:0|0:0|0:0,0:0:0:0:
34,43,82931,6,0,P|25:87|25:131,1,90,6|0,0:0|1:0,0:0:0:0:
72,209,83637,2,0,B|138:225|138:189|204:209,1,135,2|2,0:0|0:0,0:0:0:0:
289,240,84519,2,0,B|305:174|269:174|289:108,1,135,2|2,0:0|0:0,0:0:0:0:
349,39,85402,1,0,1:0:0:0:
260,22,85755,6,0,P|234:17|157:18,1,90,2|0,0:0|1:0,0:0:0:0:
95,66,86461,2,0,P|93:134|75:199,1,135,2|2,0:0|0:0,0:0:0:0:
1,248,87343,2,0,P|69:250|134:268,1,128.632075471698,2|0,0:0|1:0,0:0:0:0:
