osu file format v14

[General]
AudioFilename: audio.mp3
AudioLeadIn: 0
PreviewTime: 37021
Countdown: 0
SampleSet: Soft
StackLeniency: 0.8
Mode: 0
LetterboxInBreaks: 0
WidescreenStoryboard: 1

[Editor]
Bookmarks: 90919
DistanceSpacing: 1
BeatDivisor: 4
GridSize: 4
TimelineZoom: 0.9999996

[Metadata]
Title:SHINING STAR (TV Size)
TitleUnicode:SHINING STAR (TV Size)
Artist:Sakuragi Hinako (CV: M.A.O)
ArtistUnicode:桜木ひな子 (CV: M・A・O)
Creator:Terakomari
Version:Normal
Source:ひなこのーと
Tags:lafayla l1ght_u light_u -hitomi character insert song 萩野 千秋 Hagino Chiaki 東城 日沙子 Hisako Tojo Toujou 中島 ゆあ Nakajima Yua 高野 麻里佳 Kouno Marika Hinako Note japanese pop jpop j-pop jp anime 夏川 くいな Natsukawa Kuina 富田 美憂 Tomita Miyu Ichimichi Mao 市道 真央
BeatmapID:4150540
BeatmapSetID:1995816

[Difficulty]
HPDrainRate:3.5
CircleSize:3
OverallDifficulty:3.5
ApproachRate:4.5
SliderMultiplier:1.8
SliderTickRate:1

[Events]
//Background and Video events
Video,-406,"hinako.flv"
0,0,"hinako note.png",0,0
//Break Periods
//Storyboard Layer 0 (Background)
//Storyboard Layer 1 (Fail)
//Storyboard Layer 2 (Pass)
//Storyboard Layer 3 (Foreground)
//Storyboard Layer 4 (Overlay)
//Storyboard Sound Samples

[TimingPoints]
14052,740.740740740741,4,2,0,25,1,0
14052,-100,4,2,0,25,0,0
25903,-95.2380952380952,4,2,0,30,0,0
34773,-95.2380952380952,4,2,0,30,0,0
37021,731.707317073171,4,2,0,30,1,0
37021,-90.9090909090909,4,2,0,30,0,0
37761,731.707317073169,4,2,0,35,1,0
37761,-90.9090909090909,4,2,0,35,0,0
45802,731.707317073169,4,2,0,35,1,0
45802,-90.9090909090909,4,2,0,35,0,0
46533,731.707317073169,4,2,0,35,1,0
46533,-90.9090909090909,4,2,0,35,0,0
47996,731.707317073169,4,2,0,35,1,0
47996,-90.9090909090909,4,2,0,35,0,0
49459,731.707317073169,4,2,0,35,1,0
49459,-90.9090909090909,4,2,0,35,0,0
65564,821.917808219178,4,2,0,35,1,0
65564,-90.9090909090909,4,2,0,35,0,0
66385,1012.6582278481,4,2,0,35,1,0
66385,-90.9090909090909,4,2,0,35,0,0
67397,857.142857142857,4,2,0,35,1,0
67397,-90.9090909090909,4,2,0,35,0,0

[Colours]
Combo1 : 245,164,153
Combo2 : 163,93,118
Combo3 : 102,171,128
Combo4 : 85,217,255

[HitObjects]
298,232,14052,6,0,B|354:229|407:217,2,90,2|0|2,0:0|0:0|0:0,0:0:0:0:
243,303,15163,2,0,B|187:300|134:288,1,90,2|2,0:0|0:0,0:0:0:0:
30,159,16274,2,0,L|26:96,2,45,2|2|2,0:1|0:0|0:1,0:0:0:0:
120,155,17014,6,0,B|229:191|271:90,1,180,2|0,0:1|0:0,0:0:0:0:
348,52,18126,1,2,0:0:0:0:
438,56,18496,2,0,B|456:92|448:145,1,90,2|2,0:1|0:0,0:0:0:0:
360,165,19237,2,0,B|326:187|305:236,1,90,2|2,0:0|0:1,0:0:0:0:
298,282,19792,5,2,0:0:0:0:
298,282,19977,1,2,0:1:0:0:
371,346,20348,1,2,0:0:0:0:
371,346,20533,2,0,B|451:373|490:292,1,135,2|2,0:0|0:0,0:0:0:0:
495,213,21459,2,0,B|390:212|309:190,1,180,2|2,0:0|0:1,0:0:0:0:
343,106,22570,2,0,B|238:105|157:83,1,180,2|2,0:1|0:0,0:0:0:0:
74,90,23681,6,0,L|36:39,2,45,2|0|2,0:1|0:0|0:1,0:0:0:0:
51,177,24422,2,0,B|28:222|48:279|115:287,1,135,2|0,0:0|0:0,0:0:0:0:
139,301,25163,2,0,P|188:291|243:288,1,90,2|2,0:1|0:1,0:0:0:0:
312,246,25903,6,0,L|328:151,1,94.499997116089,2|0,1:0|0:0,0:0:0:0:
344,111,26459,1,0,0:0:0:0:
344,111,26644,1,8,0:1:0:0:
425,63,27014,2,0,P|450:60|476:65,1,47.2499985580445,2|8,0:1|0:0,0:0:0:0:
506,96,27385,2,0,B|524:142|499:190,1,94.499997116089,2|10,0:1|0:0,0:0:0:0:
453,268,28126,2,0,B|404:260|375:214,1,94.499997116089,2|2,1:0|0:1,0:0:0:0:
322,140,28866,5,2,1:0:0:0:
232,134,29237,1,2,0:0:0:0:
232,134,29422,2,0,B|177:132|158:145|90:142,1,141.749995674133,2|0,0:0|0:0,0:0:0:0:
63,181,30163,1,8,0:0:0:0:
63,181,30348,2,0,B|65:235|58:287,2,94.499997116089,0|8|0,1:0|0:0|1:0,0:0:0:0:
22,95,31459,2,0,P|27:67|42:36,1,47.2499985580445,2|2,0:1|0:0,0:0:0:0:
81,43,31829,6,0,B|129:37|186:38,1,94.499997116089,2|2,1:0|0:0,0:0:0:0:
250,95,32570,1,8,0:1:0:0:
187,165,32940,2,0,L|190:212,1,47.2499985580445,2|8,0:1|0:0,0:0:0:0:
197,258,33311,1,2,1:0:0:0:
197,352,33681,1,8,0:0:0:0:
289,370,34052,1,2,1:0:0:0:
368,318,34422,1,2,0:1:0:0:
340,227,34792,6,0,L|291:217,2,47.2499985580445,2|0|0,1:0|3:0|3:0,0:0:0:0:
431,202,35533,2,0,L|479:192,2,47.2499985580445,2|10|0,1:0|0:0|3:0,0:0:0:0:
416,162,36089,1,0,3:0:0:0:
416,162,36274,2,0,P|394:119|398:65,1,94.499997116089,4|2,3:0|1:0,0:0:0:0:
317,9,37021,2,0,P|292:12|268:19,1,49.5000015106202,2|0,1:0|0:0,0:0:0:0:
230,50,37386,1,2,1:0:0:0:
211,150,37761,6,0,B|193:204|129:208,1,99.0000030212403,14|0,0:0|0:0,0:0:0:0:
92,213,38308,1,8,0:0:0:0:
92,213,38491,2,0,B|37:195|33:131,1,99.0000030212403,0|2,1:0|0:1,0:0:0:0:
41,41,39223,2,0,L|3:8,2,49.5000015106202,2|0|10,1:0|0:0|0:0,0:0:0:0:
138,61,39955,2,0,B|185:65|236:52,1,99.0000030212403,2|2,1:0|0:1,0:0:0:0:
283,79,40503,1,0,0:0:0:0:
283,79,40686,6,0,B|296:192,1,99.0000030212403,2|0,1:0|0:0,0:0:0:0:
303,231,41235,1,8,0:0:0:0:
303,231,41418,1,0,1:0:0:0:
204,243,41784,2,0,L|156:229,1,49.5000015106202,2|0,0:1|0:0,0:0:0:0:
107,222,42150,2,0,P|62:231|27:286,1,99.0000030212403,2|10,1:0|0:0,0:0:0:0:
63,365,42881,2,0,P|107:371|159:331,1,99.0000030212403,2|8,1:0|0:0,0:0:0:0:
191,313,43430,1,8,0:0:0:0:
191,313,43613,6,0,B|258:251|335:314,1,148.50000453186,2|8,1:0|0:0,0:0:0:0:
363,338,44345,1,0,1:0:0:0:
456,306,44711,1,2,0:1:0:0:
488,212,45077,2,0,L|501:164,2,49.5000015106202,2|8|2,1:0|0:0|0:1,0:0:0:0:
389,214,45802,2,0,P|347:210|287:185,1,99.0000030212403,2|8,1:0|0:0,0:0:0:0:
254,174,46349,1,8,0:0:0:0:
254,174,46533,6,0,P|209:183|174:238,1,99.0000030212403,2|0,1:0|3:0,0:0:0:0:
149,265,47080,1,0,3:0:0:0:
149,265,47263,1,2,1:0:0:0:
51,246,47629,2,0,L|40:195,1,49.5000015106202,0|8,3:0|0:0,0:0:0:0:
30,148,47995,1,2,1:0:0:0:
45,50,48361,1,10,0:0:0:0:
138,17,48727,1,2,1:0:0:0:
205,91,49092,1,2,0:1:0:0:
215,189,49459,6,0,B|274:253|362:200,1,148.50000453186,14|8,0:0|0:0,0:0:0:0:
387,174,50189,1,0,1:0:0:0:
469,229,50555,2,0,L|484:288,1,49.5000015106202,2|0,0:1|0:0,0:0:0:0:
469,325,50921,2,0,B|440:369|376:359,1,99.0000030212403,2|10,1:0|0:0,0:0:0:0:
296,310,51653,2,0,B|280:259|325:221,1,99.0000030212403,2|2,1:0|0:1,0:0:0:0:
408,168,52384,5,2,1:0:0:0:
405,68,52750,2,0,L|424:22,2,49.5000015106202,2|8|0,0:0|0:0|1:0,0:0:0:0:
307,88,53482,2,0,L|248:73,1,49.5000015106202,2|0,0:1|0:0,0:0:0:0:
224,111,53848,2,0,B|221:168|233:216,1,99.0000030212403,2|0,1:0|0:0,0:0:0:0:
249,261,54397,1,8,0:0:0:0:
249,261,54579,1,0,1:0:0:0:
190,341,54945,1,2,0:1:0:0:
91,344,55311,6,0,L|35:369,2,49.5000015106202,2|0|8,1:0|3:0|0:0,0:0:0:0:
90,298,55860,1,0,0:0:0:0:
90,298,56043,2,0,B|99:240|55:211,1,99.0000030212403,2|2,1:0|0:1,0:0:0:0:
22,182,56592,1,8,0:0:0:0:
22,182,56775,2,0,B|12:124|56:95,1,99.0000030212403,2|0,1:0|0:0,0:0:0:0:
127,27,57506,2,0,B|174:61|163:112,1,99.0000030212403,2|0,1:0|0:0,0:0:0:0:
206,201,58238,6,0,B|252:199|302:179,1,99.0000030212403,6|0,1:0|0:0,0:0:0:0:
350,161,58787,1,8,0:0:0:0:
350,161,58970,1,0,1:0:0:0:
397,74,59336,2,0,L|445:85,1,49.5000015106202,10|8,0:0|0:0,0:0:0:0:
491,103,59701,2,0,P|518:160|509:203,1,99.0000030212403,6|2,1:0|3:1,0:0:0:0:
458,276,60433,2,0,P|433:272|410:264,1,49.5000015106202,0|0,1:0|3:0,0:0:0:0:
373,230,60799,2,0,P|369:205|361:182,1,49.5000015106202,0|0,3:0|3:0,0:0:0:0:
314,164,61165,6,0,P|268:156|211:154,1,99.0000030212403,14|10,0:0|0:0,0:0:0:0:
195,114,61714,1,0,0:0:0:0:
195,114,61897,2,0,P|148:114|91:122,1,99.0000030212403,2|2,1:0|0:1,0:0:0:0:
10,169,62628,1,2,1:0:0:0:
3,267,62994,1,0,0:0:0:0:
91,310,63360,2,0,B|149:331|181:280,1,99.0000030212403,0|2,1:0|0:1,0:0:0:0:
198,241,63909,1,0,0:0:0:0:
198,241,64092,2,0,B|208:180|268:178,1,99.0000030212403,14|0,0:0|0:0,0:0:0:0:
317,177,64640,5,8,0:0:0:0:
317,177,64823,1,0,1:0:0:0:
382,102,65189,1,2,0:1:0:0:
478,101,65556,2,0,B|497:204|472:229|481:326,1,224.350006797791,2|2,1:0|1:0,0:0:0:0:
256,192,67396,12,2,70824,0:0:0:0:
