osu file format v14

[General]
AudioFilename: audio.mp3
AudioLeadIn: 0
PreviewTime: 51741
Countdown: 0
SampleSet: Soft
StackLeniency: 0.5
Mode: 0
LetterboxInBreaks: 0
WidescreenStoryboard: 1

[Editor]
DistanceSpacing: 1.5
BeatDivisor: 4
GridSize: 32
TimelineZoom: 2.2

[Metadata]
Title:Unreal Creation!
TitleUnicode:Unreal Creation!
Artist:Sakuragawa Megu
ArtistUnicode:櫻川めぐ
Creator:Kuse
Version:wyrio's Another
Source:ハミダシクリエイティブ
Tags:まどそふと madosoft video game galgame op opening female vocals japanese eroge visual novel wyrio Fushimi Rio Imoutosan Fushimi_Rio KuBsNia_ZhoYL_ pop Hamidashi Creative ハミクリ Hamikuri short version
BeatmapID:2661684
BeatmapSetID:1197118

[Difficulty]
HPDrainRate:5.2
CircleSize:4.8
OverallDifficulty:8.4
ApproachRate:8.7
SliderMultiplier:1.5
SliderTickRate:1

[Events]
//Background and Video events
0,0,"kano.jpg",0,0
//Break Periods
//Storyboard Layer 0 (Background)
//Storyboard Layer 1 (Fail)
//Storyboard Layer 2 (Pass)
//Storyboard Layer 3 (Foreground)
//Storyboard Layer 4 (Overlay)
//Storyboard Sound Samples

[TimingPoints]
1331,315.789473684211,4,2,1,60,1,0
14041,-100,4,2,1,5,0,0
14120,-100,4,2,1,60,0,0
16488,-90.9090909090909,4,2,1,70,0,0
20909,-90.9090909090909,4,2,1,60,0,0
21225,-90.9090909090909,4,2,1,70,0,0
21541,-100,4,2,1,60,0,0
23515,-100,4,2,1,5,0,0
23594,-100,4,2,1,60,0,0
24146,-100,4,2,1,5,0,0
24225,-100,4,2,1,60,0,0
24304,-100,4,2,1,5,0,0
24383,-100,4,2,1,60,0,0
26041,-100,4,2,1,5,0,0
26120,-66.6666666666667,4,2,1,60,0,0
26199,-66.6666666666667,4,2,1,5,0,0
26278,-66.6666666666667,4,2,1,60,0,0
26357,-66.6666666666667,4,2,1,5,0,0
26436,-66.6666666666667,4,2,1,60,0,0
26909,-100,4,2,1,60,0,0
27462,-100,4,2,1,5,0,0
27541,-100,4,2,1,60,0,0
29199,-100,4,2,1,5,0,0
29278,-100,4,2,1,60,0,0
29357,-100,4,2,1,5,0,0
29436,-100,4,2,1,60,0,0
31094,-100,4,2,1,5,0,0
31173,-66.6666666666667,4,2,1,60,0,0
31252,-66.6666666666667,4,2,1,5,0,0
31331,-66.6666666666667,4,2,1,60,0,0
31409,-66.6666666666667,4,2,1,5,0,0
31488,-66.6666666666667,4,2,1,60,0,0
31962,-90.9090909090909,4,2,1,65,0,0
32515,-90.9090909090909,4,2,1,5,0,0
32594,-90.9090909090909,4,2,1,65,0,0
32673,-90.9090909090909,4,2,1,5,0,0
32752,-90.9090909090909,4,2,1,65,0,0
34252,-90.9090909090909,4,2,1,5,0,0
34331,-90.9090909090909,4,2,1,65,0,0
34409,-90.9090909090909,4,2,1,5,0,0
34488,-90.9090909090909,4,2,1,65,0,0
35988,-90.9090909090909,4,2,1,5,0,0
36067,-90.9090909090909,4,2,1,65,0,0
36146,-90.9090909090909,4,2,1,5,0,0
36225,-90.9090909090909,4,2,1,65,0,0
36541,-90.9090909090909,4,2,1,70,0,0
39225,-100,4,2,1,70,0,0
41752,-100,4,2,1,60,0,0
41909,-133.333333333333,4,2,1,60,0,0
46173,-89.2857142857143,4,2,1,60,0,0
51857,-83.3333333333333,4,2,1,80,0,0
72067,-89.2857142857143,4,2,1,80,0,0
88015,-89.2857142857143,4,2,1,50,0,0

[Colours]
Combo1 : 255,151,151
Combo2 : 255,255,128
Combo3 : 255,91,91
Combo4 : 77,166,255

[HitObjects]
450,189,1331,5,4,1:2:0:0:
450,189,1488,1,0,1:0:0:0:
348,216,1646,6,0,L|362:95,1,112.5,8|0,0:0|0:0,0:0:0:0:
351,90,1962,2,0,P|301:77|266:92,1,75,0|0,1:0|1:0,0:0:0:0:
186,217,2278,6,0,B|197:260|197:260|218:274|218:274|230:328,1,112.5,8|0,0:0|0:0,0:0:0:0:
233,332,2594,2,0,L|312:316,1,75,0|0,1:0|1:0,0:0:0:0:
494,321,2909,6,0,L|363:291,1,112.5,8|0,0:0|0:0,0:0:0:0:
386,286,3225,2,0,L|374:338,1,37.5,0|0,1:0|0:0,0:0:0:0:
333,384,3383,1,0,1:0:0:0:
333,384,3541,1,8,0:0:0:0:
19,191,3857,5,0,1:0:0:0:
19,191,4015,1,0,1:0:0:0:
121,207,4173,6,0,L|86:66,1,112.5,8|0,0:0|0:0,0:0:0:0:
96,73,4488,2,0,P|134:48|181:61,1,75,0|0,1:0|1:0,0:0:0:0:
315,107,4804,6,0,B|306:149|306:149|314:165|314:165|298:232,1,112.5,8|0,0:0|0:0,0:0:0:0:
298,231,5120,2,0,L|214:253,1,75,0|0,1:0|1:0,0:0:0:0:
83,309,5436,6,0,L|220:332,1,112.5,8|0,0:0|0:0,0:0:0:0:
206,338,5752,2,0,L|247:327,1,37.5,0|0,1:0|0:0,0:0:0:0:
339,337,5909,1,0,1:0:0:0:
339,337,6067,1,8,0:0:0:0:
239,74,6383,6,0,B|268:78|268:78|276:88|276:88|318:100,1,75,2|0,1:2|1:0,0:0:0:0:
308,98,6699,1,8,0:0:0:0:
331,212,6857,2,0,B|361:201|361:201|364:185|364:185|397:166,1,75,0|0,0:0|1:0,0:0:0:0:
495,135,7173,2,0,B|466:235|529:193|498:314,1,150,2|0,1:2|0:0,0:0:0:0:
428,330,7646,6,0,B|375:338|375:338|358:358,1,75,2|0,1:2|1:0,0:0:0:0:
361,354,7962,1,8,0:0:0:0:
271,306,8120,2,0,L|288:390,1,75,0|0,0:0|1:0,0:0:0:0:
185,324,8436,2,0,B|191:275|191:275|208:245|208:245|219:168,1,150,2|0,1:2|0:0,0:0:0:0:
184,54,8909,6,0,P|138:47|95:65,1,75,2|0,1:2|1:0,0:0:0:0:
111,54,9225,1,8,0:0:0:0:
266,50,9383,2,0,B|286:75|287:89|287:89|318:72|319:25,1,112.5
322,19,9699,2,0,P|363:3|387:34,1,75,2|8,1:2|0:0,0:0:0:0:
423,124,10015,2,0,L|408:208,1,75,0|2,0:0|1:2,0:0:0:0:
439,360,10331,5,0,1:0:0:0:
439,360,10488,2,0,L|519:346,1,75,8|0,0:0|0:0,0:0:0:0:
307,236,10804,1,2,1:2:0:0:
326,263,10962,1,0,1:0:0:0:
257,320,11120,1,8,0:0:0:0:
257,320,11278,2,0,P|190:296|160:294,1,75,2|0,0:0|1:0,0:0:0:0:
14,367,11594,6,0,P|70:346|93:332,1,75,0|8,1:0|0:0,0:0:0:0:
83,338,11909,1,2,0:0:0:0:
33,159,12067,1,0,1:0:0:0:
91,206,12225,1,0,1:0:0:0:
2,262,12383,1,8,0:0:0:0:
159,163,12541,2,0,P|205:174|251:181,1,75,2|0,0:0|1:0,0:0:0:0:
271,109,12857,5,0,1:0:0:0:
415,197,13015,2,0,P|354:223|336:239,1,75,8|0,0:0|0:0,0:0:0:0:
341,81,13331,1,2,1:2:0:0:
407,181,13488,1,0,1:0:0:0:
479,146,13646,1,8,0:0:0:0:
448,299,13804,6,0,B|469:318|469:318|440:334|432:338|375:302,1,112.5,2|0,0:0|0:0,0:0:0:0:
372,298,14120,2,0,P|354:321|355:375,1,75,0|8,1:0|0:0,0:0:0:0:
171,350,14436,2,0,P|181:296|158:266,1,75,2|0,0:0|1:0,0:0:0:0:
61,227,14752,2,0,P|98:205|143:217,1,75,0|8,1:0|0:0,0:0:0:0:
294,235,15067,6,0,L|351:224,1,37.5,2|0,0:0|0:0,0:0:0:0:
348,224,15225,2,0,B|291:213|291:213|279:189|279:189|202:177,1,150,4|8,1:2|0:0,0:0:0:0:
160,104,15699,2,0,L|146:61,1,37.5
130,47,15857,2,0,L|140:0,3,37.5,12|8|8|8,0:0|0:0|0:0|0:0,0:0:0:0:
213,0,16173,5,8,0:0:0:0:
233,5,16252,1,8,0:0:0:0:
253,11,16331,1,8,0:0:0:0:
272,15,16409,1,8,0:0:0:0:
288,39,16488,6,0,B|321:29|321:29|334:30|334:30|368:20,1,82.5000025177003,6|0,1:2|1:0,0:0:0:0:
472,118,16804,1,10,0:0:0:0:
417,235,16962,2,0,P|396:178|386:155,1,82.5000025177003,2|2,0:0|1:2,0:0:0:0:
469,29,17278,1,0,0:0:0:0:
327,104,17436,2,0,L|217:135,1,82.5000025177003,10|0,0:0|0:0,0:0:0:0:
239,132,17673,1,0,0:0:0:0:
239,132,17752,5,2,1:2:0:0:
438,102,17909,2,0,B|464:102|490:119|490:119|496:154,1,82.5000025177003,2|8,1:2|0:0,0:0:0:0:
212,210,18225,1,0,0:0:0:0:
362,286,18383,2,0,P|388:351|396:379,1,82.5000025177003,2|0,1:2|0:0,0:0:0:0:
155,264,18699,2,0,P|165:195|187:129,1,123.75000377655,10|0,0:0|0:0,0:0:0:0:
229,80,19015,5,2,1:2:0:0:
349,129,19173,1,0,1:0:0:0:
289,190,19331,1,10,0:0:0:0:
198,8,19488,1,2,0:0:0:0:
311,49,19646,1,2,1:2:0:0:
152,176,19804,1,0,0:0:0:0:
305,271,19962,6,0,P|370:254|388:250,1,82.5000025177003,10|0,0:0|0:0,0:0:0:0:
404,260,20199,1,0,0:0:0:0:
404,260,20278,1,2,1:2:0:0:
509,166,20436,2,0,L|494:268,1,82.5000025177003,2|8,1:2|0:0,0:0:0:0:
460,316,20673,1,0,0:0:0:0:
460,316,20752,1,2,0:0:0:0:
348,370,20909,6,0,P|333:326|335:309,3,41.2500012588501,4|0|0|0,1:2|1:0|1:0|1:0,0:0:0:0:
272,258,21225,1,8,0:0:0:0:
267,284,21304,1,8,0:0:0:0:
256,301,21383,1,8,0:0:0:0:
254,323,21462,1,8,0:0:0:0:
248,348,21541,6,0,L|166:362,1,75,4|0,1:2|1:0,0:0:0:0:
65,344,21857,1,8,0:0:0:0:
69,349,22015,2,0,L|58:267,1,75,2|0,0:0|1:0,0:0:0:0:
73,168,22331,1,2,1:2:0:0:
73,168,22488,2,0,B|110:171|110:171|116:181|116:181|160:189,1,75,8|0,0:0|0:0,0:0:0:0:
236,135,22804,2,0,B|267:131|267:131|276:137|276:137|315:128,1,75,2|0,1:2|1:0,0:0:0:0:
445,101,23120,5,8,0:0:0:0:
445,101,23278,2,0,P|468:67|421:5,1,112.5,2|0,0:0|0:0,0:0:0:0:
425,13,23594,2,0,P|390:21|352:18,1,75,2|8,1:2|0:0,0:0:0:0:
402,178,23909,6,0,P|452:180|520:200,1,112.5,2|0,1:2|0:0,0:0:0:0:
511,206,24225,2,0,L|489:248,1,37.5,2|0,1:2|0:0,0:0:0:0:
456,310,24383,1,8,0:0:0:0:
456,310,24541,1,2,0:0:0:0:
341,289,24699,5,2,1:2:0:0:
320,369,24857,1,0,1:0:0:0:
239,322,25015,1,10,0:0:0:0:
308,225,25173,1,2,0:0:0:0:
308,225,25252,1,0,3:0:0:0:
308,225,25331,6,0,L|230:208,1,75,0|0,1:0|1:0,0:0:0:0:
140,245,25646,1,8,0:0:0:0:
254,46,25883,5,0,0:0:0:0:
263,59,25962,2,0,L|315:51,1,37.5,0|0,1:0|0:0,0:0:0:0:
397,34,26120,2,0,B|425:36|425:36|458:50,1,56.2500021457673,0|0,1:0|0:0,0:0:0:0:
459,60,26278,2,0,L|392:77,1,56.2500021457673,8|0,0:0|0:0,0:0:0:0:
400,96,26436,2,0,B|350:62|301:99|301:99|240:156|184:101,1,225.000008583069,6|0,1:0|1:0,0:0:0:0:
98,25,26909,6,0,P|106:77|111:117,1,75,8|2,0:0|0:0,0:0:0:0:
207,187,27225,2,0,L|76:175,1,112.5,2|0,1:2|0:0,0:0:0:0:
74,186,27541,1,10,0:0:0:0:
17,241,27699,1,0,0:0:0:0:
74,344,27857,6,0,P|122:328|159:323,1,75,2|0,1:2|1:0,0:0:0:0:
265,261,28173,1,8,0:0:0:0:
265,261,28331,2,0,B|260:293|260:293|262:301|262:301|253:365,1,75,2|0,0:0|1:0,0:0:0:0:
386,384,28646,2,0,B|376:348|376:348|380:340|380:340|369:293,1,75,2|8,1:2|0:0,0:0:0:0:
454,175,28962,6,0,B|388:160|388:160|359:167|363:212,1,112.5,2|0,0:0|0:0,0:0:0:0:
357,221,29278,2,0,L|293:198,1,37.5,2|0,1:2|0:0,0:0:0:0:
284,148,29436,1,8,0:0:0:0:
284,148,29594,1,2,0:0:0:0:
344,74,29752,5,2,1:2:0:0:
442,39,29909,1,0,1:0:0:0:
387,135,30067,1,10,0:0:0:0:
298,0,30225,1,2,0:0:0:0:
298,0,30304,1,0,3:0:0:0:
298,0,30383,6,0,P|231:7|201:8,1,75,0|0,1:0|1:0,0:0:0:0:
123,56,30699,1,8,0:0:0:0:
75,319,30936,5,0,0:0:0:0:
85,309,31015,2,0,L|137:319,1,37.5,0|0,1:0|0:0,0:0:0:0:
194,265,31173,2,0,B|221:262|221:262|258:241,1,56.2500021457673,0|0,1:0|0:0,0:0:0:0:
261,236,31331,2,0,L|177:226,1,56.2500021457673,8|0,0:0|0:0,0:0:0:0:
181,219,31488,2,0,B|250:192|292:237|292:237|330:280|399:252,1,225.000008583069,6|0,1:0|1:0,0:0:0:0:
426,368,31962,6,0,P|468:349|510:339,1,82.5000025177003,8|2,0:0|0:0,0:0:0:0:
506,182,32278,2,0,P|437:179|368:166,1,123.75000377655,0|0,1:0|0:0,0:0:0:0:
376,163,32594,2,0,L|393:116,1,41.2500012588501,8|0,0:0|0:0,0:0:0:0:
387,103,32752,2,0,P|328:113|301:119,1,82.5000025177003,2|0,0:0|1:0,0:0:0:0:
195,14,33067,5,0,1:0:0:0:
284,46,33225,1,8,0:0:0:0:
382,23,33383,2,0,L|471:34,1,82.5000025177003,2|0,0:0|1:0,0:0:0:0:
508,191,33699,5,2,1:2:0:0:
448,258,33857,1,8,0:0:0:0:
512,351,34015,6,0,B|460:359|460:359|448:373|448:373|382:384,1,123.75000377655,2|0,0:0|0:0,0:0:0:0:
380,364,34331,2,0,L|320:349,1,41.2500012588501,2|0,1:2|0:0,0:0:0:0:
239,277,34488,2,0,P|258:321|266:373,1,82.5000025177003,8|2,0:0|0:0,0:0:0:0:
298,193,34804,5,2,1:2:0:0:
168,275,34962,1,0,1:0:0:0:
136,176,35120,1,8,0:0:0:0:
344,112,35278,2,0,P|288:87|231:72,1,82.5000025177003,2|0,0:0|1:0,0:0:0:0:
55,106,35594,5,0,1:0:0:0:
88,32,35752,2,0,L|225:11,1,123.75000377655,8|0,0:0|0:0,0:0:0:0:
237,0,36067,2,0,P|285:12|296:12,1,41.2500012588501,0|0,1:0|0:0,0:0:0:0:
384,43,36225,1,0,1:0:0:0:
344,112,36383,1,8,0:0:0:0:
360,361,36541,6,0,P|366:295|385:222,1,123.75000377655,6|0,1:2|0:0,0:0:0:0:
403,232,36857,2,0,L|390:283,1,41.2500012588501,2|0,0:0|0:0,0:0:0:0:
394,294,37015,2,0,P|450:278|490:274,1,82.5000025177003,10|2,0:0|0:0,0:0:0:0:
480,178,37331,5,2,1:2:0:0:
499,341,37488,1,2,0:0:0:0:
320,293,37646,1,10,0:0:0:0:
205,253,37804,2,0,B|284:274|284:274|333:254|321:207,1,165.000005035401,2|2,0:0|1:2,0:0:0:0:
163,347,38278,5,10,0:0:0:0:
149,334,38436,1,2,0:0:0:0:
112,246,38594,1,0,1:0:0:0:
49,299,38752,1,0,1:0:0:0:
137,168,38909,2,0,B|139:124|139:124|134:118|134:118|134:80,1,82.5000025177003,10|0,0:0|0:0,0:0:0:0:
239,7,39225,6,0,L|314:18,1,75,2|2,1:2|1:2,0:0:0:0:
422,91,39541,1,10,0:0:0:0:
422,91,39699,2,0,P|364:101|325:120,1,75,2|0,0:0|1:0,0:0:0:0:
298,190,40015,1,2,1:2:0:0:
389,214,40173,1,10,0:0:0:0:
506,98,40331,6,0,L|478:277,1,150,2|0,0:0|1:0,0:0:0:0:
465,326,40804,1,8,0:0:0:0:
369,355,40962,2,0,P|327:345|320:348,1,37.5
317,318,41120,2,0,P|279:343|269:343,3,37.5,0|0|0|0,1:0|1:0|1:0|1:0,0:0:0:0:
208,318,41436,5,8,0:0:0:0:
191,321,41515,1,8,0:0:0:0:
171,326,41594,1,8,0:0:0:0:
152,331,41673,1,8,0:0:0:0:
136,334,41752,1,4,1:2:0:0:
53,361,41909,6,0,P|1:344|-22:341,1,56.2500021457673
29,222,42225,2,0,P|80:235|155:242,1,112.500004291535,0|0,1:0|0:0,0:0:0:0:
193,194,42699,1,0,0:0:0:0:
193,194,42857,1,0,3:0:0:0:
234,126,43015,2,0,P|221:53|202:3,1,112.500004291535,0|0,1:0|0:0,0:0:0:0:
373,68,43488,2,0,P|354:122|345:191,1,112.500004291535,0|0,1:0|0:0,0:0:0:0:
394,232,43962,1,0,0:0:0:0:
394,232,44120,6,0,B|416:215|417:194|417:194|449:218|439:262,1,112.500004291535,0|0,1:0|0:0,0:0:0:0:
509,309,44594,1,0,0:0:0:0:
509,309,44752,2,0,B|460:325|460:325|454:344|454:344|400:369,1,112.500004291535,0|0,1:0|0:0,0:0:0:0:
308,342,45225,1,0,0:0:0:0:
308,342,45383,2,0,P|250:321|236:322,1,56.2500021457673,0|0,3:0|1:0,0:0:0:0:
69,294,45699,1,0,0:0:0:0:
123,248,45857,2,0,P|163:237|188:227,1,56.2500021457673,8|0,0:0|0:0,0:0:0:0:
242,51,46173,6,0,L|302:41,1,42.0000005126953,8|8,0:0|0:0,0:0:0:0:
355,26,46331,1,8,0:0:0:0:
377,45,46409,1,8,0:0:0:0:
395,68,46488,1,8,0:0:0:0:
383,91,46567,1,8,0:0:0:0:
368,114,46646,2,0,B|387:147|418:143|418:143|421:120|446:101,1,84.0000010253906,4|0,1:2|0:0,0:0:0:0:
362,214,46962,5,2,1:2:0:0:
493,173,47120,1,10,0:0:0:0:
357,227,47278,1,2,0:0:0:0:
502,294,47436,6,0,P|430:269|321:254,1,168.000002050781,2|10,1:0|0:0,0:0:0:0:
228,99,47909,2,0,B|124:97|192:159|65:143,1,168.000002050781,6|2,1:2|1:2,0:0:0:0:
5,123,48383,5,10,0:0:0:0:
106,54,48541,1,2,1:2:0:0:
106,54,48620,1,0,1:0:0:0:
106,54,48699,1,0,1:0:0:0:
17,190,48857,1,0,1:0:0:0:
109,227,49015,1,8,0:0:0:0:
286,63,49173,6,0,B|273:117|273:117|283:139|283:139|268:216,1,126.000001538086,6|0,1:2|0:0,0:0:0:0:
275,206,49488,2,0,L|322:190,1,42.0000005126953,10|8,0:0|0:0,0:0:0:0:
421,174,49646,1,10,0:0:0:0:
452,200,49724,1,8,0:0:0:0:
465,239,49803,1,0,1:0:0:0:
416,356,49962,6,0,L|350:337,1,42.0000005126953
173,353,50120,1,8,0:0:0:0:
203,341,50199,1,8,0:0:0:0:
222,318,50278,1,10,0:0:0:0:
250,329,50357,1,8,0:0:0:0:
288,315,50436,2,0,B|350:301|387:338|387:338|347:324|329:340,1,168.000002050781,0|10,1:0|0:0,0:0:0:0:
150,275,50909,5,10,0:0:0:0:
387,242,51067,1,10,0:0:0:0:
387,242,51857,6,0,P|317:231|268:227,1,89.9999972534181,6|0,1:2|0:0,0:0:0:0:
96,36,52173,1,10,0:0:0:0:
163,139,52331,2,0,B|202:129|202:129|211:135|211:135|260:120,1,89.9999972534181,2|0,0:0|1:0,0:0:0:0:
355,20,52646,2,0,B|344:54|344:54|350:64|350:64|335:118,1,89.9999972534181,2|8,0:0|0:0,0:0:0:0:
143,222,52962,1,2,0:0:0:0:
35,101,53120,6,0,P|51:155|61:199,1,89.9999972534181,2|0,1:2|0:0,0:0:0:0:
260,298,53436,1,10,0:0:0:0:
129,384,53594,2,0,B|91:374|91:374|78:380|78:380|33:369,1,89.9999972534181,2|0,0:0|1:0,0:0:0:0:
0,285,53909,2,0,B|42:277|42:277|55:261|55:261|88:254,1,89.9999972534181,2|8,0:0|0:0,0:0:0:0:
260,169,54225,1,2,0:0:0:0:
372,205,54383,6,0,B|409:211|420:235|420:235|405:229|379:248,1,89.9999972534181,2|0,1:2|0:0,0:0:0:0:
174,284,54699,1,10,0:0:0:0:
313,256,54857,2,0,B|397:222|412:298|493:253,1,179.999994506836,2|2,0:0|0:0,0:0:0:0:
512,156,55331,1,10,0:0:0:0:
418,47,55488,1,2,0:0:0:0:
418,47,55646,6,0,L|518:32,1,89.9999972534181,0|0,1:0|0:0,0:0:0:0:
442,195,55962,2,0,L|343:167,1,89.9999972534181,8|0,0:0|0:0,0:0:0:0:
217,151,56278,1,2,1:2:0:0:
260,210,56436,1,2,0:0:0:0:
189,289,56594,1,10,0:0:0:0:
121,233,56752,1,2,0:0:0:0:
223,362,56909,6,0,P|258:346|312:330,1,89.9999972534181,4|0,1:0|0:0,0:0:0:0:
282,121,57225,2,0,P|228:113|191:103,1,89.9999972534181,8|0,0:0|0:0,0:0:0:0:
17,167,57541,1,2,1:2:0:0:
127,176,57699,1,2,0:0:0:0:
0,238,57857,1,10,0:0:0:0:
200,250,58015,1,2,0:0:0:0:
62,357,58173,6,0,B|43:306|43:306|54:284|75:290,1,89.9999972534181,0|0,1:0|0:0,0:0:0:0:
288,249,58488,2,0,L|270:343,1,89.9999972534181,8|0,0:0|0:0,0:0:0:0:
308,175,58804,1,2,1:2:0:0:
363,0,58962,1,2,0:0:0:0:
398,168,59120,1,10,0:0:0:0:
289,80,59278,6,0,B|308:56|341:69|341:69|370:99|420:79,1,134.999995880127,2|0,0:0|0:0,0:0:0:0:
425,65,59594,2,0,L|441:14,1,44.999998626709,2|0,0:0|0:0,0:0:0:0:
494,94,59752,1,10,0:0:0:0:
303,175,59909,1,2,0:0:0:0:
512,207,60067,1,2,1:2:0:0:
512,207,60383,2,0,P|474:218|459:244,1,44.999998626709,10|0,0:0|0:0,0:0:0:0:
374,351,60541,6,0,P|409:344|366:341,1,134.999995880127,2|0,0:0|0:0,0:0:0:0:
348,324,60857,2,0,B|327:330|327:330|296:327,1,44.999998626709,10|8,0:0|0:0,0:0:0:0:
108,308,61015,5,10,0:0:0:0:
119,308,61094,1,4,0:3:0:0:
132,310,61173,1,4,0:3:0:0:
143,311,61252,1,4,0:3:0:0:
164,281,61331,2,0,L|211:268,3,44.999998626709,10|8|8|8,0:0|0:0|0:0|0:0,0:0:0:0:
229,231,61646,5,8,0:0:0:0:
229,185,61725,1,8,0:0:0:0:
204,147,61804,1,8,0:0:0:0:
161,133,61883,1,8,0:0:0:0:
116,148,61962,6,0,P|134:105|148:60,1,89.9999972534181,6|0,1:2|0:0,0:0:0:0:
352,15,62278,1,10,0:0:0:0:
277,97,62436,2,0,B|314:92|314:92|325:100|325:100|367:96,1,89.9999972534181,2|0,0:0|1:0,0:0:0:0:
512,183,62752,2,0,B|470:173|470:173|460:160|460:160|420:146,1,89.9999972534181,2|8,0:0|0:0,0:0:0:0:
239,189,63067,1,2,0:0:0:0:
221,341,63225,6,0,B|256:368|256:368|240:312,1,89.9999972534181,2|0,1:2|0:0,0:0:0:0:
187,102,63541,1,10,0:0:0:0:
96,253,63699,2,0,B|104:217|104:217|102:200|102:200|110:165,1,89.9999972534181,2|0,0:0|1:0,0:0:0:0:
314,194,64015,2,0,B|316:232|316:232|324:242|324:242|328:285,1,89.9999972534181,2|8,0:0|0:0,0:0:0:0:
77,336,64331,1,2,0:0:0:0:
202,253,64488,6,0,B|239:256|255:276|255:276|230:282|220:294,1,89.9999972534181,2|0,1:2|0:0,0:0:0:0:
17,281,64804,1,10,0:0:0:0:
271,362,64962,2,0,B|274:299|274:299|304:264|304:264|314:187,1,179.999994506836,2|2,0:0|0:0,0:0:0:0:
383,110,65436,1,8,0:0:0:0:
203,24,65594,1,2,0:0:0:0:
203,24,65752,6,0,B|253:30|253:30|272:49|244:82,1,89.9999972534181,0|0,1:0|0:0,0:0:0:0:
87,123,66067,2,0,B|37:143|37:143|31:157|48:184,1,89.9999972534181,8|0,0:0|0:0,0:0:0:0:
156,252,66383,1,2,1:2:0:0:
274,220,66541,1,2,0:0:0:0:
114,186,66699,1,8,0:0:0:0:
335,171,66857,1,10,0:0:0:0:
335,171,66936,1,8,0:0:0:0:
335,171,67015,6,0,B|372:179|372:179|382:188|382:188|421:195,1,89.9999972534181,6|0,1:0|0:0,0:0:0:0:
479,315,67331,2,0,B|440:330|440:330|428:342|428:342|379:358,1,89.9999972534181,8|2,0:0|0:0,0:0:0:0:
193,354,67646,1,2,1:2:0:0:
343,301,67804,1,2,0:0:0:0:
166,241,67962,1,10,0:0:0:0:
345,210,68120,1,2,0:0:0:0:
215,130,68278,6,0,P|197:104|235:128,1,134.999995880127,2|0,1:0|0:0,0:0:0:0:
159,173,68594,2,0,B|194:164|194:164|201:143|201:143|232:134,1,89.9999972534181,8|0,0:0|0:0,0:0:0:0:
290,13,68909,1,2,1:2:0:0:
362,93,69067,1,2,0:0:0:0:
406,30,69225,1,10,0:0:0:0:
478,109,69383,6,0,B|503:143|476:173|476:173|463:158,1,89.9999972534181,2|0,0:0|1:0,0:0:0:0:
264,244,69699,2,0,P|307:233|366:230,1,89.9999972534181,2|8,0:0|0:0,0:0:0:0:
466,366,70015,2,0,P|408:357|378:345,1,89.9999972534181,2|0,0:0|1:0,0:0:0:0:
143,213,70331,2,0,B|136:253|136:253|141:259|141:259|132:311,1,89.9999972534181,2|8,0:0|0:0,0:0:0:0:
126,375,70646,6,0,L|135:329,1,44.999998626709,2|0,0:0|0:0,0:0:0:0:
195,112,70804,1,6,1:2:0:0:
194,128,70883,1,4,0:3:0:0:
179,122,70962,1,4,0:3:0:0:
179,133,71041,1,4,0:3:0:0:
164,140,71120,2,0,L|158:89,1,44.999998626709,8|8,0:3|0:3,0:0:0:0:
218,40,71278,1,8,0:3:0:0:
226,33,71357,1,8,0:3:0:0:
235,27,71436,5,12,0:0:0:0:
284,33,71515,1,8,0:0:0:0:
318,65,71594,1,8,0:0:0:0:
363,68,71673,1,8,0:0:0:0:
401,44,71752,1,8,0:0:0:0:
483,137,71909,2,0,P|453:147|441:161,1,44.999998626709,8|8,0:0|0:0,0:0:0:0:
486,214,72067,5,4,1:2:0:0:
486,214,72225,1,0,1:0:0:0:
341,282,72383,2,0,P|281:246|224:242,1,126.000001538086,10|0,0:0|0:0,0:0:0:0:
210,252,72699,2,0,L|225:295,1,42.0000005126953,2|0,1:0|0:0,0:0:0:0:
270,344,72857,1,0,1:0:0:0:
270,344,73015,1,8,0:0:0:0:
147,288,73173,1,2,0:0:0:0:
156,199,73331,5,2,1:2:0:0:
80,257,73488,1,2,1:2:0:0:
17,214,73646,1,10,0:0:0:0:
0,294,73804,1,0,0:0:0:0:
98,349,73962,1,2,1:2:0:0:
125,273,74120,1,0,0:0:0:0:
37,135,74278,1,10,0:0:0:0:
37,135,74594,5,0,1:2:0:0:
37,135,74752,1,0,1:0:0:0:
149,38,74909,2,0,B|192:51|192:51|225:33|225:33|278:45,1,126.000001538086,10|0,0:0|0:0,0:0:0:0:
284,54,75225,2,0,L|325:39,1,42.0000005126953,2|0,1:0|0:0,0:0:0:0:
389,67,75383,1,0,1:0:0:0:
389,67,75541,1,8,0:0:0:0:
488,128,75699,1,2,0:0:0:0:
333,149,75857,5,2,1:2:0:0:
373,253,76015,1,2,1:2:0:0:
321,309,76173,1,10,0:0:0:0:
440,301,76331,1,2,0:0:0:0:
370,370,76488,1,2,1:2:0:0:
469,227,76646,1,2,1:2:0:0:
256,274,76804,2,0,P|256:326|258:365,1,84.0000010253906,8|0,0:0|0:0,0:0:0:0:
213,205,77120,5,4,1:2:0:0:
213,205,77278,1,0,1:0:0:0:
48,204,77436,2,0,P|68:240|95:322,1,126.000001538086,10|0,0:0|0:0,0:0:0:0:
90,331,77752,2,0,L|48:347,1,42.0000005126953,2|0,1:0|0:0,0:0:0:0:
1,297,77909,1,0,1:0:0:0:
1,297,78067,1,8,0:0:0:0:
121,183,78225,1,2,0:0:0:0:
51,103,78383,5,2,1:2:0:0:
144,93,78541,1,2,1:2:0:0:
135,18,78699,1,10,0:0:0:0:
203,56,78857,1,0,0:0:0:0:
251,0,79015,1,2,1:2:0:0:
227,121,79173,1,0,0:0:0:0:
102,150,79331,1,10,0:0:0:0:
102,150,79646,5,0,1:0:0:0:
102,150,79804,1,0,1:0:0:0:
249,206,79962,2,0,B|203:218|203:218|194:237|194:237|134:256,1,126.000001538086,10|0,0:0|0:0,0:0:0:0:
121,258,80278,2,0,L|135:302,1,42.0000005126953,2|0,1:0|0:0,0:0:0:0:
122,366,80436,1,0,1:0:0:0:
122,366,80594,1,8,0:0:0:0:
232,378,80752,1,2,0:0:0:0:
327,335,80909,6,0,P|358:336|373:333,1,42.0000005126953,2|0,1:2|1:0,0:0:0:0:
480,356,81067,2,0,P|459:359|439:357,1,42.0000005126953,2|0,1:2|1:0,0:0:0:0:
342,238,81225,6,0,P|373:239|388:236,1,42.0000005126953,4|4,0:3|0:3,0:0:0:0:
495,259,81383,2,0,P|474:262|454:260,1,42.0000005126953,4|4,0:3|0:3,0:0:0:0:
329,135,81541,6,0,P|349:136|370:134,1,42.0000005126953,8|8,0:3|0:3,0:0:0:0:
482,156,81699,2,0,P|461:159|441:157,1,42.0000005126953,8|8,0:3|0:3,0:0:0:0:
344,38,81857,6,0,P|364:39|385:37,1,42.0000005126953,10|8,0:0|0:0,0:0:0:0:
497,59,82015,2,0,P|476:62|456:60,1,42.0000005126953,8|8,0:0|0:0,0:0:0:0:
281,3,82173,5,4,1:2:0:0:
470,0,82331,1,4,1:2:0:0:
203,126,82646,6,0,L|221:269,1,126.000001538086,2|0,0:0|0:0,0:0:0:0:
222,269,82962,1,2,0:0:0:0:
230,348,83120,1,2,0:0:0:0:
282,191,83278,1,6,0:0:0:0:
256,192,83357,12,0,88015,0:0:0:0:
