osu file format v14

[General]
AudioFilename: audio.mp3
AudioLeadIn: 0
PreviewTime: 51741
Countdown: 0
SampleSet: Soft
StackLeniency: 0.9
Mode: 0
LetterboxInBreaks: 0
WidescreenStoryboard: 1

[Editor]
DistanceSpacing: 2.5
BeatDivisor: 4
GridSize: 4
TimelineZoom: 2.2

[Metadata]
Title:Unreal Creation!
TitleUnicode:Unreal Creation!
Artist:Sakuragawa Megu
ArtistUnicode:櫻川めぐ
Creator:Kuse
Version:Unreal Creator!
Source:ハミダシクリエイティブ
Tags:まどそふと madosoft video game galgame op opening female vocals japanese eroge visual novel wyrio Fushimi Rio Imoutosan Fushimi_Rio KuBsNia_ZhoYL_ pop Hamidashi Creative ハミクリ Hamikuri short version
BeatmapID:2661683
BeatmapSetID:1197118

[Difficulty]
HPDrainRate:6
CircleSize:4.6
OverallDifficulty:9.1
ApproachRate:9.3
SliderMultiplier:1.6
SliderTickRate:1

[Events]
//Background and Video events
0,0,"hiyori03.jpg",0,0
//Break Periods
2,41952,44987
//Storyboard Layer 0 (Background)
//Storyboard Layer 1 (Fail)
//Storyboard Layer 2 (Pass)
//Storyboard Layer 3 (Foreground)
//Storyboard Layer 4 (Overlay)
//Storyboard Sound Samples

[TimingPoints]
1331,315.789473684211,4,2,1,60,1,0
1331,-111.111111111111,4,2,1,60,0,0
6383,-166.666666666666,4,2,1,60,0,0
14594,-142.857142857143,4,2,1,60,0,0
15225,-125,4,2,1,60,0,0
16488,-100,4,2,1,75,0,0
21541,-133.333333333333,4,2,1,60,0,0
36541,-100,4,2,1,70,0,0
41752,-133.333333333333,4,2,1,60,0,0
45857,-66.6666666666667,4,2,1,60,0,0
46646,-100,4,2,1,70,0,0
51383,-83.3333333333333,4,2,1,70,0,0
51778,-166.666666666667,4,2,1,5,0,0
51857,-100,4,2,1,80,0,1
61883,-100,4,2,1,80,0,0
61962,-100,4,2,1,80,0,1
72067,-100,4,2,1,80,0,0
83436,-100,4,2,1,70,0,0
85331,-100,4,2,1,65,0,0
85962,-100,4,2,1,60,0,0
86909,-100,4,2,1,55,0,0
87541,-100,4,2,1,45,0,0
88015,-100,4,2,1,40,0,0

[Colours]
Combo1 : 255,151,151
Combo2 : 255,255,128
Combo3 : 255,91,91
Combo4 : 77,166,255

[HitObjects]
400,342,1331,5,4,1:2:0:0:
424,251,1488,1,0,1:0:0:0:
490,317,1646,1,8,0:0:0:0:
500,319,1883,1,0,0:0:0:0:
500,319,1962,5,0,1:0:0:0:
392,349,2120,1,0,1:0:0:0:
421,241,2278,1,8,0:0:0:0:
417,230,2515,1,0,0:0:0:0:
417,230,2594,5,0,1:0:0:0:
511,322,2752,1,0,1:0:0:0:
385,356,2909,1,8,0:0:0:0:
385,356,3146,1,0,0:0:0:0:
385,356,3225,5,0,1:0:0:0:
319,290,3383,1,0,1:0:0:0:
227,314,3541,2,0,P|212:347|212:384,1,71.9999978027344,8|0,0:0|0:0,0:0:0:0:
135,217,3857,5,0,1:0:0:0:
111,308,4015,1,0,1:0:0:0:
45,242,4173,1,8,0:0:0:0:
35,240,4409,1,0,0:0:0:0:
35,240,4488,5,0,1:0:0:0:
143,210,4646,1,0,1:0:0:0:
114,318,4804,1,8,0:0:0:0:
118,329,5041,1,0,0:0:0:0:
118,329,5120,5,0,1:0:0:0:
24,237,5278,1,0,1:0:0:0:
150,203,5436,1,8,0:0:0:0:
150,203,5673,1,0,0:0:0:0:
150,203,5752,5,0,1:0:0:0:
216,269,5909,1,0,1:0:0:0:
308,244,6067,2,0,P|325:216|354:193,1,71.9999978027344,8|0,0:0|0:0,0:0:0:0:
429,107,6383,5,0,1:2:0:0:
369,166,6541,1,0,1:0:0:0:
286,144,6699,2,0,P|271:110|271:74,1,71.9999978027344,10|0,0:0|0:0,0:0:0:0:
253,93,7015,5,0,1:0:0:0:
193,152,7173,1,2,1:2:0:0:
110,130,7331,2,0,P|95:96|95:60,1,71.9999978027344,8|0,0:0|0:0,0:0:0:0:
178,80,7646,5,2,1:2:0:0:
81,35,7804,1,0,1:0:0:0:
36,159,7962,2,0,P|34:202|48:243,1,71.9999978027344,10|0,0:0|0:0,0:0:0:0:
55,245,8278,5,0,1:0:0:0:
115,186,8436,1,2,1:2:0:0:
198,208,8594,2,0,P|213:242|213:278,1,71.9999978027344,8|0,0:0|0:0,0:0:0:0:
201,294,8909,5,2,1:2:0:0:
291,269,9067,1,0,1:0:0:0:
267,359,9225,1,10,0:0:0:0:
270,369,9462,1,0,0:0:0:0:
270,369,9541,5,0,1:0:0:0:
190,290,9699,1,2,1:2:0:0:
298,261,9857,1,8,0:0:0:0:
306,252,10094,1,0,0:0:0:0:
306,252,10173,5,2,1:2:0:0:
273,380,10331,1,0,1:0:0:0:
181,288,10488,2,0,P|145:275|112:278,1,71.9999978027344,8|0,0:0|0:0,0:0:0:0:
93,384,10804,6,0,P|115:375|135:361,1,47.9999985351563,2|2,1:2|1:2,0:0:0:0:
26,278,11120,2,0,P|13:313|16:347,1,71.9999978027344,8|0,0:0|0:0,0:0:0:0:
111,278,11436,5,0,1:0:0:0:
171,337,11594,1,0,1:0:0:0:
254,315,11752,2,0,P|269:281|269:245,1,71.9999978027344,8|0,0:0|0:0,0:0:0:0:
287,264,12067,5,2,1:2:0:0:
347,323,12225,1,2,1:2:0:0:
430,301,12383,2,0,P|445:267|445:231,1,71.9999978027344,10|0,0:0|0:0,0:0:0:0:
497,153,12699,5,0,1:0:0:0:
437,212,12857,1,0,1:0:0:0:
346,116,13015,2,0,P|382:116|415:131,1,71.9999978027344,8|0,0:0|0:0,0:0:0:0:
270,110,13331,6,0,P|293:103|317:102,1,47.9999985351563,2|2,1:2|1:2,0:0:0:0:
308,187,13646,2,0,P|285:215|254:232,1,71.9999978027344,10|0,0:0|0:0,0:0:0:0:
234,233,13962,5,0,1:0:0:0:
137,188,14120,1,2,1:2:0:0:
96,287,14278,2,0,P|93:322|100:354,1,47.9999985351563,8|2,0:0|0:0,0:0:0:0:
103,354,14515,1,0,0:0:0:0:
118,369,14594,6,0,P|138:354|167:343,1,55.9999982910157,0|2,1:0|1:2,0:0:0:0:
284,319,14909,2,0,P|264:304|235:293,1,55.9999982910157,8|2,0:0|0:0,0:0:0:0:
0,303,15225,5,6,1:2:0:0:
142,264,15383,1,0,0:0:0:0:
26,159,15541,1,10,0:0:0:0:
142,264,15699,1,0,0:0:0:0:
142,264,15778,1,0,0:0:0:0:
142,264,15857,5,8,0:0:0:0:
167,274,15936,1,8,0:0:0:0:
195,276,16015,1,8,0:0:0:0:
222,269,16094,1,8,0:0:0:0:
245,254,16173,1,8,0:0:0:0:
263,232,16252,1,8,0:0:0:0:
272,206,16331,1,8,0:0:0:0:
273,178,16409,1,8,0:0:0:0:
300,197,16488,5,4,1:2:0:0:
406,160,16646,1,2,1:2:0:0:
512,123,16804,1,10,0:0:0:0:
296,312,16962,5,2,1:2:0:0:
296,312,17041,1,0,1:0:0:0:
296,312,17120,2,0,L|403:275,1,80,2|0,1:2|0:0,0:0:0:0:
148,129,17436,2,0,L|255:92,1,80,10|0,0:0|0:0,0:0:0:0:
187,299,17752,5,2,1:2:0:0:
88,214,17909,1,2,1:2:0:0:
64,341,18067,1,8,0:0:0:0:
79,123,18225,5,0,0:0:0:0:
79,123,18304,1,0,0:0:0:0:
79,123,18383,1,2,1:2:0:0:
181,209,18541,1,0,0:0:0:0:
312,232,18699,1,10,0:0:0:0:
437,186,18857,1,0,0:0:0:0:
485,20,19015,5,2,1:2:0:0:
446,158,19173,1,2,1:2:0:0:
345,54,19331,1,10,0:0:0:0:
234,228,19488,5,2,1:2:0:0:
234,228,19567,1,0,1:0:0:0:
234,228,19646,2,0,B|235:188|235:188|255:150,1,80,2|0,1:2|0:0,0:0:0:0:
373,229,19962,2,0,B|372:268|372:268|351:305,1,80,10|0,0:0|0:0,0:0:0:0:
84,184,20278,5,2,1:2:0:0:
234,228,20436,1,2,1:2:0:0:
61,101,20594,5,12,0:0:0:0:
0,310,20752,1,0,0:0:0:0:
237,211,20909,5,0,1:0:0:0:
221,203,20988,1,0,1:0:0:0:
205,206,21067,1,0,1:0:0:0:
193,218,21146,1,0,1:0:0:0:
190,234,21225,1,8,0:0:0:0:
208,265,21304,1,8,0:0:0:0:
244,264,21383,1,8,0:0:0:0:
260,232,21462,1,8,0:0:0:0:
239,197,21541,5,4,1:2:0:0:
329,286,21699,1,0,1:0:0:0:
362,164,21857,1,8,0:0:0:0:
451,112,22015,5,2,0:0:0:0:
451,112,22094,1,0,3:0:0:0:
451,112,22173,1,0,1:0:0:0:
370,192,22331,1,2,1:2:0:0:
340,82,22488,1,8,0:0:0:0:
260,35,22646,5,0,3:0:0:0:
260,35,22725,1,0,3:0:0:0:
260,35,22804,1,2,1:2:0:0:
333,107,22962,1,0,1:0:0:0:
360,8,23120,1,8,0:0:0:0:
275,92,23278,5,2,0:0:0:0:
374,65,23436,1,0,1:0:0:0:
302,0,23594,1,2,1:2:0:0:
333,106,23752,1,8,0:0:0:0:
463,48,23909,6,0,P|459:99|446:124,1,60.0000022888184,2|0,0:0|1:0,0:0:0:0:
260,35,24225,1,2,1:2:0:0:
249,111,24383,2,0,P|256:139|272:165,1,60.0000022888184,8|2,0:0|0:0,0:0:0:0:
441,180,24699,5,2,1:2:0:0:
355,207,24857,1,0,1:0:0:0:
312,287,25015,1,10,0:0:0:0:
340,373,25173,1,2,0:0:0:0:
146,272,25331,5,0,1:0:0:0:
232,245,25488,1,0,1:0:0:0:
275,165,25646,1,8,0:0:0:0:
247,79,25804,1,0,0:0:0:0:
213,333,25962,5,0,1:0:0:0:
187,146,26120,1,0,1:0:0:0:
0,173,26278,1,8,0:0:0:0:
27,359,26436,1,6,1:0:0:0:
96,48,26752,5,0,1:0:0:0:
184,98,26909,1,8,0:0:0:0:
281,71,27067,1,2,0:0:0:0:
281,71,27146,1,0,3:0:0:0:
281,71,27225,1,2,1:2:0:0:
458,129,27383,5,0,1:0:0:0:
345,127,27541,1,10,0:0:0:0:
268,48,27699,1,0,0:0:0:0:
268,48,27778,1,0,0:0:0:0:
268,48,27857,1,2,1:2:0:0:
159,182,28015,5,0,1:0:0:0:
279,182,28173,1,8,0:0:0:0:
364,96,28331,1,2,0:0:0:0:
222,124,28488,5,0,1:0:0:0:
298,202,28646,1,2,1:2:0:0:
407,202,28804,1,8,0:0:0:0:
305,301,28962,5,2,0:0:0:0:
305,301,29041,1,0,3:0:0:0:
305,301,29120,2,0,B|326:280|326:280|356:280,1,60.0000022888184,0|2,1:0|1:2,0:0:0:0:
420,364,29436,2,0,B|398:384|398:384|368:384,1,60.0000022888184,8|2,0:0|0:0,0:0:0:0:
258,234,29752,5,2,1:2:0:0:
225,358,29909,1,0,1:0:0:0:
101,325,30067,1,10,0:0:0:0:
140,208,30225,1,2,0:0:0:0:
140,208,30304,1,0,3:0:0:0:
140,208,30383,5,0,1:0:0:0:
179,356,30541,1,0,1:0:0:0:
328,317,30699,1,8,0:0:0:0:
290,168,30857,1,0,0:0:0:0:
407,215,31015,5,0,1:0:0:0:
173,121,31173,1,0,1:0:0:0:
409,74,31331,1,8,0:0:0:0:
170,261,31488,1,6,1:0:0:0:
90,71,31804,5,0,1:0:0:0:
92,166,31962,1,8,0:0:0:0:
3,114,32120,5,2,0:0:0:0:
3,114,32199,1,0,3:0:0:0:
3,114,32278,1,0,1:0:0:0:
84,194,32436,1,0,1:0:0:0:
114,84,32594,1,8,0:0:0:0:
194,37,32752,5,2,0:0:0:0:
194,37,32831,1,0,3:0:0:0:
194,37,32909,1,0,1:0:0:0:
121,109,33067,1,0,1:0:0:0:
94,10,33225,1,8,0:0:0:0:
171,202,33383,5,2,0:0:0:0:
141,90,33541,1,0,1:0:0:0:
62,171,33699,1,2,1:2:0:0:
171,202,33857,1,8,0:0:0:0:
93,307,34015,6,0,P|97:256|110:231,1,60.0000022888184,2|0,0:0|1:0,0:0:0:0:
228,351,34331,1,2,1:2:0:0:
246,223,34488,2,0,P|262:249|270:278,1,60.0000022888184,8|2,0:0|0:0,0:0:0:0:
180,283,34804,5,2,1:2:0:0:
228,206,34962,1,0,1:0:0:0:
316,186,35120,1,8,0:0:0:0:
392,235,35278,1,2,0:0:0:0:
344,21,35436,5,0,1:0:0:0:
296,98,35594,1,0,1:0:0:0:
208,118,35752,1,8,0:0:0:0:
139,69,35909,1,0,1:0:0:0:
139,69,35988,1,0,1:0:0:0:
139,69,36067,1,0,1:0:0:0:
173,150,36225,1,0,1:2:0:0:
193,0,36383,1,8,0:0:0:0:
53,57,36541,6,0,B|44:79|44:79|139:69,1,120,4|0,1:2|0:0,0:0:0:0:
139,68,36857,1,2,0:0:0:0:
103,162,37015,1,10,0:0:0:0:
202,154,37173,1,2,0:0:0:0:
215,139,37252,1,0,3:0:0:0:
228,124,37331,1,2,1:2:0:0:
327,116,37488,1,2,0:0:0:0:
381,200,37646,1,10,0:0:0:0:
487,199,37804,5,2,0:0:0:0:
487,199,37883,1,0,3:0:0:0:
487,199,37962,2,0,B|504:186|504:186|513:123,1,80,0|2,1:0|1:2,0:0:0:0:
355,186,38278,2,0,B|338:199|338:199|329:262,1,80,10|2,0:0|0:0,0:0:0:0:
498,316,38594,1,0,1:0:0:0:
461,225,38752,1,0,1:0:0:0:
402,302,38909,1,10,0:0:0:0:
506,260,39067,5,2,0:0:0:0:
506,260,39146,1,0,3:0:0:0:
506,260,39225,1,2,1:2:0:0:
410,246,39383,1,2,1:2:0:0:
447,337,39541,1,10,0:0:0:0:
334,169,39699,1,2,0:0:0:0:
334,169,39778,1,0,3:0:0:0:
334,169,39857,2,0,B|342:188|342:188|318:247,1,80,0|2,1:0|1:2,0:0:0:0:
245,136,40173,1,10,0:0:0:0:
177,230,40331,5,2,0:0:0:0:
177,230,40409,1,0,3:0:0:0:
177,230,40488,1,0,1:0:0:0:
66,194,40646,1,0,1:0:0:0:
66,78,40804,1,8,0:0:0:0:
177,42,40962,1,0,3:0:0:0:
189,57,41041,1,0,3:0:0:0:
194,76,41120,5,0,1:0:0:0:
217,66,41199,1,0,1:0:0:0:
241,63,41278,1,0,1:0:0:0:
266,66,41357,1,0,1:0:0:0:
290,73,41436,1,8,0:0:0:0:
324,92,41515,1,8,0:0:0:0:
363,89,41594,1,8,0:0:0:0:
395,65,41673,1,8,0:0:0:0:
408,28,41752,5,4,1:2:0:0:
37,152,45541,6,0,P|83:152|122:201,1,90.0000034332277,0|0,1:0|0:0,0:0:0:0:
112,161,45857,6,0,P|131:116|201:97,1,120.000004577637,8|0,0:0|0:0,0:0:0:0:
261,266,46173,5,8,0:0:0:0:
261,236,46252,1,8,0:0:0:0:
261,206,46331,1,8,0:0:0:0:
261,176,46409,1,8,0:0:0:0:
261,146,46488,1,8,0:0:0:0:
420,206,46646,6,0,L|510:206,1,80,4|0,1:2|0:0,0:0:0:0:
289,228,46962,5,2,1:2:0:0:
342,102,47120,1,10,0:0:0:0:
424,210,47278,1,2,0:0:0:0:
261,137,47436,1,2,1:2:0:0:
375,80,47594,5,0,0:0:0:0:
295,269,47752,1,10,0:0:0:0:
172,107,47909,1,6,1:2:0:0:
92,296,48225,6,0,P|87:324|88:341,1,40,2|0,1:2|0:0,0:0:0:0:
146,235,48383,2,0,P|100:215|41:229,1,80,10|2,0:0|1:2,0:0:0:0:
59,221,48620,1,0,0:0:0:0:
48,227,48699,1,0,1:0:0:0:
188,170,48857,1,0,1:0:0:0:
172,329,49015,5,10,0:0:0:0:
172,329,49094,1,0,0:0:0:0:
172,329,49173,2,0,B|229:324|221:284|277:280,1,120,6|0,1:2|0:0,0:0:0:0:
350,291,49488,5,10,0:0:0:0:
362,307,49567,1,8,0:0:0:0:
375,322,49646,1,10,0:0:0:0:
388,338,49725,1,8,0:0:0:0:
401,353,49804,1,0,1:0:0:0:
504,211,49962,1,0,0:0:0:0:
379,201,50120,5,8,0:0:0:0:
391,217,50199,1,8,0:0:0:0:
404,232,50278,1,8,0:0:0:0:
417,248,50357,1,8,0:0:0:0:
430,263,50436,1,0,1:0:0:0:
321,133,50594,1,0,0:0:0:0:
457,97,50752,5,10,0:0:0:0:
290,263,50909,1,10,0:0:0:0:
229,37,51067,1,10,0:0:0:0:
1,181,51383,6,0,B|62:181|62:181|76:210|76:210|104:153|104:153|123:181|123:181|172:181,1,239.999992675781
167,261,51857,6,0,P|213:249|245:216,1,80,6|0,1:2|0:0,0:0:0:0:
276,66,52173,2,0,P|263:111|275:156,1,80,10|2,0:0|0:0,0:0:0:0:
269,142,52409,1,0,3:0:0:0:
269,142,52488,1,0,1:0:0:0:
439,49,52646,1,2,0:0:0:0:
439,49,52804,2,0,P|393:36|348:48,1,80,8|2,0:0|0:0,0:0:0:0:
432,219,53120,6,0,L|527:219,1,80,2|0,1:2|0:0,0:0:0:0:
277,140,53436,1,10,0:0:0:0:
366,274,53594,1,2,0:0:0:0:
444,135,53752,1,0,1:0:0:0:
444,135,53831,1,0,3:0:0:0:
444,135,53909,1,2,0:0:0:0:
292,247,54067,2,0,P|291:294|315:333,1,80,8|2,0:0|0:0,0:0:0:0:
441,301,54383,6,0,P|441:253|417:214,1,80,2|0,1:2|0:0,0:0:0:0:
305,322,54699,1,10,0:0:0:0:
257,172,54857,1,2,0:0:0:0:
257,172,54936,1,0,3:0:0:0:
257,172,55015,1,0,1:0:0:0:
328,229,55173,1,2,0:0:0:0:
166,207,55331,1,10,0:0:0:0:
265,77,55488,1,2,0:0:0:0:
166,207,55646,5,2,1:2:0:0:
265,77,55804,1,0,0:0:0:0:
289,284,55962,2,0,L|279:200,1,80,8|0,0:0|0:0,0:0:0:0:
149,105,56278,5,2,1:2:0:0:
279,204,56436,1,2,0:0:0:0:
72,228,56594,2,0,L|156:218,1,80,10|0,0:0|3:0,0:0:0:0:
140,302,56831,1,0,3:0:0:0:
140,302,56909,6,0,L|266:287,1,120,6|0,1:2|0:0,0:0:0:0:
324,319,57225,2,0,P|364:306|390:273,1,80,8|0,0:0|0:0,0:0:0:0:
236,129,57541,1,2,1:2:0:0:
322,247,57699,1,2,0:0:0:0:
383,113,57857,1,10,0:0:0:0:
322,247,58015,1,2,0:0:0:0:
480,216,58173,6,0,L|372:203,1,80,2|0,1:2|0:0,0:0:0:0:
258,206,58488,2,0,P|284:235|322:247,1,80,8|0,0:0|0:0,0:0:0:0:
406,63,58804,1,2,1:2:0:0:
327,171,58962,1,2,0:0:0:0:
272,49,59120,1,10,0:0:0:0:
114,150,59278,5,2,0:0:0:0:
114,150,59357,1,0,3:0:0:0:
114,150,59436,2,0,L|221:137,1,80,0|2,1:0|0:0,0:0:0:0:
32,122,59752,2,0,L|-10:221,1,80,10|2,0:0|0:0,0:3:0:0:
97,64,60067,2,0,L|32:-22,1,80,2|0,1:2|0:3,0:3:0:0:
78,231,60383,2,0,L|56:280,2,40,10|2|2,0:0|0:0|0:0,0:3:0:0:
114,150,60699,5,4,1:2:0:0:
160,286,60857,1,10,0:0:0:0:
171,302,60936,1,8,0:0:0:0:
188,311,61015,1,10,0:0:0:0:
219,316,61094,1,0,1:0:0:0:
250,311,61173,1,2,1:2:0:0:
276,293,61252,1,0,1:0:0:0:
291,272,61331,5,10,0:0:0:0:
315,242,61409,1,8,0:0:0:0:
353,235,61488,1,8,0:0:0:0:
387,254,61567,1,8,0:0:0:0:
401,290,61646,1,8,0:0:0:0:
387,328,61725,1,8,0:0:0:0:
353,346,61804,1,8,0:0:0:0:
315,340,61883,1,8,0:0:0:0:
291,310,61962,6,0,P|257:276|213:264,1,80,6|0,1:2|0:0,0:0:0:0:
115,384,62278,2,0,P|139:342|138:297,1,80,10|2,0:0|0:0,0:0:0:0:
138,299,62515,1,0,3:0:0:0:
132,288,62594,1,0,1:0:0:0:
35,271,62752,1,2,0:0:0:0:
198,172,62909,2,0,P|165:193|126:197,1,80,10|2,0:0|0:0,0:0:0:0:
0,97,63225,6,0,L|95:97,1,80,2|0,1:2|0:0,0:0:0:0:
229,74,63541,1,10,0:0:0:0:
119,174,63699,1,2,0:0:0:0:
80,20,63857,1,2,1:2:0:0:
80,20,63936,1,0,3:0:0:0:
80,20,64015,1,0,3:0:0:0:
44,196,64173,2,0,P|43:148|67:109,1,80,10|2,0:0|0:0,0:0:0:0:
222,147,64488,6,0,P|222:194|198:233,1,80,2|0,1:2|0:0,0:0:0:0:
307,86,64804,1,10,0:0:0:0:
363,279,64962,1,2,0:0:0:0:
363,279,65041,1,2,0:0:0:0:
363,279,65120,1,0,1:0:0:0:
401,181,65278,1,2,0:0:0:0:
272,281,65436,1,8,0:0:0:0:
422,344,65594,1,2,0:0:0:0:
301,189,65752,5,2,1:2:0:0:
322,362,65909,1,0,0:0:0:0:
464,252,66067,1,8,0:0:0:0:
301,189,66225,1,0,0:0:0:0:
361,269,66383,5,2,1:2:0:0:
335,79,66541,1,2,0:0:0:0:
174,201,66699,5,8,0:0:0:0:
176,220,66778,1,8,0:0:0:0:
181,239,66857,1,10,0:0:0:0:
192,255,66936,1,8,0:0:0:0:
207,267,67015,2,0,P|244:279|318:254,1,120,6|0,1:2|0:0,0:0:0:0:
363,189,67331,2,0,P|388:219|395:258,1,80,8|2,0:0|0:0,0:0:0:0:
372,102,67646,1,2,1:2:0:0:
255,194,67804,1,2,0:0:0:0:
234,47,67962,1,10,0:0:0:0:
255,194,68120,1,2,0:0:0:0:
150,96,68278,6,0,P|112:83|39:109,1,120,2|0,1:2|0:0,0:0:0:0:
88,246,68594,2,0,P|104:209|101:170,1,80,8|0,0:0|0:0,0:0:0:0:
144,304,68909,1,2,1:2:0:0:
25,195,69067,1,2,0:0:0:0:
71,350,69225,1,10,0:0:0:0:
180,231,69383,1,2,0:0:0:0:
0,287,69541,6,0,L|80:262,1,80,0|2,1:0|0:0,0:0:0:0:
172,120,69857,2,0,P|135:103|96:106,1,80,8|2,0:0|0:0,0:0:0:0:
208,241,70173,6,0,L|246:252,2,40,0|2|2,1:0|0:0|0:0,0:0:0:0:
69,103,70488,2,0,P|105:86|144:89,1,80,8|2,0:0|0:0,0:0:0:0:
91,238,70804,5,6,1:2:0:0:
245,137,70962,1,4,0:3:0:0:
283,130,71041,1,4,0:3:0:0:
320,145,71120,1,8,0:3:0:0:
337,172,71199,1,8,0:3:0:0:
322,200,71278,1,8,0:3:0:0:
290,201,71357,1,8,0:3:0:0:
273,174,71436,5,12,0:0:0:0:
270,129,71515,1,8,0:0:0:0:
292,91,71594,1,8,0:0:0:0:
331,70,71673,1,8,0:0:0:0:
376,74,71752,1,8,0:0:0:0:
411,101,71831,1,8,0:0:0:0:
425,142,71909,1,8,0:0:0:0:
416,186,71988,1,8,0:0:0:0:
385,217,72067,5,4,1:2:0:0:
298,186,72225,1,2,1:2:0:0:
194,257,72383,2,0,P|208:192|238:167,1,80,10|0,0:0|0:0,0:0:0:0:
316,271,72699,2,0,P|310:321|282:352,1,80,2|0,1:2|0:0,0:0:0:0:
158,123,73015,1,8,0:0:0:0:
158,123,73094,1,0,3:0:0:0:
158,123,73173,1,0,3:0:0:0:
203,238,73331,5,2,1:2:0:0:
355,130,73488,1,2,1:2:0:0:
178,256,73646,5,10,0:0:0:0:
0,205,73804,1,0,0:0:0:0:
209,264,73962,5,2,1:2:0:0:
358,178,74120,1,0,0:0:0:0:
442,35,74278,1,10,0:0:0:0:
442,35,74357,1,0,3:0:0:0:
442,35,74436,1,0,3:0:0:0:
452,198,74594,5,0,1:2:0:0:
452,198,74752,1,0,1:0:0:0:
365,106,74909,2,0,P|297:129|276:161,1,80,10|0,0:0|0:0,0:0:0:0:
440,275,75225,2,0,P|508:252|529:220,1,80,2|0,1:2|0:0,0:0:0:0:
353,340,75541,1,8,0:0:0:0:
353,340,75620,1,0,3:0:0:0:
353,340,75699,1,0,3:0:0:0:
347,180,75857,5,2,1:2:0:0:
145,284,76015,1,2,1:2:0:0:
0,197,76173,5,10,0:0:0:0:
219,329,76331,1,2,0:0:0:0:
500,109,76488,5,2,1:2:0:0:
228,226,76646,1,2,1:2:0:0:
0,79,76804,1,10,0:0:0:0:
0,79,76883,1,8,0:0:0:0:
0,79,76962,1,8,0:0:0:0:
154,182,77120,5,4,1:2:0:0:
154,182,77278,1,0,1:0:0:0:
120,94,77436,2,0,P|134:29|160:3,1,80,10|0,0:0|0:0,0:0:0:0:
238,174,77752,2,0,P|229:222|201:253,1,80,2|0,1:2|0:0,0:0:0:0:
293,96,78067,1,8,0:0:0:0:
293,96,78146,1,0,3:0:0:0:
293,96,78225,1,0,3:0:0:0:
308,244,78383,5,2,1:2:0:0:
154,182,78541,1,2,1:2:0:0:
338,255,78699,5,10,0:0:0:0:
512,162,78857,1,0,0:0:0:0:
311,273,79015,5,2,1:2:0:0:
123,205,79173,1,0,0:0:0:0:
42,31,79331,1,10,0:0:0:0:
42,31,79409,1,0,3:0:0:0:
42,31,79488,1,0,3:0:0:0:
40,246,79646,5,0,1:0:0:0:
40,246,79804,1,0,1:0:0:0:
161,139,79962,2,0,P|93:162|72:194,1,80,10|0,0:0|0:0,0:0:0:0:
236,308,80278,2,0,P|304:285|325:253,1,80,2|0,1:2|0:0,0:0:0:0:
160,276,80594,1,8,0:0:0:0:
160,276,80673,1,0,3:0:0:0:
160,276,80752,1,0,3:0:0:0:
239,170,80909,5,2,1:2:0:0:
428,232,81067,1,2,1:2:0:0:
462,199,81146,1,0,1:0:0:0:
474,150,81225,1,4,0:3:0:0:
459,108,81304,1,4,0:3:0:0:
423,77,81383,1,4,0:3:0:0:
376,70,81462,1,4,0:3:0:0:
333,88,81541,5,8,0:3:0:0:
306,127,81620,1,8,0:3:0:0:
303,175,81699,1,8,0:3:0:0:
319,220,81778,1,8,0:3:0:0:
326,259,81857,1,8,0:0:0:0:
322,298,81936,1,8,0:0:0:0:
301,332,82015,1,8,0:0:0:0:
268,347,82094,1,8,0:0:0:0:
236,348,82173,5,4,1:2:0:0:
183,147,82331,1,4,1:2:0:0:
120,278,82646,5,2,0:0:0:0:
120,278,82725,1,2,0:0:0:0:
120,278,82804,1,2,0:0:0:0:
281,235,82962,1,2,0:0:0:0:
367,116,83120,5,2,0:0:0:0:
491,331,83278,1,6,0:0:0:0:
256,192,83436,12,0,88015,0:0:0:0:
