osu file format v14

[General]
AudioFilename: audio.ogg
AudioLeadIn: 0
PreviewTime: 50682
Countdown: 0
SampleSet: Soft
StackLeniency: 0.3
Mode: 0
LetterboxInBreaks: 0
WidescreenStoryboard: 1

[Editor]
DistanceSpacing: 1
BeatDivisor: 4
GridSize: 4
TimelineZoom: 1.7

[Metadata]
Title:Unreal Creation!
TitleUnicode:Unreal Creation!
Artist:Sakuragawa Megu
ArtistUnicode:櫻川めぐ
Creator:Kuse
Version:Normal!
Source:ハミダシクリエイティブ
Tags:KuBsNia_ZhoYL_ Houshou hari Puvn まどそふと madosoft video game galgame op opening female vocals japanese eroge visual novel jpop Hamidashi Creative ハミクリ Hamikuri Houshou_hari ruchuers pop full version
BeatmapID:2659554
BeatmapSetID:1273533

[Difficulty]
HPDrainRate:3
CircleSize:3
OverallDifficulty:4
ApproachRate:5.5
SliderMultiplier:0.999999999999999
SliderTickRate:1

[Events]
//Background and Video events
0,0,"hiyori01.jpg",0,0
//Break Periods
2,152558,165382
//Storyboard Layer 0 (Background)
//Storyboard Layer 1 (Fail)
//Storyboard Layer 2 (Pass)
//Storyboard Layer 3 (Foreground)
Sprite,Foreground,Centre,"sb\KUSE.png",320,400 S,0,15458,,0.4 MX,0,15458,15694,880,470 MX,0,15694,17747,470,425 MX,0,17747,18221,425,-395
//Storyboard Layer 4 (Overlay)
//Storyboard Sound Samples

[TimingPoints]
780,315.789473684211,4,2,1,60,1,0
780,-100,4,2,1,60,0,0
15937,-100,4,2,1,70,0,0
20990,-100,4,2,1,60,0,0
41201,-100,4,2,1,50,0,0
46095,-100,4,2,1,60,0,0
51306,-100,4,2,1,80,0,1
71516,-100,4,2,1,70,0,0
81622,-100,4,2,1,60,0,0
90622,-100,4,2,1,70,0,0
91885,-100,4,2,1,60,0,0
101832,-100,4,2,1,50,0,0
106727,-100,4,2,1,60,0,0
111937,-100,4,2,1,80,0,1
132148,-100,4,2,1,70,0,0
152362,-100,4,2,1,60,0,0
152437,-100,4,2,1,40,0,0
166885,-100,4,2,1,50,0,0
167358,-100,4,2,1,60,0,0
172727,-100,4,2,1,70,0,0
177148,-100,4,2,1,60,0,0
178885,-100,4,2,1,80,0,1
199095,-100,4,2,1,70,0,0
204148,-100,4,2,1,80,0,1
209201,-100,4,2,1,70,0,0
225227,-100,4,2,1,20,0,0

[Colours]
Combo1 : 255,207,64
Combo2 : 255,255,106
Combo3 : 255,128,128
Combo4 : 242,36,67

[HitObjects]
83,289,780,6,0,P|121:255|185:268,1,99.9999999999999,4|8,1:2|0:0,0:0:0:0:
238,327,1411,2,0,P|276:361|340:348,1,99.9999999999999,0|8,1:0|0:0,0:0:0:0:
395,289,2043,2,0,B|377:241|377:241|390:184,1,99.9999999999999,0|8,1:0|0:0,0:0:0:0:
418,98,2674,1,0,1:0:0:0:
325,58,2990,1,8,0:0:0:0:
290,151,3306,6,0,P|262:174|186:182,1,99.9999999999999,0|8,1:0|0:0,0:0:0:0:
115,237,3937,2,0,B|100:190|100:190|115:134,1,99.9999999999999,0|8,1:0|0:0,0:0:0:0:
134,43,4569,2,0,P|183:48|223:77,1,99.9999999999999,0|8,1:0|0:0,0:0:0:0:
290,151,5201,1,0,1:0:0:0:
356,76,5516,1,8,0:0:0:0:
423,149,5832,6,0,L|412:262,1,99.9999999999999,2|10,1:2|0:0,0:0:0:0:
423,297,6306,2,0,B|380:326|380:326|317:306,1,99.9999999999999,2|2,0:0|1:2,0:0:0:0:
249,268,6937,1,2,0:0:0:0:
249,268,7095,2,0,B|203:253|203:253|160:282,1,99.9999999999999,2|10,1:2|0:0,0:0:0:0:
111,268,7569,2,0,L|119:157,1,99.9999999999999,2|2,0:0|1:2,0:0:0:0:
123,68,8201,1,2,0:0:0:0:
123,68,8358,6,0,L|224:50,1,99.9999999999999,2|10,1:2|0:0,0:0:0:0:
264,76,8832,2,0,B|311:95|311:95|374:72,1,99.9999999999999,2|2,0:0|1:2,0:0:0:0:
452,111,9464,2,0,B|476:181|406:177|462:271,1,150,2|8,0:0|0:0,0:0:0:0:
367,306,10253,2,0,L|372:368,2,50,2|2|10,1:2|1:2|0:0,0:0:0:0:
334,267,10727,6,0,B|284:261|284:261|231:292,1,99.9999999999999,2|0,0:0|1:0,0:0:0:0:
199,314,11201,1,8,0:0:0:0:
125,246,11516,2,0,L|71:244,2,50,2|2|10,1:2|1:2|0:0,0:0:0:0:
160,209,11990,2,0,B|139:162|139:162|153:100,1,99.9999999999999,2|0,0:0|1:0,0:0:0:0:
165,66,12464,1,8,0:0:0:0:
247,122,12780,6,0,L|245:180,2,50,2|2|10,1:2|1:2|0:0,0:0:0:0:
278,83,13253,1,2,0:0:0:0:
373,53,13569,1,2,1:2:0:0:
463,95,13885,1,2,0:0:0:0:
506,185,14201,1,2,1:2:0:0:
458,272,14516,1,0,0:0:0:0:
458,272,14674,6,0,P|410:236|355:244,1,99.9999999999999,6|8,1:2|0:0,0:0:0:0:
335,271,15148,2,0,P|244:301|208:260,1,150,0|8,1:0|0:0,0:0:0:0:
161,186,15937,6,0,L|173:66,1,99.9999999999999,6|8,1:2|0:0,0:0:0:0:
100,14,16569,1,0,1:2:0:0:
31,87,16885,1,10,0:0:0:0:
64,186,17201,1,2,1:2:0:0:
64,186,17358,2,0,P|34:233|42:278,1,99.9999999999999,2|0,1:2|0:0,0:0:0:0:
78,307,17832,2,0,L|190:290,1,99.9999999999999,2|10,1:2|0:0,0:0:0:0:
258,233,18464,6,0,L|358:248,1,99.9999999999999,2|10,1:2|0:0,0:0:0:0:
455,264,19095,1,0,1:0:0:0:
471,165,19411,1,10,0:0:0:0:
377,147,19727,1,2,1:2:0:0:
377,147,19885,2,0,P|344:104|345:50,1,99.9999999999999,2|0,1:2|0:0,0:0:0:0:
388,41,20358,2,0,L|489:65,1,99.9999999999999,0|8,1:2|0:0,0:0:0:0:
471,165,20990,6,0,L|485:264,1,99.9999999999999,4|10,1:0|0:0,0:0:0:0:
423,343,21622,2,0,P|388:356|356:352,1,50,2|2,1:2|1:2,0:0:0:0:
333,329,21937,1,10,0:0:0:0:
377,239,22253,2,0,P|327:228|270:253,1,99.9999999999999,2|10,1:2|0:0,0:0:0:0:
244,276,22727,2,0,P|196:304|137:294,1,99.9999999999999,2|2,0:0|1:2,0:0:0:0:
86,226,23358,6,0,L|99:122,1,99.9999999999999,2|2,0:0|1:2,0:0:0:0:
105,76,23832,1,10,0:0:0:0:
193,122,24148,2,0,L|196:171,2,50,2|2|10,1:2|1:2|0:0,0:0:0:0:
215,77,24622,2,0,P|267:62|319:98,1,99.9999999999999,2|0,0:0|1:0,0:0:0:0:
340,117,25095,1,8,0:0:0:0:
429,72,25411,2,0,L|414:22,2,50,0|2|10,1:0|1:2|0:2,0:0:0:0:
467,104,25885,6,0,L|450:218,1,99.9999999999999,6|0,1:0|1:0,0:0:0:0:
442,252,26358,1,10,0:0:0:0:
375,326,26674,2,0,L|321:335,1,50,2|2,1:2|1:2,0:0:0:0:
275,340,26990,1,10,0:0:0:0:
310,246,27306,2,0,P|273:221|208:222,1,99.9999999999999,2|10,1:2|0:0,0:0:0:0:
177,246,27780,2,0,P|140:271|75:270,1,99.9999999999999,2|2,0:0|1:2,0:0:0:0:
10,207,28411,6,0,P|4:157|22:111,1,99.9999999999999,2|2,0:0|1:2,0:0:0:0:
58,76,28885,1,10,0:0:0:0:
153,106,29201,2,0,L|147:157,2,50,2|2|10,1:2|1:2|0:0,0:0:0:0:
185,67,29674,2,0,P|224:41|293:62,1,99.9999999999999,2|0,0:0|1:0,0:0:0:0:
307,85,30148,1,8,0:0:0:0:
403,111,30464,2,0,L|417:55,2,50,0|2|10,1:0|1:2|0:2,0:0:0:0:
370,148,30937,6,0,L|381:255,1,99.9999999999999,6|2,1:0|1:2,0:0:0:0:
386,297,31411,1,10,0:0:0:0:
483,319,31727,1,2,1:2:0:0:
505,224,32043,1,10,0:0:0:0:
505,224,32201,2,0,L|496:109,1,99.9999999999999,2|2,0:0|1:2,0:0:0:0:
420,59,32832,2,0,P|375:95|319:79,1,99.9999999999999,2|2,0:0|1:2,0:0:0:0:
296,68,33306,1,10,0:0:0:0:
296,68,33464,6,0,L|186:97,1,99.9999999999999,2|2,0:0|1:2,0:0:0:0:
150,105,33937,1,10,0:0:0:0:
86,182,34253,2,0,L|28:172,2,50,2|2|10,1:2|1:2|0:0,0:0:0:0:
123,215,34727,2,0,L|135:334,1,99.9999999999999,2|0,0:0|1:0,0:0:0:0:
139,364,35201,1,8,0:0:0:0:
229,322,35516,1,0,1:0:0:0:
229,322,35674,2,0,L|234:265,1,50,10|10,0:0|0:0,0:0:0:0:
210,227,35990,6,0,P|224:195|297:182,1,99.9999999999999,6|2,1:0|1:2,0:0:0:0:
327,199,36464,1,10,0:0:0:0:
413,249,36780,2,0,L|466:235,2,50,2|2|10,1:2|1:2|0:0,0:0:0:0:
380,286,37253,2,0,P|390:331|457:341,1,99.9999999999999,2|2,0:0|1:2,0:0:0:0:
484,332,37727,1,10,0:0:0:0:
461,236,38043,2,0,L|468:179,1,50,0|0,1:0|1:0,0:0:0:0:
473,136,38358,1,8,0:0:0:0:
418,52,38674,6,0,B|370:68|370:68|311:63,1,99.9999999999999,2|10,1:2|0:0,0:0:0:0:
273,47,39148,2,0,P|243:26|186:47,1,99.9999999999999,2|2,0:0|1:2,0:0:0:0:
167,91,39622,1,10,0:0:0:0:
240,158,39937,2,0,L|231:228,1,50,0|0,1:0|1:0,0:0:0:0:
228,257,40253,1,8,0:0:0:0:
162,332,40569,1,0,1:0:0:0:
97,255,40885,1,8,0:0:0:0:
0,274,41201,6,0,L|6:170,1,99.9999999999999,4|0,1:0|0:0,0:0:0:0:
9,124,41674,2,0,P|52:151|113:149,1,99.9999999999999,0|0,1:0|0:0,0:0:0:0:
144,129,42148,1,0,0:0:0:0:
228,75,42464,2,0,P|269:79|327:126,1,99.9999999999999,0|0,1:0|0:0,0:0:0:0:
342,154,42937,2,0,L|457:145,1,99.9999999999999,0|0,1:0|0:0,0:0:0:0:
509,219,43569,1,0,0:0:0:0:
509,219,43727,6,0,L|495:336,1,99.9999999999999,0|0,1:0|0:0,0:0:0:0:
458,350,44201,2,0,P|409:354|356:312,1,99.9999999999999,0|0,1:0|0:0,0:0:0:0:
330,293,44674,1,0,0:0:0:0:
233,265,44990,2,0,L|165:280,1,50,0|0,1:0|0:0,0:0:0:0:
136,260,45306,2,0,P|104:226|111:162,1,99.9999999999999,8|8,0:0|0:0,0:0:0:0:
152,87,45937,1,8,0:0:0:0:
152,87,46095,6,0,B|196:109|196:109|259:91,1,99.9999999999999,4|2,1:0|1:2,0:0:0:0:
292,79,46569,1,10,0:0:0:0:
390,61,46885,2,0,B|408:110|408:110|399:177,1,99.9999999999999,2|10,1:0|0:0,0:0:0:0:
376,201,47358,2,0,P|425:194|461:241,1,99.9999999999999,2|0,1:2|1:0,0:0:0:0:
472,275,47832,1,10,0:0:0:0:
388,330,48148,2,0,L|381:383,2,50,2|2|10,1:2|1:2|0:0,0:0:0:0:
337,335,48622,6,0,P|284:340|248:297,1,99.9999999999999,6|8,1:2|0:0,0:0:0:0:
230,264,49095,1,8,0:0:0:0:
154,197,49411,2,0,P|132:154|163:104,1,99.9999999999999,0|8,1:0|0:0,0:0:0:0:
194,82,49885,1,0,1:0:0:0:
288,49,50201,2,0,L|292:-6,2,50,8|8|8,0:0|0:0|0:0,0:0:0:0:
288,49,51306,6,0,L|302:161,1,99.9999999999999,6|10,1:2|0:0,0:0:0:0:
330,188,51780,2,0,P|372:191|432:155,1,99.9999999999999,2|2,0:0|0:0,0:0:0:0:
506,108,52411,1,2,0:0:0:0:
506,108,52569,2,0,P|475:77|420:67,1,99.9999999999999,2|10,1:2|0:0,0:0:0:0:
378,93,53043,1,2,0:0:0:0:
288,48,53358,1,2,0:0:0:0:
207,107,53674,1,2,0:0:0:0:
207,107,53832,6,0,P|173:150|125:152,1,99.9999999999999,2|10,1:2|0:0,0:0:0:0:
86,177,54306,2,0,L|98:296,1,99.9999999999999,2|2,0:0|0:0,0:0:0:0:
129,314,54780,1,10,0:0:0:0:
129,314,54937,2,0,L|183:304,1,50,2|0,0:0|1:0,0:0:0:0:
277,318,55411,1,8,0:0:0:0:
339,240,55727,2,0,L|403:249,1,50,2|2,1:2|0:0,0:0:0:0:
434,226,56043,2,0,L|439:161,1,50,10|2,0:0|0:0,0:0:0:0:
412,134,56358,6,0,P|411:97|365:44,1,99.9999999999999,6|8,1:0|0:0,0:0:0:0:
289,102,56990,2,0,L|218:89,1,50,2|2,1:2|0:0,0:0:0:0:
190,101,57306,2,0,L|177:160,1,50,10|2,0:0|0:0,0:0:0:0:
147,189,57622,2,0,P|114:213|47:210,1,99.9999999999999,2|8,1:0|0:0,0:0:0:0:
16,308,58253,1,2,1:2:0:0:
16,308,58411,2,0,L|73:316,1,50,2|10,0:0|0:0,0:0:0:0:
92,357,58727,6,0,P|123:375|194:355,1,99.9999999999999,2|2,0:0|0:0,0:0:0:0:
217,326,59201,1,10,0:0:0:0:
291,258,59516,2,0,P|344:266|394:303,1,99.9999999999999,2|8,1:2|0:0,0:0:0:0:
426,314,59990,2,0,P|464:262|462:223,1,99.9999999999999,6|8,1:2|0:0,0:0:0:0:
458,183,60464,1,8,0:0:0:0:
458,183,60622,2,0,P|379:182|339:106,1,150,2|8,1:2|0:0,0:0:0:0:
254,78,61411,6,0,L|152:105,1,99.9999999999999,6|10,1:2|0:0,0:0:0:0:
107,95,61885,2,0,P|87:136|106:208,1,99.9999999999999,2|2,0:0|0:0,0:0:0:0:
192,225,62516,1,2,0:0:0:0:
192,225,62674,2,0,P|206:262|187:336,1,99.9999999999999,2|10,1:2|0:0,0:0:0:0:
172,364,63148,1,2,0:0:0:0:
95,299,63463,1,2,0:0:0:0:
0,313,63779,1,2,0:0:0:0:
0,313,63937,6,0,L|5:212,1,99.9999999999999,2|10,1:2|0:0,0:0:0:0:
12,163,64411,2,0,P|50:141|117:150,1,99.9999999999999,2|2,0:0|0:0,0:0:0:0:
172,218,65043,2,0,P|222:234|270:197,1,99.9999999999999,2|0,0:0|0:0,0:0:0:0:
290,171,65516,1,8,0:0:0:0:
371,230,65832,2,0,L|435:239,1,50,2|2,1:2|0:0,0:0:0:0:
461,207,66148,2,0,L|466:142,1,50,10|2,0:0|0:0,0:0:0:0:
425,126,66464,6,0,P|424:89|378:36,1,99.9999999999999,4|8,1:0|0:0,0:0:0:0:
291,70,67095,2,0,L|225:60,1,50,0|2,1:0|0:0,0:0:0:0:
196,84,67411,2,0,L|189:148,1,50,8|2,0:0|0:0,0:0:0:0:
221,173,67727,2,0,P|214:213|168:266,1,99.9999999999999,0|8,1:0|0:0,0:0:0:0:
85,304,68358,2,0,L|20:294,2,50,0|2|8,1:0|0:0|0:0,0:0:0:0:
122,337,68832,5,2,0:0:0:0:
214,375,69148,1,2,0:0:0:0:
304,331,69464,1,2,0:0:0:0:
398,363,69780,2,0,L|410:263,1,99.9999999999999,2|2,0:0|1:2,0:0:0:0:
377,225,70253,2,0,P|339:196|290:228,1,99.9999999999999,6|8,1:2|0:0,0:0:0:0:
260,251,70727,2,0,P|196:267|167:191,1,150,2|8,1:2|0:0,0:0:0:0:
247,148,71516,5,4,1:0:0:0:
333,97,71832,2,0,B|314:50|314:50|255:34,2,99.9999999999999,10|2|8,0:0|1:0|0:0,0:0:0:0:
354,147,72622,1,2,0:0:0:0:
354,147,72780,2,0,L|473:135,1,99.9999999999999,2|10,1:2|0:0,0:0:0:0:
487,230,73411,2,0,L|368:242,1,99.9999999999999,2|10,1:2|0:0,0:0:0:0:
325,318,74043,5,0,1:0:0:0:
234,276,74358,2,0,B|225:226|225:226|245:177,2,99.9999999999999,10|2|8,0:0|1:0|0:0,0:0:0:0:
225,328,75148,1,2,0:0:0:0:
225,328,75306,2,0,L|112:353,1,99.9999999999999,2|10,1:2|0:0,0:0:0:0:
41,298,75937,2,0,L|16:185,1,99.9999999999999,2|10,1:2|0:0,0:0:0:0:
60,108,76569,5,4,1:0:0:0:
158,123,76885,2,0,B|169:72|169:72|154:20,2,99.9999999999999,10|2|8,0:0|1:0|0:0,0:0:0:0:
183,166,77674,1,2,0:0:0:0:
183,166,77832,2,0,L|297:184,1,99.9999999999999,2|10,1:2|0:0,0:0:0:0:
301,279,78464,2,0,L|187:261,1,99.9999999999999,2|10,1:2|0:0,0:0:0:0:
143,344,79095,5,0,1:0:0:0:
93,256,79411,2,0,B|49:234|49:234|-10:248,2,99.9999999999999,10|2|8,0:0|1:0|0:0,0:0:0:0:
129,221,80201,1,6,1:2:0:0:
129,221,80358,2,0,L|134:116,1,99.9999999999999,0|8,1:0|0:0,0:0:0:0:
168,26,80990,2,0,L|273:31,1,99.9999999999999,2|8,1:2|0:0,0:0:0:0:
368,41,81622,6,0,L|382:140,1,99.9999999999999,6|10,1:2|0:0,0:0:0:0:
436,224,82254,2,0,P|451:259|451:288,1,50,2|2,1:2|1:2,0:0:0:0:
442,319,82569,1,10,0:0:0:0:
355,268,82885,2,0,P|305:257|248:282,1,99.9999999999999,2|10,1:2|0:0,0:0:0:0:
220,303,83359,2,0,P|172:331|113:321,1,99.9999999999999,2|2,0:0|1:2,0:0:0:0:
44,274,83990,6,0,L|57:170,1,99.9999999999999,2|2,0:0|1:2,0:0:0:0:
63,124,84464,1,10,0:0:0:0:
154,84,84780,2,0,L|157:133,2,50,2|2|10,1:2|1:2|0:0,0:0:0:0:
174,38,85254,2,0,P|226:23|278:59,1,99.9999999999999,2|0,0:0|1:0,0:0:0:0:
289,85,85727,1,8,0:0:0:0:
277,184,86043,2,0,L|334:188,2,50,0|2|10,1:0|1:2|0:2,0:0:0:0:
238,216,86517,6,0,L|221:330,1,99.9999999999999,6|2,1:0|1:2,0:0:0:0:
218,364,86990,1,10,0:0:0:0:
131,313,87306,2,0,L|77:322,1,50,2|2,1:2|1:2,0:0:0:0:
32,333,87622,1,10,0:0:0:0:
58,236,87938,2,0,P|80:174|64:128,1,99.9999999999999,2|10,1:2|0:0,0:0:0:0:
47,99,88411,2,0,B|136:55|132:194|244:135,1,200,2|8,1:2|0:0,0:0:0:0:
226,143,90622,5,8,0:0:0:0:
245,45,90937,1,8,0:0:0:0:
341,18,91253,1,8,0:0:0:0:
419,82,91569,1,12,0:0:0:0:
477,163,91885,6,0,P|451:206|436:262,1,99.9999999999999,2|2,1:2|0:0,0:0:0:0:
429,303,92358,2,0,B|386:332|386:332|318:323,1,99.9999999999999,2|10,1:2|0:0,0:0:0:0:
288,317,92832,1,2,0:0:0:0:
212,250,93148,1,2,1:2:0:0:
212,250,93306,2,0,L|113:243,1,99.9999999999999,10|2,0:0|1:2,0:0:0:0:
123,147,93937,1,8,0:0:0:0:
123,147,94095,6,0,P|157:104|213:116,1,99.9999999999999,2|2,0:0|1:2,0:0:0:0:
244,126,94569,1,10,0:0:0:0:
327,71,94885,2,0,L|324:16,2,50,2|2|10,1:2|1:2|0:0,0:0:0:0:
361,107,95358,2,0,B|409:140|409:140|387:198,1,99.9999999999999,2|0,0:0|1:0,0:0:0:0:
373,225,95832,1,8,0:0:0:0:
338,318,96148,2,0,L|343:369,2,50,0|10|8,1:0|0:0|0:0,0:0:0:0:
298,289,96622,6,0,L|183:307,1,99.9999999999999,6|2,1:0|1:2,0:0:0:0:
150,313,97095,1,10,0:0:0:0:
162,213,97411,2,0,L|96:220,2,50,2|2|10,1:2|1:2|0:0,0:0:0:0:
197,176,97885,2,0,P|214:132|208:58,1,99.9999999999999,2|2,0:0|1:2,0:0:0:0:
193,34,98358,1,10,0:0:0:0:
94,52,98674,2,0,L|98:125,1,50,0|0,1:0|1:0,0:0:0:0:
99,152,98990,1,8,0:0:0:0:
58,243,99306,6,0,P|94:297|140:303,1,99.9999999999999,2|10,1:2|0:0,0:0:0:0:
166,276,99780,2,0,B|214:256|214:256|265:272,1,99.9999999999999,2|2,0:0|1:2,0:0:0:0:
307,284,100253,1,10,0:0:0:0:
404,301,100569,2,0,L|414:244,1,50,0|0,1:0|1:0,0:0:0:0:
423,202,100885,1,8,0:0:0:0:
503,142,101201,1,0,1:0:0:0:
448,58,101516,1,8,0:0:0:0:
365,114,101832,6,0,P|330:140|265:140,1,99.9999999999999,4|0,1:0|0:0,0:0:0:0:
231,118,102306,2,0,P|188:91|127:93,1,99.9999999999999,0|0,1:0|0:0,0:0:0:0:
93,108,102779,1,0,0:0:0:0:
38,191,103095,2,0,L|51:308,1,99.9999999999999,0|0,1:0|0:0,0:0:0:0:
88,320,103569,2,0,P|124:286|187:275,1,99.9999999999999,0|0,1:0|0:0,0:0:0:0:
262,328,104200,1,0,0:0:0:0:
262,328,104358,6,0,L|273:228,1,99.9999999999999,0|0,1:0|0:0,0:0:0:0:
312,196,104832,2,0,P|338:190|402:226,1,99.9999999999999,0|0,1:0|0:0,0:0:0:0:
426,265,105305,1,0,0:0:0:0:
485,184,105622,2,0,L|490:128,1,50,0|0,1:0|0:0,0:0:0:0:
462,91,105937,2,0,B|415:115|415:115|354:94,1,99.9999999999999,8|8,0:0|0:0,0:0:0:0:
286,45,106568,1,8,0:0:0:0:
286,45,106727,6,0,P|243:100|236:144,1,99.9999999999999,4|2,1:0|1:2,0:0:0:0:
249,176,107201,1,10,0:0:0:0:
307,256,107516,2,0,P|264:275|200:262,1,99.9999999999999,2|10,1:0|0:0,0:0:0:0:
167,245,107990,2,0,P|146:202|155:134,1,99.9999999999999,2|0,1:2|1:0,0:0:0:0:
117,110,108464,1,10,0:0:0:0:
168,24,108780,2,0,L|112:12,2,50,2|2|10,1:2|1:2|0:0,0:0:0:0:
207,54,109253,6,0,P|263:56|305:103,1,99.9999999999999,6|8,1:2|0:0,0:0:0:0:
323,124,109727,1,8,0:0:0:0:
412,167,110043,2,0,P|375:192|344:248,1,99.9999999999999,0|8,1:2|0:0,0:0:0:0:
341,288,110516,1,0,1:0:0:0:
274,362,110832,1,8,0:0:0:0:
193,303,111148,1,8,0:0:0:0:
254,224,111464,2,0,L|238:109,1,99.9999999999999,0|0,3:0|1:0,0:0:0:0:
197,99,111937,6,0,P|154:128|95:142,1,99.9999999999999,6|10,1:2|0:0,0:0:0:0:
59,128,112411,2,0,P|45:175|64:239,1,99.9999999999999,2|2,0:0|0:0,0:0:0:0:
109,314,113043,1,2,0:0:0:0:
109,314,113200,2,0,B|155:294|155:294|215:307,1,99.9999999999999,2|10,1:2|0:0,0:0:0:0:
252,317,113674,1,2,0:0:0:0:
335,262,113989,1,2,0:0:0:0:
270,185,114305,1,2,0:0:0:0:
270,185,114464,6,0,L|272:77,1,99.9999999999999,2|10,1:2|0:0,0:0:0:0:
309,51,114937,2,0,P|343:85|405:91,1,99.9999999999999,2|2,0:0|0:0,0:0:0:0:
441,120,115411,1,10,0:0:0:0:
441,120,115569,2,0,L|434:177,1,50,2|0,0:0|1:0,0:0:0:0:
460,264,116042,1,8,0:0:0:0:
393,338,116358,2,0,L|335:334,1,50,2|2,1:2|0:0,0:0:0:0:
293,324,116674,2,0,L|298:259,1,50,10|2,0:0|0:0,0:0:0:0:
323,231,116990,6,0,P|322:194|278:145,1,99.9999999999999,6|8,1:0|0:0,0:0:0:0:
199,202,117622,2,0,L|128:189,1,50,2|2,1:2|0:0,0:0:0:0:
99,189,117937,2,0,L|107:131,1,50,10|2,0:0|0:0,0:0:0:0:
100,89,118253,2,0,P|133:65|200:68,1,99.9999999999999,2|8,1:0|0:0,0:0:0:0:
280,109,118885,1,2,1:2:0:0:
280,109,119043,2,0,L|349:100,1,50,2|10,0:0|0:0,0:0:0:0:
377,89,119358,5,2,0:0:0:0:
444,162,119674,2,0,L|505:171,2,50,2|10|2,0:0|0:0|0:0,0:0:0:0:
401,189,120148,2,0,L|397:252,1,50,2|2,1:2|0:0,0:0:0:0:
395,289,120464,1,10,0:0:0:0:
395,289,120621,2,0,P|345:281|302:331,1,99.9999999999999,6|8,1:2|0:0,0:0:0:0:
306,360,121095,1,10,0:0:0:0:
306,360,121253,2,0,B|239:327|238:404|154:363,1,150,2|8,1:2|0:0,0:0:0:0:
92,296,122042,6,0,P|72:257|92:187,1,99.9999999999999,6|10,1:2|0:0,0:0:0:0:
102,157,122516,2,0,L|220:171,1,99.9999999999999,2|2,0:0|0:0,0:0:0:0:
293,223,123147,1,0,0:0:0:0:
293,223,123306,2,0,P|307:186|288:112,1,99.9999999999999,2|10,1:2|0:0,0:0:0:0:
268,86,123779,1,2,0:0:0:0:
178,41,124094,1,2,0:0:0:0:
101,104,124410,1,2,0:0:0:0:
101,104,124569,6,0,L|115:221,1,99.9999999999999,2|8,1:2|0:0,0:0:0:0:
112,253,125042,2,0,P|150:231|217:240,1,99.9999999999999,2|2,0:0|0:0,0:0:0:0:
285,293,125674,2,0,P|334:307|384:268,1,99.9999999999999,2|0,0:0|0:0,0:0:0:0:
406,245,126148,1,8,0:0:0:0:
458,164,126464,2,0,L|402:153,1,50,2|2,1:2|0:0,0:0:0:0:
370,122,126780,2,0,L|307:145,1,50,10|2,0:0|0:0,0:0:0:0:
274,151,127095,6,0,B|232:118|232:118|177:121,1,99.9999999999999,4|8,1:0|0:0,0:0:0:0:
85,111,127727,2,0,L|97:178,1,50,0|2,1:0|0:0,0:0:0:0:
95,210,128043,2,0,L|88:274,1,50,8|2,0:0|0:0,0:0:0:0:
83,309,128358,2,0,B|125:334|125:334|178:318,1,99.9999999999999,0|8,1:0|0:0,0:0:0:0:
274,315,128990,2,0,L|270:372,2,50,0|2|8,1:0|0:0|0:0,0:0:0:0:
247,272,129463,5,2,0:0:0:0:
213,177,129779,1,2,0:0:0:0:
269,94,130095,1,2,0:0:0:0:
356,143,130411,2,0,P|397:160|457:151,1,99.9999999999999,2|2,0:0|1:2,0:0:0:0:
500,145,130885,2,0,L|493:258,1,99.9999999999999,12|8,0:0|0:0,0:0:0:0:
460,282,131358,2,0,B|384:257|397:337|311:313,1,150,2|8,1:2|0:0,0:0:0:0:
273,227,132148,6,0,P|230:201|181:204,1,99.9999999999999,4|8,1:0|0:0,0:0:0:0:
90,247,132780,1,0,1:0:0:0:
13,182,133095,1,10,0:0:0:0:
13,182,133253,2,0,P|30:131|79:86,1,99.9999999999999,2|0,0:0|1:0,0:0:0:0:
95,61,133727,1,10,0:0:0:0:
95,61,133885,2,0,P|133:81|196:56,1,99.9999999999999,2|0,0:0|1:0,0:0:0:0:
226,36,134358,1,10,0:0:0:0:
289,113,134674,6,0,P|338:120|385:106,1,99.9999999999999,0|10,1:0|0:0,0:0:0:0:
434,118,135148,2,0,L|424:238,1,99.9999999999999,2|0,0:0|1:0,0:0:0:0:
420,267,135622,1,10,0:0:0:0:
335,320,135937,1,0,1:0:0:0:
252,263,136253,1,8,0:0:0:0:
160,302,136569,2,0,L|169:372,2,50,0|0|8,1:0|1:0|0:0,0:0:0:0:
69,257,137201,6,0,L|85:142,1,99.9999999999999,6|10,1:2|0:0,0:0:0:0:
118,122,137674,2,0,P|186:117|217:149,1,99.9999999999999,2|0,0:0|1:0,0:0:0:0:
244,169,138148,1,10,0:0:0:0:
331,218,138464,2,0,P|355:242|420:241,1,99.9999999999999,0|10,1:0|0:0,0:0:0:0:
465,226,138937,2,0,L|454:124,1,99.9999999999999,2|0,0:0|1:0,0:0:0:0:
448,76,139411,1,10,0:0:0:0:
358,32,139727,5,0,1:0:0:0:
274,87,140043,1,8,0:0:0:0:
188,35,140358,2,0,L|124:41,1,50,0|0,1:0|1:0,0:0:0:0:
87,43,140674,1,8,0:0:0:0:
44,133,140990,2,0,P|34:195|47:249,1,99.9999999999999,12|0,0:0|1:0,0:0:0:0:
81,260,141464,2,0,L|184:231,1,99.9999999999999,8|0,0:0|1:0,0:0:0:0:
224,217,141937,1,8,0:0:0:0:
309,269,142253,5,4,1:0:0:0:
389,209,142569,1,8,0:0:0:0:
473,262,142885,2,0,L|530:269,2,50,0|0|8,1:0|1:0|0:0,0:0:0:0:
404,335,143516,2,0,P|361:313|302:316,1,99.9999999999999,2|8,1:2|0:0,0:0:0:0:
268,341,143990,2,0,P|239:360|171:364,1,99.9999999999999,2|0,0:0|1:0,0:0:0:0:
125,355,144464,1,10,0:0:0:0:
63,276,144780,6,0,L|67:169,1,99.9999999999999,0|8,1:0|0:0,0:0:0:0:
117,89,145411,2,0,L|112:31,2,50,0|0|8,1:0|1:0|0:0,0:0:0:0:
171,173,146043,2,0,P|218:197|263:173,1,99.9999999999999,2|10,1:2|0:0,0:0:0:0:
282,135,146516,2,0,P|302:97|371:88,1,99.9999999999999,2|0,0:0|1:0,0:0:0:0:
396,110,146990,2,0,L|447:117,1,50,10|2,0:0|0:0,0:0:0:0:
480,153,147306,5,4,1:0:0:0:
421,234,147622,1,8,0:0:0:0:
321,232,147937,2,0,L|313:171,2,50,0|0|8,1:0|1:0|0:0,0:0:0:0:
275,321,148569,2,0,L|164:342,1,99.9999999999999,0|8,1:0|0:0,0:0:0:0:
87,293,149201,2,0,L|32:302,2,50,0|0|8,1:0|1:0|0:0,0:0:0:0:
113,252,149674,5,2,1:2:0:0:
113,252,149832,2,0,P|150:211|214:211,1,99.9999999999999,10|8,0:0|0:0,0:0:0:0:
232,234,150306,2,0,P|270:268|329:266,1,99.9999999999999,10|8,0:0|0:0,0:0:0:0:
397,209,150937,1,2,1:2:0:0:
397,209,151095,2,0,L|409:91,1,99.9999999999999,2|8,1:2|0:0,0:0:0:0:
308,88,151727,2,0,B|235:117|235:117|164:91,1,150,2|2,1:2|1:2,0:0:0:0:
123,69,152358,1,4,0:0:0:0:
376,99,166885,6,0,L|364:41,2,50,2|0|10,1:2|1:0|0:0,0:0:0:0:
409,136,167358,2,0,L|393:248,1,99.9999999999999,6|2,1:2|1:2,0:0:0:0:
387,284,167832,1,10,0:0:0:0:
303,228,168148,2,0,P|250:240|194:219,1,99.9999999999999,2|10,1:0|0:0,0:0:0:0:
171,191,168622,2,0,L|181:90,1,99.9999999999999,2|2,1:2|1:2,0:0:0:0:
188,42,169095,1,10,0:0:0:0:
88,54,169411,2,0,L|70:0,2,50,0|0|10,1:0|0:0|0:0,0:0:0:0:
66,99,169885,6,0,L|79:206,1,99.9999999999999,6|2,1:2|1:2,0:0:0:0:
87,247,170358,1,10,0:0:0:0:
78,346,170674,2,0,P|128:332|192:354,1,99.9999999999999,2|10,1:0|0:0,0:0:0:0:
218,366,171148,2,0,P|260:377|322:354,1,99.9999999999999,2|2,1:2|1:2,0:0:0:0:
356,337,171622,1,10,0:0:0:0:
348,237,171937,2,0,L|293:230,2,50,2|0|10,1:2|1:0|0:0,0:0:0:0:
392,213,172411,6,0,L|408:95,1,99.9999999999999,6|0,1:2|1:0,0:0:0:0:
382,69,172885,1,8,0:0:0:0:
291,27,173201,1,8,0:0:0:0:
199,66,173516,1,8,0:0:0:0:
164,160,173832,1,8,0:0:0:0:
206,250,174148,2,0,L|150:266,1,50,8|0,0:0|1:0,0:0:0:0:
120,297,174464,2,0,P|141:341|198:346,1,99.9999999999999,8|0,0:0|1:0,0:0:0:0:
235,333,174937,6,0,B|282:324|282:324|336:347,1,99.9999999999999,12|8,0:0|0:0,0:0:0:0:
422,304,175569,2,0,P|436:262|420:205,1,99.9999999999999,12|8,0:0|0:0,0:0:0:0:
392,169,176043,1,8,0:0:0:0:
392,169,176201,2,0,L|398:58,1,99.9999999999999,12|8,0:0|0:0,0:0:0:0:
401,19,176674,1,8,0:0:0:0:
401,19,176832,1,8,0:0:0:0:
180,137,177622,6,0,P|129:147|94:188,1,99.9999999999999,8|0,0:0|1:0,0:0:0:0:
84,229,178095,2,0,P|108:279|214:297,1,150,8|8,0:0|0:0,0:0:0:0:
274,244,178885,6,0,P|318:215|376:219,1,99.9999999999999,6|10,1:2|0:0,0:0:0:0:
414,211,179359,2,0,B|425:161|425:161|407:103,1,99.9999999999999,2|2,0:0|0:0,0:0:0:0:
324,75,179990,1,2,0:0:0:0:
324,75,180148,2,0,P|293:106|238:116,1,99.9999999999999,2|10,1:2|0:0,0:0:0:0:
192,98,180622,1,2,0:0:0:0:
97,66,180937,1,2,0:0:0:0:
18,128,181253,1,2,0:0:0:0:
18,128,181411,6,0,L|28:233,1,99.9999999999999,2|10,1:2|0:0,0:0:0:0:
35,277,181885,2,0,P|83:305|138:305,1,99.9999999999999,2|2,0:0|0:0,0:0:0:0:
169,281,182359,1,10,0:0:0:0:
169,281,182516,2,0,L|179:217,1,50,2|0,0:0|1:0,0:0:0:0:
245,158,182990,1,8,0:0:0:0:
309,234,183306,2,0,L|301:286,1,50,2|2,1:2|0:0,0:0:0:0:
299,333,183622,2,0,L|361:325,1,50,10|2,0:0|0:0,0:0:0:0:
398,319,183937,6,0,P|430:267|421:209,1,99.9999999999999,6|8,1:0|0:0,0:0:0:0:
412,130,184569,2,0,L|418:61,1,50,2|2,1:2|0:0,0:0:0:0:
377,48,184885,2,0,L|309:60,1,50,10|2,0:0|0:0,0:0:0:0:
283,35,185201,2,0,P|239:15|181:18,1,99.9999999999999,2|8,1:0|0:0,0:0:0:0:
108,76,185832,1,2,1:2:0:0:
108,76,185990,2,0,L|116:139,1,50,2|10,0:0|0:0,0:0:0:0:
162,140,186306,6,0,L|155:244,1,99.9999999999999,2|2,0:0|0:0,0:0:0:0:
150,289,186780,1,10,0:0:0:0:
232,344,187095,2,0,P|276:366|342:347,1,99.9999999999999,2|10,1:2|0:0,0:0:0:0:
368,333,187569,2,0,L|355:217,1,99.9999999999999,6|8,1:2|0:0,0:0:0:0:
348,183,188043,1,8,0:0:0:0:
348,183,188201,2,0,B|423:150|431:213|500:178,1,150,2|8,1:2|0:0,0:0:0:0:
448,91,188990,6,0,P|397:76|331:83,1,99.9999999999999,6|10,1:2|0:0,0:0:0:0:
304,98,189464,2,0,P|256:120|203:114,1,99.9999999999999,2|2,0:0|0:0,0:0:0:0:
127,70,190095,1,2,0:0:0:0:
127,70,190253,2,0,B|107:119|107:119|122:181,1,99.9999999999999,2|10,1:2|0:0,0:0:0:0:
128,214,190727,1,2,0:0:0:0:
78,300,191042,1,2,0:0:0:0:
167,356,191358,1,2,0:0:0:0:
167,356,191516,6,0,P|202:327|266:328,1,99.9999999999999,2|10,1:2|0:0,0:0:0:0:
300,345,191990,2,0,P|338:367|405:358,1,99.9999999999999,2|2,0:0|0:0,0:0:0:0:
468,298,192622,2,0,P|471:240|435:211,1,99.9999999999999,2|0,0:0|0:0,0:0:0:0:
394,226,193095,1,8,0:0:0:0:
302,186,193411,2,0,L|247:197,1,50,2|2,1:2|0:0,0:0:0:0:
202,198,193727,2,0,L|139:185,1,50,10|2,0:0|0:0,0:0:0:0:
104,177,194042,6,0,B|83:134|83:134|108:79,1,99.9999999999999,4|8,1:0|0:0,0:0:0:0:
189,32,194674,2,0,L|252:43,1,50,0|2,1:0|0:0,0:0:0:0:
287,50,194990,2,0,L|355:38,1,50,8|2,0:0|0:0,0:0:0:0:
385,30,195306,2,0,B|424:69|424:69|427:129,1,99.9999999999999,0|8,1:0|0:0,0:0:0:0:
425,214,195937,2,0,L|484:216,2,50,0|2|8,1:0|0:0|0:0,0:0:0:0:
387,247,196411,5,2,0:0:0:0:
299,197,196727,1,2,0:0:0:0:
204,229,197043,1,2,0:0:0:0:
108,199,197359,2,0,L|90:307,1,99.9999999999999,2|0,0:0|1:0,0:0:0:0:
110,343,197832,2,0,P|162:327|213:340,1,99.9999999999999,4|8,1:0|0:0,0:0:0:0:
252,354,198306,2,0,P|314:316|299:248,1,150,0|8,1:0|0:0,0:0:0:0:
231,174,199095,5,4,1:0:0:0:
284,89,199411,1,10,0:0:0:0:
365,147,199727,2,0,B|415:154|415:154|452:197,1,99.9999999999999,2|8,1:0|0:0,0:0:0:0:
500,276,200358,2,0,L|434:293,1,50,2|2,1:2|0:0,0:0:0:0:
401,284,200674,2,0,L|346:270,1,50,10|2,0:0|0:0,0:0:0:0:
302,277,200990,2,0,L|301:343,2,50,2|2|10,1:2|0:0|0:0,0:0:0:0:
223,214,201622,5,0,1:0:0:0:
129,247,201937,1,10,0:0:0:0:
45,191,202253,2,0,L|55:87,1,99.9999999999999,2|8,1:0|0:0,0:0:0:0:
139,37,202885,2,0,L|159:101,1,50,2|2,1:2|0:0,0:0:0:0:
198,107,203201,2,0,L|257:85,1,50,10|2,0:0|0:0,0:0:0:0:
293,77,203516,2,0,L|304:16,2,50,2|2|10,1:2|0:0|0:0,0:0:0:0:
326,114,203990,6,0,L|335:236,1,99.9999999999999,4|2,1:0|0:0,0:0:0:0:
337,263,204464,1,8,0:0:0:0:
427,306,204780,2,0,L|442:373,2,50,0|2|8,1:0|0:0|0:0,0:0:0:0:
438,257,205253,2,0,P|463:207|454:149,1,99.9999999999999,2|2,0:0|0:0,0:0:0:0:
444,116,205727,1,8,0:0:0:0:
364,55,206043,2,0,L|298:73,1,50,0|2,1:0|0:0,0:0:0:0:
269,88,206358,1,8,0:0:0:0:
269,88,206516,5,2,0:0:0:0:
171,80,206831,1,2,0:0:0:0:
96,141,207147,1,2,0:0:0:0:
84,238,207463,1,2,0:0:0:0:
124,336,207780,1,6,1:2:0:0:
124,336,207937,2,0,P|187:332|222:359,1,99.9999999999999,8|8,0:0|0:0,0:0:0:0:
263,334,208411,2,0,P|301:345|324:246,1,150,0|8,1:0|0:0,0:0:0:0:
259,203,209201,5,4,1:0:0:0:
280,105,209517,2,0,B|229:97|229:97|186:141,2,99.9999999999999,10|2|8,0:0|1:0|0:0,0:0:0:0:
327,90,210307,1,2,0:0:0:0:
327,90,210465,2,0,L|376:-19,1,99.9999999999999,2|10,1:2|0:0,0:0:0:0:
447,59,211096,2,0,L|473:172,1,99.9999999999999,2|10,1:2|0:0,0:0:0:0:
401,230,211728,5,0,1:0:0:0:
418,328,212043,2,0,B|468:328|468:328|513:299,2,99.9999999999999,10|2|8,0:0|1:0|0:0,0:0:0:0:
375,312,212833,1,2,0:0:0:0:
375,312,212991,2,0,L|263:331,1,99.9999999999999,2|10,1:2|0:0,0:0:0:0:
194,271,213622,2,0,L|202:156,1,99.9999999999999,2|10,1:2|0:0,0:0:0:0:
249,83,214254,5,4,1:0:0:0:
338,127,214570,2,0,B|349:76|349:76|334:24,2,99.9999999999999,10|2|8,0:0|1:0|0:0,0:0:0:0:
319,175,215359,1,2,0:0:0:0:
319,175,215517,2,0,L|205:193,1,99.9999999999999,2|10,1:2|0:0,0:0:0:0:
134,138,216149,2,0,L|20:120,1,99.9999999999999,2|10,1:2|0:0,0:0:0:0:
0,216,216780,5,0,1:0:0:0:
81,274,217096,2,0,B|103:317|103:317|90:376,2,99.9999999999999,10|2|8,0:0|1:0|0:0,0:0:0:0:
107,231,217885,1,0,1:0:0:0:
107,231,218043,2,0,L|210:248,1,99.9999999999999,4|8,1:0|0:0,0:0:0:0:
292,298,218674,2,0,L|412:276,1,99.9999999999999,0|8,1:0|0:0,0:0:0:0:
461,209,219306,5,4,0:0:0:0:
461,209,219464,1,4,0:0:0:0:
256,192,220411,1,4,0:0:0:0:
256,192,220569,12,0,225227,0:0:0:0:
