osu file format v14

[General]
AudioFilename: audio.mp3
AudioLeadIn: 0
PreviewTime: 51741
Countdown: 0
SampleSet: Soft
StackLeniency: 0.5
Mode: 0
LetterboxInBreaks: 0
WidescreenStoryboard: 1

[Editor]
DistanceSpacing: 1.2
BeatDivisor: 4
GridSize: 4
TimelineZoom: 2.2

[Metadata]
Title:Unreal Creation!
TitleUnicode:Unreal Creation!
Artist:Sakuragawa Megu
ArtistUnicode:櫻川めぐ
Creator:Kuse
Version:Hard
Source:ハミダシクリエイティブ
Tags:まどそふと madosoft video game galgame op opening female vocals japanese eroge visual novel wyrio Fushimi Rio Imoutosan Fushimi_Rio KuBsNia_ZhoYL_ pop Hamidashi Creative ハミクリ Hamikuri short version
BeatmapID:2661681
BeatmapSetID:1197118

[Difficulty]
HPDrainRate:5
CircleSize:3.5
OverallDifficulty:7
ApproachRate:8
SliderMultiplier:1.3
SliderTickRate:1

[Events]
//Background and Video events
0,0,"shio.jpg",0,0
//Break Periods
//Storyboard Layer 0 (Background)
//Storyboard Layer 1 (Fail)
//Storyboard Layer 2 (Pass)
//Storyboard Layer 3 (Foreground)
//Storyboard Layer 4 (Overlay)
//Storyboard Sound Samples

[TimingPoints]
1331,315.789473684211,4,2,1,60,1,0
1331,-111.111111111111,4,2,1,60,0,0
16488,-90.9090909090909,4,2,1,70,0,0
21541,-111.111111111111,4,2,1,60,0,0
36541,-90.9090909090909,4,2,1,70,0,0
41752,-111.111111111111,4,2,1,70,0,0
46646,-90.9090909090909,4,2,1,70,0,0
51383,-111.111111111111,4,2,1,70,0,0
51541,-111.111111111111,4,2,1,5,0,0
51857,-76.9230769230769,4,2,1,80,0,1
61883,-76.9230769230769,4,2,1,80,0,0
61962,-83.3333333333333,4,2,1,80,0,1
72067,-90.9090909090909,4,2,1,80,0,0
83357,-90.9090909090909,4,2,1,70,0,0
85331,-90.9090909090909,4,2,1,65,0,0
85962,-90.9090909090909,4,2,1,60,0,0
86909,-90.9090909090909,4,2,1,55,0,0
87541,-90.9090909090909,4,2,1,45,0,0
88015,-90.9090909090909,4,2,1,40,0,0

[Colours]
Combo1 : 255,151,151
Combo2 : 255,255,128
Combo3 : 255,91,91
Combo4 : 77,166,255

[HitObjects]
172,268,1331,5,4,1:2:0:0:
92,303,1488,1,0,1:0:0:0:
39,232,1646,2,0,L|43:148,1,58.4999982147217,8|0,0:0|0:0,0:0:0:0:
48,85,1962,1,0,1:0:0:0:
122,131,2120,1,0,1:0:0:0:
176,62,2278,2,0,L|255:77,1,58.4999982147217,8|0,0:0|0:0,0:0:0:0:
293,137,2594,6,0,L|376:126,1,58.4999982147217,0|0,1:0|1:0,0:0:0:0:
437,115,2909,2,0,L|423:215,1,87.7499973220826,8|0,0:0|0:0,0:0:0:0:
420,246,3225,2,0,L|432:310,1,58.4999982147217,0|0,1:0|1:0,0:0:0:0:
507,348,3541,1,8,0:0:0:0:
331,352,3857,5,0,1:0:0:0:
258,302,4015,1,0,1:0:0:0:
180,344,4173,2,0,L|108:356,1,58.4999982147217,8|0,0:0|0:0,0:0:0:0:
52,300,4488,1,0,1:0:0:0:
109,233,4646,1,0,1:0:0:0:
43,174,4804,2,0,L|31:96,1,58.4999982147217,8|0,0:0|0:0,0:0:0:0:
82,42,5120,6,0,L|161:73,1,58.4999982147217,0|0,1:0|1:0,0:0:0:0:
221,87,5436,2,0,L|202:190,1,87.7499973220826,8|0,0:0|0:0,0:0:0:0:
194,216,5752,2,0,L|211:289,1,58.4999982147217,0|0,1:0|1:0,0:0:0:0:
236,355,6067,1,8,0:0:0:0:
410,333,6383,6,0,L|417:209,1,116.999996429443,2|8,1:2|0:0,0:0:0:0:
421,127,6857,1,0,0:0:0:0:
267,139,7173,1,2,1:2:0:0:
267,139,7331,2,0,L|348:150,1,58.4999982147217,8|0,0:0|0:0,0:0:0:0:
352,63,7646,6,0,L|221:48,1,116.999996429443,2|8,1:2|0:0,0:0:0:0:
148,33,8120,1,0,0:0:0:0:
188,197,8436,1,2,1:2:0:0:
27,125,8752,1,0,0:0:0:0:
27,125,8909,6,0,L|7:255,1,116.999996429443,2|8,1:2|0:0,0:0:0:0:
63,310,9383,2,0,L|181:279,1,116.999996429443,0|2,0:0|0:0,0:0:0:0:
348,243,10015,2,0,P|287:234|296:134,1,175.499994644165,0|8,0:0|0:0,0:0:0:0:
188,64,10804,6,0,L|170:-5,2,58.4999982147217,2|0|8,1:2|1:2|0:0,0:0:0:0:
163,148,11278,2,0,P|216:196|321:156,1,175.499994644165,2|8,0:0|0:0,0:0:0:0:
365,104,11909,6,0,L|376:37,2,58.4999982147217,2|0|0,0:0|1:2|0:0,0:0:0:0:
423,170,12383,1,8,0:0:0:0:
365,236,12541,2,0,P|292:254|228:178,1,175.499994644165,2|8,0:0|0:0,0:0:0:0:
102,237,13331,6,0,L|26:253,1,58.4999982147217,2|0,1:2|1:2,0:0:0:0:
4,172,13646,1,8,0:0:0:0:
72,116,13804,2,0,L|80:52,1,58.4999982147217,2|0,0:0|1:0,0:0:0:0:
164,28,14120,2,0,L|172:100,1,58.4999982147217,0|8,1:2|0:0,0:0:0:0:
240,140,14436,2,0,L|312:156,1,58.4999982147217,2|0,0:0|1:0,0:0:0:0:
352,224,14752,2,0,L|280:240,1,58.4999982147217,0|8,1:2|0:0,0:0:0:0:
224,288,15067,1,2,0:0:0:0:
338,351,15225,6,0,L|474:319,1,116.999996429443,4|8,1:2|0:0,0:0:0:0:
476,240,15699,1,0,1:0:0:0:
432,164,15857,6,0,L|440:112,3,29.2499991073609,12|8|8|8,0:0|0:0|0:0|0:0,0:0:0:0:
392,144,16173,2,0,L|400:96,3,29.2499991073609,8|8|8|8,0:0|0:0|0:0|0:0,0:0:0:0:
360,128,16488,6,0,L|220:160,1,143.000004364014,6|10,1:2|0:0,0:0:0:0:
129,138,16962,1,2,1:2:0:0:
129,138,17041,1,0,1:0:0:0:
129,138,17120,1,2,1:2:0:0:
70,65,17278,1,0,0:0:0:0:
13,138,17436,2,0,L|6:238,1,71.5000021820069,10|0,0:0|0:0,0:0:0:0:
84,264,17752,1,2,1:2:0:0:
172,232,17909,2,0,L|252:252,1,71.5000021820069,2|8,1:2|0:0,0:0:0:0:
312,312,18225,1,2,0:0:0:0:
396,272,18383,2,0,L|384:112,1,143.000004364014,2|8,1:2|0:0,0:0:0:0:
224,40,19015,6,0,L|208:208,1,143.000004364014,2|8,1:2|0:0,0:0:0:0:
156,258,19488,1,2,1:2:0:0:
156,258,19567,1,0,1:0:0:0:
156,258,19646,1,2,1:2:0:0:
71,218,19804,1,0,0:0:0:0:
64,124,19962,2,0,L|140:140,1,71.5000021820069,10|0,0:0|0:0,0:0:0:0:
210,182,20278,1,2,1:2:0:0:
292,140,20436,2,0,L|308:52,1,71.5000021820069,2|12,1:2|0:0,0:0:0:0:
376,8,20752,1,2,0:0:0:0:
440,76,20909,6,0,L|500:88,3,35.7500010910034,0|0|0|0,1:0|1:0|1:0|1:0,0:0:0:0:
427,108,21225,2,0,L|481:119,3,35.7500010910034,8|8|8|8,0:0|0:0|0:0|0:0,0:0:0:0:
416,142,21541,6,0,L|408:270,1,116.999996429443,4|8,1:0|0:0,0:0:0:0:
330,299,22015,2,0,L|317:227,1,58.4999982147217,2|0,0:0|1:0,0:0:0:0:
255,180,22331,2,0,L|261:119,1,58.4999982147217,2|8,1:2|0:0,0:0:0:0:
270,34,22646,1,0,0:0:0:0:
339,87,22804,2,0,L|410:72,2,58.4999982147217,2|0|8,1:2|1:0|0:0,0:0:0:0:
270,34,23278,2,0,L|143:16,1,116.999996429443,2|2,0:0|1:2,0:0:0:0:
49,158,23909,6,0,L|182:176,1,116.999996429443,2|2,0:0|1:2,0:0:0:0:
136,257,24383,2,0,L|131:329,1,58.4999982147217,8|2,0:0|0:0,0:0:0:0:
207,360,24699,1,2,1:2:0:0:
287,325,24857,1,0,1:0:0:0:
212,279,25015,1,10,0:0:0:0:
285,230,25173,2,0,L|292:98,1,116.999996429443,2|0,0:0|1:0,0:0:0:0:
296,25,25646,1,8,0:0:0:0:
463,79,25962,6,0,L|460:152,1,58.4999982147217,0|0,1:0|1:0,0:0:0:0:
459,225,26278,1,8,0:0:0:0:
348,163,26436,2,0,L|352:291,1,116.999996429443,6|0,1:0|1:0,0:0:0:0:
302,352,26909,6,0,L|237:340,1,58.4999982147217,8|2,0:0|0:0,0:0:0:0:
199,265,27225,2,0,L|278:251,1,58.4999982147217,2|0,1:2|1:0,0:0:0:0:
285,171,27541,1,10,0:0:0:0:
241,94,27699,1,0,0:0:0:0:
262,8,27857,2,0,L|134:30,1,116.999996429443,2|8,1:2|0:0,0:0:0:0:
88,93,28331,2,0,L|93:176,2,58.4999982147217,2|0|2,0:0|1:0|1:2,0:0:0:0:
174,107,28804,5,8,0:0:0:0:
261,98,28962,2,0,L|243:228,1,116.999996429443,2|2,0:0|1:2,0:0:0:0:
332,205,29436,2,0,L|401:198,1,58.4999982147217,8|2,0:0|0:0,0:0:0:0:
454,139,29752,2,0,L|511:148,2,58.4999982147217,2|0|10,1:2|1:0|0:0,0:0:0:0:
390,199,30225,2,0,L|383:267,1,58.4999982147217,2|0,0:0|1:0,0:0:0:0:
310,321,30541,1,0,1:0:0:0:
230,283,30699,1,8,0:0:0:0:
67,327,31015,6,0,L|128:343,1,58.4999982147217,0|0,1:0|1:0,0:0:0:0:
210,358,31331,1,8,0:0:0:0:
151,249,31488,2,0,L|136:124,1,116.999996429443,6|0,1:0|1:0,0:0:0:0:
200,71,31962,5,8,0:0:0:0:
122,29,32120,1,2,0:0:0:0:
56,86,32278,2,0,L|45:153,1,58.4999982147217,0|0,1:0|1:0,0:0:0:0:
28,230,32594,1,8,0:0:0:0:
117,207,32752,2,0,L|141:335,1,116.999996429443,2|0,0:0|1:0,0:0:0:0:
218,357,33225,1,8,0:0:0:0:
290,307,33383,2,0,L|369:318,1,58.4999982147217,2|0,0:0|1:0,0:0:0:0:
421,265,33699,2,0,L|488:251,1,58.4999982147217,2|8,1:2|0:0,0:0:0:0:
488,165,34015,6,0,L|360:193,1,116.999996429443,2|2,0:0|1:2,0:0:0:0:
306,133,34488,1,8,0:0:0:0:
371,74,34646,1,2,0:0:0:0:
301,21,34804,2,0,L|221:36,1,58.4999982147217,2|0,1:2|1:0,0:0:0:0:
175,88,35120,2,0,L|97:75,1,58.4999982147217,8|2,0:0|0:0,0:0:0:0:
51,137,35436,6,0,L|40:200,1,58.4999982147217,0|0,1:0|1:0,0:0:0:0:
24,279,35752,1,8,0:0:0:0:
194,229,36067,1,0,1:0:0:0:
194,229,36225,1,0,1:2:0:0:
268,274,36383,1,8,0:0:0:0:
362,165,36541,6,0,L|386:327,1,143.000004364014,6|2,0:0|0:0,0:0:0:0:
319,370,37015,2,0,L|239:386,1,71.5000021820069,10|2,0:0|0:0,0:0:0:0:
168,348,37331,1,2,1:2:0:0:
140,260,37488,1,2,0:0:0:0:
60,304,37646,1,10,0:0:0:0:
24,212,37804,6,0,L|44:60,1,143.000004364014,2|2,0:0|1:2,0:0:0:0:
128,124,38278,1,10,0:0:0:0:
212,68,38436,2,0,L|356:104,1,143.000004364014,2|0,0:0|1:0,0:0:0:0:
444,68,38909,1,10,0:0:0:0:
500,152,39067,1,0,0:0:0:0:
416,196,39225,6,0,L|404:280,1,71.5000021820069,2|2,1:2|1:2,0:0:0:0:
332,324,39541,1,10,0:0:0:0:
260,264,39699,2,0,L|252:192,2,71.5000021820069,2|0|2,0:0|1:0|1:2,0:0:0:0:
188,320,40173,1,10,0:0:0:0:
108,272,40331,6,0,L|124:116,1,143.000004364014,2|0,0:0|1:0,0:0:0:0:
134,37,40804,2,0,L|234:49,1,71.5000021820069,8|0,0:0|0:0,0:0:0:0:
283,97,41120,1,0,1:0:0:0:
341,24,41278,1,0,0:0:0:0:
400,95,41436,2,0,L|408:140,3,35.7500010910034,8|8|8|8,0:0|0:0|0:0|0:0,0:0:0:0:
429,91,41752,6,0,P|443:150|449:215,1,116.999996429443,4|0,1:2|0:0,0:0:0:0:
365,213,42225,2,0,P|354:281|357:345,1,116.999996429443,0|0,1:0|0:0,0:0:0:0:
283,364,42699,1,0,0:0:0:0:
229,301,42857,1,0,3:0:0:0:
163,351,43015,6,0,P|113:368|39:375,1,116.999996429443,0|0,1:0|0:0,0:0:0:0:
0,303,43488,2,0,P|62:280|132:275,1,116.999996429443,0|0,1:0|0:0,0:0:0:0:
175,223,43962,1,0,0:0:0:0:
153,143,44120,1,0,3:0:0:0:
217,92,44278,6,0,P|286:104|346:132,1,116.999996429443,0|0,1:0|0:0,0:0:0:0:
364,194,44752,2,0,P|442:183|484:157,1,116.999996429443,0|0,1:0|0:0,0:0:0:0:
437,91,45225,1,0,0:0:0:0:
489,28,45383,1,0,3:0:0:0:
408,17,45541,6,0,L|336:29,1,58.4999982147217,0|0,1:0|0:0,0:0:0:0:
281,72,45857,2,0,L|201:60,1,58.4999982147217,8|0,0:0|0:0,0:0:0:0:
140,62,46173,2,0,L|132:10,3,29.2499991073609,8|8|8|8,0:0|0:0|0:0|0:0,0:0:0:0:
119,96,46488,1,8,0:0:0:0:
32,64,46646,6,0,L|24:208,1,143.000004364014,4|2,1:2|1:2,0:0:0:0:
80,280,47120,1,10,0:0:0:0:
148,220,47278,2,0,P|196:232|280:180,1,143.000004364014,2|0,0:0|0:0,0:0:0:0:
320,108,47752,1,10,0:0:0:0:
404,148,47909,2,0,P|420:108|368:12,1,143.000004364014,6|2,1:2|1:2,0:0:0:0:
308,80,48383,1,10,0:0:0:0:
236,24,48541,5,2,1:2:0:0:
164,84,48699,1,0,1:0:0:0:
80,48,48857,1,0,1:0:0:0:
40,132,49015,1,8,0:0:0:0:
40,132,49173,2,0,L|48:224,1,71.5000021820069,6|0,1:2|1:0,0:0:0:0:
96,292,49488,6,0,L|40:300,3,35.7500010910034,10|8|10|8,0:0|0:0|0:0|0:0,0:0:0:0:
132,284,49804,2,0,L|144:192,1,71.5000021820069,0|0,1:0|0:0,0:0:0:0:
200,140,50120,2,0,L|160:128,3,35.7500010910034,8|8|10|8,0:0|0:0|0:0|0:0,0:0:0:0:
232,148,50436,2,0,L|244:240,1,71.5000021820069,0|0,1:0|0:0,0:0:0:0:
256,312,50752,5,10,0:0:0:0:
324,248,50909,1,10,0:0:0:0:
416,268,51067,1,10,0:0:0:0:
256,312,51383,6,0,L|264:156,1,146.249995536804
264,112,51857,6,0,L|144:140,1,84.4999961318971,6|0,1:2|0:0,0:0:0:0:
84,156,52173,1,10,0:0:0:0:
156,228,52331,2,0,L|144:344,1,84.4999961318971,2|0,0:0|1:0,0:0:0:0:
48,332,52646,2,0,L|32:232,1,84.4999961318971,2|8,0:0|0:0,0:0:0:0:
84,156,52962,1,2,0:0:0:0:
40,64,53120,6,0,L|212:80,1,168.999992263794,2|10,1:2|0:0,0:0:0:0:
304,112,53594,2,0,L|396:88,1,84.4999961318971,2|0,0:0|1:0,0:0:0:0:
476,136,53909,2,0,L|488:244,1,84.4999961318971,2|8,0:0|0:0,0:0:0:0:
468,320,54225,1,2,0:0:0:0:
396,248,54383,6,0,L|196:220,1,168.999992263794,2|10,1:2|0:0,0:0:0:0:
152,296,54857,2,0,L|56:320,1,84.4999961318971,2|0,0:0|1:0,0:0:0:0:
7,236,55173,1,2,0:0:0:0:
63,151,55331,1,10,0:0:0:0:
147,205,55488,1,2,0:0:0:0:
242,170,55646,6,0,L|238:266,1,84.4999961318971,0|0,1:0|0:0,0:0:0:0:
332,164,55962,2,0,L|320:80,1,84.4999961318971,8|0,0:0|0:0,0:0:0:0:
248,8,56278,1,2,1:2:0:0:
220,104,56436,1,2,0:0:0:0:
152,28,56594,1,10,0:0:0:0:
120,124,56752,1,2,0:0:0:0:
23,43,56909,6,0,L|42:222,1,168.999992263794,6|8,1:0|0:0,0:0:0:0:
229,288,57541,1,2,1:2:0:0:
145,230,57699,1,2,0:0:0:0:
72,301,57857,2,0,L|84:391,1,84.4999961318971,10|2,0:0|0:0,0:0:0:0:
183,366,58173,6,0,L|207:182,1,168.999992263794,2|8,1:0|0:0,0:0:0:0:
384,293,58804,1,2,1:2:0:0:
306,232,58962,1,2,0:0:0:0:
394,182,59120,1,10,0:0:0:0:
317,115,59278,6,0,L|125:139,1,168.999992263794,2|2,0:0|0:0,0:0:0:0:
48,151,59752,1,10,0:0:0:0:
115,225,59909,1,2,0:0:0:0:
191,158,60067,2,0,L|283:174,1,84.4999961318971,2|0,1:2|0:0,0:0:0:0:
341,95,60383,1,10,0:0:0:0:
432,139,60541,1,2,0:0:0:0:
376,223,60699,5,4,1:2:0:0:
416,316,60857,2,0,L|464:324,2,42.2499980659486,10|8|10,0:0|0:0|0:0,0:0:0:0:
318,345,61173,1,2,1:2:0:0:
240,280,61331,2,0,L|244:220,3,42.2499980659486,10|8|8|8,0:0|0:0|0:0|0:0,0:0:0:0:
192,288,61646,2,0,L|196:232,3,42.2499980659486,8|8|8|8,0:0|0:0|0:0|0:0,0:0:0:0:
152,300,61962,6,0,L|160:192,1,77.999997619629,6|0,1:2|0:0,0:0:0:0:
164,128,62278,1,10,0:0:0:0:
236,188,62436,2,0,L|324:208,1,77.999997619629,2|0,0:0|1:0,0:0:0:0:
396,248,62752,2,0,L|476:220,1,77.999997619629,2|8,0:0|0:0,0:0:0:0:
504,136,63067,1,2,0:0:0:0:
412,148,63225,6,0,L|236:104,1,155.999995239258,2|10,1:2|0:0,0:0:0:0:
168,84,63699,2,0,L|184:188,1,77.999997619629,2|0,0:0|1:0,0:0:0:0:
104,220,64015,2,0,L|92:128,1,77.999997619629,2|8,0:0|0:0,0:0:0:0:
24,80,64331,1,2,0:0:0:0:
92,16,64488,6,0,L|260:56,1,155.999995239258,2|10,1:2|0:0,0:0:0:0:
324,104,64962,2,0,L|344:16,1,77.999997619629,2|0,0:0|1:0,0:0:0:0:
416,84,65278,2,0,L|432:172,1,77.999997619629,2|8,0:0|0:0,0:0:0:0:
444,252,65594,1,2,0:0:0:0:
360,212,65752,6,0,L|344:376,1,155.999995239258,0|8,1:0|0:0,0:0:0:0:
200,248,66383,1,2,1:2:0:0:
140,320,66541,2,0,L|44:336,1,77.999997619629,2|8,0:0|0:0,0:0:0:0:
0,264,66857,1,10,0:0:0:0:
0,264,66936,1,8,0:0:0:0:
0,264,67015,6,0,L|24:100,1,155.999995239258,6|8,1:0|0:0,0:0:0:0:
84,40,67488,1,2,0:0:0:0:
140,112,67646,2,0,L|224:128,1,77.999997619629,2|2,1:2|0:0,0:0:0:0:
312,136,67962,2,0,L|300:48,1,77.999997619629,10|2,0:0|0:0,0:0:0:0:
220,120,68278,6,0,L|240:288,1,155.999995239258,2|8,1:0|0:0,0:0:0:0:
420,324,68909,2,0,L|436:232,1,77.999997619629,2|2,1:2|0:0,0:0:0:0:
456,156,69225,1,10,0:0:0:0:
368,188,69383,6,0,L|276:168,1,77.999997619629,2|0,0:0|1:0,0:0:0:0:
200,148,69699,2,0,L|184:240,1,77.999997619629,2|8,0:0|0:0,0:0:0:0:
108,172,70015,2,0,L|124:88,1,77.999997619629,2|0,0:0|1:0,0:0:0:0:
144,4,70331,2,0,L|252:32,1,77.999997619629,2|8,0:0|0:0,0:0:0:0:
296,76,70646,1,2,0:0:0:0:
388,52,70804,6,0,L|376:220,1,155.999995239258,6|8,1:2|0:0,0:0:0:0:
424,288,71278,1,0,1:0:0:0:
336,316,71436,2,0,L|324:368,3,38.9999988098145,12|8|8|8,0:0|0:0|0:0|0:0,0:0:0:0:
304,296,71752,2,0,L|292:352,3,38.9999988098145,8|8|8|8,0:0|0:0|0:0|0:0,0:0:0:0:
272,276,72067,6,0,L|176:296,1,71.5000021820069,4|0,1:2|1:0,0:0:0:0:
112,308,72383,2,0,L|124:156,2,143.000004364014,10|2|8,0:0|1:0|0:0,0:0:0:0:
176,376,73173,1,2,0:0:0:0:
202,290,73331,6,0,L|282:306,1,71.5000021820069,2|2,1:2|1:2,0:0:0:0:
352,336,73646,2,0,L|444:296,1,71.5000021820069,10|0,0:0|0:0,0:0:0:0:
500,260,73962,2,0,L|488:160,1,71.5000021820069,2|0,1:2|0:0,0:0:0:0:
404,156,74278,2,0,L|413:245,1,71.5000021820069,10|0,0:0|0:0,0:0:0:0:
324,188,74594,6,0,L|317:115,1,71.5000021820069,0|0,1:2|1:0,0:0:0:0:
308,24,74909,2,0,L|156:56,2,143.000004364014,10|2|8,0:0|1:0|0:0,0:0:0:0:
393,62,75699,1,2,0:0:0:0:
480,32,75857,6,0,L|500:116,1,71.5000021820069,2|2,1:2|1:2,0:0:0:0:
444,180,76173,2,0,L|436:264,1,71.5000021820069,10|2,0:0|0:0,0:0:0:0:
368,312,76488,1,2,1:2:0:0:
316,236,76646,1,2,1:2:0:0:
244,292,76804,2,0,L|152:312,1,71.5000021820069,10|0,0:0|0:0,0:0:0:0:
56,176,77120,6,0,L|144:192,1,71.5000021820069,4|0,1:2|1:0,0:0:0:0:
220,208,77436,2,0,L|240:60,2,143.000004364014,10|2|8,0:0|1:0|0:0,0:0:0:0:
276,280,78225,1,2,0:0:0:0:
360,240,78383,6,0,L|348:152,1,71.5000021820069,2|2,1:2|1:2,0:0:0:0:
404,92,78699,2,0,L|416:12,1,71.5000021820069,10|0,0:0|0:0,0:0:0:0:
324,12,79015,2,0,L|232:28,1,71.5000021820069,2|0,1:2|0:0,0:0:0:0:
224,112,79331,2,0,L|327:96,1,71.5000021820069,10|0,0:0|0:0,0:0:0:0:
268,188,79646,6,0,L|184:200,1,71.5000021820069,0|0,1:0|1:0,0:0:0:0:
104,212,79962,2,0,L|132:360,2,143.000004364014,10|2|8,0:0|1:0|0:0,0:0:0:0:
83,120,80752,1,2,0:0:0:0:
171,148,80909,6,0,L|251:132,1,71.5000021820069,2|2,1:2|1:2,0:0:0:0:
332,116,81225,2,0,L|352:212,1,71.5000021820069,10|2,0:0|0:0,0:0:0:0:
364,276,81541,2,0,L|288:296,1,71.5000021820069,2|2,1:2|1:2,0:0:0:0:
204,316,81857,2,0,L|184:220,1,71.5000021820069,10|0,0:0|0:0,0:0:0:0:
172,152,82173,5,4,1:2:0:0:
172,152,82331,1,4,0:0:0:0:
348,204,82646,2,0,L|432:184,2,71.5000021820069,2|2|2,0:0|0:0|0:0,0:0:0:0:
284,272,83120,1,2,0:0:0:0:
260,180,83278,1,6,0:0:0:0:
256,192,83357,12,0,88015,0:0:0:0:
