osu file format v14

[General]
AudioFilename: audio.mp3
AudioLeadIn: 0
PreviewTime: 51850
Countdown: 0
SampleSet: Soft
StackLeniency: 0.7
Mode: 2
LetterboxInBreaks: 0
WidescreenStoryboard: 0

[Editor]
DistanceSpacing: 2.4
BeatDivisor: 4
GridSize: 8
TimelineZoom: 1.7

[Metadata]
Title:Unreal Creation!
TitleUnicode:Unreal Creation!
Artist:Sakuragawa Megu
ArtistUnicode:櫻川めぐ
Creator:-Luminate
Version:Delightful
Source:ハミダシクリエイティブ
Tags:まどそふと madosoft video game galgame op opening female vocals japanese eroge visual novel Hamidashi Creative ハミクリ 堀江晶太 kemu stel pop j-pop jpop short ver version hamikuri
BeatmapID:3897998
BeatmapSetID:1891871

[Difficulty]
HPDrainRate:5
CircleSize:5.2
OverallDifficulty:9.4
ApproachRate:9.4
SliderMultiplier:1.76
SliderTickRate:2

[Events]
//Background and Video events
0,0,"bg.jpg",0,0
//Break Periods
//Storyboard Layer 0 (Background)
//Storyboard Layer 1 (Fail)
//Storyboard Layer 2 (Pass)
//Storyboard Layer 3 (Foreground)
//Storyboard Layer 4 (Overlay)
//Storyboard Sound Samples

[TimingPoints]
1318,315.789473684211,4,2,1,65,1,0
16160,-100,4,2,1,70,0,0
16475,-100,4,2,1,75,0,0
21528,-100,4,2,1,55,0,0
36212,-100,4,2,1,65,0,0
41423,-100,4,2,1,50,0,0
45844,-100,4,2,1,65,0,0
49160,-100,4,2,1,75,0,0
51844,-100,4,2,1,85,0,1
57212,-80,4,2,1,85,0,1
57528,-100,4,2,1,85,0,1
72054,-100,4,2,1,75,0,0
82318,-100,4,2,1,60,0,0
83423,-100,4,2,1,20,0,0
84686,-100,4,2,1,15,0,0
85949,-100,4,2,1,10,0,0
87212,-100,4,2,1,5,0,0

[Colours]
Combo1 : 94,255,255
Combo2 : 243,239,84
Combo3 : 255,157,111
Combo4 : 255,151,203

[HitObjects]
232,200,1318,5,14,0:0:0:0:
344,200,1475,1,8,0:0:0:0:
128,80,1633,2,0,L|24:80,1,88,8|0,0:1|0:0,0:0:0:0:
168,272,1870,2,0,L|240:272,1,44,8|8,0:1|0:0,0:0:0:0:
96,272,2107,1,8,0:0:0:0:
212,272,2265,2,0,L|216:160,1,88,8|0,0:1|0:0,0:0:0:0:
360,184,2502,6,0,L|432:184,1,44,8|8,0:1|0:0,0:0:0:0:
304,264,2739,1,8,0:0:0:0:
416,336,2896,2,0,L|304:336,1,88,8|0,0:1|0:0,0:0:0:0:
192,336,3133,2,0,L|120:336,1,44,8|8,0:1|0:0,0:0:0:0:
256,272,3370,1,8,0:0:0:0:
144,272,3528,2,0,L|136:152,1,88,8|0,0:1|0:0,0:0:0:0:
256,176,3844,5,8,0:0:0:0:
136,152,4001,1,8,0:0:0:0:
368,32,4159,2,0,L|472:32,1,88,8|0,0:1|0:0,0:0:0:0:
328,104,4396,2,0,L|256:104,1,44,8|8,0:1|0:0,0:0:0:0:
400,160,4633,1,8,0:0:0:0:
287,191,4791,2,0,L|283:79,1,88,8|0,0:1|0:0,0:0:0:0:
136,96,5028,6,0,L|64:96,1,44,8|8,0:1|0:0,0:0:0:0:
200,208,5265,1,8,0:0:0:0:
80,280,5422,2,0,L|192:280,1,88,8|0,0:1|0:0,0:0:0:0:
336,280,5659,2,0,L|408:280,1,44,8|8,0:1|0:0,0:0:0:0:
272,224,5896,1,8,0:0:0:0:
384,216,6054,2,0,L|392:96,1,88,8|0,0:1|0:0,0:0:0:0:
96,96,6370,6,0,L|216:96,1,88,8|8,0:0|0:0,0:0:0:0:
80,224,6686,1,8,0:1:0:0:
224,224,6844,2,0,L|288:224,1,44,8|8,0:0|0:1,0:0:0:0:
208,296,7002,2,0,L|104:296,1,88,8|8,0:0|0:0,0:0:0:0:
256,368,7318,1,8,0:1:0:0:
40,128,7475,5,8,0:0:0:0:
96,128,7554,1,8,0:1:0:0:
152,128,7633,1,8,0:0:0:0:
40,248,7791,1,8,0:0:0:0:
272,312,7949,2,0,L|184:312,1,88,8|0,0:1|0:0,0:0:0:0:
232,272,8186,2,0,L|312:272,1,44,8|8,0:1|0:0,0:0:0:0:
152,208,8423,1,8,0:0:0:0:
272,168,8581,2,0,L|280:56,1,88,8|0,0:1|0:0,0:0:0:0:
488,320,8896,6,0,L|392:320,1,88,8|8,0:0|0:0,0:0:0:0:
488,224,9212,1,8,0:1:0:0:
264,216,9370,2,0,L|200:216,1,44,0|8,0:0|0:1,0:0:0:0:
272,152,9528,2,0,L|392:152,1,88,8|8,0:0|0:0,0:0:0:0:
152,64,9844,2,0,L|40:64,1,88,8|0,0:1|0:0,0:0:0:0:
112,104,10081,6,0,L|192:104,1,44,8|8,0:1|0:0,0:0:0:0:
64,208,10318,1,8,0:0:0:0:
296,216,10475,2,0,L|416:216,1,88,8|0,0:1|0:0,0:0:0:0:
328,256,10712,2,0,L|272:256,1,44,8|8,0:1|0:0,0:0:0:0:
400,320,10949,1,8,0:0:0:0:
280,320,11107,1,8,0:1:0:0:
496,232,11265,5,8,0:0:0:0:
392,224,11423,2,0,L|384:104,1,88,8|8,0:0|0:0,0:0:0:0:
264,128,11739,2,0,L|368:128,1,88,8|0,0:1|0:0,0:0:0:0:
304,72,11975,2,0,L|256:72,1,44,8|8,0:1|0:0,0:0:0:0:
136,152,12212,1,8,0:0:0:0:
256,216,12370,1,8,0:1:0:0:
144,224,12528,6,0,L|144:296,1,44,8|8,0:0|0:1,0:0:0:0:
208,264,12686,2,0,L|320:264,1,88,8|8,0:0|0:0,0:0:0:0:
64,328,13002,2,0,L|184:328,1,88,8|0,0:1|0:0,0:0:0:0:
192,272,13239,2,0,L|136:272,1,44,8|8,0:1|0:0,0:0:0:0:
304,336,13475,1,8,0:0:0:0:
168,360,13633,1,8,0:1:0:0:
432,152,13791,6,0,L|440:280,1,88,8|8,0:0|0:0,0:0:0:0:
288,248,14107,2,0,L|272:128,1,88,8|8,0:0|0:1,0:0:0:0:
408,96,14423,2,0,L|352:96,1,44,8|8,0:0|0:1,0:0:0:0:
312,80,14581,2,0,L|408:80,1,88,8|8,0:0|0:0,0:0:0:0:
176,240,14896,2,0,L|64:240,1,88,8|0,0:1|0:0,0:0:0:0:
312,352,15212,6,0,L|320:224,1,88,10|8,0:0|0:0,0:0:0:0:
424,264,15528,1,10,0:1:0:0:
176,184,15686,1,10,0:0:0:0:
288,184,15844,2,0,L|360:184,1,44,8|0,3:1|3:0,3:0:0:0:
200,104,16002,2,8,L|144:104,1,44,8|8,3:1|3:1,3:1:0:0:
368,24,16160,2,8,L|440:24,1,44,8|8,3:1|3:1,3:1:0:0:
128,24,16318,2,8,L|64:24,1,44,8|8,3:1|3:1,3:1:0:0:
416,328,16475,6,0,L|528:328,1,88,14|8,0:0|0:0,0:0:0:0:
256,248,16791,2,0,L|144:248,1,88,8|0,0:1|0:0,0:0:0:0:
304,168,17028,2,0,L|360:168,1,44,8|10,0:1|0:0,0:0:0:0:
112,96,17265,1,8,0:0:0:0:
352,56,17423,1,8,0:1:0:0:
232,112,17581,5,8,0:0:0:0:
288,120,17660,1,8,0:1:0:0:
344,128,17739,1,10,0:0:0:0:
200,224,17896,1,8,0:0:0:0:
448,224,18054,2,0,L|456:344,1,88,8|8,0:1|0:0,0:0:0:0:
288,336,18291,1,8,0:1:0:0:
232,336,18370,1,10,0:0:0:0:
112,336,18528,1,8,0:0:0:0:
320,248,18686,2,0,L|424:248,1,88,8|0,0:1|0:0,0:0:0:0:
144,176,19002,5,10,0:0:0:0:
256,128,19160,1,8,0:0:0:0:
144,88,19318,1,8,0:1:0:0:
360,96,19475,2,0,L|416:96,1,44,8|8,0:0|0:1,0:0:0:0:
248,232,19633,2,0,L|136:232,1,88,10|8,0:0|0:0,0:0:0:0:
400,304,19949,2,0,L|280:304,1,88,8|0,0:1|0:0,0:0:0:0:
112,304,20186,6,0,L|192:304,1,44,8|10,0:1|0:0,0:0:0:0:
64,216,20423,1,8,0:0:0:0:
328,152,20581,2,0,L|216:152,1,88,14|8,0:0|0:0,0:0:0:0:
64,152,20818,2,0,L|56:88,1,44,8|8,0:1|0:0,0:0:0:0:
344,304,21054,2,8,L|416:304,1,44
224,208,21212,2,8,L|160:208,1,44,8|8,0:1|0:1,0:1:0:0:
416,80,21370,2,8,L|472:80,1,44,8|8,0:1|0:1,0:1:0:0:
224,72,21528,5,14,0:0:0:0:
224,72,21686,1,8,0:0:0:0:
112,144,21844,1,8,0:1:0:0:
224,200,22002,2,8,L|280:200,1,44
208,264,22160,2,0,L|88:264,1,88,8|0,0:0|0:0,0:0:0:0:
256,328,22475,1,8,0:1:0:0:
120,272,22633,2,8,L|64:272,1,44
128,200,22791,6,0,L|224:200,1,88,8|8,0:0|0:0,0:0:0:0:
352,200,23107,1,8,0:1:0:0:
216,144,23265,1,8,0:0:0:0:
264,144,23344,1,8,0:0:0:0:
312,144,23423,1,8,0:0:0:0:
192,64,23581,2,0,L|88:64,1,88,8|8,0:0|0:1,0:0:0:0:
344,344,23896,6,0,L|352:240,1,88,2|8,0:0|0:0,0:0:0:0:
240,216,24212,1,8,0:0:0:0:
352,176,24370,1,8,0:1:0:0:
240,120,24528,2,0,L|192:120,2,44,8|8|8,0:0|0:1|0:0,0:0:0:0:
352,88,24844,1,0,0:0:0:0:
240,56,25002,1,8,0:1:0:0:
352,32,25160,2,8,L|288:32,1,44
248,96,25318,6,0,L|368:96,1,88,8|8,0:0|0:0,0:0:0:0:
200,240,25633,2,0,L|96:240,1,88,8|0,0:1|0:0,0:0:0:0:
160,216,25870,1,8,0:0:0:0:
208,200,25949,1,8,0:0:0:0:
112,144,26107,1,10,0:0:0:0:
392,232,26265,1,10,0:1:0:0:
96,344,26423,6,0,P|48:280|120:216,1,176,14|8,0:0|0:0,0:0:0:0:
352,248,26896,1,8,0:1:0:0:
232,184,27054,1,8,0:0:0:0:
288,160,27133,1,8,0:0:0:0:
352,144,27212,1,8,0:0:0:0:
240,96,27370,1,8,0:0:0:0:
136,64,27528,1,8,0:1:0:0:
240,32,27686,2,8,L|296:32,1,44
136,272,27844,6,0,L|48:272,2,88,8|8|8,0:0|0:0|0:1,0:0:0:0:
264,272,28318,2,8,L|328:272,1,44
248,208,28475,2,0,L|152:208,1,88,8|8,0:0|0:0,0:0:0:0:
272,128,28791,1,8,0:1:0:0:
48,56,28949,6,0,L|224:56,1,176,8|8,0:0|0:0,0:0:0:0:
136,120,29423,1,8,0:1:0:0:
248,168,29581,1,8,0:0:0:0:
200,184,29660,1,8,0:0:0:0:
152,200,29739,1,8,0:0:0:0:
280,264,29896,1,8,0:0:0:0:
152,312,30054,1,8,0:1:0:0:
280,336,30212,2,8,L|352:336,1,44
264,280,30370,6,0,L|176:280,1,88,8|8,0:0|0:0,0:0:0:0:
312,152,30686,2,0,L|200:152,1,88,8|0,0:1|0:0,0:0:0:0:
96,96,30923,2,0,L|168:96,1,44,8|8,0:1|0:0,0:0:0:0:
272,88,31160,1,10,0:0:0:0:
32,96,31318,1,10,0:1:0:0:
272,224,31475,6,0,P|320:288|248:352,1,176,14|0,0:0|0:0,0:0:0:0:
48,344,31949,1,8,0:1:0:0:
160,272,32107,2,8,L|96:272,1,44
48,272,32265,2,0,L|40:152,1,88,8|8,0:0|0:0,0:0:0:0:
160,184,32581,1,8,0:1:0:0:
40,128,32739,2,8,L|96:128,1,44
152,120,32896,6,0,L|32:120,1,88,8|8,0:0|0:0,0:0:0:0:
184,240,33212,1,8,0:1:0:0:
64,312,33370,2,8,L|64:256,1,44
136,264,33528,2,0,L|240:264,1,88,8|8,0:0|0:0,0:0:0:0:
344,264,33844,1,8,0:1:0:0:
136,264,34002,6,0,L|128:64,1,176,10|8,0:0|0:0,0:0:0:0:
264,80,34475,1,8,0:1:0:0:
128,48,34633,2,8,L|200:48,1,44
396,168,34791,1,8,0:0:0:0:
288,128,34949,1,8,0:0:0:0:
396,96,35107,1,8,0:1:0:0:
256,48,35265,2,8,L|192:48,1,44
144,48,35423,6,0,L|136:176,1,88,8|8,0:0|0:0,0:0:0:0:
368,208,35739,2,0,L|384:328,1,88,8|0,0:1|0:0,0:0:0:0:
320,296,35975,1,8,0:1:0:0:
144,296,36054,1,8,0:0:0:0:
256,248,36212,1,8,0:0:0:0:
40,192,36370,1,8,0:0:0:0:
256,136,36528,6,0,P|344:184|336:256,1,176,14|10,0:0|0:0,0:0:0:0:
48,288,37002,1,10,0:1:0:0:
168,232,37160,1,8,0:0:0:0:
48,208,37318,1,10,0:0:0:0:
296,152,37475,1,10,0:0:0:0:
184,96,37633,1,10,0:1:0:0:
296,64,37791,2,0,L|360:64,1,44,10|8,0:0|0:1,0:0:0:0:
184,96,37949,6,0,L|64:96,1,88,8|10,0:0|0:0,0:0:0:0:
336,264,38265,1,8,0:1:0:0:
224,248,38423,2,0,L|216:184,1,44,10|8,0:0|0:1,0:0:0:0:
272,184,38581,1,8,0:0:0:0:
144,136,38739,1,8,0:0:0:0:
272,96,38896,2,8,L|376:96,1,88,8|8,0:1|0:0,0:0:0:0:
136,344,39212,5,10,0:0:0:0:
240,304,39370,1,8,0:0:0:0:
128,272,39528,1,10,0:1:0:0:
240,224,39686,2,0,L|288:224,1,44,10|8,0:0|0:1,0:0:0:0:
144,120,39844,2,0,L|48:120,1,88,8|8,0:0|0:0,0:0:0:0:
192,200,40160,1,10,0:1:0:0:
56,272,40318,2,8,L|120:272,1,44,10|8,0:0|0:1,0:0:0:0:
272,272,40475,6,0,L|392:272,1,88,8|8,0:0|0:0,0:0:0:0:
240,152,40791,1,8,0:1:0:0:
368,80,40949,1,0,3:0:0:0:
320,80,41028,1,0,3:0:0:0:
272,80,41107,1,0,3:0:0:0:
392,184,41265,2,8,L|456:184,1,44
256,296,41423,2,8,L|192:296,1,44,8|8,0:1|0:1,0:1:0:0:
440,344,41581,2,8,L|496:344,1,44,8|8,0:1|0:1,0:1:0:0:
208,240,41739,5,14,0:0:0:0:
120,200,41896,1,2,0:0:0:0:
104,112,42054,1,2,0:0:0:0:
232,296,42212,2,0,L|240:120,1,176,2|2,0:0|0:0,0:0:0:0:
384,176,42686,2,0,L|376:80,1,88,2|2,0:0|0:0,0:0:0:0:
248,80,43002,5,8,0:0:0:0:
400,280,43318,1,2,0:0:0:0:
264,280,43475,2,0,P|192:248|184:160,1,176,8|2,0:0|0:0,0:0:0:0:
304,152,43949,2,0,L|304:48,1,88,8|0,0:0|0:0,0:0:0:0:
152,64,44265,6,0,L|144:240,1,176,10|0,0:0|0:0,0:0:0:0:
256,312,44739,2,0,L|48:312,1,176,10|0,0:0|0:0,0:0:0:0:
160,272,45212,1,8,0:0:0:0:
80,240,45370,1,2,0:0:0:0:
224,224,45528,6,0,L|232:72,1,132,8|0,0:0|0:0,0:0:0:0:
416,88,45844,2,0,L|512:88,1,88,8|0,0:1|0:0,0:0:0:0:
368,168,46160,2,8,L|296:168,1,44,8|8,0:1|0:1,0:1:0:0:
176,168,46318,2,8,L|112:168,1,44,8|8,0:1|0:1,0:1:0:0:
280,288,46475,2,8,L|360:288,1,44,8|8,0:1|0:1,0:1:0:0:
96,352,46633,6,0,P|48:296|128:232,1,176,14|2,0:0|0:0,0:0:0:0:
328,232,47107,1,10,0:1:0:0:
208,192,47265,2,8,L|144:192,1,44,8|8,0:1|0:1,0:1:0:0:
440,80,47423,2,0,L|448:192,1,88,10|8,0:0|0:0,0:0:0:0:
208,288,47739,1,8,0:1:0:0:
448,320,47896,6,0,L|240:320,1,176,14|0,0:0|0:0,0:0:0:0:
376,264,48370,1,10,0:1:0:0:
152,216,48528,2,8,L|144:152,1,44,8|8,0:0|0:1,0:0:0:0:
304,136,48686,1,8,0:0:0:0:
192,112,48844,1,10,0:0:0:0:
416,32,49002,1,10,0:1:0:0:
112,24,49160,6,0,P|88:104|128:128,1,132,14|0,0:0|0:0,0:0:0:0:
304,120,49475,2,8,L|360:120,1,44,8|8,0:1|0:1,0:1:0:0:
104,280,49633,2,8,L|48:280,1,44,8|8,0:1|0:1,0:1:0:0:
232,240,49791,1,8,0:0:0:0:
128,232,49949,2,8,L|176:232,1,44,8|8,0:1|0:1,0:1:0:0:
368,232,50107,2,8,L|432:232,1,44,8|8,0:1|0:1,0:1:0:0:
168,56,50265,2,8,L|112:56,1,44,8|8,0:3|0:3,0:3:0:0:
412,232,50423,6,0,P|444:184|356:104,1,176,14|8,0:0|0:0,0:0:0:0:
112,88,50896,1,8,0:1:0:0:
424,80,51054,1,4,0:3:0:0:
256,80,51370,2,0,L|248:328,1,220,2|0,0:0|0:0,0:0:0:0:
96,344,51844,6,0,L|0:344,1,88,14|0,0:0|0:0,0:0:0:0:
248,256,52160,1,8,0:1:0:0:
112,248,52318,2,0,L|104:120,1,88,2|8,0:0|0:0,0:0:0:0:
344,144,52633,2,0,L|352:256,1,88,2|8,0:0|0:1,0:0:0:0:
208,240,52949,2,0,L|152:240,1,44,0|0,3:2|3:0,3:0:0:0:
368,328,53107,6,0,L|480:328,1,88,10|0,0:0|0:0,0:0:0:0:
208,184,53423,1,10,0:1:0:0:
464,120,53581,2,0,L|344:120,1,88,2|8,0:0|0:0,0:0:0:0:
120,88,53896,2,0,L|240:88,1,88,2|8,0:0|0:1,0:0:0:0:
80,216,54212,2,0,L|24:216,1,44,2|0,3:2|3:0,3:0:0:0:
264,320,54370,6,0,L|368:320,1,88,10|0,0:0|0:0,0:0:0:0:
232,248,54686,1,8,0:1:0:0:
360,200,54844,2,0,L|368:72,1,88,2|8,0:0|0:0,0:0:0:0:
472,112,55160,1,2,0:0:0:0:
216,80,55318,1,8,0:1:0:0:
344,80,55475,2,2,L|392:80,1,44,0|0,3:0|3:0,3:2:0:0:
200,272,55633,6,0,L|88:272,1,88,10|0,0:0|0:0,0:0:0:0:
256,160,55949,2,0,L|360:160,1,88,8|0,0:1|0:0,0:0:0:0:
80,48,56265,1,10,0:0:0:0:
208,96,56423,1,2,0:0:0:0:
80,176,56581,1,10,0:1:0:0:
344,264,56739,2,8,L|416:264,1,44,8|8,0:3|0:3,0:3:0:0:
216,336,56896,6,0,L|88:336,1,88,14|0,0:0|0:0,0:0:0:0:
256,184,57212,2,0,L|144:184,1,110,8|0,0:1|0:0,0:0:0:0:
32,184,57528,1,10,0:0:0:0:
344,104,57686,1,2,0:0:0:0:
200,56,57844,1,10,0:1:0:0:
424,320,58002,2,0,L|480:320,1,44,2|0,3:2|3:0,3:0:0:0:
200,280,58160,6,0,L|104:280,1,88,8|0,0:0|0:0,0:0:0:0:
248,184,58475,2,0,L|368:184,1,88,8|0,0:1|0:0,0:0:0:0:
80,96,58791,1,10,0:0:0:0:
200,72,58949,1,2,0:0:0:0:
464,48,59107,1,10,0:1:0:0:
240,32,59265,2,0,L|168:32,1,44,2|0,3:2|3:0,3:0:0:0:
368,176,59423,6,0,L|464:176,1,88,10|8,0:0|0:0,0:0:0:0:
208,272,59739,1,8,0:1:0:0:
336,304,59896,2,0,L|272:304,1,44,2|0,3:2|3:0,0:0:0:0:
56,216,60054,2,0,L|48:328,1,88,10|8,0:0|0:0,0:0:0:0:
296,248,60370,1,8,0:1:0:0:
168,288,60528,1,2,0:0:0:0:
424,352,60686,5,14,0:0:0:0:
168,360,60844,2,8,L|96:360,1,44,8|8,0:1|0:1,0:1:0:0:
352,264,61002,2,8,L|416:264,1,44,8|8,0:1|0:1,0:1:0:0:
224,192,61160,2,8,L|216:128,1,44,8|8,0:3|0:3,0:3:0:0:
280,152,61318,2,8,L|288:96,1,44,8|8,0:0|0:0,0:3:0:0:
136,48,61475,2,8,L|72:48,1,44,8|8,0:1|0:1,0:1:0:0:
392,48,61633,2,8,L|448:48,1,44,8|8,0:1|0:1,0:1:0:0:
136,320,61791,2,8,L|72:320,1,44,8|8,0:1|0:1,0:1:0:0:
392,328,61949,6,0,L|520:328,1,88,14|0,0:0|0:0,0:0:0:0:
184,272,62265,1,8,0:1:0:0:
312,200,62423,2,0,L|160:200,1,132,2|0,0:0|0:0,0:0:0:0:
336,96,62739,2,0,L|440:96,1,88,2|8,0:0|0:1,0:0:0:0:
192,24,63054,2,0,L|136:24,1,44,0|0,3:0|3:0,3:0:0:0:
312,280,63212,6,0,L|320:168,1,88,10|0,0:0|0:0,0:0:0:0:
184,192,63528,1,8,0:1:0:0:
392,328,63686,2,0,L|504:328,1,88,2|8,0:0|0:0,0:0:0:0:
168,328,64002,2,0,L|64:328,1,88,2|8,0:0|0:1,0:0:0:0:
224,248,64318,2,0,L|296:248,1,44,0|0,3:0|3:0,3:0:0:0:
456,200,64475,6,0,L|336:200,1,88,10|8,0:0|0:0,0:0:0:0:
464,104,64791,1,8,0:1:0:0:
184,112,64949,2,0,P|104:136|104:200,1,132,2|0,0:0|0:0,0:0:0:0:
312,224,65265,2,0,L|320:336,1,88,2|8,0:0|0:1,0:0:0:0:
200,312,65581,1,2,0:0:0:0:
426,295,65739,6,0,L|434:175,1,88,8|0,0:0|0:0,0:0:0:0:
184,152,66054,2,0,L|72:152,1,88,8|0,0:1|0:0,0:0:0:0:
432,208,66370,1,10,0:0:0:0:
320,160,66528,1,10,0:0:0:0:
432,112,66686,1,8,0:1:0:0:
168,48,66844,2,8,L|104:48,1,44,8|8,3:0|3:0,3:0:0:0:
320,160,67002,6,0,L|440:160,1,88,14|0,0:0|0:0,0:0:0:0:
104,312,67318,2,0,L|216:312,1,88,8|0,0:1|0:0,0:0:0:0:
328,312,67633,1,10,0:0:0:0:
104,200,67791,1,2,0:0:0:0:
344,160,67949,1,8,0:1:0:0:
104,72,68107,2,0,L|56:72,1,44,2|0,3:2|3:0,3:0:0:0:
344,40,68265,6,0,L|456:40,1,88,10|0,0:0|0:0,0:0:0:0:
184,200,68581,2,0,L|176:312,1,88,8|0,0:1|0:0,0:0:0:0:
312,288,68896,1,10,0:0:0:0:
56,336,69054,1,2,0:0:0:0:
312,344,69212,2,0,L|384:344,1,44,8|0,3:1|3:0,0:0:0:0:
144,144,69370,6,0,L|32:144,1,88,2|8,0:0|0:0,0:0:0:0:
312,288,69686,2,0,L|208:288,1,88,2|8,0:0|0:1,0:0:0:0:
472,120,70002,2,0,L|360:120,1,88,2|8,0:0|0:0,0:0:0:0:
144,112,70318,2,0,L|40:112,1,88,2|8,0:0|0:1,0:0:0:0:
320,224,70633,2,0,L|376:224,1,44,2|0,3:2|3:0,3:0:0:0:
144,336,70791,6,0,L|136:232,1,88,14|8,0:0|0:1,0:0:0:0:
184,248,71028,1,8,0:1:0:0:
344,280,71107,2,8,L|280:280,1,44,8|8,0:1|0:1,0:1:0:0:
96,128,71265,2,8,L|176:128,1,44,8|8,0:3|0:3,0:3:0:0:
320,128,71423,2,4,L|376:128,1,44,4|4,0:3|0:3,0:3:0:0:
184,48,71581,2,8,L|120:48,1,44
360,208,71739,2,8,L|416:208,1,44,8|8,0:1|0:1,0:1:0:0:
104,296,71896,2,8,L|48:296,1,44,8|8,0:1|0:1,0:1:0:0:
408,336,72054,6,0,L|512:336,1,88,14|0,0:0|0:0,0:0:0:0:
208,240,72370,1,8,0:1:0:0:
328,216,72528,2,8,L|336:152,1,44
160,160,72686,2,0,L|64:160,1,88,10|8,0:0|0:0,0:0:0:0:
304,320,73002,2,0,L|192:320,1,88,8|0,0:1|0:0,0:0:0:0:
344,248,73318,5,10,0:0:0:0:
224,240,73475,1,8,0:0:0:0:
456,200,73633,2,0,L|464:80,1,88,8|8,0:1|0:0,0:0:0:0:
256,96,73870,2,0,L|184:96,1,44,8|10,0:0|0:0,0:0:0:0:
328,240,74107,1,8,0:0:0:0:
96,240,74265,2,0,P|48:328|88:360,1,132,8|0,0:1|0:0,0:0:0:0:
256,328,74581,5,10,0:0:0:0:
256,328,74739,1,8,0:0:0:0:
392,328,74896,2,0,L|496:328,1,88,8|0,0:1|0:0,0:0:0:0:
264,136,75133,2,0,L|200:136,1,44,8|10,0:0|0:0,0:0:0:0:
336,208,75370,1,8,0:0:0:0:
112,208,75528,2,0,L|8:216,1,88,8|0,0:1|0:0,0:0:0:0:
72,240,75765,1,8,0:0:0:0:
328,352,75844,5,10,0:0:0:0:
200,336,76002,1,8,0:0:0:0:
432,240,76160,1,8,0:1:0:0:
200,200,76318,1,8,0:0:0:0:
328,144,76475,1,10,0:0:0:0:
96,80,76633,1,8,0:0:0:0:
440,56,76791,2,0,L|296:48,1,132,10|0,0:1|0:0,0:0:0:0:
152,48,77107,5,14,0:0:0:0:
152,48,77265,1,8,0:0:0:0:
24,144,77423,2,0,L|16:240,1,88,10|8,0:1|0:0,0:0:0:0:
72,232,77660,1,8,0:0:0:0:
272,232,77739,2,8,L|376:232,1,88,10|8,0:0|0:0,0:0:0:0:
104,336,78054,2,0,L|200:336,1,88,8|8,0:1|0:0,0:0:0:0:
248,336,78291,1,8,0:0:0:0:
432,328,78370,5,10,0:0:0:0:
320,272,78528,1,0,0:0:0:0:
440,232,78686,2,0,L|448:128,1,88,10|8,0:1|0:0,0:0:0:0:
392,144,78923,1,8,0:1:0:0:
184,128,79002,1,10,0:0:0:0:
304,104,79160,1,8,0:0:0:0:
48,48,79318,2,0,P|48:128|112:160,1,132,10|0,0:1|0:0,0:0:0:0:
272,160,79633,5,10,0:0:0:0:
272,160,79791,1,8,0:0:0:0:
400,160,79949,2,0,L|512:160,1,88,10|0,0:1|0:0,0:0:0:0:
440,192,80186,1,8,0:0:0:0:
224,272,80265,2,0,L|104:272,1,88,10|8,0:0|0:0,0:0:0:0:
416,344,80581,2,0,L|320:344,1,88,8|8,0:1|0:0,0:0:0:0:
272,344,80818,1,8,0:1:0:0:
88,336,80896,6,0,L|8:336,1,44,14|8,3:1|3:1,3:0:0:0:
280,224,81054,2,8,L|328:224,1,44,8|8,3:1|3:1,3:1:0:0:
152,64,81212,2,8,L|80:64,1,44,8|8,3:0|3:0,3:0:0:0:
360,48,81370,2,8,L|416:48,1,44,8|8,3:0|3:0,3:0:0:0:
216,160,81528,2,4,L|160:160,1,44,4|4,3:0|3:0,3:0:0:0:
352,344,81686,2,4,L|272:344,1,44,4|4,3:0|3:0,3:0:0:0:
96,248,81844,1,8,3:1:0:0:
152,248,81923,1,8,3:1:0:0:
312,240,82002,1,8,3:1:0:0:
456,240,82081,1,8,3:1:0:0:
312,80,82160,5,14,0:0:0:0:
408,80,82318,2,0,L|408:264,1,176,10|2,0:0|0:0,0:0:0:0:
184,320,82712,2,0,L|120:320,1,44,2|2,0:0|0:0,0:0:0:0:
264,248,82949,1,2,0:0:0:0:
144,192,83107,1,2,0:0:0:0:
400,168,83265,5,14,0:0:0:0:
256,192,83423,12,0,88160,0:0:0:0:
