osu file format v14

[General]
AudioFilename: audio.mp3
AudioLeadIn: 0
PreviewTime: 51850
Countdown: 0
SampleSet: Soft
StackLeniency: 0.7
Mode: 2
LetterboxInBreaks: 0
WidescreenStoryboard: 1

[Editor]
DistanceSpacing: 2.4
BeatDivisor: 4
GridSize: 8
TimelineZoom: 1.8

[Metadata]
Title:Unreal Creation!
TitleUnicode:Unreal Creation!
Artist:Sakuragawa Megu
ArtistUnicode:櫻川めぐ
Creator:-Luminate
Version:Cup
Source:ハミダシクリエイティブ
Tags:まどそふと madosoft video game galgame op opening female vocals japanese eroge visual novel Hamidashi Creative ハミクリ 堀江晶太 kemu stel pop j-pop jpop short ver version hamikuri
BeatmapID:3907236
BeatmapSetID:1891871

[Difficulty]
HPDrainRate:2
CircleSize:2.5
OverallDifficulty:6
ApproachRate:6
SliderMultiplier:1.51
SliderTickRate:1

[Events]
//Background and Video events
0,0,"bg.jpg",0,0
//Break Periods
//Storyboard Layer 0 (Background)
//Storyboard Layer 1 (Fail)
//Storyboard Layer 2 (Pass)
//Storyboard Layer 3 (Foreground)
//Storyboard Layer 4 (Overlay)
//Storyboard Sound Samples

[TimingPoints]
1318,315.789473684211,4,2,1,65,1,0
16160,-100,4,2,1,70,0,0
16475,-100,4,2,1,75,0,0
21528,-100,4,2,1,55,0,0
36212,-100,4,2,1,65,0,0
41423,-100,4,2,1,50,0,0
45844,-100,4,2,1,65,0,0
49160,-100,4,2,1,75,0,0
51844,-100,4,2,1,85,0,1
72054,-100,4,2,1,75,0,0
82318,-100,4,2,1,60,0,0
83423,-100,4,2,1,20,0,0
84686,-100,4,2,1,15,0,0
85949,-100,4,2,1,10,0,0
87212,-100,4,2,1,5,0,0

[Colours]
Combo1 : 94,255,255
Combo2 : 243,239,84
Combo3 : 255,157,111
Combo4 : 255,151,203

[HitObjects]
104,240,1318,6,0,L|96:80,1,151,14|8,0:0|0:1,0:0:0:0:
208,240,1949,1,8,0:0:0:0:
216,160,2107,1,8,0:0:0:0:
224,88,2265,1,8,0:1:0:0:
384,256,2581,6,0,L|392:96,1,151,8|8,0:0|0:1,0:0:0:0:
272,240,3212,1,8,0:0:0:0:
264,160,3370,1,8,0:0:0:0:
256,88,3528,1,8,0:1:0:0:
120,328,3844,6,0,L|240:200,1,151,8|8,0:0|0:1,0:0:0:0:
344,224,4475,1,8,0:0:0:0:
344,136,4633,1,8,0:0:0:0:
344,64,4791,1,8,0:1:0:0:
480,144,5107,6,0,L|360:32,1,151,8|8,0:0|0:1,0:0:0:0:
264,224,5739,1,8,0:0:0:0:
312,184,5896,1,8,0:0:0:0:
360,152,6054,1,8,0:1:0:0:
200,64,6370,6,0,L|192:248,1,151,8|8,0:0|0:1,0:0:0:0:
272,320,6844,2,0,P|240:208|184:192,1,151,8|8,0:0|0:0,0:0:0:0:
152,192,7318,1,8,0:1:0:0:
37,325,7633,6,0,L|43:160,1,151,8|8,0:0|0:1,0:0:0:0:
112,184,8107,2,0,L|248:88,1,151,8|0,0:0|0:1,0:0:0:0:
184,64,8581,1,8,0:1:0:0:
328,64,8896,6,0,L|336:240,1,151,8|8,0:0|0:1,0:0:0:0:
272,216,9370,1,0,0:0:0:0:
176,288,9686,1,8,0:0:0:0:
272,352,10002,1,0,0:0:0:0:
344,344,10160,6,0,P|376:264|336:208,1,151,8|8,0:0|0:1,0:0:0:0:
224,192,10791,2,0,L|216:40,1,151,8|8,0:0|0:1,0:0:0:0:
152,40,11265,1,8,0:0:0:0:
80,40,11423,6,0,L|72:208,1,151,8|8,0:0|0:1,0:0:0:0:
216,80,12054,2,0,L|224:256,1,151,8|8,0:0|0:1,0:0:0:0:
296,248,12528,1,8,0:0:0:0:
368,240,12686,6,0,L|376:72,1,151,8|8,0:0|0:1,0:0:0:0:
240,88,13318,2,0,L|232:248,1,151,8|8,0:0|0:1,0:0:0:0:
304,232,13791,6,0,P|368:280|384:368,1,151,8|8,0:0|0:0,0:0:0:0:
264,352,14423,2,0,P|200:304|184:216,1,151,8|8,0:0|0:0,0:0:0:0:
304,192,15054,1,0,0:0:0:0:
304,136,15212,5,10,0:0:0:0:
184,144,15528,1,10,0:1:0:0:
120,144,15686,2,0,P|88:208|120:280,1,151,10|8,0:0|3:1,0:0:0:0:
176,272,16160,1,8,3:1:0:0:
248,272,16318,6,0,P|328:152|296:80,1,226.5,8|8,3:1|0:1,0:0:0:0:
240,88,16949,1,0,0:0:0:0:
344,72,17265,1,8,0:0:0:0:
344,40,17423,1,8,0:1:0:0:
192,32,17739,6,0,L|184:208,1,151,10|8,0:0|0:1,0:0:0:0:
296,224,18370,1,10,0:0:0:0:
184,272,18686,1,8,0:1:0:0:
336,336,19002,6,0,L|344:184,1,151,10|8,0:0|0:1,0:0:0:0:
272,176,19475,2,0,P|192:144|168:64,1,151,8|8,0:0|0:0,0:0:0:0:
168,40,19949,1,8,0:1:0:0:
320,304,20265,5,10,0:0:0:0:
200,304,20581,1,14,0:0:0:0:
320,304,20896,2,0,L|328:152,1,151,8|8,0:0|0:1,0:0:0:0:
472,152,21528,5,14,0:0:0:0:
336,72,21844,1,8,0:1:0:0:
280,88,22002,2,0,L|272:248,1,151,8|0,0:0|0:0,0:0:0:0:
336,240,22475,1,8,0:1:0:0:
208,344,22791,6,0,P|144:296|136:208,1,151,8|8,0:0|0:1,0:0:0:0:
200,232,23265,2,0,L|216:64,1,151,8|8,0:0|0:0,0:0:0:0:
48,248,23896,6,0,L|32:64,1,151,2|8,0:0|0:0,0:0:0:0:
104,160,24370,2,0,L|216:32,2,151,8|8|8,0:1|0:0|0:1,0:0:0:0:
176,160,25160,5,8,0:0:0:0:
336,176,25633,2,0,L|344:328,1,151,8|8,0:1|0:0,0:0:0:0:
208,328,26265,1,10,0:1:0:0:
136,328,26423,6,0,L|128:168,1,151,14|8,0:0|0:0,0:0:0:0:
200,152,26896,2,0,L|80:56,1,151,8|8,0:1|0:0,0:0:0:0:
200,152,27528,1,8,0:1:0:0:
200,152,27686,1,8,0:0:0:0:
256,152,27844,6,0,P|312:192|328:280,1,151,8|8,0:0|0:1,0:0:0:0:
272,344,28318,2,0,L|168:224,1,151,8|8,0:0|0:0,0:0:0:0:
320,72,28949,6,0,L|328:256,1,151,8|8,0:0|0:0,0:0:0:0:
264,224,29423,2,0,L|168:344,2,151,8|8|8,0:1|0:0|0:1,0:0:0:0:
336,224,30212,5,8,0:0:0:0:
480,104,30686,2,0,L|488:280,1,151,8|8,0:1|0:0,0:0:0:0:
368,312,31318,1,10,0:1:0:0:
304,184,31475,6,0,P|264:256|304:312,1,151,14|0,0:0|0:0,0:0:0:0:
368,312,31949,2,0,L|480:184,1,151,8|8,0:1|0:0,0:0:0:0:
320,208,32581,1,8,0:1:0:0:
256,200,32739,6,0,L|248:24,1,151,8|8,0:0|0:0,0:0:0:0:
184,48,33212,1,8,0:1:0:0:
120,48,33370,2,0,L|112:224,1,151,8|8,0:0|0:0,0:0:0:0:
184,200,33844,1,8,0:1:0:0:
256,200,34002,5,10,0:0:0:0:
176,264,34318,1,8,0:0:0:0:
176,264,34475,1,8,0:1:0:0:
312,336,34791,2,0,L|320:168,1,151,8|8,0:0|0:1,0:0:0:0:
256,184,35265,6,0,P|184:152|168:72,1,151,8|8,0:0|0:0,0:0:0:0:
164,87,35739,1,8,0:1:0:0:
352,56,36212,1,8,0:0:0:0:
408,80,36370,1,8,0:0:0:0:
352,104,36528,6,0,L|224:208,1,151,14|10,0:0|0:0,0:0:0:0:
176,208,37002,2,0,L|168:368,1,151,10|10,0:1|0:0,0:0:0:0:
296,344,37633,1,10,0:1:0:0:
368,336,37791,6,0,L|376:176,1,151,10|10,0:0|0:0,0:0:0:0:
304,184,38265,1,8,0:1:0:0:
232,192,38423,2,0,L|224:32,1,151,10|8,0:0|0:0,0:0:0:0:
288,40,38896,1,8,0:1:0:0:
440,160,39212,6,0,L|328:280,1,151,10|10,0:0|0:1,0:0:0:0:
272,272,39686,2,0,L|144:160,1,151,10|8,0:0|0:0,0:0:0:0:
96,152,40160,1,10,0:1:0:0:
96,152,40318,5,10,0:0:0:0:
240,200,40791,2,0,P|272:288|224:336,1,151,8|0,0:1|3:0,0:0:0:0:
96,328,41423,1,8,0:1:0:0:
96,328,41581,1,8,0:1:0:0:
168,328,41739,6,0,P|240:248|232:200,1,151,14|2,0:0|0:0,0:0:0:0:
236,212,42212,1,2,0:0:0:0:
80,328,42528,2,0,L|72:160,1,151,2|2,0:0|0:0,0:0:0:0:
144,176,43002,5,8,0:0:0:0:
264,176,43318,1,2,0:0:0:0:
272,96,43475,1,8,0:0:0:0:
384,176,43791,1,2,0:0:0:0:
376,104,43949,1,8,0:0:0:0:
304,160,44107,6,0,B|289:345,1,151,0|0,0:0|0:0,0:0:0:0:
352,320,44581,1,0,0:0:0:0:
408,288,44739,1,10,0:0:0:0:
288,208,45054,1,0,0:0:0:0:
280,136,45212,1,8,0:0:0:0:
232,112,45370,1,2,0:0:0:0:
104,112,45844,5,8,0:1:0:0:
224,224,46160,1,8,0:1:0:0:
264,160,46318,1,8,0:1:0:0:
224,104,46475,1,8,0:1:0:0:
160,320,46633,6,0,P|120:256|184:200,1,151,14|2,0:0|0:0,0:0:0:0:
224,192,47107,2,0,L|112:72,1,151,10|10,0:1|0:0,0:0:0:0:
256,80,47739,1,8,0:1:0:0:
328,216,47896,6,0,L|336:56,1,151,14|0,0:0|0:0,0:0:0:0:
392,56,48370,1,10,0:1:0:0:
456,48,48528,1,8,0:0:0:0:
336,336,48844,2,0,L|328:240,1,75.5,10|10,0:0|0:1,0:0:0:0:
256,256,49160,6,0,P|184:208|160:144,1,151,14|8,0:0|0:1,0:0:0:0:
224,144,49633,2,0,L|352:48,1,151,8|8,0:1|0:1,0:0:0:0:
232,96,50265,1,8,0:3:0:0:
160,232,50422,6,0,L|152:72,1,151,14|8,0:0|0:0,0:0:0:0:
96,72,50896,1,8,0:1:0:0:
32,64,51054,1,4,0:3:0:0:
128,344,51370,2,0,L|136:160,1,151,2|0,0:0|0:0,0:0:0:0:
200,192,51844,6,0,L|320:72,1,151,14|8,0:0|0:1,0:0:0:0:
376,200,52318,2,0,L|376:24,1,151,2|2,0:0|0:0,0:0:0:0:
264,112,52949,1,0,3:2:0:0:
200,240,53107,6,0,L|80:136,1,151,10|10,0:0|0:1,0:0:0:0:
152,144,53581,2,0,L|272:16,1,151,2|2,0:0|0:0,0:0:0:0:
384,32,54212,1,2,3:2:0:0:
440,160,54370,6,0,P|472:88|424:32,1,151,10|8,0:0|0:1,0:0:0:0:
360,32,54844,2,0,P|328:112|368:160,1,151,2|2,0:0|0:0,0:0:0:0:
432,152,55318,1,8,0:1:0:0:
432,152,55475,1,0,3:0:0:0:
280,216,55949,5,8,0:1:0:0:
176,208,56265,2,0,L|168:56,1,151,10|10,0:0|0:1,0:0:0:0:
232,56,56739,1,2,0:0:0:0:
296,112,56896,6,0,P|368:80|392:16,1,151,14|8,0:0|0:1,0:0:0:0:
288,344,57528,2,0,L|280:192,1,151,10|10,0:0|0:1,0:0:0:0:
208,192,58002,1,2,3:2:0:0:
152,192,58159,6,0,P|80:160|56:96,1,151,8|8,0:0|0:1,0:0:0:0:
176,288,58791,2,0,L|184:120,1,151,10|10,0:0|0:1,0:0:0:0:
104,128,59265,6,0,P|136:64|240:32,1,151,2|8,3:2|0:0,0:0:0:0:
280,32,59739,1,8,0:1:0:0:
408,272,60054,2,0,L|400:112,1,151,10|8,0:0|0:1,0:0:0:0:
336,112,60528,5,2,0:0:0:0:
208,304,60844,1,8,0:1:0:0:
136,272,61002,1,8,0:1:0:0:
208,248,61160,2,0,P|264:216|280:104,1,151,8|8,0:3|0:1,0:0:0:0:
268,110,61633,1,8,0:1:0:0:
112,112,61949,6,0,P|80:168|144:248,1,151,14|8,0:0|0:1,0:0:0:0:
184,352,62423,2,0,P|224:288|160:224,1,151,2|2,0:0|0:0,0:0:0:0:
40,240,63054,1,0,3:0:0:0:
96,232,63212,6,0,L|224:104,1,151,10|8,0:0|0:1,0:0:0:0:
136,152,63686,2,0,P|104:64|152:32,1,151,2|2,0:0|0:0,0:0:0:0:
280,40,64318,1,0,3:0:0:0:
344,40,64475,6,0,L|352:216,1,151,10|8,0:0|0:1,0:0:0:0:
280,272,64949,2,0,L|408:160,1,151,2|2,0:0|0:0,0:0:0:0:
272,352,65581,6,0,P|208:264|288:184,1,226.5,2|8,0:0|0:1,0:0:0:0:
416,224,66370,2,0,L|408:72,1,151,10|8,0:0|0:1,0:0:0:0:
344,72,66844,1,8,3:0:0:0:
272,72,67002,6,0,L|264:256,1,151,14|8,0:0|0:1,0:0:0:0:
112,344,67633,2,0,L|104:184,1,151,10|8,0:0|0:1,0:0:0:0:
176,192,68107,1,2,3:2:0:0:
248,184,68265,6,0,L|255:33,1,151,10|8,0:0|0:1,0:0:0:0:
368,32,68896,2,0,L|376:208,1,151,10|8,0:0|3:1,0:0:0:0:
304,184,69370,6,0,L|160:64,1,151,2|2,0:0|0:0,0:0:0:0:
304,304,70002,2,0,L|400:168,1,151,2|2,0:0|0:0,0:0:0:0:
256,352,70633,1,2,3:2:0:0:
192,360,70791,6,0,P|152:296|208:232,1,151,14|8,0:0|0:1,0:0:0:0:
264,232,71265,2,0,P|288:144|256:96,1,151,8|8,0:3|0:0,0:0:0:0:
184,88,71739,1,8,0:1:0:0:
256,80,71896,1,8,0:1:0:0:
328,200,72054,6,0,L|336:32,1,151,14|8,0:0|0:1,0:0:0:0:
192,280,72686,2,0,L|184:112,1,151,10|8,0:0|0:1,0:0:0:0:
336,344,73318,5,10,0:0:0:0:
384,312,73475,1,8,0:0:0:0:
336,264,73633,1,8,0:1:0:0:
184,216,73949,1,10,0:0:0:0:
144,160,74107,1,8,0:0:0:0:
192,104,74265,6,0,P|288:144|312:200,1,151,8|10,0:1|0:0,0:0:0:0:
192,288,74896,1,8,0:1:0:0:
320,312,75212,2,0,L|328:128,1,151,10|8,0:0|0:1,0:0:0:0:
176,352,75844,5,10,0:0:0:0:
128,320,76001,1,8,0:0:0:0:
176,272,76159,1,8,0:1:0:0:
328,224,76475,1,10,0:0:0:0:
384,160,76633,1,8,0:0:0:0:
320,112,76791,6,0,P|224:152|200:208,1,151,10|14,0:1|0:0,0:0:0:0:
320,280,77423,1,10,0:1:0:0:
200,192,77739,2,0,L|192:32,1,151,10|8,0:0|0:1,0:0:0:0:
64,304,78370,5,10,0:0:0:0:
112,280,78527,1,0,0:0:0:0:
160,256,78686,1,10,0:1:0:0:
288,224,79002,1,10,0:0:0:0:
240,200,79159,1,8,0:0:0:0:
192,176,79318,6,0,L|184:24,1,151,10|10,0:1|0:0,0:0:0:0:
320,24,79949,1,10,0:1:0:0:
181,330,80265,2,0,L|309:202,1,151,10|8,0:0|0:1,0:0:0:0:
424,176,80896,5,14,3:1:0:0:
432,240,81054,1,8,3:1:0:0:
384,288,81212,1,8,3:0:0:0:
248,344,81528,1,4,3:0:0:0:
200,304,81686,1,4,3:0:0:0:
248,264,81844,1,8,3:1:0:0:
408,200,82160,5,14,0:0:0:0:
408,200,82318,1,10,0:0:0:0:
248,200,82791,1,2,0:0:0:0:
208,136,82949,1,2,0:0:0:0:
248,72,83107,1,2,0:0:0:0:
320,64,83265,5,14,0:0:0:0:
256,192,83581,12,0,88160,0:0:0:0:
