osu file format v14

[General]
AudioFilename: audio.mp3
AudioLeadIn: 0
PreviewTime: 72581
Countdown: 0
SampleSet: Soft
StackLeniency: 0.7
Mode: 0
LetterboxInBreaks: 0
WidescreenStoryboard: 0

[Editor]
DistanceSpacing: 0.8
BeatDivisor: 6
GridSize: 4
TimelineZoom: 1.8

[Metadata]
Title:To "five" Kiss
TitleUnicode:To "five" Kiss
Artist:Sakuragawa Megu
ArtistUnicode:桜川めぐ
Creator:Left
Version:Mirash's Extra
Source:働くオタクの恋愛事情
Tags:Hataraku Otaku no Renai Jijou Visual Novel OP Opening Mirash Akitoshi Kawashiro
BeatmapID:1529784
BeatmapSetID:723701

[Difficulty]
HPDrainRate:6
CircleSize:4
OverallDifficulty:8
ApproachRate:9
SliderMultiplier:2
SliderTickRate:1

[Events]
//Background and Video events
0,0,"extras.jpg",0,0
//Break Periods
2,57558,63092
2,64669,66536
//Storyboard Layer 0 (Background)
//Storyboard Layer 1 (Fail)
//Storyboard Layer 2 (Pass)
//Storyboard Layer 3 (Foreground)
//Storyboard Sound Samples

[TimingPoints]
470,444.444444444444,4,2,0,40,1,0
7581,-100,4,2,0,50,0,0
14692,-83.3333333333333,4,2,0,60,0,0
28914,-100,4,2,0,70,0,0
29136,-100,4,2,0,50,0,0
68025,-181.818181818181,4,2,0,50,0,0
70247,-181.818181818181,4,2,0,40,0,0
70469,-181.818181818181,4,2,0,45,0,0
70692,-181.818181818181,4,2,0,50,0,0
70914,-181.818181818181,4,2,0,55,0,0
71136,-181.818181818181,4,2,0,60,0,0
71581,-66.6666666666667,4,2,0,70,0,0
73358,222.222222222222,4,2,7,70,1,0
101802,444.444444444444,4,2,0,60,1,0
101802,-83.3333333333333,4,2,0,60,0,0

[Colours]
Combo1 : 47,151,255
Combo2 : 217,217,217
Combo3 : 129,129,129
Combo4 : 255,196,136
Combo5 : 230,74,0
Combo6 : 168,211,255

[HitObjects]
430,42,470,6,0,P|422:103|416:177,1,100,4|2,0:1|0:0,0:0:0:0:
168,325,1062,5,0,0:0:0:0:
168,325,1136,1,2,0:0:0:0:
88,295,1284,1,0,0:0:0:0:
88,295,1358,2,0,P|80:220|61:125,1,166.666666666667,2|2,0:0|0:0,0:0:0:0:
202,37,2025,70,0,P|268:35|342:165,2,200,2|2|2,0:0|0:0|0:0,0:0:0:0:
202,37,3025,1,0,0:0:0:0:
202,37,3136,1,2,0:0:0:0:
157,104,3284,2,0,P|150:125|145:156,2,33.3333333333333,0|2|0,0:0|0:0|0:0,0:0:0:0:
99,23,3581,1,2,0:0:0:0:
91,228,3803,5,2,0:0:0:0:
4,199,3951,1,0,0:0:0:0:
4,199,4025,2,0,P|17:291|27:332,1,100,4|2,0:0|0:0,0:0:0:0:
263,339,4618,69,0,0:0:0:0:
263,339,4692,1,2,0:0:0:0:
302,266,4840,1,0,0:0:0:0:
302,266,4914,2,0,P|311:208|331:110,1,150,2|2,0:0|0:0,0:0:0:0:
507,54,5581,6,0,P|438:67|400:159,1,166.666666666667,2|0,0:0|0:0,0:0:0:0:
399,149,6025,2,0,L|401:319,1,166.666666666667,2|0,0:0|0:0,0:0:0:0:
408,323,6469,1,2,0:0:0:0:
408,323,6544,2,0,P|461:321|515:319,1,100,2|2,0:0|0:0,0:0:0:0:
308,359,7062,1,2,0:0:0:0:
308,359,7136,1,4,0:0:0:0:
213,343,7358,1,2,0:0:0:0:
56,356,7581,38,0,L|68:307,1,50,4|0,1:0|0:0,0:0:0:0:
98,322,7803,2,0,P|92:246|94:183,1,100,0|4,1:0|0:3,0:0:0:0:
180,87,8173,1,0,0:0:0:0:
180,87,8247,1,2,0:0:0:0:
234,19,8395,1,0,0:0:0:0:
234,19,8469,2,0,P|289:13|351:50,1,100,2|0,1:2|0:0,0:0:0:0:
376,88,8803,2,0,P|325:171|313:225,1,150,0|2,1:0|0:0,0:0:0:0:
304,307,9284,1,0,0:0:0:0:
304,307,9358,2,0,P|379:281|405:228,2,100,0|0|4,1:0|1:0|0:3,0:0:0:0:
94,190,10025,5,2,0:0:0:0:
166,207,10136,2,0,L|182:292,1,50,0|0,1:0|0:0,0:0:0:0:
85,339,10358,2,0,L|96:284,1,50,0|0,1:0|0:0,0:0:0:0:
257,312,10581,2,0,L|161:338,1,100,4|2,1:0|0:0,0:0:0:0:
249,234,10914,1,8,3:0:0:0:
321,267,11025,1,8,3:0:0:0:
332,348,11136,1,4,0:3:0:0:
408,317,11914,69,4,1:0:0:0:
408,317,12247,1,4,1:2:0:0:
478,367,13136,5,2,3:0:0:0:
478,367,13210,1,2,3:0:0:0:
478,367,13284,1,2,3:0:0:0:
478,367,13358,2,0,P|483:272|479:232,1,100,4|0,3:0|0:0,0:0:0:0:
420,209,13692,2,0,P|430:148|457:61,1,150,4|4,1:2|1:2,0:0:0:0:
168,65,14247,1,0,1:0:0:0:
142,86,14358,1,0,1:0:0:0:
115,107,14469,1,8,3:3:0:0:
60,269,14692,38,0,P|88:262|141:233,1,59.9999981689454,4|0,1:0|0:0,0:0:0:0:
113,223,14914,2,0,L|235:280,1,119.999996337891,4|4,1:2|1:3,0:0:0:0:
393,313,15284,1,2,0:0:0:0:
393,313,15358,1,0,1:0:0:0:
311,262,15507,1,2,0:0:0:0:
311,262,15581,2,0,P|306:188|328:106,1,119.999996337891,8|0,1:3|0:0,0:0:0:0:
335,45,15914,2,0,L|287:80,1,59.9999981689454,2|0,3:0|1:0,0:0:0:0:
286,80,16247,6,0,L|135:54,1,119.999996337891,0|0,1:0|0:0,0:0:0:0:
111,5,16581,1,0,0:0:0:0:
109,111,16692,2,0,L|145:242,1,119.999996337891,0|4,1:0|1:3,0:0:0:0:
456,352,17136,69,0,1:0:0:0:
384,295,17284,1,2,3:0:0:0:
384,295,17358,1,4,1:3:0:0:
308,350,17507,1,2,3:0:0:0:
308,350,17581,1,4,1:3:0:0:
159,325,17803,1,0,1:0:0:0:
241,289,17951,1,0,0:0:0:0:
241,289,18025,1,0,1:0:0:0:
172,204,18173,5,0,0:0:0:0:
172,204,18247,2,0,P|136:177|104:169,1,59.9999981689454,4|0,1:0|0:0,0:0:0:0:
106,178,18469,2,0,P|123:113|184:52,1,119.999996337891,4|4,1:2|1:3,0:0:0:0:
301,65,18840,1,2,0:0:0:0:
301,65,18914,1,0,1:0:0:0:
394,29,19062,1,2,0:0:0:0:
394,29,19136,2,0,P|455:49|475:92,1,79.9999975585938,8|0,1:3|0:0,0:0:0:0:
490,61,19358,2,0,B|470:121|470:121|491:187,1,119.999996337891,2|0,3:0|1:0,0:0:0:0:
253,364,19803,70,0,B|213:212|346:300|305:111,1,239.999992675781,4|0,1:0|1:0,0:0:0:0:
297,68,20358,1,0,0:0:0:0:
223,93,20469,2,0,P|196:137|116:157,1,119.999996337891,4|0,1:3|0:0,0:0:0:0:
21,63,20766,1,0,3:0:0:0:
21,63,20840,1,2,3:0:0:0:
21,63,20914,2,0,L|30:150,1,79.9999975585938,4|8,1:3|1:3,0:0:0:0:
29,142,21136,1,0,1:0:0:0:
10,339,21284,1,4,1:3:0:0:
10,339,21358,2,0,L|94:358,1,79.9999975585938,0|0,1:3|1:0,0:0:0:0:
133,299,21581,2,0,L|215:294,1,79.9999975585938,8|4,1:3|3:0,0:0:0:0:
274,339,21803,6,0,L|432:351,1,119.999996337891,4|4,1:0|1:2,0:0:0:0:
397,352,22247,2,0,P|413:295|387:223,1,119.999996337891,4|2,1:3|3:0,0:0:0:0:
335,105,22618,1,2,1:2:0:0:
335,105,22692,2,0,B|350:142|350:142|338:210,1,79.9999975585938,0|2,1:0|0:0,0:0:0:0:
458,92,22914,2,0,L|295:104,1,119.999996337891,0|8,1:0|1:3,0:0:0:0:
76,67,23358,70,0,B|163:73|163:73|198:30|198:30|295:42,1,239.999992675781,4|4,1:0|1:2,0:0:0:0:
76,149,24025,2,0,L|102:289,1,119.999996337891,4|2,1:3|0:0,0:0:0:0:
171,361,24358,2,0,B|161:333|161:333|167:303,1,59.9999981689454,0|0,1:0|0:0,0:0:0:0:
259,193,24581,2,0,B|269:221|269:221|263:251,1,59.9999981689454,0|0,1:0|0:0,0:0:0:0:
266,345,24840,5,4,0:3:0:0:
266,345,24914,1,0,1:3:0:0:
364,285,25062,1,4,0:3:0:0:
364,285,25136,1,0,1:3:0:0:
468,355,25284,1,4,0:3:0:0:
468,355,25358,2,0,P|481:287|473:216,1,119.999996337891,4|0,1:0|1:0,0:0:0:0:
495,157,25729,69,2,0:0:0:0:
495,157,25803,2,0,L|346:147,1,119.999996337891,4|0,1:3|0:0,0:0:0:0:
287,93,26173,2,0,L|124:98,1,119.999996337891,4|0,1:0|0:0,0:0:0:0:
113,155,26469,2,0,L|3:152,1,59.9999981689454,0|0,1:0|0:0,0:0:0:0:
0,211,26692,1,2,0:0:0:0:
21,310,26840,1,2,0:0:0:0:
21,310,27025,6,0,L|209:290,1,179.999994506836,4|2,1:0|3:0,0:0:0:0:
199,290,27432,1,2,3:0:0:0:
199,290,27507,1,2,3:0:0:0:
199,290,27581,1,2,3:0:0:0:
488,228,27803,70,0,P|485:267|489:307,1,79.9999975585938,0|4,1:0|1:2,0:0:0:0:
369,253,28173,1,0,1:0:0:0:
386,257,28247,1,4,1:2:0:0:
176,26,28469,5,0,1:0:0:0:
286,46,28618,1,0,1:0:0:0:
286,46,28692,1,4,1:3:0:0:
209,132,28840,1,4,1:3:0:0:
209,132,28914,1,4,1:0:0:0:
96,113,29136,37,2,3:0:0:0:
100,238,29358,2,0,P|106:303|106:385,1,133.333333333333,0|0,1:0|3:0,0:0:0:0:
107,372,29729,2,0,L|229:369,1,100,0|0,1:0|0:0,0:0:0:0:
206,369,30025,1,0,3:0:0:0:
320,319,30247,1,0,1:0:0:0:
436,372,30469,1,4,0:0:0:0:
439,375,30914,6,0,P|441:308|442:267,1,100,2|0,3:0|1:0,0:0:0:0:
321,229,31284,2,0,P|323:158|327:104,1,100,2|0,0:0|1:0,0:0:0:0:
401,97,31581,2,0,P|401:73|405:24,1,66.6666666666667,0|0,1:0|1:0,0:0:0:0:
248,91,31803,2,0,P|246:119|249:158,1,66.6666666666667,4|0,3:0|1:0,0:0:0:0:
316,14,32025,2,0,P|257:14|187:5,1,100,0|0,1:0|1:0,0:0:0:0:
79,43,32469,69,4,1:0:0:0:
72,123,32692,1,0,3:0:0:0:
75,206,32914,1,0,1:0:0:0:
75,206,33247,1,0,1:0:0:0:
75,206,33358,2,0,L|155:210,1,66.6666666666667,2|0,1:3|0:0,0:0:0:0:
163,234,33581,2,0,P|157:307|155:350,1,100,0|4,1:0|1:2,0:0:0:0:
272,269,34025,6,0,P|269:210|271:91,1,166.666666666667,4|0,3:0|3:0,0:0:0:0:
271,103,34469,2,0,L|194:107,1,66.6666666666667,2|0,1:3|0:0,0:0:0:0:
204,106,34692,1,0,1:0:0:0:
234,17,34840,2,0,L|341:22,1,100,2|0,0:0|1:0,0:0:0:0:
409,12,35136,2,0,P|407:62|402:98,1,66.6666666666667,0|0,3:0|1:0,0:0:0:0:
442,141,35358,2,0,P|438:200|440:273,1,100,0|0,0:0|1:0,0:0:0:0:
368,333,35729,69,0,1:0:0:0:
368,333,35803,2,0,P|335:331|305:333,1,50,8|0,3:0|0:0,0:0:0:0:
246,362,36025,2,0,P|170:362|76:359,1,166.666666666667,4|0,1:0|3:0,0:0:0:0:
79,359,36469,2,0,P|80:306|84:246,1,100,2|0,1:3|0:0,0:0:0:0:
200,158,36840,2,0,P|161:158|129:160,1,66.6666666666667,0|0,1:0|0:0,0:0:0:0:
67,115,37062,1,0,1:0:0:0:
67,115,37136,2,0,P|68:86|65:47,1,66.6666666666667,0|0,1:0|0:0,0:0:0:0:
134,11,37358,2,0,P|164:8|206:12,1,66.6666666666667,0|0,1:0|0:0,0:0:0:0:
265,69,37581,5,4,1:2:0:0:
370,54,38025,69,4,0:0:0:0:
424,147,38469,5,4,0:0:0:0:
356,235,38914,69,2,3:0:0:0:
346,232,38988,1,2,3:0:0:0:
336,229,39062,1,2,3:0:0:0:
326,227,39136,2,0,L|244:235,1,66.6666666666667,2|4,3:0|3:0,0:0:0:0:
209,180,39358,2,0,L|73:183,1,100,8|4,3:0|1:0,0:0:0:0:
109,207,40025,6,0,P|111:268|105:340,1,100,2|0,1:3|0:0,0:0:0:0:
129,322,40358,2,0,P|160:320|206:320,1,50,2|0,1:3|0:0,0:0:0:0:
255,356,40581,1,0,1:0:0:0:
255,356,40692,2,0,P|305:353|323:353,1,50,4|0,3:3|0:0,0:0:0:0:
381,348,40914,2,0,P|382:322|381:288,1,50,0|0,1:0|0:0,0:0:0:0:
444,241,41136,2,0,P|441:140|351:88,1,200,4|0,0:1|1:0,0:0:0:0:
268,14,41803,69,0,1:0:0:0:
257,90,41951,1,4,1:2:0:0:
171,43,42173,1,0,1:0:0:0:
171,43,42247,1,4,1:2:0:0:
14,88,42469,5,0,1:0:0:0:
20,168,42618,1,0,1:0:0:0:
20,168,42692,1,0,1:0:0:0:
113,241,42840,1,8,3:0:0:0:
113,241,42914,1,8,3:0:0:0:
106,323,43062,1,4,3:0:0:0:
106,323,43136,1,4,1:0:0:0:
348,369,43358,37,0,1:0:0:0:
236,281,43581,1,0,1:0:0:0:
304,309,43692,2,0,P|315:231|317:184,1,100,0|0,1:0|0:0,0:0:0:0:
266,140,44025,2,0,P|232:141|154:138,1,100,0|0,1:0|0:0,0:0:0:0:
32,85,44358,1,0,1:0:0:0:
32,85,44469,2,0,P|70:84|96:86,1,50,0|0,1:0|0:0,0:0:0:0:
146,26,44692,2,0,P|215:25|306:34,1,150,0|0,1:0|0:0,0:0:0:0:
387,21,45136,6,0,L|370:124,1,100,2|0,0:0|1:0,0:0:0:0:
493,142,45581,2,0,L|400:221,1,100,2|8,0:0|3:3,0:0:0:0:
496,302,46025,2,0,L|360:303,1,100,2|0,0:0|1:0,0:0:0:0:
233,343,46469,70,0,P|245:314|242:278,1,50,0|0,1:0|0:0,0:0:0:0:
246,296,46692,2,0,P|189:297|104:356,1,150,4|0,1:0|0:0,0:0:0:0:
30,340,47136,2,0,P|31:317|30:272,1,50,0|0,1:0|0:0,0:0:0:0:
7,215,47358,2,0,P|5:161|9:92,1,100,0|0,1:0|0:0,0:0:0:0:
56,47,47692,1,0,1:0:0:0:
56,47,47803,2,0,P|85:47|126:44,1,50,0|0,1:0|0:0,0:0:0:0:
189,27,48025,2,0,P|221:30|265:28,1,50,0|0,1:0|0:0,0:0:0:0:
289,99,48247,2,0,P|366:96|449:105,1,150,0|0,1:0|0:0,0:0:0:0:
453,95,48692,6,0,L|469:208,1,100,2|0,0:0|1:0,0:0:0:0:
332,190,49136,2,0,L|416:265,1,100,2|8,0:0|3:0,0:0:0:0:
300,340,49581,2,0,L|420:344,1,100,2|0,0:0|1:0,0:0:0:0:
315,37,50025,69,0,1:0:0:0:
315,37,50136,1,0,1:0:0:0:
315,37,50247,2,0,P|255:35|203:42,1,100,4|0,1:0|0:0,0:0:0:0:
172,106,50581,1,0,1:0:0:0:
172,106,50692,2,0,P|131:110|96:110,1,50,0|0,1:0|0:0,0:0:0:0:
30,78,50914,2,0,P|28:133|35:205,1,100,0|0,1:0|0:0,0:0:0:0:
2,256,51247,1,0,1:0:0:0:
2,256,51358,2,0,P|5:289|3:330,1,50,0|0,1:0|0:0,0:0:0:0:
70,366,51581,2,0,P|94:369|136:370,1,50,0|0,1:0|0:0,0:0:0:0:
192,314,51803,5,4,1:2:0:0:
292,301,52247,69,4,0:0:0:0:
365,367,52692,5,4,0:0:0:0:
399,278,53136,69,2,3:0:0:0:
398,272,53210,1,2,3:0:0:0:
397,265,53284,1,2,3:0:0:0:
396,259,53358,1,6,3:0:0:0:
411,220,53469,5,8,3:0:0:0:
373,203,53581,1,8,3:0:0:0:
333,200,53692,1,8,3:0:0:0:
294,209,53803,2,0,L|241:228,1,50,4|0,1:0|0:0,0:0:0:0:
161,234,54025,2,0,P|171:165|187:111,1,100,4|0,0:0|1:2,0:0:0:0:
233,77,54358,1,0,3:0:0:0:
233,77,54469,2,0,P|270:114|326:232,1,150,4|4,1:2|3:2,0:0:0:0:
290,289,54914,70,0,L|229:301,1,50,0|0,1:0|0:0,0:0:0:0:
121,218,55136,2,0,P|132:172|142:149,1,50,4|0,1:2|0:0,0:0:0:0:
222,49,55358,2,0,P|284:114|317:182,1,150,4|0,1:0|3:0,0:0:0:0:
314,199,55803,6,0,P|367:196|428:195,1,100,4|0,1:2|0:0,0:0:0:0:
443,183,56136,2,0,P|445:238|444:303,1,100,4|0,1:2|1:0,0:0:0:0:
444,317,56469,2,0,P|407:315|353:318,1,66.6666666666667,8|4,1:3|3:0,0:0:0:0:
377,315,56692,1,2,3:0:0:0:
302,290,56840,1,4,3:0:0:0:
302,290,56914,1,6,0:0:0:0:
228,339,57062,1,4,3:0:0:0:
228,339,57136,1,2,3:0:0:0:
150,294,57284,1,4,3:0:0:0:
150,294,57358,1,4,3:1:0:0:
13,199,63692,69,4,1:2:0:0:
13,199,64025,5,4,1:2:0:0:
100,152,64247,1,2,3:2:0:0:
184,200,64469,1,4,0:0:0:0:
491,186,67136,69,0,1:0:0:0:
481,264,67284,1,4,1:0:0:0:
381,132,67581,5,0,1:0:0:0:
295,79,67729,1,8,3:0:0:0:
295,79,67803,1,8,3:0:0:0:
224,144,67951,1,8,3:0:0:0:
224,144,68025,70,0,P|179:178|181:331,1,220.000006713867,4|0,1:0|1:0,0:0:0:0:
179,328,69581,5,2,0:0:0:0:
94,208,69803,2,0,P|84:163|74:142,1,55.0000016784668,4|0,1:0|0:0,0:0:0:0:
157,35,70247,1,0,3:0:0:0:
143,113,70469,1,0,3:0:0:0:
277,214,70692,1,0,1:0:0:0:
255,103,70914,1,0,1:0:0:0:
405,44,71136,1,0,1:0:0:0:
390,130,71284,1,8,3:0:0:0:
390,130,71358,1,4,3:0:0:0:
483,299,71581,54,0,B|347:274|396:383|253:349,2,225.000008583069,0|2|4,1:0|0:0|0:0,0:0:0:0:
115,63,73358,70,0,B|76:153|76:153|117:260,1,200,6|8,1:0|1:0,0:0:0:0:
196,271,73691,2,0,L|304:244,1,100
395,360,73950,1,0,1:0:0:0:
395,360,74024,2,0,B|401:310|401:310|381:264,1,100,10|0,1:0|0:0,0:0:0:0:
487,147,74246,2,0,L|389:171,1,100,6|0,1:0|0:0,0:0:0:0:
300,158,74469,1,8,1:0:0:0:
224,64,74617,2,0,B|139:50|139:50|121:23|121:23|24:5,1,200,2|0,1:0|0:0,0:0:0:0:
80,149,74913,6,0,P|68:251|66:368,1,200,12|0,1:0|0:0,0:0:0:0:
223,302,75283,1,0,0:0:0:0:
223,302,75358,2,0,P|154:233|89:228,1,100,8|0,1:0|0:0,0:0:0:0:
249,372,75580,2,0,P|292:264|408:274,1,200,0|8,1:0|1:0,0:0:0:0:
414,368,75950,69,0,0:0:0:0:
414,368,76024,2,0,L|429:145,1,200,4|8,1:2|1:0,0:0:0:0:
341,75,76395,1,0,1:0:0:0:
341,75,76469,2,0,B|360:119|360:119|340:182,1,100,0|0,1:0|0:0,0:0:0:0:
194,201,76691,5,10,1:0:0:0:
145,137,76802,1,4,0:0:0:0:
163,59,76913,2,0,L|269:96,1,100,6|0,1:0|0:0,0:0:0:0:
113,203,77135,2,0,L|9:166,1,100,8|4,1:0|0:0,0:0:0:0:
171,52,77358,70,0,P|216:48|263:99,1,100,2|0,0:1|0:0,0:0:0:0:
106,209,77580,2,0,P|61:213|14:162,1,100,12|0,1:2|0:0,0:0:0:0:
0,57,77802,6,2,B|100:108,1,100,4|2,0:0|0:1,1:1:0:0:
158,139,78024,2,2,B|304:211,1,133.333333333333,12|0,1:2|0:1,1:1:0:0:
277,197,78246,1,2,1:2:0:0:
353,333,78395,1,0,1:0:0:0:
353,333,78469,1,8,1:0:0:0:
209,322,78617,69,8,1:0:0:0:
209,322,78691,2,0,B|123:322|123:322|88:347|88:347|2:348,2,200,4|8|0,1:0|1:0|0:0,0:0:0:0:
428,368,79283,1,0,1:0:0:0:
428,368,79358,2,0,B|459:268|459:268|424:165,1,200,8|0,1:0|0:0,0:0:0:0:
240,189,79728,1,0,1:0:0:0:
240,189,79802,2,0,L|349:184,1,100,8|0,1:0|0:0,0:0:0:0:
379,108,80024,1,0,1:0:0:0:
225,9,80172,1,8,1:0:0:0:
225,9,80246,1,8,3:0:0:0:
82,66,80395,5,8,3:0:0:0:
82,66,80469,2,0,B|88:145|88:145|69:193|69:193|83:279,1,200,4|8,1:0|1:0,0:0:0:0:
261,370,80839,1,2,1:0:0:0:
261,370,80913,2,0,P|267:296|246:232,1,100,0|0,1:0|0:0,0:0:0:0:
362,176,81135,2,0,P|356:250|377:314,1,100,10|0,1:0|0:0,0:0:0:0:
163,197,81357,70,0,L|288:188,1,100,4|0,1:2|0:0,0:0:0:0:
343,346,81580,1,10,1:0:0:0:
446,370,81728,1,0,3:0:0:0:
446,370,81802,1,0,3:0:0:0:
476,262,81913,6,0,L|429:244,1,50,0|0,3:0|3:0,0:0:0:0:
476,263,82024,2,0,B|460:218|460:218|481:148,1,100,10|0,1:0|0:0,0:0:0:0:
429,65,82246,70,0,L|204:72,1,200,4|8,1:0|1:0,0:0:0:0:
155,45,82580,2,0,L|259:42,1,100,0|0,1:0|0:0,0:0:0:0:
294,153,82839,1,0,1:0:0:0:
294,153,82913,1,8,1:0:0:0:
15,143,83024,2,0,P|133:138|251:164,1,200,4|0,1:0|0:0,0:0:0:0:
287,294,83357,6,0,P|380:281|459:251,1,100,8|0,1:0|0:0,0:0:0:0:
196,251,83580,2,0,P|192:315|204:378,1,100,0|0,0:0|1:0,0:0:0:0:
321,205,83802,2,0,P|316:103|206:62,1,200,8|4,1:0|1:0,0:0:0:0:
65,360,84246,1,0,1:0:0:0:
239,349,84395,1,0,1:0:0:0:
239,349,84469,1,0,1:0:0:0:
411,327,84617,69,0,2:0:0:0:
411,327,84691,2,0,P|408:217|503:165,1,200,4|0,1:0|0:0,0:0:0:0:
492,284,85061,5,0,1:0:0:0:
492,284,85135,2,0,L|490:404,1,100,8|0,1:0|0:0,0:0:0:0:
320,337,85357,2,0,L|322:217,1,100,0|0,1:0|0:0,0:0:0:0:
434,94,85580,2,0,P|383:124|349:168,1,100,8|0,1:0|1:0,0:0:0:0:
270,179,85802,69,4,1:0:0:0:
156,139,85950,5,8,1:0:0:0:
195,314,86172,69,4,0:3:0:0:
195,314,86246,1,8,1:0:0:0:
70,264,86395,1,8,0:3:0:0:
70,264,86469,1,8,1:0:0:0:
162,39,86765,5,0,1:0:0:0:
162,39,86839,2,0,L|340:61,1,166.666666666667,8|8,1:0|1:0,0:0:0:0:
454,109,87135,2,0,P|449:158|462:244,1,100,8|0,1:0|0:0,0:0:0:0:
317,363,87357,2,0,B|298:317|298:317|305:267,1,100,8|12,1:0|1:2,0:0:0:0:
357,154,87580,70,0,B|223:110|237:290|94:257,1,300,6|2,1:0|1:0,0:0:0:0:
29,192,88024,2,0,P|4:265|11:328,1,100,8|0,1:0|0:0,0:0:0:0:
118,171,88246,2,0,P|85:114|38:74,1,100,2|8,1:0|1:0,0:0:0:0:
87,356,88469,6,0,P|201:362|301:299,1,200,6|0,1:0|1:0,0:0:0:0:
373,210,88802,2,0,P|448:204|481:338,1,200,10|0,1:0|0:0,0:0:0:0:
252,237,89135,70,0,P|261:116|256:38,1,200,14|0,1:0|0:0,0:0:0:0:
411,285,89506,1,0,1:0:0:0:
411,285,89580,2,0,B|420:330|420:330|396:383,1,100,8|0,1:0|0:0,0:0:0:0:
207,330,89802,2,0,B|225:265|225:265|206:185,1,133.333333333333,4|0,1:2|1:0,0:0:0:0:
242,131,90024,2,0,B|233:86|233:86|257:33,1,100,8|4,1:0|0:0,0:0:0:0:
385,113,90246,6,0,B|430:104|430:104|483:128,1,100,4|0,1:2|0:0,0:0:0:0:
462,310,90469,2,0,B|456:245|456:245|401:185,1,133.333333333333,8|4,1:0|0:0,0:0:0:0:
332,175,90691,2,0,B|337:229|337:229|368:264,1,100,0|8,1:0|1:0,0:0:0:0:
130,90,90913,69,12,1:2:0:0:
57,47,91061,1,0,1:0:0:0:
57,47,91135,2,0,P|12:155|67:231,1,200,6|8,1:0|1:0,0:0:0:0:
207,346,91506,5,0,1:0:0:0:
207,346,91580,2,2,P|316:321|305:186,1,200,4|10,1:2|1:0,1:0:0:0:
239,34,91950,69,0,1:0:0:0:
239,34,92024,2,0,P|163:95|180:227,1,200,6|0,1:0|0:0,0:0:0:0:
477,313,92395,5,0,1:0:0:0:
477,313,92469,2,0,P|459:255|413:186,1,133.333333333333,12|0,1:2|0:0,0:0:0:0:
314,153,92691,2,0,P|274:201|258:259,1,100,0|8,1:0|1:0,0:0:0:0:
261,235,92913,70,0,P|267:118|416:59,1,200,4|8,1:0|1:0,0:0:0:0:
438,74,93283,1,0,1:0:0:0:
438,74,93357,2,0,L|427:229,1,100,8|0,1:0|1:0,0:0:0:0:
384,299,93580,6,0,P|281:361|141:228,1,333.333333333333,4|0,1:0|1:0,0:0:0:0:
109,167,94024,2,0,P|147:147|237:158,1,133.333333333333,8|0,1:0|1:0,0:0:0:0:
282,215,94246,1,8,1:0:0:0:
411,181,94395,1,8,1:0:0:0:
411,181,94469,1,0,1:0:0:0:
33,268,94691,70,0,B|-1:177|-1:177|35:37,1,200,4|10,1:0|1:0,0:0:0:0:
157,113,95061,1,0,1:0:0:0:
157,113,95135,2,0,L|158:254,1,133.333333333333,10|0,1:0|1:0,0:0:0:0:
248,267,95357,2,0,B|282:176|282:176|256:76,1,200,14|0,1:0|0:0,0:0:0:0:
486,272,95691,5,0,1:0:0:0:
486,272,95802,2,0,P|471:326|401:358,1,133.333333333333,10|0,1:0|0:0,0:0:0:0:
344,301,96024,2,0,P|362:248|426:210,1,133.333333333333,2|0,1:0|0:0,0:0:0:0:
289,364,96246,2,0,B|167:369|228:286|86:297,1,200,14|0,1:0|0:0,0:0:0:0:
15,303,96617,69,0,1:0:0:0:
15,303,96691,2,2,P|26:252|31:201,1,100,10|0,1:0|0:0,1:0:0:0:
191,125,96913,2,2,P|128:72|17:101,1,200,0|10,1:0|1:0,1:0:0:0:
104,210,97246,2,0,P|139:202|224:208,1,100,2|0,1:1|0:0,0:0:0:0:
288,303,97506,1,0,1:0:0:0:
288,303,97580,2,0,P|292:243|317:160,1,133.333333333333,10|0,1:0|0:0,0:0:0:0:
310,42,97802,2,0,P|257:101|197:132,1,133.333333333333,2|0,1:0|0:0,0:0:0:0:
489,263,98024,2,0,P|448:150|340:134,1,200,14|0,1:0|0:0,0:0:0:0:
12,191,98469,5,2,3:0:0:0:
12,191,98543,1,0,3:0:0:0:
12,191,98617,1,0,3:0:0:0:
12,191,98691,2,0,L|21:259,3,66.6666666666667,2|0|0|4,3:0|3:0|3:0|3:1,3:0:0:0:
255,126,99357,69,4,0:0:0:0:
512,199,99802,5,4,0:0:0:0:
512,199,100469,69,4,1:0:0:0:
256,192,100524,12,0,101357,1:0:0:0:
444,52,101802,6,0,P|430:91|424:122,1,59.9999981689454,4|0,1:0|0:0,0:0:0:0:
411,124,102024,2,0,P|348:118|282:120,1,119.999996337891,0|4,1:0|1:3,0:0:0:0:
174,214,102394,1,2,0:0:0:0:
174,214,102468,1,0,1:0:0:0:
229,279,102616,1,2,0:0:0:0:
229,279,102690,2,0,P|246:288|335:273,1,79.9999975585938,8|0,1:3|0:0,0:0:0:0:
341,260,102913,2,0,P|344:320|337:379,1,119.999996337891,2|0,3:0|1:0,0:0:0:0:
81,372,103357,70,0,P|72:313|85:186,1,179.999994506836,4|0,1:0|0:0,0:0:0:0:
153,161,103802,2,0,L|142:87,1,59.9999981689454,0|0,1:0|0:0,0:0:0:0:
187,30,104024,2,0,L|259:25,1,59.9999981689454,4|0,1:3|0:0,0:0:0:0:
455,119,104246,5,0,1:0:0:0:
360,136,104394,1,2,3:0:0:0:
360,136,104468,1,4,1:3:0:0:
332,48,104616,1,2,3:0:0:0:
332,48,104690,1,4,1:3:0:0:
453,262,104913,1,0,1:0:0:0:
356,245,105061,1,0,0:0:0:0:
356,245,105135,1,0,1:0:0:0:
229,350,105283,69,0,0:0:0:0:
229,350,105357,2,0,P|206:321|163:300,1,59.9999981689454,4|0,1:0|0:0,0:0:0:0:
160,320,105579,2,0,P|163:261|136:197,1,119.999996337891,0|4,1:0|1:3,0:0:0:0:
153,57,105950,1,2,0:0:0:0:
153,57,106024,1,0,1:0:0:0:
245,120,106172,1,2,0:0:0:0:
245,120,106246,2,0,P|268:124|336:112,1,79.9999975585938,8|0,1:3|0:0,0:0:0:0:
323,116,106468,2,0,L|315:266,1,119.999996337891,0|0,1:0|1:0,0:0:0:0:
319,239,106913,6,0,P|392:231|453:76,1,239.999992675781,4|0,1:0|1:0,0:0:0:0:
206,158,107579,2,0,L|202:286,1,119.999996337891,4|2,1:3|3:0,0:0:0:0:
190,287,107876,2,0,L|196:343,2,39.9999987792969,2|2|2,3:0|3:0|3:0,3:0:0:0:
69,359,108172,69,4,3:0:0:0:
66,351,108246,1,0,1:3:0:0:
96,274,108394,1,4,3:0:0:0:
98,266,108468,1,0,1:3:0:0:
59,198,108616,1,4,3:0:0:0:
58,190,108690,1,0,1:3:0:0:
170,64,108913,5,4,1:0:0:0:
