osu file format v14

[General]
AudioFilename: audio.mp3
AudioLeadIn: 0
PreviewTime: 54871
Countdown: 0
SampleSet: Soft
StackLeniency: 0.6
Mode: 0
LetterboxInBreaks: 0
WidescreenStoryboard: 1

[Editor]
Bookmarks: 6302,17915,29528,41141,46947,55657,67270,73076,78157,78883,90496,102108,110032,113721,118681,128237,139850,145657,151463,163076,176141,177592,183399,189205,195012,202270,213883,219689,222592
DistanceSpacing: 1.3
BeatDivisor: 4
GridSize: 32
TimelineZoom: 0.5999991

[Metadata]
Title:Singing Wheel
TitleUnicode:Singing Wheel
Artist:Sakuragawa Megu
ArtistUnicode:櫻川めぐ
Creator:Lasse
Version:Normal
Source:レヱル・ロマネスク
Tags:impurepug japanese pop rock nishizaka kyouhei kyohei 西坂 恭平 anime ending full version rail romanesque maitetsu まいてつ visual novel
BeatmapID:2917754
BeatmapSetID:1414414

[Difficulty]
HPDrainRate:3
CircleSize:3.4
OverallDifficulty:5
ApproachRate:5.5
SliderMultiplier:0.839999999999999
SliderTickRate:1

[Events]
//Background and Video events
0,0,"crop1.jpg",0,0
//Break Periods
2,18114,22596
2,113920,117556
2,177592,182032
2,200170,201145
//Storyboard Layer 0 (Background)
//Storyboard Layer 1 (Fail)
//Storyboard Layer 2 (Pass)
//Storyboard Layer 3 (Foreground)
//Storyboard Layer 4 (Overlay)
//Storyboard Sound Samples

[TimingPoints]
496,241.935483870968,6,2,1,50,1,0
496,-111.111111111111,6,2,1,50,0,0
5576,-111.111111111111,6,2,1,55,0,0
5818,-111.111111111111,6,2,1,58,0,0
6060,-111.111111111111,6,2,1,62,0,0
6302,-100,6,2,2,68,0,0
6362,-100,6,2,1,68,0,0
7693,-100,6,2,2,68,0,0
7814,-100,6,2,1,68,0,0
9145,-100,6,2,2,68,0,0
9266,-100,6,2,1,68,0,0
10596,-100,6,2,2,68,0,0
10717,-100,6,2,1,68,0,0
12108,-100,6,2,2,68,0,0
12169,-100,6,2,1,68,0,0
13500,-100,6,2,2,68,0,0
13621,-100,6,2,1,68,0,0
14951,-100,6,2,2,68,0,0
15072,-100,6,2,1,68,0,0
16403,-100,6,2,2,68,0,0
16524,-100,6,2,1,68,0,0
17915,-100,6,2,1,64,0,0
18036,-100,6,2,1,54,0,0
23721,-111.111111111111,6,2,1,57,0,0
26625,-111.111111111111,6,2,1,60,0,0
29165,-111.111111111111,6,2,1,63,0,0
29286,-111.111111111111,6,2,1,64,0,0
29528,-100,6,2,1,70,0,0
35334,-100,6,2,1,72,0,0
39689,-100,6,2,1,74,0,0
41866,-100,6,2,1,70,0,0
42592,-100,6,2,1,74,0,0
43318,-100,6,2,1,70,0,0
44044,-100,6,2,1,74,0,0
44770,-100,6,2,1,70,0,0
45496,-100,6,2,1,74,0,0
45979,-100,6,2,1,70,0,0
46947,-111.111111111111,6,2,1,70,0,0
47189,-111.111111111111,6,2,1,65,0,0
49850,-100,6,2,1,68,0,0
52270,-100,6,2,1,70,0,0
52754,-100,6,2,1,72,0,0
54931,-100,6,2,1,60,0,0
55173,-100,6,2,1,62,0,0
55415,-100,6,2,1,64,0,0
55657,-95.2380952380952,6,2,1,82,0,1
67270,-100,6,2,1,75,0,0
73076,-95.2380952380952,6,2,1,82,0,1
75979,-95.2380952380952,6,2,1,83,0,1
76705,-95.2380952380952,6,2,1,84,0,1
77431,-95.2380952380952,6,2,1,85,0,1
78036,-100,6,2,1,84,0,0
78883,-100,6,2,2,68,0,0
78943,-100,6,2,1,68,0,0
80274,-100,6,2,2,68,0,0
80395,-100,6,2,1,68,0,0
81725,-100,6,2,2,68,0,0
81846,-100,6,2,1,68,0,0
83177,-100,6,2,2,68,0,0
83298,-100,6,2,1,68,0,0
84689,-100,6,2,2,68,0,0
84750,-100,6,2,1,68,0,0
86080,-100,6,2,2,68,0,0
86201,-100,6,2,1,68,0,0
87532,-100,6,2,2,68,0,0
87653,-100,6,2,1,68,0,0
88983,-100,6,2,2,68,0,0
89104,-100,6,2,1,68,0,0
90737,-100,6,2,1,65,0,0
102108,-100,6,2,1,70,0,0
107915,-100,6,2,1,72,0,0
110334,-100,6,2,2,72,0,0
110818,-100,6,2,1,72,0,0
112270,-100,6,2,1,74,0,0
113721,-100,6,2,1,68,0,0
118681,-100,6,2,1,64,0,0
119528,-111.111111111111,6,2,1,70,0,0
119770,-111.111111111111,6,2,1,65,0,0
122431,-100,6,2,1,68,0,0
124850,-100,6,2,1,70,0,0
125334,-100,6,2,1,72,0,0
126786,-100,6,2,2,68,0,0
126907,-100,6,2,3,64,0,0
127028,-100,6,2,3,68,0,0
127149,-100,6,2,3,64,0,0
127270,-100,6,2,2,68,0,0
127391,-100,6,2,2,64,0,0
127512,-100,6,2,2,72,0,0
127754,-100,6,2,2,73,0,0
127875,-100,6,2,2,74,0,0
127996,-100,6,2,2,75,0,0
128116,-100,6,2,2,76,0,0
128237,-95.2380952380952,6,2,1,82,0,1
139850,-100,6,2,1,75,0,0
145657,-95.2380952380952,6,2,1,82,0,1
148560,-95.2380952380952,6,2,1,83,0,1
149286,-95.2380952380952,6,2,1,84,0,1
150012,-95.2380952380952,6,2,1,85,0,1
150737,-100,6,2,1,80,0,0
150979,-100,6,2,1,78,0,0
151221,-100,6,2,1,76,0,0
151463,-100,6,2,1,78,0,0
163076,-100,6,2,1,75,0,0
171786,-100,6,2,1,78,0,0
174205,-100,6,2,1,80,0,0
174689,-100,6,2,1,82,0,0
176866,-100,6,2,1,56,0,0
177108,-100,6,2,1,58,0,0
177350,-100,6,2,1,60,0,0
177592,-100,6,2,1,62,0,0
183157,-100,6,2,1,64,0,0
183399,-100,6,2,1,66,0,0
186302,-100,6,2,1,68,0,0
187270,-100,6,2,1,70,0,0
187391,-100,6,2,1,72,0,0
187512,-100,6,2,1,74,0,0
187633,-100,6,2,1,76,0,0
188963,-100,6,2,1,60,0,0
189205,-95.2380952380952,6,2,1,84,0,1
194951,-95.2380952380952,6,2,1,84,0,0
195012,-95.2380952380952,6,2,1,84,0,1
195193,-95.2380952380952,6,2,1,5,0,1
195254,-95.2380952380952,6,2,1,84,0,1
195375,-95.2380952380952,6,2,1,78,0,0
195737,-95.2380952380952,6,2,1,84,0,1
195919,-95.2380952380952,6,2,1,5,0,1
195979,-95.2380952380952,6,2,1,84,0,1
196100,-95.2380952380952,6,2,1,78,0,0
196463,-95.2380952380952,6,2,1,84,0,1
197915,-95.2380952380952,6,2,1,83,0,1
198641,-95.2380952380952,6,2,1,84,0,1
199366,-95.2380952380952,6,2,1,85,0,1
199971,-100,6,2,1,84,0,0
202270,-100,6,2,2,68,0,0
202330,-100,6,2,1,68,0,0
203661,-100,6,2,2,68,0,0
203782,-100,6,2,1,68,0,0
205112,-100,6,2,2,68,0,0
205233,-100,6,2,1,68,0,0
206564,-100,6,2,2,68,0,0
206685,-100,6,2,1,68,0,0
208076,-100,6,2,2,68,0,0
208137,-100,6,2,1,68,0,0
209467,-100,6,2,2,68,0,0
209588,-100,6,2,1,68,0,0
210919,-100,6,2,2,68,0,0
211040,-100,6,2,1,68,0,0
212370,-100,6,2,2,68,0,0
212491,-100,6,2,1,68,0,0
213883,-111.111111111111,6,2,1,64,0,0
215274,-111.111111111111,6,2,2,64,0,0
215395,-111.111111111111,6,2,1,64,0,0
216725,-111.111111111111,6,2,2,64,0,0
216846,-111.111111111111,6,2,1,64,0,0
218177,-111.111111111111,6,2,2,64,0,0
218298,-111.111111111111,6,2,1,64,0,0
219689,-111.111111111111,6,2,1,62,0,0
219750,-111.111111111111,6,2,1,40,0,0
220173,-111.111111111111,6,2,99,30,0,0
220657,-111.111111111111,6,2,99,20,0,0
221141,-111.111111111111,6,2,99,15,0,0
221625,-111.111111111111,6,2,99,10,0,0
222108,-111.111111111111,6,2,99,5,0,0
222592,-111.111111111111,6,2,99,20,0,0

[Colours]
Combo1 : 250,180,240
Combo2 : 120,200,230
Combo3 : 255,230,130
Combo4 : 160,230,150

[HitObjects]
202,96,5576,6,0,B|236:107|236:107|285:97,2,75.5999976928711,2|0|8,1:3|1:0|3:3,0:0:0:0:
131,51,6302,6,0,P|54:45|17:133,1,168,12|8,3:2|0:3,0:0:0:0:
16,202,7028,1,4,1:3:0:0:
114,338,7512,1,4,0:3:0:0:
194,362,7754,2,0,P|281:347|366:342,1,168,10|8,3:2|0:3,0:0:0:0:
441,362,8479,1,4,1:3:0:0:
492,201,8963,5,0,1:3:0:0:
428,145,9205,2,0,P|385:131|261:117,1,168,12|8,3:2|0:3,0:0:0:0:
185,149,9931,1,4,1:3:0:0:
92,289,10415,1,4,0:3:0:0:
26,236,10657,2,0,P|15:152|71:91,1,168,10|8,3:2|0:3,0:0:0:0:
146,65,11383,2,0,B|184:82|184:82|227:69,1,83.9999999999999,4|8,1:3|0:3,0:0:0:0:
288,14,11866,1,4,0:3:0:0:
362,53,12108,6,0,P|414:115|402:195,1,168,12|8,3:2|0:3,0:0:0:0:
338,250,12834,2,0,B|262:214|262:214|178:227,1,168,4|4,1:3|0:3,0:0:0:0:
168,310,13560,2,0,B|244:346|244:346|327:332,1,168,10|8,3:2|0:3,0:0:0:0:
406,304,14286,1,4,1:3:0:0:
511,173,14770,5,0,1:3:0:0:
462,104,15012,2,0,P|426:80|298:75,1,168,12|8,3:2|0:3,0:0:0:0:
243,129,15737,2,0,B|214:207|287:212|267:290,1,168,4|4,1:3|0:3,0:0:0:0:
218,356,16463,2,0,P|135:361|60:324,1,168,10|8,3:2|3:3,0:0:0:0:
10,256,17189,2,0,L|31:123,2,126,4|4|12,1:2|1:2|3:2,0:0:0:0:
45,44,23721,6,0,P|8:112|27:261,1,226.799993078613,4|0,3:2|3:0,0:0:0:0:
197,364,25173,2,0,L|431:351,1,226.799993078613,0|0,3:0|3:0,0:0:0:0:
506,164,26625,6,0,P|475:146|395:147,1,113.399996539307,0|0,3:2|3:0,0:0:0:0:
305,209,27350,2,0,P|249:213|198:190,1,113.399996539307,0|0,3:0|3:0,0:0:0:0:
125,102,28076,1,0,3:0:0:0:
380,22,29165,6,0,L|424:27,1,37.7999988464355,0|0,3:0|1:0,0:0:0:0:
488,72,29528,6,0,P|502:129|462:188,1,126,4|0,3:2|1:2,0:0:0:0:
345,209,30254,2,0,P|287:177|175:180,1,168,0|0,1:2|1:0,0:0:0:0:
114,218,30979,1,2,3:2:0:0:
107,345,31342,1,0,1:0:0:0:
228,379,31705,2,0,L|412:353,1,168,0|0,1:0|1:0,0:0:0:0:
466,311,32431,6,0,P|483:255|447:184,1,126,2|0,3:2|1:0,0:0:0:0:
355,121,33157,2,0,P|327:139|205:103,1,168,0|0,1:0|1:0,0:0:0:0:
146,47,33883,1,2,3:2:0:0:
28,96,34246,1,0,1:0:0:0:
48,220,34608,2,0,L|31:305,2,83.9999999999999,4|0|8,1:2|1:0|3:3,0:0:0:0:
117,171,35334,6,0,P|179:160|254:170,2,126,4|0|4,3:2|1:2|1:2,0:0:0:0:
31,316,36544,1,0,1:0:0:0:
94,370,36786,2,0,P|156:376|218:365,1,126,4|0,1:2|1:2,0:0:0:0:
322,293,37512,2,0,L|308:197,2,83.9999999999999,8|0|0,0:3|1:0|1:0,0:0:0:0:
380,353,38237,6,0,B|412:382|457:370|457:370|475:347|477:318,1,126,4|0,3:2|1:0,0:0:0:0:
491,205,38963,2,0,P|499:167|514:116,2,83.9999999999999,0|0|0,1:0|3:0|1:0,0:0:0:0:
423,255,39689,6,0,B|389:279|345:273|345:273|314:241,1,126,4|0,3:2|1:0,0:0:0:0:
221,328,40415,2,0,B|187:352|143:346|143:346|112:314,1,126,4|0,1:2|1:0,0:0:0:0:
24,223,41141,6,0,P|32:181|59:97,1,126,4|4,1:2|1:2,0:0:0:0:
160,29,41866,1,0,1:0:0:0:
236,53,42108,1,8,3:3:0:0:
312,30,42350,1,4,3:3:0:0:
386,58,42592,6,0,P|406:117|419:179,1,126,4|4,1:2|1:2,0:0:0:0:
305,233,43318,2,0,B|259:221|259:221|223:226|223:226|195:213|195:213|136:212,1,168,0|0,1:0|1:0,0:0:0:0:
83,273,44044,6,0,P|75:318|151:352,1,126,4|4,1:2|1:2,0:0:0:0:
256,320,44770,1,0,1:0:0:0:
330,347,45012,1,8,3:3:0:0:
407,328,45254,1,12,3:3:0:0:
481,356,45496,6,0,P|493:317|471:233,1,126,4|4,1:2|1:2,0:0:0:0:
336,87,46463,1,0,1:0:0:0:
264,122,46705,1,8,3:3:0:0:
192,86,46947,6,0,P|144:74|44:205,1,226.799993078613,4|0,3:2|1:2,0:0:0:0:
196,357,48399,2,0,L|354:348,1,151.199995385742,4|0,3:2|3:0,0:0:0:0:
421,379,49125,2,0,B|440:358|440:358|452:308|408:227,1,151.199995385742,0|4,1:0|3:3,0:0:0:0:
341,191,49850,6,0,B|288:192|288:192|270:203|270:203|205:208,1,126,4|0,3:2|1:0,0:0:0:0:
11,156,50818,1,8,3:3:0:0:
0,76,51060,1,0,1:0:0:0:
61,25,51302,2,0,B|109:23|109:23|128:34|128:34|184:32,1,126,2|0,1:2|1:0,3:0:0:0:
392,11,52270,5,0,1:0:0:0:
456,57,52512,1,8,3:3:0:0:
428,132,52754,2,0,P|380:160|309:135,1,126,4|4,1:2|1:2,0:0:0:0:
217,62,53479,2,0,B|182:61|161:84|161:84|134:139|178:188,1,168,0|0,1:0|1:0,0:0:0:0:
381,176,55657,6,0,L|524:161,2,132.299995962524,4|0|0,3:1|3:2|1:2,0:2:0:0:
295,151,56625,1,0,3:2:0:0:
218,193,56866,1,0,1:2:0:0:
145,143,57108,2,0,P|138:104|168:11,2,132.299995962524,2|0|0,3:2|3:2|1:2,0:2:0:0:
251,284,58318,5,0,1:2:0:0:
332,318,58560,2,0,L|467:307,2,132.299995962524,4|0|0,3:2|3:2|1:2,0:2:0:0:
251,284,59528,1,0,3:2:0:0:
178,333,59770,1,0,1:2:0:0:
104,284,60012,2,0,P|92:216|128:143,1,132.299995962524,2|0,3:2|3:2,0:2:0:0:
389,17,61221,5,4,3:3:0:0:
455,74,61463,2,0,P|479:140|447:248,1,176.399994616699,4|0,3:1|3:2,0:2:0:0:
372,275,62189,2,0,P|329:247|205:257,1,176.399994616699,0|0,1:2|1:2,0:0:0:0:
140,310,62915,2,0,P|97:321|46:299,1,88.1999973083496,2|0,3:2|1:2,0:2:0:0:
10,232,63399,2,0,L|34:136,1,88.1999973083496,0|0,3:2|1:2,0:2:0:0:
151,17,64125,5,0,1:2:0:0:
225,63,64366,2,0,B|334:68|276:13|391:24,1,176.399994616699,4|0,3:2|3:2,0:2:0:0:
453,86,65092,2,0,B|506:120|503:190|503:190|481:217|457:222,1,176.399994616699,0|0,1:2|1:2,0:0:0:0:
372,202,65818,1,4,3:2:0:0:
335,329,66181,1,2,3:2:0:0:
210,285,66544,1,0,1:2:0:0:
134,53,67270,6,0,P|91:51|0:72,2,126,4|0|4,3:1|3:2|1:2,0:2:0:0:
378,112,68721,2,0,P|421:110|512:131,2,126,2|0|4,3:2|3:2|1:2,0:2:0:0:
281,249,69931,1,4,0:2:0:0:
343,305,70173,2,0,P|405:305|466:290,2,126,4|0|4,3:1|3:2|1:2,0:2:0:0:
124,178,71625,2,0,P|61:177|0:192,2,126,4|0|2,3:2|3:2|1:2,0:2:0:0:
283,230,72834,5,8,3:3:0:0:
363,193,73076,2,0,P|383:158|341:26,1,176.399994616699,4|0,3:1|3:0,0:2:0:0:
263,23,73802,2,0,B|239:65|194:69|194:69|153:38|102:35,1,176.399994616699,0|0,1:2|1:2,0:0:0:0:
29,68,74528,2,0,P|10:92|7:158,1,88.1999973083496,2|0,3:2|1:2,0:2:0:0:
65,211,75012,2,0,P|107:210|156:191,1,88.1999973083496,0|0,2:2|1:2,0:2:0:0:
295,113,75737,5,0,1:2:0:0:
350,181,75979,2,0,L|341:278,2,88.1999973083496,4|0|0,1:1|1:2|1:2,0:2:0:0:
418,125,76705,2,0,L|427:28,2,88.1999973083496,2|0|0,1:2|1:2|1:2,0:2:0:0:
475,192,77431,2,0,B|482:227|476:251|476:251|487:274|507:287|507:287|516:325|498:364|442:371,1,220.499993270874,4|8,1:2|1:1,0:2:0:0:
276,238,78883,6,0,B|231:175|303:144|265:76,1,168,12|8,3:2|0:3,0:0:0:0:
202,21,79608,1,4,1:3:0:0:
47,87,80092,1,4,0:3:0:0:
22,167,80334,2,0,B|2:246|10:297|10:297|41:338,1,168,10|8,3:2|0:3,0:0:0:0:
98,378,81060,1,4,1:3:0:0:
250,306,81544,5,0,1:3:0:0:
201,237,81786,2,0,P|191:156|233:62,1,168,12|8,3:2|0:3,0:0:0:0:
290,28,82512,1,4,1:3:0:0:
447,87,82996,1,4,0:3:0:0:
481,163,83237,2,0,P|489:240|449:338,1,168,10|8,3:2|0:3,0:0:0:0:
388,370,83963,2,0,B|351:349|351:349|303:352,1,83.9999999999999,4|8,1:3|0:3,0:0:0:0:
228,374,84447,1,4,0:3:0:0:
154,332,84689,6,0,B|130:298|130:298|124:229|184:176,1,168,12|8,3:2|0:3,0:0:0:0:
259,191,85415,2,0,B|298:211|298:211|338:187|352:153|331:104,1,168,4|4,1:3|0:3,0:0:0:0:
264,54,86141,2,0,B|179:70|184:17|97:36,1,168,10|8,3:2|0:3,0:0:0:0:
24,72,86866,1,4,1:3:0:0:
14,239,87350,5,0,1:3:0:0:
73,298,87592,2,0,P|154:315|232:276,1,168,12|8,3:2|0:3,0:0:0:0:
273,208,88318,2,0,P|264:168|325:52,1,168,4|4,1:3|0:3,0:0:0:0:
399,47,89044,2,0,P|433:68|472:194,1,168,10|8,3:2|3:3,0:0:0:0:
419,247,89770,2,0,P|355:230|285:232,1,126,4|4,1:2|1:2,0:0:0:0:
184,290,90496,6,0,B|159:334|159:334|90:352|49:304,1,168,4|0,3:2|1:0,0:0:0:0:
41,223,91221,2,0,P|23:181|46:95,1,126,0|0,1:0|0:0,0:0:0:0:
131,18,91947,1,2,1:2:0:0:
221,106,92310,1,2,0:0:0:0:
333,48,92673,1,0,1:0:0:0:
489,245,93399,6,0,B|507:320|447:360|447:360|400:340,1,168,2|0,1:2|1:0,0:0:0:0:
353,286,94125,2,0,B|331:236|374:227|350:161,1,126,0|0,1:0|3:0,0:0:0:0:
284,55,94850,1,2,1:2:0:0:
176,121,95213,1,2,0:0:0:0:
102,18,95576,1,0,1:0:0:0:
8,252,96302,6,0,B|-10:327|50:367|50:367|97:347,1,168,2|0,1:2|1:0,0:0:0:0:
156,312,97028,2,0,P|210:290|285:309,1,126,0|0,1:0|3:0,0:0:0:0:
385,363,97754,1,2,1:2:0:0:
479,280,98116,1,2,0:0:0:0:
368,219,98479,1,0,1:0:0:0:
147,341,99205,6,0,B|120:355|92:359|92:359|48:318|58:256,1,168,2|0,1:2|1:0,0:0:0:0:
95,184,99931,2,0,B|188:167|131:112|233:98,1,168,0|0,1:0|1:0,0:0:0:0:
314,92,100657,1,2,1:2:0:0:
502,259,101383,1,2,1:2:0:0:
276,370,102108,6,0,B|260:338|263:304|263:304|277:280|277:280|280:245|265:209,1,168,4|0,3:2|3:0,0:0:0:0:
193,164,102834,2,0,B|159:173|159:173|85:135|113:57,1,168,0|0,1:0|1:0,0:0:0:0:
181,17,103560,1,2,3:2:0:0:
288,83,103923,1,0,3:0:0:0:
406,39,104286,2,0,B|451:27|451:27|493:94|459:144,1,168,0|0,1:0|1:0,0:0:0:0:
411,209,105012,6,0,P|333:237|262:181,1,168,4|0,3:2|3:0,0:0:0:0:
226,119,105737,2,0,P|158:74|82:102,1,168,0|0,1:0|1:0,0:0:0:0:
24,163,106463,1,2,3:2:0:0:
112,253,106826,1,0,3:2:0:0:
234,221,107189,2,0,P|273:209|330:207,2,83.9999999999999,0|8|4,1:2|3:3|3:3,0:0:0:0:
185,289,107915,6,0,B|122:310|122:310|59:269,2,126,4|0|4,3:2|1:2|1:2,0:0:0:0:
337,217,109125,1,0,1:2:0:0:
394,278,109366,2,0,B|432:297|432:297|474:294|488:235,1,126,4|0,1:2|1:2,0:0:0:0:
494,115,110092,2,0,L|505:17,2,83.9999999999999,6|10|10,1:2|1:2|3:2,0:0:0:0:
431,172,110818,6,0,P|389:179|263:131,1,168,4|0,3:2|3:0,0:0:0:0:
205,89,111544,1,0,1:0:0:0:
127,121,111786,2,0,P|101:162|100:210,1,83.9999999999999,0|0,3:0|1:0,0:0:0:0:
133,272,112270,2,0,P|222:254|303:257,1,168,4|0,3:2|0:0,0:0:0:0:
371,299,112996,2,0,P|416:302|465:290,1,83.9999999999999,4|8,1:2|3:3,0:0:0:0:
502,225,113479,2,0,P|502:192|481:141,1,83.9999999999999,4|8,3:3|0:2,0:0:0:0:
381,294,118681,6,0,B|452:320|452:320|512:197,1,210,0|4,1:0|3:3,0:0:0:0:
512,116,119528,6,0,B|446:80|374:131|374:131|337:138|297:101,1,226.799993078613,4|0,3:2|1:2,0:0:0:0:
87,30,120979,2,0,B|57:32|34:50|34:50|11:94|26:142,1,151.199995385742,4|0,3:2|0:0,0:0:0:0:
70,206,121705,2,0,B|153:201|129:163|215:165,1,151.199995385742,0|4,1:0|3:3,0:0:0:0:
297,189,122431,6,0,P|320:229|304:311,1,126,4|0,3:2|1:0,0:0:0:0:
112,383,123399,1,8,3:3:0:0:
51,324,123641,1,0,1:0:0:0:
59,240,123883,2,0,L|84:98,1,126,2|0,1:2|1:0,3:0:0:0:
267,18,124850,5,0,1:0:0:0:
341,57,125092,1,8,3:3:0:0:
417,22,125334,2,0,P|469:52|469:112,1,126,4|4,1:2|1:2,0:0:0:0:
376,197,126060,2,0,B|334:193|310:176|310:176|302:155|302:155|275:129|233:125,1,168,0|0,1:0|1:0,0:0:0:0:
17,295,127512,6,0,L|9:378,2,83.9999999999999,4|0|0,1:2|1:2|1:0,0:0:0:0:
61,218,128237,6,0,B|51:178|51:178|58:143|58:143|39:77,2,132.299995962524,4|0|0,3:1|3:2|1:2,0:2:0:0:
121,282,129205,1,0,3:2:0:0:
204,254,129447,1,0,1:2:0:0:
267,315,129689,2,0,P|323:338|398:317,2,132.299995962524,2|0|0,3:2|3:2|1:2,0:2:0:0:
191,155,130899,5,0,1:2:0:0:
259,98,131141,2,0,P|319:74|382:90,2,132.299995962524,4|0|0,3:2|3:2|1:2,0:2:0:0:
191,155,132108,1,0,3:2:0:0:
108,125,132350,1,0,1:2:0:0:
36,177,132592,2,0,B|24:202|25:224|25:224|33:252|33:252|17:271|14:318,1,132.299995962524,2|0,3:2|3:2,0:2:0:0:
315,375,133802,5,4,3:3:0:0:
392,333,134044,2,0,P|419:268|363:175,1,176.399994616699,4|0,3:1|3:2,0:2:0:0:
283,188,134770,2,0,B|250:232|250:232|190:254|135:208,1,176.399994616699,0|0,1:2|1:2,0:0:0:0:
78,142,135496,2,0,P|88:90|122:55,1,88.1999973083496,2|0,3:2|1:2,0:2:0:0:
191,30,135979,2,0,L|286:24,1,88.1999973083496,0|0,2:2|1:2,0:2:0:0:
438,89,136705,5,0,1:2:0:0:
485,163,136947,2,0,P|487:263|437:336,1,176.399994616699,4|0,3:2|3:2,0:2:0:0:
370,367,137673,2,0,P|319:345|187:342,1,176.399994616699,0|0,1:2|1:2,0:0:0:0:
118,373,138399,1,4,3:2:0:0:
12,292,138762,1,2,3:2:0:0:
74,175,139125,1,0,1:2:0:0:
318,236,139850,6,0,P|361:238|452:217,2,126,4|0|4,3:1|3:1|1:2,0:2:0:0:
123,75,141302,2,0,P|80:73|-11:94,2,126,2|0|4,3:2|3:1|1:2,0:2:0:0:
282,129,142512,1,4,0:2:0:0:
363,149,142754,2,0,P|406:151|497:130,2,126,4|0|4,3:1|3:2|1:2,0:2:0:0:
139,265,144205,2,0,P|96:263|5:284,2,126,4|0|2,3:2|3:2|1:2,0:2:0:0:
282,351,145415,5,8,3:3:0:0:
351,296,145657,2,0,B|397:254|388:180|388:180|350:138,1,176.399994616699,4|0,3:1|3:0,0:2:0:0:
283,90,146383,2,0,B|247:150|185:150|185:150|163:126|128:111,1,176.399994616699,0|0,1:2|1:2,0:0:0:0:
53,130,147108,2,0,P|30:164|34:220,1,88.1999973083496,2|0,3:2|1:2,0:2:0:0:
95,270,147592,2,0,P|137:269|178:238,1,88.1999973083496,0|0,2:2|1:2,0:2:0:0:
276,110,148318,5,0,1:2:0:0:
208,59,148560,2,0,L|112:46,2,88.1999973083496,4|0|0,1:1|1:1|1:1,0:2:0:0:
276,110,149286,2,0,L|372:123,2,88.1999973083496,6|0|0,1:2|1:1|1:1,0:2:0:0:
197,140,150012,2,0,P|169:197|186:263,2,132.299995962524,4|0|0,1:2|1:2|1:0,0:2:0:0:
430,233,151463,6,2,B|458:269|451:320|451:320|415:350,1,126,4|0,3:2|0:2,0:0:0:0:
346,373,152068,2,0,P|302:356|249:357,1,83.9999999999999,2|0,0:2|0:0,0:0:0:0:
138,375,152673,1,0,3:0:0:0:
73,321,152915,2,0,P|62:258|87:196,2,126,2|2|0,3:2|3:2|1:0,0:0:0:0:
187,373,154004,2,0,P|242:355|328:358,1,126,0|4,1:0|3:1,0:0:0:0:
391,371,154608,6,0,P|411:333|399:289,1,83.9999999999999,2|0,0:0|3:0,0:0:0:0:
305,213,155213,2,0,B|232:194|256:243|178:226,1,126,2|4,0:2|3:3,0:0:0:0:
103,201,155818,1,2,3:2:0:0:
74,121,156060,1,0,2:2:0:0:
126,54,156302,2,0,P|163:36|204:41,1,83.9999999999999,2|0,2:2|1:2,0:0:0:0:
316,100,156907,1,2,3:2:0:0:
240,195,157270,6,4,B|216:231|216:231|208:270|238:319,1,126,4|2,3:2|2:2,3:2:0:0:
340,376,157996,2,0,P|388:379|433:360,2,83.9999999999999,2|0|0,1:2|3:0|3:0,0:0:0:0:
268,331,158721,1,2,3:2:0:0:
316,214,159084,1,2,3:2:0:0:
229,122,159447,2,0,B|186:115|186:115|157:128|157:128|96:115,2,126,2|0|4,1:2|1:0|3:1,0:0:0:0:
310,100,160415,6,0,P|326:66|318:5,2,83.9999999999999,2|0|0,0:0|3:0|1:0,0:0:0:0:
248,157,161141,1,0,2:0:0:0:
184,212,161383,2,0,P|167:250|169:291,1,83.9999999999999,2|4,3:2|1:1,0:0:0:0:
229,350,161866,2,0,B|333:319|292:382|392:361,1,168,2|0,3:2|1:0,0:0:0:0:
480,159,163076,6,0,B|510:104|494:44|494:44|436:22,1,168,4|0,3:1|3:2,0:0:0:0:
365,42,163802,2,0,L|272:20,2,83.9999999999999,2|0|0,1:2|2:2|3:2,0:0:0:0:
400,118,164528,1,2,3:2:0:0:
296,189,164891,1,2,3:2:0:0:
198,116,165254,2,0,L|191:32,2,83.9999999999999,2|8|4,1:2|3:3|3:3,0:0:0:0:
163,192,165979,6,0,B|128:213|84:192|84:192|30:201|31:258,1,168,4|0,3:2|3:0,0:0:0:0:
49,331,166705,1,2,1:2:0:0:
208,382,167189,1,0,3:0:0:0:
272,328,167431,2,0,P|290:266|266:209,1,126,2|0,3:2|3:0,0:0:0:0:
147,171,168157,2,0,P|114:184|61:173,1,83.9999999999999,2|2,1:2|3:2,0:0:0:0:
26,102,168641,2,0,P|31:66|67:26,1,83.9999999999999,2|4,3:2|3:1,0:0:0:0:
145,31,169125,6,0,P|165:58|262:58,1,126,2|0,0:0|2:0,0:0:0:0:
326,28,169729,2,0,P|386:21|432:62,1,126,2|0,0:0|3:0,0:0:0:0:
467,139,170334,6,0,B|440:168|438:212|438:212|458:247|458:247|449:299|416:334,1,210,2|0,3:2|3:2,0:0:0:0:
351,374,171181,2,0,B|313:356|275:367|275:367|219:320|237:232,1,210,2|4,1:2|3:1,0:0:0:0:
256,192,172028,12,0,175899,1:0:0:0:
21,330,183157,6,0,L|116:317,1,83.9999999999999,0|2,1:0|1:2,0:0:0:0:
267,358,183883,2,0,L|362:345,1,83.9999999999999,0|0,1:0|1:0,0:0:0:0:
479,238,184608,2,0,P|496:176|443:89,1,168,0|0,1:0|1:0,0:0:0:0:
376,42,185334,1,0,1:0:0:0:
310,94,185576,1,0,1:0:0:0:
145,37,186060,5,0,1:0:0:0:
84,95,186302,2,0,P|55:166|75:222,2,126,2|0|0,1:2|1:0|1:0,0:0:0:0:
231,14,187512,1,0,1:0:0:0:
388,343,189205,6,0,P|454:363|518:330,2,132.299995962524,4|0|0,3:1|3:2|1:2,0:2:0:0:
324,280,190173,1,0,3:2:0:0:
370,205,190415,1,0,1:2:0:0:
308,141,190657,2,0,P|295:88|331:9,2,132.299995962524,2|0|0,3:2|3:2|1:2,0:2:0:0:
430,268,191866,5,2,1:2:0:0:
353,312,192108,2,0,P|290:317|233:282,2,132.299995962524,4|0|2,3:2|3:2|1:2,0:2:0:0:
430,268,193076,1,0,3:0:0:0:
369,204,193318,1,0,1:2:0:0:
440,151,193560,2,0,B|466:125|466:125|473:70|434:38,2,132.299995962524,4|0|0,3:2|3:2|1:2,0:2:0:0:
270,337,195012,5,6,1:2:0:0:
248,255,195254,1,4,1:2:0:0:
73,277,195737,5,6,1:2:0:0:
95,195,195979,1,4,1:2:0:0:
265,239,196463,6,0,B|327:255|327:255|395:222,2,132.299995962524,4|4|4,1:2|1:2|1:2,0:0:0:0:
106,161,197673,5,8,3:3:0:0:
175,106,197915,2,0,L|186:10,2,88.1999973083496,4|0|0,1:1|1:1|1:1,0:2:0:0:
216,184,198641,2,0,L|205:280,2,88.1999973083496,2|0|0,1:2|1:2|1:2,0:2:0:0:
283,126,199366,2,0,P|323:114|423:235,1,220.499993270874,4|8,1:2|1:1,0:2:0:0:
242,362,202270,6,0,B|176:333|114:361|114:361|80:348,1,168,12|8,3:2|0:3,0:0:0:0:
11,301,202996,1,4,1:3:0:0:
35,135,203479,1,4,0:3:0:0:
99,80,203721,2,0,B|164:51|226:79|226:79|260:66,1,168,10|8,3:2|0:3,0:0:0:0:
331,21,204447,1,4,1:3:0:0:
472,111,204931,5,0,1:3:0:0:
504,188,205173,2,0,B|510:263|444:286|444:286|417:278|398:260,1,168,12|8,3:2|0:3,0:0:0:0:
339,214,205899,1,4,1:3:0:0:
258,66,206383,1,4,0:3:0:0:
181,99,206625,2,0,P|140:155|165:256,1,168,10|8,3:2|0:3,0:0:0:0:
219,303,207350,2,0,P|268:290|307:294,1,83.9999999999999,4|8,1:3|0:3,0:0:0:0:
363,348,207834,1,4,0:3:0:0:
438,311,208076,6,0,B|479:280|479:280|490:216|435:166,1,168,12|8,3:2|0:3,0:0:0:0:
364,143,208802,2,0,B|278:139|305:82|207:82,1,168,4|4,1:3|0:3,0:0:0:0:
137,121,209528,2,0,P|107:148|114:279,1,168,10|8,3:2|0:3,0:0:0:0:
160,330,210254,1,4,1:3:0:0:
320,377,210737,5,0,1:3:0:0:
380,318,210979,2,0,P|395:237|347:171,1,168,12|8,3:2|0:3,0:0:0:0:
267,198,211705,2,0,B|244:238|215:247|215:247|170:247|124:210,1,168,4|4,1:3|0:3,0:0:0:0:
73,149,212431,2,0,P|68:94|171:44,1,168,10|8,3:2|3:3,0:0:0:0:
221,89,213157,2,0,P|285:106|341:75,1,126,4|4,1:2|1:2,0:0:0:0:
450,21,213883,6,0,B|492:47|492:47|515:128|456:218,1,226.799993078613,12|4,3:2|3:3,0:0:0:0:
245,133,215334,2,0,B|203:159|203:159|180:240|237:327,1,226.799993078613,10|4,0:0|1:3,0:0:0:0:
383,367,216544,1,0,1:0:0:0:
438,305,216786,2,0,B|470:205|427:133|427:133|380:119,1,226.799993078613,12|4,3:2|2:3,0:0:0:0:
179,224,218237,2,0,B|129:230|129:230|61:181|50:77,2,226.799993078613,10|4|6,0:0|1:2|3:2,0:0:0:0:
256,192,219810,12,0,222592,0:2:0:0:
