osu file format v14

[General]
AudioFilename: audio.mp3
AudioLeadIn: 0
PreviewTime: 54871
Countdown: 0
SampleSet: Soft
StackLeniency: 0.6
Mode: 0
LetterboxInBreaks: 0
WidescreenStoryboard: 1

[Editor]
Bookmarks: 6302,17915,29528,41141,46947,55657,67270,73076,78157,78762,78883,90496,102108,110032,113721,113782,113842,113903,113963,118681,128237,139850,145657,151463,163076,176141,177592,183399,189205,195012,202270,213883,219689,222592
DistanceSpacing: 1
BeatDivisor: 4
GridSize: 32
TimelineZoom: 2.599999

[Metadata]
Title:Singing Wheel
TitleUnicode:Singing Wheel
Artist:Sakuragawa Megu
ArtistUnicode:櫻川めぐ
Creator:Lasse
Version:Insane
Source:レヱル・ロマネスク
Tags:impurepug japanese pop rock nishizaka kyouhei kyohei 西坂 恭平 anime ending full version rail romanesque maitetsu まいてつ visual novel
BeatmapID:2922207
BeatmapSetID:1414414

[Difficulty]
HPDrainRate:5
CircleSize:4
OverallDifficulty:7.6
ApproachRate:9
SliderMultiplier:1.6
SliderTickRate:1

[Events]
//Background and Video events
0,0,"crop1.jpg",0,0
//Break Periods
2,18115,23121
2,113921,118081
//Storyboard Layer 0 (Background)
//Storyboard Layer 1 (Fail)
//Storyboard Layer 2 (Pass)
//Storyboard Layer 3 (Foreground)
//Storyboard Layer 4 (Overlay)
//Storyboard Sound Samples

[TimingPoints]
496,241.935483870968,6,2,1,50,1,0
496,-200,6,2,1,50,0,0
5576,-133.333333333333,6,2,1,55,0,0
5818,-133.333333333333,6,2,1,58,0,0
6060,-133.333333333333,6,2,1,62,0,0
6302,-111.111111111111,6,2,2,68,0,0
6362,-111.111111111111,6,2,1,68,0,0
7693,-111.111111111111,6,2,2,68,0,0
7814,-111.111111111111,6,2,1,68,0,0
9145,-111.111111111111,6,2,2,68,0,0
9266,-111.111111111111,6,2,1,68,0,0
10596,-111.111111111111,6,2,2,68,0,0
10717,-111.111111111111,6,2,1,68,0,0
12108,-111.111111111111,6,2,2,68,0,0
12169,-111.111111111111,6,2,1,68,0,0
13500,-111.111111111111,6,2,2,68,0,0
13621,-111.111111111111,6,2,1,68,0,0
14951,-111.111111111111,6,2,2,68,0,0
15072,-111.111111111111,6,2,1,68,0,0
16403,-111.111111111111,6,2,2,68,0,0
16524,-111.111111111111,6,2,1,68,0,0
17189,-100,6,2,1,68,0,0
17915,-111.111111111111,6,2,1,64,0,0
18036,-111.111111111111,6,2,1,54,0,0
23721,-166.666666666666,6,2,1,57,0,0
26625,-142.857142857143,6,2,1,60,0,0
29165,-111.111111111111,6,2,1,63,0,0
29286,-111.111111111111,6,2,1,64,0,0
29528,-111.111111111111,6,2,1,70,0,0
35334,-111.111111111111,6,2,1,72,0,0
39689,-111.111111111111,6,2,1,74,0,0
41141,-100,6,2,1,74,0,0
41866,-111.111111111111,6,2,1,70,0,0
42592,-100,6,2,1,74,0,0
43318,-111.111111111111,6,2,1,70,0,0
44044,-100,6,2,1,74,0,0
44770,-111.111111111111,6,2,1,70,0,0
45496,-100,6,2,1,74,0,0
45858,-100,6,2,1,74,0,0
45979,-111.111111111111,6,2,1,70,0,0
46947,-125,6,2,1,70,0,0
47189,-125,6,2,1,65,0,0
49850,-111.111111111111,6,2,1,68,0,0
52270,-125,6,2,1,70,0,0
52754,-100,6,2,1,72,0,0
54931,-125,6,2,1,60,0,0
55173,-125,6,2,1,62,0,0
55415,-125,6,2,1,64,0,0
55657,-100,6,2,1,82,0,1
67270,-111.111111111111,6,2,1,75,0,0
73076,-100,6,2,1,82,0,1
75979,-100,6,2,1,83,0,1
76705,-100,6,2,1,84,0,1
77431,-90.9090909090909,6,2,1,85,0,1
78036,-100,6,2,1,84,0,0
78883,-111.111111111111,6,2,2,68,0,0
78943,-111.111111111111,6,2,1,68,0,0
80274,-111.111111111111,6,2,2,68,0,0
80395,-111.111111111111,6,2,1,68,0,0
81725,-111.111111111111,6,2,2,68,0,0
81846,-111.111111111111,6,2,1,68,0,0
83177,-111.111111111111,6,2,2,68,0,0
83298,-111.111111111111,6,2,1,68,0,0
84689,-111.111111111111,6,2,2,68,0,0
84750,-111.111111111111,6,2,1,68,0,0
86080,-111.111111111111,6,2,2,68,0,0
86201,-111.111111111111,6,2,1,68,0,0
87532,-111.111111111111,6,2,2,68,0,0
87653,-111.111111111111,6,2,1,68,0,0
88983,-111.111111111111,6,2,2,68,0,0
89104,-111.111111111111,6,2,1,68,0,0
89770,-100,6,2,1,68,0,0
90496,-111.111111111111,6,2,1,68,0,0
90737,-111.111111111111,6,2,1,65,0,0
102108,-105.263157894737,6,2,1,70,0,0
107915,-105.263157894737,6,2,1,72,0,0
110334,-105.263157894737,6,2,2,72,0,0
110818,-105.263157894737,6,2,1,72,0,0
112270,-105.263157894737,6,2,1,74,0,0
113721,-105.263157894737,6,2,1,68,0,0
118681,-111.111111111111,6,2,1,64,0,0
119528,-125,6,2,1,70,0,0
119770,-125,6,2,1,65,0,0
122431,-111.111111111111,6,2,1,68,0,0
124850,-125,6,2,1,70,0,0
125334,-100,6,2,1,72,0,0
126786,-125,6,2,2,68,0,0
126907,-125,6,2,3,64,0,0
127028,-117.647058823529,6,2,3,68,0,0
127149,-117.647058823529,6,2,3,64,0,0
127270,-111.111111111111,6,2,2,68,0,0
127391,-111.111111111111,6,2,2,64,0,0
127512,-100,6,2,2,72,0,0
127754,-111.111111111111,6,2,2,73,0,0
127875,-111.111111111111,6,2,2,74,0,0
127996,-111.111111111111,6,2,2,75,0,0
128116,-111.111111111111,6,2,2,76,0,0
128237,-100,6,2,1,82,0,1
139850,-111.111111111111,6,2,1,75,0,0
145657,-100,6,2,1,82,0,1
148560,-100,6,2,1,83,0,1
149286,-100,6,2,1,84,0,1
150012,-90.9090909090909,6,2,1,85,0,1
150737,-111.111111111111,6,2,1,80,0,0
150979,-111.111111111111,6,2,1,78,0,0
151221,-111.111111111111,6,2,1,76,0,0
151463,-100,6,2,1,78,0,0
163076,-100,6,2,1,75,0,0
171786,-100,6,2,1,78,0,0
174205,-100,6,2,1,80,0,0
174689,-90.9090909090909,6,2,1,82,0,0
176866,-100,6,2,1,56,0,0
177108,-100,6,2,1,58,0,0
177350,-100,6,2,1,60,0,0
177592,-181.818181818182,6,2,1,62,0,0
183157,-100,6,2,1,64,0,0
183399,-125,6,2,1,66,0,0
186302,-111.111111111111,6,2,1,68,0,0
187270,-100,6,2,1,70,0,0
187391,-100,6,2,1,72,0,0
187512,-100,6,2,1,74,0,0
187633,-100,6,2,1,76,0,0
188963,-100,6,2,1,60,0,0
189205,-100,6,2,1,84,0,1
194951,-100,6,2,1,84,0,0
195012,-83.3333333333333,6,2,1,84,0,1
195193,-100,6,2,1,5,0,1
195254,-100,6,2,1,84,0,1
195375,-100,6,2,1,78,0,0
195737,-83.3333333333333,6,2,1,84,0,1
195919,-100,6,2,1,5,0,1
195979,-100,6,2,1,84,0,1
196100,-100,6,2,1,78,0,0
196463,-90.9090909090909,6,2,1,84,0,1
197431,-100,6,2,1,84,0,1
197915,-100,6,2,1,83,0,1
198641,-100,6,2,1,84,0,1
199366,-90.9090909090909,6,2,1,85,0,1
199971,-90.9090909090909,6,2,1,84,0,0
202270,-111.111111111111,6,2,2,68,0,0
202330,-111.111111111111,6,2,1,68,0,0
203661,-111.111111111111,6,2,2,68,0,0
203782,-111.111111111111,6,2,1,68,0,0
205112,-111.111111111111,6,2,2,68,0,0
205233,-111.111111111111,6,2,1,68,0,0
206564,-111.111111111111,6,2,2,68,0,0
206685,-111.111111111111,6,2,1,68,0,0
208076,-111.111111111111,6,2,2,68,0,0
208137,-111.111111111111,6,2,1,68,0,0
209467,-111.111111111111,6,2,2,68,0,0
209588,-111.111111111111,6,2,1,68,0,0
210919,-111.111111111111,6,2,2,68,0,0
211040,-111.111111111111,6,2,1,68,0,0
212370,-111.111111111111,6,2,2,68,0,0
212491,-111.111111111111,6,2,1,68,0,0
213157,-100,6,2,1,68,0,0
213883,-111.111111111111,6,2,1,64,0,0
213943,-111.111111111111,6,2,1,64,0,0
215274,-111.111111111111,6,2,2,64,0,0
215395,-111.111111111111,6,2,1,64,0,0
216725,-111.111111111111,6,2,2,64,0,0
216846,-111.111111111111,6,2,1,64,0,0
218177,-111.111111111111,6,2,2,64,0,0
218298,-111.111111111111,6,2,1,64,0,0
219689,-250,6,2,1,62,0,0
219750,-111.111111111111,6,2,1,40,0,0
220173,-111.111111111111,6,2,99,30,0,0
220657,-111.111111111111,6,2,99,20,0,0
221141,-111.111111111111,6,2,99,15,0,0
221625,-111.111111111111,6,2,99,10,0,0
222108,-111.111111111111,6,2,99,5,0,0
222592,-111.111111111111,6,2,99,20,0,0

[Colours]
Combo1 : 250,180,240
Combo2 : 120,200,230
Combo3 : 255,230,130
Combo4 : 160,230,150

[HitObjects]
220,61,496,6,0,B|191:91|145:80|145:80|116:49|74:51,1,160,2|0,0:0|0:0,0:0:0:0:
77,130,1221,2,0,P|42:131|-4:154,2,80,0|0|0,0:0|0:0|0:0,0:0:0:0:
136,184,1947,2,0,P|201:204|276:151,1,160,0|0,0:0|0:0,0:0:0:0:
345,81,2673,6,0,B|387:53|445:58|445:58|466:77|482:117,1,160,2|0,0:0|0:0,0:0:0:0:
494,183,3399,2,0,B|484:232|439:269|439:269|411:271|371:254,1,160,2|0,0:0|0:0,0:0:0:0:
311,228,4125,2,0,L|294:137,2,80,0|0|0,0:0|0:0|0:0,0:0:0:0:
283,303,4850,2,0,B|264:323|237:334|237:334|181:318|152:276,1,160,2|0,0:0|0:0,0:0:0:0:
88,177,5576,6,0,P|93:118|125:59,1,120.000004577637,2|0,1:3|1:0,0:0:0:0:
180,23,5939,1,2,1:2:0:0:
224,79,6060,1,8,3:3:0:0:
294,91,6181,1,8,3:3:0:0:
359,52,6302,6,0,P|435:36|493:72,1,143.999995605469,12|0,3:2|3:0,0:0:0:0:
366,168,6786,1,8,0:3:0:0:
500,251,7028,1,4,1:3:0:0:
394,369,7270,1,8,0:3:0:0:
394,369,7391,1,8,0:3:0:0:
327,328,7512,1,4,0:3:0:0:
327,328,7633,1,4,0:3:0:0:
261,363,7754,6,0,P|193:375|122:329,2,143.999995605469,10|0|8,3:2|3:0|0:3,0:0:0:0:
392,275,8479,1,4,1:3:0:0:
273,169,8721,1,8,0:3:0:0:
142,257,8963,1,0,1:3:0:0:
70,264,9084,1,0,1:3:0:0:
19,212,9205,6,0,P|13:148|61:69,1,143.999995605469,12|0,3:2|3:0,0:0:0:0:
192,11,9689,1,8,0:3:0:0:
301,125,9931,1,4,1:3:0:0:
226,263,10173,1,8,0:3:0:0:
226,263,10294,1,8,0:3:0:0:
290,311,10415,1,4,0:3:0:0:
290,311,10536,1,4,0:3:0:0:
357,276,10657,6,0,P|428:269|486:340,2,143.999995605469,10|0|8,3:2|3:0|0:3,0:0:0:0:
209,374,11383,1,4,1:3:0:0:
88,245,11625,2,0,L|14:254,2,47.9999985351563,8|8|8,0:3|0:3|0:3,0:0:0:0:
114,263,11866,1,4,0:3:0:0:
145,266,11947,1,4,0:3:0:0:
173,251,12028,1,4,0:3:0:0:
188,223,12108,6,0,B|173:169|173:169|180:149|180:149|163:73,1,143.999995605469,12|0,3:2|3:0,0:0:0:0:
295,176,12592,1,8,0:3:0:0:
385,45,12834,1,4,1:3:0:0:
498,162,13076,1,8,0:3:0:0:
498,162,13197,1,8,0:3:0:0:
438,213,13318,1,4,0:3:0:0:
438,213,13439,1,4,0:3:0:0:
369,172,13560,6,0,P|308:150|205:160,2,143.999995605469,10|0|8,3:2|3:0|0:3,0:0:0:0:
482,283,14286,1,4,1:3:0:0:
448,128,14528,1,8,0:3:0:0:
381,271,14770,1,0,1:3:0:0:
312,292,14891,1,0,1:3:0:0:
258,243,15012,6,0,B|240:185|279:175|258:100,1,143.999995605469,12|0,3:2|3:0,0:0:0:0:
124,15,15496,1,8,0:3:0:0:
0,113,15737,1,4,1:3:0:0:
134,199,15979,1,8,0:3:0:0:
134,199,16100,1,8,0:3:0:0:
187,140,16221,1,4,0:3:0:0:
187,140,16342,1,4,0:3:0:0:
251,186,16463,6,0,B|295:219|295:219|344:219|388:163,1,143.999995605469,10|0,3:2|3:0,0:0:0:0:
464,67,16947,1,8,3:3:0:0:
464,67,17068,1,8,3:3:0:0:
512,139,17189,6,0,P|523:216|495:293,1,160,4|8,1:2|3:3,0:0:0:0:
373,374,17552,2,0,P|361:280|309:208,1,160,4|8,1:2|3:3,0:0:0:0:
243,153,17915,1,12,3:2:0:0:
184,32,23721,6,0,P|112:69|126:258,1,287.999991210938,4|0,3:2|3:0,0:0:0:0:
328,352,25173,2,0,P|400:315|386:126,1,287.999991210938,0|0,3:0|3:0,0:0:0:0:
176,49,26625,6,0,L|-7:68,1,167.999994873047,0|0,3:2|3:0,0:0:0:0:
136,175,27350,2,0,L|319:156,1,167.999994873047,0|0,3:0|3:0,0:0:0:0:
404,60,28076,5,0,3:0:0:0:
404,60,29165,5,0,3:0:0:0:
430,134,29286,1,0,1:0:0:0:
430,134,29528,6,0,P|351:102|268:118,1,143.999995605469,4|0,3:2|0:0,0:0:0:0:
265,19,29891,2,0,P|210:84|199:168,1,143.999995605469,0|0,1:2|3:0,0:0:0:0:
104,140,30254,2,0,P|149:212|225:248,1,143.999995605469,0|0,1:2|3:0,0:0:0:0:
169,330,30616,2,0,P|251:309|309:247,1,143.999995605469,0|0,2:0|0:0,0:0:0:0:
369,325,30979,6,0,P|377:255|352:188,1,143.999995605469,2|0,3:2|0:0,0:0:0:0:
239,188,31342,2,0,P|212:254|219:325,1,143.999995605469,0|0,1:0|3:0,0:0:0:0:
339,363,31705,2,0,P|373:351|408:345,1,71.9999978027344,0|0,1:0|0:0,0:0:0:0:
491,285,31947,2,0,P|456:273|421:267,1,71.9999978027344,0|0,3:0|0:0,0:0:0:0:
339,207,32189,2,0,P|375:191|506:187,1,143.999995605469,0|2,1:0|3:2,0:0:0:0:
478,181,32673,6,0,P|469:130|453:90,1,71.9999978027344,2|0,2:0|1:0,0:0:0:0:
378,87,32915,2,0,P|340:51|304:28,1,71.9999978027344,0|0,2:0|3:0,0:0:0:0:
237,52,33157,2,0,P|167:44|104:79,1,143.999995605469,0|0,1:0|3:0,0:0:0:0:
64,155,33520,2,0,P|2:216|5:279,1,143.999995605469,0|0,0:0|0:0,0:0:0:0:
70,344,33883,6,0,L|222:326,1,143.999995605469,2|0,3:2|2:0,0:0:0:0:
297,353,34246,2,0,L|279:201,1,143.999995605469,0|0,1:0|3:0,0:0:0:0:
306,126,34608,2,0,L|229:135,1,71.9999978027344,4|0,1:2|0:0,0:0:0:0:
151,116,34850,5,0,1:0:0:0:
151,116,34971,1,0,1:0:0:0:
97,169,35092,1,8,3:3:0:0:
97,169,35213,1,8,3:3:0:0:
28,135,35334,6,0,P|18:53|65:-2,1,143.999995605469,4|0,3:2|0:0,0:0:0:0:
150,29,35697,2,0,L|306:13,1,143.999995605469,0|0,1:2|3:0,0:0:0:0:
383,70,36060,2,0,P|390:27|383:-2,1,71.9999978027344,4|0,1:2|0:0,0:0:0:0:
303,34,36302,2,0,P|262:49|240:70,1,71.9999978027344,0|0,3:0|0:0,0:0:0:0:
312,122,36544,2,0,P|345:149|374:158,1,71.9999978027344,0|0,1:0|0:0,0:0:0:0:
465,127,36786,6,0,B|506:112|506:112|463:222,1,143.999995605469,4|0,1:2|0:0,0:0:0:0:
507,281,37149,2,0,P|453:247|357:271,1,143.999995605469,0|0,1:2|3:0,0:0:0:0:
291,320,37512,1,8,0:3:0:0:
284,337,37592,1,8,0:3:0:0:
276,354,37673,1,8,2:3:0:0:
265,370,37754,2,0,P|236:379|192:374,1,71.9999978027344,0|0,1:0|1:0,0:0:0:0:
117,335,37996,2,0,P|108:306|113:262,1,71.9999978027344,0|0,1:0|1:0,0:0:0:0:
189,188,38237,6,0,B|228:170|228:170|246:114|211:74,1,143.999995605469,4|0,3:2|0:0,0:0:0:0:
125,45,38600,2,0,B|86:63|86:63|68:119|102:158,1,143.999995605469,0|0,1:0|3:0,0:0:0:0:
197,203,38963,2,0,L|266:171,1,71.9999978027344,0|0,1:0|0:0,0:0:0:0:
323,111,39205,2,0,L|329:39,1,71.9999978027344,0|0,3:0|0:0,0:0:0:0:
410,6,39447,2,0,L|468:47,1,71.9999978027344,0|0,1:0|0:0,0:0:0:0:
509,139,39689,6,0,B|476:167|476:167|466:224|513:254,1,143.999995605469,4|0,3:2|0:0,0:0:0:0:
452,323,40052,2,0,B|484:294|484:294|494:237|447:207,1,143.999995605469,0|0,1:0|3:0,0:0:0:0:
363,164,40415,2,0,B|359:203|315:215|315:215|226:173,1,143.999995605469,4|8,1:2|3:3,0:0:0:0:
180,209,40778,5,0,1:0:0:0:
153,138,40899,1,4,3:3:0:0:
77,129,41020,1,4,3:3:0:0:
21,182,41141,6,0,P|-2:240|41:336,1,160,4|0,1:2|3:0,0:0:0:0:
113,378,41504,1,4,1:2:0:0:
113,378,41866,6,0,L|125:299,1,71.9999978027344,0|0,1:0|1:0,0:0:0:0:
188,264,42108,1,8,3:3:0:0:
188,264,42229,1,8,3:3:0:0:
263,290,42350,1,4,3:3:0:0:
263,290,42471,1,4,3:3:0:0:
320,238,42592,6,0,P|343:180|300:84,1,160,4|0,1:2|3:0,0:0:0:0:
234,32,42955,1,4,1:2:0:0:
234,32,43318,5,0,1:0:0:0:
228,50,43399,1,0,1:0:0:0:
222,68,43479,1,0,1:0:0:0:
216,86,43560,2,0,P|161:98|87:46,1,143.999995605469,0|0,1:0|1:0,0:0:0:0:
91,53,44044,6,0,P|72:93|68:140,2,80,4|0|0,1:2|3:0|3:0,0:0:0:0:
156,2,44407,1,4,1:2:0:0:
156,2,44770,1,0,1:0:0:0:
167,16,44850,1,0,1:0:0:0:
181,28,44931,1,0,1:0:0:0:
198,36,45012,2,0,L|258:25,2,47.9999985351563,8|8|8,3:3|3:3|3:3,0:0:0:0:
157,102,45254,2,0,L|97:113,2,47.9999985351563,12|12|12,3:3|3:3|3:3,0:0:0:0:
229,133,45496,6,0,B|274:203|211:215|256:285,1,160,4|0,1:2|3:0,0:0:0:0:
324,358,45858,2,0,P|411:339|490:336,1,160,4|0,1:2|1:0,0:0:0:0:
481,335,46161,1,0,1:0:0:0:
481,335,46221,2,0,P|486:292|467:246,1,71.9999978027344,8|0,3:3|1:0,0:0:0:0:
512,188,46463,2,0,P|494:148|455:117,1,71.9999978027344,0|4,1:0|3:3,0:0:0:0:
464,45,46705,2,0,P|429:19|379:12,1,71.9999978027344,8|0,3:3|1:0,0:0:0:0:
317,38,46947,6,0,P|256:53|185:5,2,128,4|0|0,3:2|0:0|0:0,0:0:0:0:
364,147,47673,2,0,P|321:101|327:16,2,128,0|0|0,1:2|0:0|3:0,0:0:0:0:
294,242,48399,2,0,P|312:182|389:144,2,128,4|0|0,3:2|0:0|3:0,0:0:0:0:
325,366,49125,1,0,1:0:0:0:
417,277,49366,1,8,3:3:0:0:
294,242,49608,1,4,3:3:0:0:
202,331,49850,6,0,B|132:349|132:349|69:313,1,143.999995605469,4|0,3:2|1:0,0:0:0:0:
1,272,50213,1,0,1:0:0:0:
31,198,50334,2,0,L|64:116,1,71.9999978027344,0|0,1:0|1:0,0:0:0:0:
143,184,50576,2,0,L|176:266,1,71.9999978027344,0|0,1:0|1:0,0:0:0:0:
233,147,50818,6,0,B|295:111|295:111|365:129,1,143.999995605469,8|0,3:3|1:0,0:0:0:0:
385,141,51141,1,0,1:0:0:0:
405,152,51221,1,0,1:0:0:0:
426,162,51302,2,0,B|446:160|465:151|465:151|488:87|439:44,1,143.999995605469,2|0,1:2|3:0,0:0:0:0:
385,7,51665,1,0,1:0:0:0:
323,56,51786,2,0,B|260:91|260:91|190:73,1,143.999995605469,0|0,3:3|1:0,0:0:0:0:
48,9,52270,5,0,1:0:0:0:
7,74,52391,1,0,1:0:0:0:
12,150,52512,1,8,3:3:0:0:
60,208,52633,1,8,3:3:0:0:
132,226,52754,6,0,P|225:204|300:195,1,160,4|0,1:2|3:0,0:0:0:0:
356,296,53116,2,0,P|435:306|512:326,1,160,4|0,1:2|3:0,0:0:0:0:
421,214,53479,5,0,1:0:0:0:
406,191,53560,1,0,1:0:0:0:
400,164,53641,1,0,1:0:0:0:
405,137,53721,1,8,3:3:0:0:
419,113,53802,1,8,3:3:0:0:
441,97,53883,1,8,3:3:0:0:
468,89,53963,2,0,B|490:56|490:56|467:6,1,80,0|0,1:0|1:0,0:0:0:0:
175,100,54931,5,0,0:0:0:0:
140,34,55173,5,0,0:0:0:0:
66,31,55415,5,0,0:0:0:0:
26,94,55657,6,0,B|2:162|57:202|57:202|109:187,1,160,4|0,3:1|1:2,0:0:0:0:
236,143,56020,2,0,B|260:211|205:251|205:251|153:236,1,160,0|0,3:2|0:2,0:0:0:0:
110,114,56383,1,0,1:2:0:0:
110,114,56504,1,0,1:2:0:0:
176,55,56625,2,0,P|210:40|254:37,1,80,0|0,3:2|0:2,0:0:0:0:
331,112,56866,2,0,P|370:114|407:130,1,80,0|0,1:2|0:2,0:0:0:0:
439,235,57108,6,0,B|441:276|486:291|486:291|525:262|512:220,1,160,2|0,3:2|1:2,0:0:0:0:
378,302,57471,2,0,B|364:343|403:372|403:372|449:357|451:315,1,160,0|0,3:2|3:2,0:0:0:0:
341,222,57834,1,0,1:2:0:0:
275,261,57955,1,0,1:2:0:0:
210,220,58076,1,0,3:2:0:0:
125,62,58318,5,0,1:2:0:0:
125,62,58439,1,0,2:2:0:0:
64,121,58560,6,0,P|40:196|61:273,1,160,4|0,3:2|1:2,0:0:0:0:
164,329,58923,2,0,P|246:297|333:314,1,160,0|0,3:2|3:2,0:0:0:0:
416,378,59286,1,0,1:2:0:0:
416,378,59407,1,0,1:2:0:0:
488,313,59528,2,0,P|501:276|498:237,1,80,0|0,3:2|0:2,0:0:0:0:
411,175,59770,2,0,L|312:187,1,80,0|0,1:2|0:2,0:0:0:0:
214,255,60012,6,0,L|27:231,1,160,2|0,3:2|1:2,0:0:0:0:
120,322,60375,2,0,B|157:255|115:237|151:166,1,160,0|0,3:2|3:2,0:0:0:0:
213,82,60737,5,0,1:2:0:0:
277,128,60858,1,0,1:2:0:0:
353,104,60979,1,8,3:3:0:0:
374,27,61100,1,0,1:2:0:0:
454,7,61221,5,4,3:3:0:0:
454,7,61342,1,4,3:3:0:0:
506,72,61463,6,0,L|492:235,1,160,4|0,3:1|1:2,0:0:0:0:
337,378,61947,2,0,L|327:263,1,80,0|0,3:2|3:2,0:0:0:0:
275,235,62189,1,0,1:2:0:0:
275,235,62310,2,0,B|253:279|191:267|191:267|178:240|146:225,1,160,0|0,1:2|0:2,0:0:0:0:
36,314,62673,6,0,L|122:301,1,80,0|0,1:2|0:2,0:0:0:0:
146,225,62915,2,0,L|232:238,1,80,2|0,3:2|0:2,0:0:0:0:
282,323,63157,2,0,L|368:310,1,80,0|0,1:2|0:2,0:0:0:0:
418,220,63399,2,0,L|497:231,1,80,0|0,3:2|3:2,0:0:0:0:
398,131,63641,5,0,1:2:0:0:
370,60,63762,1,0,1:2:0:0:
435,20,63883,1,0,3:2:0:0:
300,131,64125,5,0,1:2:0:0:
300,131,64246,1,0,0:2:0:0:
241,71,64366,6,0,P|167:34|65:45,1,160,4|0,3:2|1:2,0:0:0:0:
231,189,64850,2,0,L|130:203,1,80,0|0,3:2|3:2,0:0:0:0:
64,247,65092,1,0,1:2:0:0:
64,247,65213,2,0,P|138:284|240:273,1,160,0|0,1:2|0:2,0:0:0:0:
313,221,65576,2,0,L|345:112,1,80,0|0,1:2|0:2,0:0:0:0:
432,52,65818,6,0,P|483:57|496:169,1,160,4|0,3:2|1:2,0:0:0:0:
401,201,66181,2,0,L|221:153,1,160,2|0,3:2|3:2,0:0:0:0:
177,198,66544,5,0,1:2:0:0:
181,119,66665,1,0,1:2:0:0:
118,71,66786,1,8,3:3:0:0:
42,91,66907,1,8,3:3:0:0:
18,168,67028,5,4,3:3:0:0:
18,168,67149,1,4,3:3:0:0:
74,226,67270,6,0,L|239:212,1,143.999995605469,4|0,3:1|0:2,0:0:0:0:
292,164,67633,2,0,L|221:313,1,143.999995605469,0|0,3:2|0:2,0:0:0:0:
236,383,67996,2,0,L|142:247,2,143.999995605469,4|0|0,1:2|0:2|3:2,0:0:0:0:
236,383,68721,6,0,L|306:233,1,143.999995605469,2|0,3:2|0:2,0:0:0:0:
291,163,69084,2,0,L|384:298,1,143.999995605469,0|0,3:2|3:2,0:0:0:0:
452,321,69447,2,0,L|287:334,1,143.999995605469,4|0,1:2|0:2,0:0:0:0:
308,332,69931,2,0,L|343:257,1,71.9999978027344,4|0,0:2|0:2,0:0:0:0:
395,171,70173,6,0,P|382:96|325:21,1,143.999995605469,4|0,3:1|0:2,0:0:0:0:
252,24,70536,2,0,P|193:72|157:159,1,143.999995605469,0|0,3:2|0:2,0:0:0:0:
197,222,70899,2,0,P|268:248|361:236,2,143.999995605469,4|0|0,1:2|3:3|3:3,0:0:0:0:
197,222,71625,6,0,B|209:163|160:132|160:132|103:153,1,143.999995605469,4|0,3:2|0:2,0:0:0:0:
59,226,71987,2,0,B|47:285|96:316|96:316|153:295,1,143.999995605469,0|0,3:2|0:2,0:0:0:0:
192,375,72350,2,0,L|259:349,1,71.9999978027344,2|0,1:2|0:2,0:0:0:0:
348,324,72592,5,0,1:2:0:0:
348,324,72713,1,0,1:2:0:0:
428,364,72834,5,8,3:3:0:0:
428,364,72955,1,8,3:3:0:0:
486,300,73076,6,0,P|494:215|452:145,1,160,4|0,3:1|1:2,0:0:0:0:
247,218,73560,2,0,P|244:181|265:124,1,80,0|0,3:0|3:0,0:0:0:0:
288,65,73802,1,0,1:2:0:0:
288,65,73923,2,0,P|225:98|115:72,1,160,0|0,1:2|0:0,0:0:0:0:
42,42,74286,5,0,1:2:0:0:
42,42,74407,1,0,2:2:0:0:
8,124,74528,6,0,P|6:173|23:213,1,80,2|0,3:2|0:2,0:0:0:0:
71,276,74770,2,0,P|112:302|155:307,1,80,0|0,1:2|3:2,0:0:0:0:
230,297,75012,2,0,P|273:274|299:239,1,80,0|0,2:2|3:2,0:0:0:0:
351,179,75254,1,0,1:2:0:0:
294,127,75375,1,0,1:2:0:0:
294,50,75496,1,0,3:2:0:0:
445,5,75737,5,0,1:2:0:0:
445,5,75858,1,0,0:2:0:0:
510,50,75979,6,0,P|512:102|495:135,1,80,4|0,1:1|0:2,0:0:0:0:
374,35,76221,2,0,P|418:7|455:5,1,80,0|0,1:2|0:2,0:0:0:0:
429,161,76463,2,0,P|382:136|362:105,1,80,0|0,1:2|0:2,0:0:0:0:
294,50,76705,6,0,P|244:34|208:42,1,80,2|0,1:2|0:2,0:0:0:0:
319,176,76947,2,0,P|357:140|368:105,1,80,0|0,1:2|0:2,0:0:0:0:
198,134,77189,2,0,P|209:184|234:212,1,80,0|0,1:2|0:2,0:0:0:0:
306,289,77431,6,0,B|325:287|340:257|340:257|265:252|228:310,1,176.000005371094,4|0,1:2|3:2,0:0:0:0:
177,379,77794,1,0,1:2:0:0:
89,370,77915,1,0,1:2:0:0:
52,289,78036,1,8,1:1:0:0:
52,289,78883,6,0,B|87:235|19:219|52:151,1,143.999995605469,12|0,3:2|3:0,0:0:0:0:
154,28,79366,1,8,0:3:0:0:
302,82,79608,1,4,1:3:0:0:
200,203,79850,1,8,0:3:0:0:
200,203,79971,1,8,0:3:0:0:
257,260,80092,1,4,0:3:0:0:
257,260,80213,1,4,0:3:0:0:
323,223,80334,6,0,P|389:207|475:252,2,143.999995605469,10|0|8,3:2|3:0|0:3,0:0:0:0:
181,293,81060,1,4,1:3:0:0:
78,172,81302,1,8,0:3:0:0:
220,102,81544,1,0,1:3:0:0:
274,151,81665,1,0,1:3:0:0:
337,113,81786,6,0,P|403:97|489:142,1,143.999995605469,12|0,3:2|3:0,0:0:0:0:
509,278,82270,1,8,0:3:0:0:
375,362,82512,1,4,1:3:0:0:
253,260,82754,1,8,0:3:0:0:
253,260,82875,1,8,0:3:0:0:
186,292,82996,1,4,0:3:0:0:
186,292,83116,1,4,0:3:0:0:
134,232,83237,6,0,P|68:216|-18:261,2,143.999995605469,10|0|8,3:2|3:0|0:3,0:0:0:0:
253,338,83963,1,4,1:3:0:0:
387,254,84205,2,0,L|461:263,2,47.9999985351563,8|8|8,0:3|0:3|0:3,0:0:0:0:
361,272,84447,1,4,0:3:0:0:
330,275,84528,1,4,0:3:0:0:
302,260,84608,1,4,0:3:0:0:
287,232,84689,6,0,B|274:158|313:168|296:89,1,143.999995605469,12|0,3:2|3:0,0:0:0:0:
163,3,85173,1,8,0:3:0:0:
37,99,85415,1,4,1:3:0:0:
170,186,85657,1,8,0:3:0:0:
170,186,85778,1,8,0:3:0:0:
237,151,85899,1,4,0:3:0:0:
237,151,86020,1,4,0:3:0:0:
301,190,86141,6,0,P|371:202|440:170,2,143.999995605469,10|0|8,3:2|3:0|0:3,0:0:0:0:
167,104,86866,1,4,1:3:0:0:
160,262,87108,1,8,0:3:0:0:
300,190,87350,1,0,1:3:0:0:
258,131,87471,1,0,1:3:0:0:
294,69,87592,6,0,P|359:40|429:52,1,143.999995605469,12|0,3:2|3:0,0:0:0:0:
511,187,88076,1,8,0:3:0:0:
424,319,88318,1,4,1:3:0:0:
270,316,88560,1,8,0:3:0:0:
270,316,88681,1,8,0:3:0:0:
207,361,88802,1,4,0:3:0:0:
207,361,88923,1,4,0:3:0:0:
138,319,89044,6,0,B|124:283|124:283|136:235|136:235|114:172,1,143.999995605469,10|0,3:2|3:0,0:0:0:0:
0,51,89528,1,8,3:3:0:0:
0,51,89649,1,8,3:3:0:0:
48,114,89770,6,0,B|80:150|136:133|136:133|146:98|180:82,1,160,4|8,1:2|3:3,0:0:0:0:
226,205,90133,2,0,B|257:240|313:223|313:223|323:188|357:172,1,160,4|8,1:2|3:3,0:0:0:0:
482,211,90496,2,0,P|475:174|441:136,1,71.9999978027344,4|0,3:2|0:0,0:0:0:0:
370,74,90737,5,0,1:0:0:0:
349,87,90818,1,0,1:0:0:0:
325,93,90899,1,0,1:0:0:0:
301,94,90979,2,0,P|238:64|136:74,1,143.999995605469,0|0,1:0|1:0,0:0:0:0:
26,139,91463,1,0,1:0:0:0:
17,161,91544,1,0,1:0:0:0:
14,185,91625,1,0,1:0:0:0:
15,208,91705,2,0,P|18:241|32:280,1,71.9999978027344,0|0,1:0|3:0,0:0:0:0:
98,344,91947,6,0,P|171:321|252:319,1,143.999995605469,2|0,1:2|1:0,0:0:0:0:
261,323,92270,1,0,1:0:0:0:
283,331,92350,1,0,1:0:0:0:
304,341,92431,2,0,P|372:363|443:367,1,143.999995605469,0|0,1:0|1:0,0:0:0:0:
500,212,92915,5,2,1:2:0:0:
439,251,93036,1,0,1:0:0:0:
383,205,93157,1,8,3:3:0:0:
409,137,93278,1,8,3:3:0:0:
481,141,93399,1,2,1:2:0:0:
366,223,93641,5,0,1:0:0:0:
347,237,93721,1,0,1:0:0:0:
325,247,93802,1,0,1:0:0:0:
301,250,93883,2,0,B|275:225|235:229|235:229|207:257|162:253,1,143.999995605469,0|0,1:0|1:0,0:0:0:0:
22,208,94366,1,0,1:0:0:0:
12,185,94447,1,0,1:0:0:0:
7,161,94528,1,0,1:0:0:0:
8,137,94608,2,0,P|24:103|53:70,1,71.9999978027344,0|0,1:0|2:0,0:0:0:0:
143,27,94850,6,0,B|168:60|168:60|224:71|280:32,1,143.999995605469,2|0,1:2|1:0,0:0:0:0:
288,29,95173,1,0,1:0:0:0:
311,23,95254,1,0,1:0:0:0:
334,23,95334,2,0,P|368:41|381:153,1,143.999995605469,0|0,1:0|1:0,0:0:0:0:
227,235,95818,5,2,1:2:0:0:
235,163,95939,1,0,1:0:0:0:
306,148,96060,1,0,3:3:0:0:
342,211,96181,1,0,3:3:0:0:
294,264,96302,1,2,1:2:0:0:
154,189,96544,5,0,1:0:0:0:
130,183,96625,1,0,1:0:0:0:
106,184,96705,1,0,1:0:0:0:
83,192,96786,2,0,P|75:221|94:331,1,143.999995605469,0|0,1:0|1:0,0:0:0:0:
255,371,97270,1,0,1:0:0:0:
276,361,97350,1,0,1:0:0:0:
300,359,97431,1,0,1:0:0:0:
323,366,97512,2,0,P|351:368|398:349,1,71.9999978027344,0|0,1:0|2:0,0:0:0:0:
472,291,97754,6,0,B|432:226|489:219|453:149,1,143.999995605469,2|0,1:2|1:0,0:0:0:0:
440,133,98076,1,0,1:0:0:0:
418,122,98157,1,0,1:0:0:0:
394,120,98237,2,0,P|353:160|261:129,1,143.999995605469,0|0,1:0|1:0,0:0:0:0:
158,47,98721,5,2,1:2:0:0:
158,47,98842,1,0,1:0:0:0:
105,106,98963,1,8,3:3:0:0:
105,106,99084,1,8,3:3:0:0:
161,161,99205,6,0,P|178:203|157:316,1,143.999995605469,2|0,1:2|1:0,0:0:0:0:
157,321,99528,1,0,1:0:0:0:
141,338,99608,1,0,1:0:0:0:
120,350,99689,2,0,L|23:334,1,71.9999978027344,0|0,1:0|2:0,0:0:0:0:
0,254,99931,6,0,P|14:184|61:130,1,143.999995605469,0|0,1:0|1:0,0:0:0:0:
84,122,100254,1,0,1:0:0:0:
107,117,100334,1,0,1:0:0:0:
130,119,100415,2,0,P|164:131|215:122,1,71.9999978027344,0|0,1:0|2:0,0:0:0:0:
281,70,100657,6,0,P|322:38|418:44,1,143.999995605469,2|0,1:2|1:0,0:0:0:0:
428,55,100979,1,0,1:0:0:0:
444,72,101060,1,0,1:0:0:0:
455,93,101141,2,0,L|476:255,1,143.999995605469,0|2,1:0|1:2,0:0:0:0:
370,366,101625,5,0,3:2:0:0:
370,366,101746,1,0,1:0:0:0:
289,339,101866,5,8,3:3:0:0:
289,339,101987,1,8,3:3:0:0:
212,382,102108,6,0,B|204:353|204:353|219:295,1,75.9999979705811,4|0,3:2|0:0,0:0:0:0:
313,255,102350,2,0,B|328:218|328:218|291:100,1,151.999995941162,0|0,1:2|3:0,0:0:0:0:
240,46,102713,1,0,3:0:0:0:
173,96,102834,2,0,P|111:101|31:62,1,151.999995941162,0|0,1:0|3:0,0:0:0:0:
103,141,103197,2,0,P|45:166|22:255,1,151.999995941162,0|0,3:0|0:0,0:0:0:0:
99,325,103560,6,0,P|177:296|275:309,1,151.999995941162,2|0,3:2|1:0,0:0:0:0:
331,359,103923,2,0,P|406:357|476:384,1,151.999995941162,0|0,3:0|3:0,0:0:0:0:
406,327,104286,2,0,P|390:274|404:222,1,75.9999979705811,0|0,1:0|0:0,0:0:0:0:
448,182,104528,2,0,P|480:163|503:133,1,75.9999979705811,0|0,3:0|3:0,0:0:0:0:
357,170,104770,2,0,P|324:151|205:148,1,151.999995941162,0|4,1:0|3:2,0:0:0:0:
212,145,105254,6,0,L|219:61,1,75.9999979705811,0|0,1:0|2:0,0:0:0:0:
322,104,105496,2,0,L|315:28,1,75.9999979705811,0|0,3:0|2:0,0:0:0:0:
420,74,105737,2,0,P|470:70|498:157,1,151.999995941162,0|0,1:0|3:0,0:0:0:0:
429,232,106100,2,0,P|479:228|507:315,1,151.999995941162,0|0,3:0|0:0,0:0:0:0:
429,384,106463,6,0,P|309:365|270:365,1,151.999995941162,2|0,3:2|1:0,0:0:0:0:
150,336,106826,2,0,P|74:340|0:355,1,151.999995941162,0|0,3:2|3:0,0:0:0:0:
85,297,107189,2,0,P|95:240|55:143,1,151.999995941162,0|8,1:2|3:3,0:0:0:0:
14,94,107552,1,0,1:0:0:0:
41,23,107673,1,4,3:3:0:0:
115,11,107794,1,4,3:3:0:0:
162,69,107915,6,0,B|184:113|244:107|244:107|261:80|295:70,1,151.999995941162,4|0,3:2|0:0,0:0:0:0:
388,106,108278,2,0,P|433:102|475:193,1,151.999995941162,0|0,1:2|3:0,0:0:0:0:
400,242,108641,2,0,L|318:226,1,75.9999979705811,4|0,1:2|0:0,0:0:0:0:
276,286,108883,2,0,L|330:222,1,75.9999979705811,0|0,3:2|0:0,0:0:0:0:
300,156,109125,2,0,L|327:235,1,75.9999979705811,0|0,1:2|0:0,0:0:0:0:
265,306,109366,6,0,B|225:343|225:343|177:348|143:295,1,151.999995941162,4|0,1:2|0:0,0:0:0:0:
120,190,109729,2,0,B|87:240|39:235|39:235|0:198,1,151.999995941162,0|0,1:2|3:0,0:0:0:0:
75,103,110092,2,0,P|71:58|92:14,1,75.9999979705811,6|0,1:2|0:0,0:0:0:0:
162,73,110334,2,0,P|185:34|228:10,1,75.9999979705811,10|0,1:2|0:0,0:0:0:0:
250,99,110576,2,0,P|291:81|339:87,1,75.9999979705811,10|0,3:2|0:0,0:0:0:0:
305,171,110818,6,0,P|341:215|348:323,2,151.999995941162,4|0|0,3:2|1:0|3:0,0:0:0:0:
231,129,111423,1,0,0:0:0:0:
165,181,111544,2,0,P|150:215|148:253,1,75.9999979705811,0|0,1:0|0:0,0:0:0:0:
220,334,111786,2,0,P|197:303|165:283,1,75.9999979705811,0|0,3:0|3:0,0:0:0:0:
59,305,112028,2,0,P|96:300|129:282,1,75.9999979705811,0|0,1:0|0:0,0:0:0:0:
184,170,112270,6,0,B|156:111|215:98|185:21,1,151.999995941162,4|0,3:2|0:0,0:0:0:0:
100,121,112633,2,0,P|51:136|71:60,1,151.999995941162,0|0,1:2|3:0,0:0:0:0:
235,83,112996,2,0,P|280:69|325:69,1,75.9999979705811,4|0,1:2|0:0,0:0:0:0:
413,95,113237,5,8,3:3:0:0:
413,95,113358,1,0,1:0:0:0:
351,144,113479,5,4,3:3:0:0:
351,144,113600,1,4,3:3:0:0:
404,199,113721,5,8,0:2:0:0:
92,340,118681,5,0,1:0:0:0:
92,340,118741,1,0,1:0:0:0:
92,340,118802,2,0,P|55:335|23:311,1,71.9999978027344,8|0,3:3|1:0,0:0:0:0:
52,239,119044,2,0,P|25:213|13:174,1,71.9999978027344,8|8,3:3|3:3,0:0:0:0:
79,133,119286,2,0,P|72:96|85:58,1,71.9999978027344,4|4,3:3|3:3,0:0:0:0:
175,25,119528,6,0,P|236:40|307:-8,2,128,4|0|0,3:2|0:0|0:0,0:0:0:0:
292,12,120254,2,0,P|310:72|362:106,2,128,0|0|0,1:2|0:0|3:0,0:0:0:0:
362,106,120979,2,0,P|318:151|314:213,2,128,4|0|0,3:2|0:0|0:0,0:0:0:0:
484,66,121705,1,0,1:0:0:0:
458,190,121947,1,8,3:3:0:0:
362,106,122189,1,4,3:3:0:0:
307,224,122431,6,0,B|239:247|239:247|177:208,1,143.999995605469,4|0,3:2|1:0,0:0:0:0:
112,162,122794,1,0,1:0:0:0:
53,214,122915,2,0,P|44:244|52:290,1,71.9999978027344,0|0,1:0|1:0,0:0:0:0:
104,353,123157,2,0,P|143:352|191:336,1,71.9999978027344,0|0,1:0|1:0,0:0:0:0:
267,290,123399,6,0,P|322:285|418:334,1,143.999995605469,8|0,3:3|1:0,0:0:0:0:
419,335,123721,1,0,1:0:0:0:
437,350,123802,1,0,1:0:0:0:
457,362,123883,2,0,B|494:367|494:367|537:313|497:255,1,143.999995605469,2|0,1:2|3:0,0:0:0:0:
463,199,124246,1,0,1:0:0:0:
394,239,124366,2,0,P|339:244|243:195,1,143.999995605469,0|0,3:3|1:0,0:0:0:0:
136,73,124850,5,0,1:0:0:0:
91,135,124971,1,0,1:0:0:0:
92,210,125092,1,8,3:3:0:0:
137,271,125213,1,8,3:3:0:0:
208,293,125334,6,0,P|302:275|377:270,1,160,4|0,1:2|3:0,0:0:0:0:
236,193,125697,2,0,P|157:177|77:171,1,160,4|0,1:2|3:0,0:0:0:0:
200,78,126060,5,0,1:0:0:0:
223,91,126141,1,0,1:0:0:0:
249,93,126221,1,0,1:0:0:0:
275,89,126302,1,8,3:3:0:0:
299,77,126383,1,8,3:3:0:0:
318,58,126463,1,8,3:3:0:0:
336,39,126544,2,0,P|369:25|430:28,1,80,0|0,1:0|1:0,0:0:0:0:
458,103,126786,6,0,P|488:124|502:170,1,64,10|8,3:2|0:2,0:0:0:0:
453,211,127028,6,0,P|466:244|453:295,1,68.0000012969971,10|8,3:2|3:2,0:0:0:0:
401,323,127270,6,0,P|394:358|350:394,1,71.9999978027344,10|8,3:2|3:2,0:0:0:0:
301,298,127512,6,0,P|265:279|226:272,1,80,4|0,1:2|3:0,0:0:0:0:
146,279,127754,1,0,1:2:0:0:
82,326,127875,1,0,1:0:0:0:
9,294,127996,1,0,1:0:0:0:
0,214,128116,1,0,1:0:0:0:
64,167,128237,6,0,B|110:126|92:61|92:61|37:33,1,160,4|0,3:1|1:2,0:0:0:0:
168,161,128600,2,0,P|231:186|316:131,1,160,0|0,3:2|0:2,0:0:0:0:
363,76,128963,1,0,1:2:0:0:
363,76,129084,1,0,1:2:0:0:
291,24,129205,2,0,P|255:12|200:14,1,80,0|0,3:2|0:2,0:0:0:0:
136,72,129447,2,0,P|96:72|58:84,1,80,0|0,1:2|0:2,0:0:0:0:
184,156,129689,6,0,P|231:201|224:293,1,160,2|0,3:2|1:2,0:0:0:0:
133,376,130052,2,0,P|86:331|93:239,1,160,0|0,3:2|3:2,0:0:0:0:
188,160,130415,1,0,1:2:0:0:
250,205,130536,1,0,1:2:0:0:
323,183,130657,1,0,3:2:0:0:
431,32,130899,5,0,1:2:0:0:
431,32,131020,1,0,2:2:0:0:
493,102,131141,6,0,P|503:178|451:236,1,160,4|0,3:2|1:2,0:0:0:0:
336,264,131504,2,0,P|277:232|171:240,1,160,0|0,3:2|3:2,0:0:0:0:
79,281,131866,1,0,1:2:0:0:
79,281,131987,1,0,1:2:0:0:
5,218,132108,2,0,P|-6:177|0:140,1,80,0|0,3:2|0:2,0:0:0:0:
55,61,132350,2,0,L|146:45,1,80,0|0,1:2|0:2,0:0:0:0:
226,77,132592,6,0,B|326:70|288:113|380:111,1,160,2|0,3:2|1:2,0:0:0:0:
329,16,132955,2,0,B|323:115|285:72|274:163,1,160,0|0,3:2|3:2,0:0:0:0:
346,243,133318,5,0,1:2:0:0:
420,214,133439,1,0,1:2:0:0:
482,263,133560,1,8,3:3:0:0:
470,341,133681,1,0,1:2:0:0:
396,370,133802,5,4,3:3:0:0:
396,370,133923,1,4,3:3:0:0:
333,320,134044,6,0,B|316:290|320:261|320:261|327:243|327:243|332:204|309:165,1,160,4|0,3:1|1:1,0:0:0:0:
88,197,134528,2,0,P|99:147|124:114,1,80,0|0,3:2|3:2,0:0:0:0:
180,69,134770,1,0,1:2:0:0:
180,69,134891,2,0,B|202:113|264:101|264:101|277:74|312:58,1,160,0|0,1:2|0:2,0:0:0:0:
400,96,135254,6,0,P|443:83|486:83,1,80,0|0,1:2|0:2,0:0:0:0:
459,166,135496,2,0,P|491:196|513:233,1,80,2|0,3:2|0:2,0:0:0:0:
427,252,135737,2,0,P|416:295|395:332,1,80,0|0,1:2|3:2,0:0:0:0:
336,267,135979,2,0,P|293:280|250:279,1,80,0|0,2:2|3:2,0:0:0:0:
171,233,136221,5,0,1:2:0:0:
191,159,136342,1,0,1:2:0:0:
152,93,136463,1,0,3:2:0:0:
0,220,136705,5,0,1:2:0:0:
0,220,136826,1,0,0:2:0:0:
58,273,136947,6,0,P|136:280|202:238,1,160,4|0,3:2|1:2,0:0:0:0:
316,384,137431,2,0,P|305:332|311:292,1,80,0|0,3:2|3:2,0:0:0:0:
364,244,137673,1,0,1:2:0:0:
364,244,137794,2,0,P|442:251|508:209,1,160,0|0,1:2|0:2,0:0:0:0:
512,125,138157,2,0,L|478:45,1,80,0|0,1:2|0:2,0:0:0:0:
371,59,138399,6,0,P|304:16|226:23,1,160,4|0,3:2|1:2,0:0:0:0:
347,137,138762,2,0,P|268:143|202:101,1,160,2|0,3:2|3:2,0:0:0:0:
128,33,139125,5,0,1:2:0:0:
51,57,139246,1,0,1:2:0:0:
13,128,139366,1,8,3:3:0:0:
36,205,139487,1,8,3:3:0:0:
106,243,139608,5,4,3:3:0:0:
106,243,139729,1,4,3:3:0:0:
182,219,139850,6,0,P|249:196|330:207,1,143.999995605469,4|0,3:1|0:2,0:0:0:0:
398,233,140213,2,0,P|344:185|315:120,1,143.999995605469,0|0,3:1|0:2,0:0:0:0:
303,39,140576,2,0,P|289:108|239:173,2,143.999995605469,4|0|0,1:2|0:2|3:2,0:0:0:0:
303,39,141302,6,0,P|347:94|422:127,1,143.999995605469,2|0,3:2|0:2,0:0:0:0:
492,141,141665,2,0,P|421:152|362:192,1,143.999995605469,0|0,3:1|3:2,0:0:0:0:
308,254,142028,2,0,P|333:187|325:106,1,143.999995605469,4|0,1:2|0:2,0:0:0:0:
328,116,142512,2,0,B|309:93|309:93|306:83|306:83|284:58,1,71.9999978027344,4|0,0:2|0:2,0:0:0:0:
184,23,142754,6,0,L|15:61,1,143.999995605469,4|0,3:1|0:2,0:0:0:0:
113,120,143116,2,0,L|151:289,1,143.999995605469,0|0,3:2|0:2,0:0:0:0:
210,191,143479,2,0,L|379:153,2,143.999995605469,4|0|0,1:2|3:2|3:2,0:0:0:0:
210,191,144205,6,0,P|191:256|242:332,1,143.999995605469,4|0,3:2|0:2,0:0:0:0:
334,384,144568,2,0,P|405:358|496:373,1,143.999995605469,0|0,3:2|0:2,0:0:0:0:
390,323,144931,2,0,P|377:290|378:250,1,71.9999978027344,2|0,1:2|0:2,0:0:0:0:
425,172,145173,5,0,1:2:0:0:
425,172,145294,1,0,1:2:0:0:
488,123,145415,5,8,3:3:0:0:
488,123,145536,1,8,3:3:0:0:
434,53,145657,6,0,P|383:27|273:38,1,160,4|0,3:1|1:2,0:0:0:0:
143,148,146141,2,0,L|230:137,1,80,0|0,3:0|3:0,0:0:0:0:
300,176,146383,1,0,1:2:0:0:
300,176,146504,2,0,P|326:227|310:336,1,160,0|0,1:2|3:0,0:0:0:0:
214,384,146866,6,0,L|122:374,1,80,0|0,1:2|0:2,0:0:0:0:
55,305,147108,2,0,L|147:295,1,80,2|0,3:2|0:2,0:0:0:0:
215,223,147350,2,0,L|123:213,1,80,0|0,1:2|3:2,0:0:0:0:
56,144,147592,2,0,L|148:134,1,80,0|0,2:2|3:2,0:0:0:0:
247,112,147834,5,0,1:2:0:0:
194,57,147955,1,0,1:2:0:0:
253,9,148076,1,0,3:2:0:0:
424,144,148318,5,0,1:2:0:0:
424,144,148439,1,0,0:2:0:0:
471,81,148560,6,0,P|456:30|430:4,1,80,4|0,1:1|0:2,0:0:0:0:
347,137,148802,2,0,P|397:150|433:140,1,80,0|0,1:1|0:2,0:0:0:0:
360,0,149044,2,0,P|323:38|313:73,1,80,0|0,1:1|0:2,0:0:0:0:
349,161,149286,6,0,P|379:186|395:222,1,80,6|0,1:2|0:2,0:0:0:0:
226,197,149528,2,0,P|232:157|256:126,1,80,0|0,1:1|0:2,0:0:0:0:
319,286,149770,2,0,P|281:299|242:295,1,80,0|0,1:1|0:2,0:0:0:0:
138,239,150012,6,0,B|99:181|26:188|26:188|39:213|62:216,1,176.000005371094,4|0,1:2|3:2,0:0:0:0:
132,164,150375,1,0,1:2:0:0:
70,99,150496,2,0,P|66:63|112:17,1,88.000002685547,0|0,1:2|3:0,0:0:0:0:
193,49,150737,5,0,1:0:0:0:
215,31,150818,1,0,1:0:0:0:
243,26,150899,1,0,1:0:0:0:
269,35,150979,1,8,3:3:0:0:
287,57,151060,1,8,3:3:0:0:
313,67,151141,1,8,3:3:0:0:
340,62,151221,2,0,P|371:45|438:48,1,95.9999970703126,4|4,0:3|0:3,0:0:0:0:
456,39,151463,6,0,P|500:104|499:183,1,160,4|0,3:2|0:2,0:0:0:0:
427,246,151826,2,0,P|377:223|338:221,1,80,2|0,0:2|3:0,0:0:0:0:
284,282,152068,2,0,P|244:288|209:307,1,80,0|0,0:2|1:0,0:0:0:0:
153,384,152310,2,0,P|154:305|110:239,1,160,2|0,0:0|0:0,0:0:0:0:
24,187,152673,5,0,3:0:0:0:
24,187,152794,1,0,0:0:0:0:
92,234,152915,6,0,P|170:239|240:198,1,160,2|0,3:2|0:0,0:0:0:0:
243,101,153278,2,0,P|262:176|322:230,1,160,2|0,3:2|3:0,0:0:0:0:
416,203,153641,2,0,P|349:244|317:319,1,160,0|0,1:0|0:0,0:0:0:0:
393,381,154004,2,0,P|459:339|491:264,1,160,0|0,1:0|3:0,0:0:0:0:
509,170,154366,1,4,3:1:0:0:
382,83,154608,5,2,0:0:0:0:
315,120,154729,1,0,0:0:0:0:
238,120,154850,1,0,3:0:0:0:
172,81,154971,2,0,L|156:0,1,80,0|0,0:2|1:0,0:0:0:0:
93,98,155213,1,2,0:2:0:0:
93,98,155334,2,0,L|12:114,1,80,8|8,0:3|0:3,0:0:0:0:
110,177,155576,2,0,L|126:258,1,80,4|4,3:3|0:3,0:0:0:0:
189,160,155818,6,0,L|270:144,1,80,2|0,3:2|0:0,0:0:0:0:
299,235,156060,2,0,L|380:251,1,80,0|0,2:2|3:0,0:0:0:0:
434,330,156302,2,0,L|515:314,1,80,0|0,2:2|3:0,0:0:0:0:
512,314,156544,2,0,P|518:223|479:164,1,160,2|0,1:2|0:0,0:0:0:0:
401,108,156907,5,2,3:2:0:0:
337,149,157028,1,0,1:0:0:0:
262,135,157149,1,0,1:0:0:0:
216,74,157270,6,0,B|181:37|181:37|123:30|75:73,1,160,4|0,3:2|0:0,0:0:0:0:
54,175,157633,2,0,P|18:198|18:333,1,160,2|0,2:2|0:0,0:0:0:0:
73,367,157996,5,2,1:2:0:0:
98,359,158076,1,0,0:0:0:0:
123,351,158157,1,0,0:0:0:0:
150,345,158237,2,0,L|226:315,1,80,0|0,3:0|0:0,0:0:0:0:
321,355,158479,2,0,L|397:384,1,80,0|0,3:0|0:0,0:0:0:0:
473,305,158721,6,0,B|511:284|511:284|529:223|485:176,1,160,2|0,3:2|0:0,0:0:0:0:
383,119,159084,2,0,B|377:183|320:210|320:210|279:196,1,160,2|0,3:2|3:0,0:0:0:0:
193,142,159447,2,0,B|187:77|130:50|130:50|89:64,1,160,2|0,1:2|3:0,0:0:0:0:
21,131,159810,2,0,B|-7:204|66:217|40:293,1,160,0|8,1:0|3:3,0:0:0:0:
0,381,160173,1,4,3:1:0:0:
0,381,160415,6,0,L|88:368,1,80,2|0,0:0|0:0,0:0:0:0:
143,286,160657,2,0,L|55:273,1,80,0|0,3:0|0:0,0:0:0:0:
0,189,160899,2,0,L|88:176,1,80,0|0,1:0|0:0,0:0:0:0:
143,94,161141,2,0,L|55:81,1,80,0|0,2:0|0:0,0:0:0:0:
162,2,161383,2,0,B|150:74|223:92|223:92|279:59,1,160,2|4,3:2|1:1,0:0:0:0:
464,1,161866,5,2,3:2:0:0:
503,71,161987,2,0,B|515:143|442:161|442:161|386:128,1,160,4|0,1:2|3:0,0:0:0:0:
339,96,162350,5,0,1:0:0:0:
339,96,162471,1,0,1:0:0:0:
273,153,162592,5,8,3:3:0:0:
273,153,162713,1,8,3:3:0:0:
194,125,162834,5,4,3:3:0:0:
194,125,162955,1,4,3:3:0:0:
128,182,163076,6,0,P|107:264|162:337,1,160,4|0,3:1|0:0,0:0:0:0:
357,341,163560,6,0,L|363:244,1,80,0|0,3:2|0:0,0:0:0:0:
463,377,163802,2,0,L|366:371,1,80,2|0,1:2|0:0,0:0:0:0:
499,271,164044,2,0,L|493:368,1,80,0|0,2:2|0:0,0:0:0:0:
393,235,164286,2,0,L|490:241,1,80,0|0,3:2|0:0,0:0:0:0:
386,147,164528,6,0,P|365:202|257:168,1,160,2|0,3:2|0:0,0:0:0:0:
224,124,164891,2,0,B|236:53|174:16|174:16|183:50,1,160,2|0,3:2|3:0,0:0:0:0:
139,153,165254,2,0,P|104:172|64:172,1,80,2|0,1:2|0:0,0:0:0:0:
0,96,165496,5,8,3:3:0:0:
0,96,165616,1,8,3:3:0:0:
45,31,165737,5,4,3:3:0:0:
45,31,165858,1,4,3:3:0:0:
122,50,165979,6,0,P|202:49|261:1,1,160,4|0,3:2|0:0,0:0:0:0:
261,0,166463,6,0,L|252:87,1,80,0|0,3:0|0:0,0:0:0:0:
318,153,166705,2,0,P|398:152|457:104,1,160,2|0,1:2|0:0,0:0:0:0:
512,293,167189,2,0,P|475:283|421:276,1,80,0|0,3:0|0:0,0:0:0:0:
341,332,167431,6,0,P|261:333|202:381,1,160,2|0,3:2|0:0,0:0:0:0:
201,382,167794,2,0,P|240:312|228:237,1,160,0|0,3:0|3:0,0:0:0:0:
151,190,168157,2,0,P|109:205|53:192,1,80,2|0,1:2|0:0,0:0:0:0:
15,134,168399,2,0,P|23:90|62:48,1,80,2|0,3:2|0:0,0:0:0:0:
131,44,168641,2,0,B|170:64|180:103|180:103|223:118|253:85,1,160,2|4,3:2|3:1,0:0:0:0:
404,0,169125,5,2,0:0:0:0:
403,0,169246,2,0,P|389:37|392:76,1,80,0|0,3:0|3:0,0:0:0:0:
510,191,169487,2,0,P|484:160|449:144,1,80,0|0,2:0|1:0,0:0:0:0:
361,158,169729,1,2,0:0:0:0:
361,158,169850,2,0,P|329:181|290:188,1,80,0|0,3:0|2:0,0:0:0:0:
207,242,170092,2,0,P|174:219|135:212,1,80,0|0,3:0|3:0,0:0:0:0:
37,251,170334,6,0,B|7:273|7:273|8:208|56:164,1,160,2|0,3:2|0:0,0:0:0:0:
168,130,170697,2,0,P|165:100|134:47,1,80,0|0,3:2|0:0,0:0:0:0:
135,212,170939,2,0,P|138:242|169:295,1,80,0|0,3:2|1:0,0:0:0:0:
250,347,171181,5,2,1:2:0:0:
328,331,171302,1,8,3:3:0:0:
407,342,171423,1,8,3:3:0:0:
479,376,171544,2,0,B|508:353|508:353|520:277|471:243,1,160,4|4,3:3|3:1,0:0:0:0:
471,243,172028,6,0,L|485:153,1,80,2|0,1:2|1:2,0:0:0:0:
376,266,172270,2,0,L|465:251,1,80,2|0,1:2|1:2,0:0:0:0:
324,182,172512,2,0,L|365:263,1,80,2|0,1:2|1:0,0:0:0:0:
387,106,172754,2,0,L|322:170,1,80,2|0,1:2|3:0,0:0:0:0:
478,142,172996,5,2,1:2:0:0:
454,129,173076,1,0,1:0:0:0:
430,117,173157,1,0,1:0:0:0:
406,105,173237,2,0,P|392:49|397:5,1,80,2|0,1:2|3:0,0:0:0:0:
330,162,173479,2,0,P|342:199|343:239,1,80,2|0,3:2|1:0,0:0:0:0:
238,122,173721,6,0,P|199:109|159:108,1,80,2|0,3:2|2:0,0:0:0:0:
194,267,173963,2,0,B|199:268|154:265|116:253,1,80,2|0,1:2|3:0,0:0:0:0:
0,182,174205,5,8,1:3:0:0:
0,182,174326,1,8,1:3:0:0:
37,104,174447,5,4,3:3:0:0:
37,104,174568,1,4,3:3:0:0:
114,136,174689,6,0,B|158:156|158:156|288:118,1,176.000005371094,4|0,3:2|3:0,0:0:0:0:
402,170,175052,2,0,P|419:86|366:20,1,176.000005371094,4|0,1:2|3:0,0:0:0:0:
263,138,175415,5,0,1:2:0:0:
257,166,175496,1,0,1:0:0:0:
260,194,175576,1,0,1:0:0:0:
273,219,175657,1,8,3:3:0:0:
295,237,175737,1,8,3:3:0:0:
308,262,175818,1,8,3:3:0:0:
309,291,175899,2,0,L|297:396,1,88.000002685547,0|0,1:0|1:0,0:0:0:0:
84,267,176866,5,0,0:0:0:0:
81,280,177108,5,0,0:0:0:0:
78,293,177350,5,0,0:0:0:0:
75,306,177592,6,0,B|34:315|34:315|-30:272|0:196,1,176.000005371094,4|0,3:2|0:0,0:0:0:0:
52,127,178318,2,0,B|72:196|152:196|152:196|171:177|199:163,1,176.000005371094,0|0,2:2|0:0,0:0:0:0:
220,251,179044,2,0,B|240:320|320:320|320:320|339:301|367:287,1,176.000005371094,2|0,2:2|0:0,0:0:0:0:
429,342,179770,2,0,B|466:349|466:349|528:306|496:226,1,176.000005371094,0|0,2:2|2:0,0:0:0:0:
496,227,180496,6,0,L|317:201,1,176.000005371094,2|0,0:0|0:0,0:0:0:0:
266,269,181221,2,0,L|292:90,1,176.000005371094,0|0,0:0|0:0,0:0:0:0:
373,62,181947,2,0,L|194:36,1,176.000005371094,2|0,0:0|0:0,0:0:0:0:
199,37,182673,2,0,L|186:124,1,88.000002685547,2|0,0:0|0:0,0:0:0:0:
134,218,183157,5,0,1:0:0:0:
114,226,183237,1,0,1:0:0:0:
92,228,183318,1,0,1:0:0:0:
75,225,183399,2,0,B|45:212|45:212|-4:233|2:291,1,128,2|0,1:2|1:0,0:0:0:0:
7,305,183721,1,0,1:0:0:0:
16,319,183802,1,0,1:0:0:0:
26,332,183883,2,0,P|89:349|159:312,1,128,0|0,1:0|1:0,0:0:0:0:
238,234,184366,5,0,1:0:0:0:
229,219,184447,1,0,1:0:0:0:
225,202,184528,1,0,1:0:0:0:
225,185,184608,2,0,P|235:152|257:111,1,64,0|0,1:0|0:0,0:0:0:0:
305,73,184850,6,0,B|337:95|371:89|371:89|391:65|428:57,1,128,2|0,0:0|1:0,0:0:0:0:
437,59,185173,1,0,1:0:0:0:
453,64,185254,1,0,1:0:0:0:
465,75,185334,2,0,P|492:148|463:220,1,128,0|0,1:0|1:0,0:0:0:0:
391,295,185818,5,0,1:0:0:0:
375,288,185899,1,0,1:0:0:0:
359,281,185979,1,0,1:0:0:0:
341,280,186060,2,0,P|306:295|264:289,1,64,0|0,1:0|0:0,0:0:0:0:
195,227,186302,6,0,P|207:152|164:63,1,143.999995605469,2|0,1:2|0:0,0:0:0:0:
93,153,186665,2,0,P|81:228|124:317,1,143.999995605469,0|0,1:0|1:0,0:0:0:0:
190,354,187028,2,0,P|220:334|254:324,1,71.9999978027344,0|0,1:0|0:0,0:0:0:0:
349,315,187270,5,0,1:0:0:0:
418,369,187391,1,0,1:0:0:0:
499,335,187512,1,0,1:0:0:0:
497,246,187633,1,8,1:2:0:0:
512,121,189205,6,0,B|503:170|446:175|446:175|425:147|392:137,1,160,4|0,3:1|1:2,0:0:0:0:
301,241,189568,2,0,P|339:285|350:204,1,160,0|0,3:2|0:2,0:0:0:0:
257,169,189931,1,0,1:2:0:0:
257,169,190052,1,0,1:2:0:0:
308,96,190173,2,0,P|306:50|273:-1,1,80,0|0,3:2|0:2,0:0:0:0:
202,67,190415,2,0,P|165:51|122:51,1,80,0|0,1:2|0:2,0:0:0:0:
35,121,190657,6,0,B|53:185|16:232|16:232|41:275,1,160,2|0,3:2|1:2,0:0:0:0:
106,355,191020,2,0,P|161:330|272:333,1,160,0|0,3:2|3:2,0:0:0:0:
368,384,191383,1,0,1:2:0:0:
338,312,191504,1,0,1:2:0:0:
378,247,191625,1,0,3:2:0:0:
256,110,191866,5,2,1:2:0:0:
256,110,191987,1,0,2:2:0:0:
194,168,192108,6,0,P|99:168|78:104,1,160,4|0,3:2|1:2,0:0:0:0:
168,38,192471,2,0,B|232:29|232:29|250:13|250:13|330:-3,1,160,0|0,3:2|3:2,0:0:0:0:
442,25,192834,1,2,1:2:0:0:
442,25,192955,1,0,1:2:0:0:
374,90,193076,2,0,P|373:129|385:171,1,80,0|0,3:0|0:2,0:0:0:0:
487,231,193318,2,0,P|497:192|496:152,1,80,0|0,1:2|0:2,0:0:0:0:
358,87,193560,6,0,P|289:69|171:63,1,160,4|0,3:2|1:2,0:0:0:0:
271,172,193923,2,0,P|191:166|113:146,1,160,0|0,3:2|3:2,0:0:0:0:
48,67,194286,5,0,1:2:0:0:
0,131,194407,1,0,1:2:0:0:
11,210,194528,1,8,3:3:0:0:
74,258,194649,1,0,1:2:0:0:
152,247,194770,5,4,3:3:0:0:
152,247,194891,1,4,3:3:0:0:
181,173,195012,6,0,B|129:111|177:22|177:22|200:59,1,191.999994140625,6|4,1:2|1:2,0:0:0:0:
460,351,195737,2,0,B|475:376|475:376|523:287|471:225,1,191.999994140625,6|4,1:2|1:2,0:0:0:0:
470,224,196463,6,0,B|387:184|387:244|298:205,1,176.000005371094,4|0,1:2|3:0,0:0:0:0:
405,303,196826,2,0,B|411:206|355:227|364:135,1,176.000005371094,4|0,1:2|3:0,0:0:0:0:
435,82,197189,2,0,B|477:95|477:95|437:52,1,88.000002685547,4|0,1:2|3:0,0:0:0:0:
359,12,197431,5,0,1:0:0:0:
359,12,197552,1,0,1:0:0:0:
289,64,197673,5,8,3:3:0:0:
289,64,197794,1,8,3:3:0:0:
213,22,197915,6,0,P|178:8|126:13,1,80,4|0,1:1|0:2,0:0:0:0:
240,124,198157,2,0,P|269:100|291:53,1,80,0|0,1:1|0:2,0:0:0:0:
138,96,198399,2,0,P|143:133|173:175,1,80,0|0,1:1|0:2,0:0:0:0:
280,226,198641,6,0,P|329:201|371:200,1,80,2|0,1:2|0:2,0:0:0:0:
328,362,198883,2,0,P|281:332|259:296,1,80,0|0,1:2|0:2,0:0:0:0:
422,253,199125,2,0,P|419:307|399:344,1,80,0|0,1:2|0:2,0:0:0:0:
266,217,199366,6,0,B|301:172|358:181|358:181|377:139|353:107,1,176.000005371094,4|0,1:2|3:2,0:0:0:0:
300,43,199729,1,0,1:2:0:0:
223,86,199850,1,0,1:2:0:0:
150,35,199971,1,8,1:1:0:0:
0,50,202270,6,0,P|68:29|140:36,1,143.999995605469,12|0,3:2|3:0,0:0:0:0:
289,86,202754,1,8,0:3:0:0:
172,193,202996,1,4,1:3:0:0:
322,243,203237,1,8,0:3:0:0:
322,243,203358,1,8,0:3:0:0:
276,304,203479,1,4,0:3:0:0:
276,304,203600,1,4,0:3:0:0:
331,355,203721,6,0,P|402:361|471:341,2,143.999995605469,10|0|8,3:2|3:0|0:3,0:0:0:0:
193,274,204447,1,4,1:3:0:0:
177,116,204689,1,8,0:3:0:0:
306,24,204931,1,0,1:3:0:0:
286,94,205052,1,0,1:3:0:0:
337,146,205173,6,0,P|408:152|446:88,1,143.999995605469,12|0,3:2|3:0,0:0:0:0:
306,24,205657,1,8,0:3:0:0:
183,124,205899,1,4,1:3:0:0:
237,277,206141,1,8,0:3:0:0:
237,277,206262,1,8,0:3:0:0:
187,336,206383,1,4,0:3:0:0:
187,336,206504,1,4,0:3:0:0:
119,297,206625,6,0,P|47:290|10:355,2,143.999995605469,10|0|8,3:2|3:0|0:3,0:0:0:0:
257,373,207350,1,4,1:3:0:0:
357,250,207592,2,0,L|431:259,2,47.9999985351563,8|8|8,0:3|0:3|0:3,0:0:0:0:
331,268,207834,1,4,0:3:0:0:
300,271,207915,1,4,0:3:0:0:
272,256,207996,1,4,0:3:0:0:
257,228,208076,6,0,B|245:179|245:179|257:143|257:143|243:83,1,143.999995605469,12|0,3:2|3:0,0:0:0:0:
113,179,208560,1,8,0:3:0:0:
101,20,208802,1,4,1:3:0:0:
248,92,209044,1,8,0:3:0:0:
248,92,209165,1,8,0:3:0:0:
312,50,209286,1,4,0:3:0:0:
312,50,209407,1,4,0:3:0:0:
374,92,209528,6,0,P|401:134|390:230,2,143.999995605469,10|0|8,3:2|3:0|0:3,0:0:0:0:
236,13,210254,1,4,1:3:0:0:
112,111,210496,1,8,0:3:0:0:
250,190,210737,1,0,1:3:0:0:
283,261,210858,1,0,1:3:0:0:
234,323,210979,6,0,P|164:334|101:299,1,143.999995605469,12|0,3:2|3:0,0:0:0:0:
4,175,211463,1,8,0:3:0:0:
63,28,211705,1,4,1:3:0:0:
219,6,211947,1,8,0:3:0:0:
219,6,212068,1,8,0:3:0:0:
281,59,212189,1,4,0:3:0:0:
281,59,212310,1,4,0:3:0:0:
352,30,212431,6,0,P|421:18|485:54,1,143.999995605469,10|0,3:2|3:0,0:0:0:0:
337,126,212915,1,8,3:3:0:0:
337,126,213036,1,8,3:3:0:0:
406,182,213157,6,0,B|443:215|443:215|446:276|392:312,1,160,4|8,1:2|3:3,0:0:0:0:
302,384,213520,2,0,B|302:321|253:289|253:289|204:300,1,160,4|8,1:2|3:3,0:0:0:0:
95,335,213883,6,0,B|60:354|60:354|111:246,1,143.999995605469,12|0,3:2|0:0,0:0:0:0:
143,194,214246,1,8,0:3:0:0:
212,223,214366,2,0,B|247:242|247:242|202:147,1,143.999995605469,8|4,3:3|3:3,0:0:0:0:
112,31,214850,1,8,0:3:0:0:
112,31,214971,1,8,0:3:0:0:
61,87,215092,1,4,0:3:0:0:
61,87,215213,1,4,0:3:0:0:
109,144,215334,6,0,B|168:134|168:134|186:115|186:115|253:105,1,143.999995605469,10|0,0:0|0:0,0:0:0:0:
318,94,215697,1,8,0:3:0:0:
380,136,215818,2,0,B|412:149|412:149|461:117|442:52,1,143.999995605469,8|4,3:3|1:3,0:0:0:0:
290,1,216302,1,8,3:3:0:0:
290,1,216423,1,8,3:3:0:0:
244,62,216544,1,0,1:0:0:0:
244,62,216665,1,0,1:0:0:0:
173,29,216786,6,0,P|113:16|40:72,1,143.999995605469,12|0,3:2|0:0,0:0:0:0:
16,128,217149,1,8,0:3:0:0:
72,177,217270,2,0,P|132:190|205:134,1,143.999995605469,8|4,3:3|2:3,0:0:0:0:
288,26,217754,1,8,0:3:0:0:
288,26,217875,1,8,0:3:0:0:
353,73,217996,1,4,0:3:0:0:
353,73,218116,1,4,0:3:0:0:
414,28,218237,6,0,B|456:14|456:14|496:42|489:103,1,143.999995605469,10|0,0:0|0:0,0:0:0:0:
471,176,218600,1,8,0:3:0:0:
412,225,218721,1,8,3:3:0:0:
335,229,218842,1,4,3:3:0:0:
271,187,218963,1,4,1:2:0:0:
115,337,219205,6,0,L|203:331,1,71.9999978027344,0|8,1:3|3:3,0:0:0:0:
290,384,219447,2,0,L|284:296,1,71.9999978027344,4|4,3:3|3:3,0:0:0:0:
335,229,219689,6,0,B|450:328|568:201|538:48|342:-3|307:93|309:174|212:271|84:204|12:149|94:24|162:38|188:70,1,768,6|0,3:2|0:2,0:0:0:0:
