osu file format v14

[General]
AudioFilename: audio.mp3
AudioLeadIn: 0
PreviewTime: 54871
Countdown: 0
SampleSet: Soft
StackLeniency: 0.6
Mode: 0
LetterboxInBreaks: 0
WidescreenStoryboard: 1

[Editor]
Bookmarks: 6302,17915,29528,41141,46947,55657,67270,73076,78157,78762,78883,90496,102108,102350,110032,113721,113782,113842,113903,113963,118681,128237,128298,128419,128479,139850,144205,145657,151463,151584,151645,151705,151766,163076,176141,177592,183399,189205,195012,202270,213883,219689,222592
DistanceSpacing: 1
BeatDivisor: 4
GridSize: 16
TimelineZoom: 2.099999

[Metadata]
Title:Singing Wheel
TitleUnicode:Singing Wheel
Artist:Sakuragawa Megu
ArtistUnicode:櫻川めぐ
Creator:Lasse
Version:Hard
Source:レヱル・ロマネスク
Tags:impurepug japanese pop rock nishizaka kyouhei kyohei 西坂 恭平 anime ending full version rail romanesque maitetsu まいてつ visual novel
BeatmapID:2924652
BeatmapSetID:1414414

[Difficulty]
HPDrainRate:4
CircleSize:3.8
OverallDifficulty:6.7
ApproachRate:8
SliderMultiplier:1.3
SliderTickRate:1

[Events]
//Background and Video events
0,0,"crop1.jpg",0,0
//Break Periods
2,18115,22971
2,113921,118294
2,177592,182407
//Storyboard Layer 0 (Background)
//Storyboard Layer 1 (Fail)
//Storyboard Layer 2 (Pass)
//Storyboard Layer 3 (Foreground)
//Storyboard Layer 4 (Overlay)
//Storyboard Sound Samples

[TimingPoints]
496,241.935483870968,6,2,1,50,1,0
496,-200,6,2,1,50,0,0
5576,-133.333333333333,6,2,1,55,0,0
5818,-133.333333333333,6,2,1,58,0,0
6060,-133.333333333333,6,2,1,62,0,0
6302,-111.111111111111,6,2,2,68,0,0
6362,-111.111111111111,6,2,1,68,0,0
7693,-111.111111111111,6,2,2,68,0,0
7814,-111.111111111111,6,2,1,68,0,0
9145,-111.111111111111,6,2,2,68,0,0
9266,-111.111111111111,6,2,1,68,0,0
10596,-111.111111111111,6,2,2,68,0,0
10717,-111.111111111111,6,2,1,68,0,0
12108,-111.111111111111,6,2,2,68,0,0
12169,-111.111111111111,6,2,1,68,0,0
13500,-111.111111111111,6,2,2,68,0,0
13621,-111.111111111111,6,2,1,68,0,0
14951,-111.111111111111,6,2,2,68,0,0
15072,-111.111111111111,6,2,1,68,0,0
16403,-111.111111111111,6,2,2,68,0,0
16524,-111.111111111111,6,2,1,68,0,0
16947,-99.9999999999999,6,2,1,68,0,0
17189,-100,6,2,1,68,0,0
17915,-111.111111111111,6,2,1,64,0,0
18036,-111.111111111111,6,2,1,54,0,0
23721,-166.666666666666,6,2,1,57,0,0
26625,-142.857142857143,6,2,1,60,0,0
29165,-111.111111111111,6,2,1,63,0,0
29286,-111.111111111111,6,2,1,64,0,0
29528,-111.111111111111,6,2,1,70,0,0
35334,-111.111111111111,6,2,1,72,0,0
39689,-111.111111111111,6,2,1,74,0,0
41141,-100,6,2,1,74,0,0
41866,-111.111111111111,6,2,1,70,0,0
42592,-100,6,2,1,74,0,0
43318,-111.111111111111,6,2,1,70,0,0
44044,-100,6,2,1,74,0,0
44770,-111.111111111111,6,2,1,70,0,0
45496,-100,6,2,1,74,0,0
45858,-100,6,2,1,74,0,0
45979,-111.111111111111,6,2,1,70,0,0
46947,-125,6,2,1,70,0,0
47189,-125,6,2,1,65,0,0
49850,-111.111111111111,6,2,1,68,0,0
52270,-125,6,2,1,70,0,0
52754,-100,6,2,1,72,0,0
54931,-125,6,2,1,60,0,0
55173,-125,6,2,1,62,0,0
55415,-125,6,2,1,64,0,0
55657,-100,6,2,1,82,0,1
67270,-111.111111111111,6,2,1,75,0,0
73076,-100,6,2,1,82,0,1
75979,-100,6,2,1,83,0,1
76705,-100,6,2,1,84,0,1
77431,-90.9090909090909,6,2,1,85,0,1
78036,-100,6,2,1,84,0,0
78883,-111.111111111111,6,2,2,68,0,0
78943,-111.111111111111,6,2,1,68,0,0
80274,-111.111111111111,6,2,2,68,0,0
80395,-111.111111111111,6,2,1,68,0,0
81725,-111.111111111111,6,2,2,68,0,0
81846,-111.111111111111,6,2,1,68,0,0
83177,-111.111111111111,6,2,2,68,0,0
83298,-111.111111111111,6,2,1,68,0,0
84689,-111.111111111111,6,2,2,68,0,0
84750,-111.111111111111,6,2,1,68,0,0
86080,-111.111111111111,6,2,2,68,0,0
86201,-111.111111111111,6,2,1,68,0,0
87532,-111.111111111111,6,2,2,68,0,0
87653,-111.111111111111,6,2,1,68,0,0
88983,-111.111111111111,6,2,2,68,0,0
89104,-111.111111111111,6,2,1,68,0,0
89770,-100,6,2,1,68,0,0
90496,-111.111111111111,6,2,1,68,0,0
90737,-111.111111111111,6,2,1,65,0,0
102108,-105.263157894737,6,2,1,70,0,0
107915,-105.263157894737,6,2,1,72,0,0
110334,-105.263157894737,6,2,2,72,0,0
110818,-105.263157894737,6,2,1,72,0,0
112270,-105.263157894737,6,2,1,74,0,0
113721,-105.263157894737,6,2,1,68,0,0
118681,-125,6,2,1,64,0,0
119528,-125,6,2,1,70,0,0
119770,-125,6,2,1,65,0,0
122431,-111.111111111111,6,2,1,68,0,0
124850,-125,6,2,1,70,0,0
125334,-100,6,2,1,72,0,0
126786,-125,6,2,2,68,0,0
126907,-125,6,2,3,64,0,0
127028,-117.647058823529,6,2,3,68,0,0
127149,-117.647058823529,6,2,3,64,0,0
127270,-111.111111111111,6,2,2,68,0,0
127391,-111.111111111111,6,2,2,64,0,0
127512,-100,6,2,2,72,0,0
127754,-100,6,2,2,73,0,0
127875,-100,6,2,2,74,0,0
127996,-100,6,2,2,75,0,0
128116,-100,6,2,2,76,0,0
128237,-100,6,2,1,82,0,1
139850,-111.111111111111,6,2,1,75,0,0
145657,-100,6,2,1,82,0,1
148560,-100,6,2,1,83,0,1
149286,-100,6,2,1,84,0,1
150012,-90.9090909090909,6,2,1,85,0,1
150737,-111.111111111111,6,2,1,80,0,0
150979,-111.111111111111,6,2,1,78,0,0
151221,-111.111111111111,6,2,1,76,0,0
151463,-100,6,2,1,78,0,0
163076,-100,6,2,1,75,0,0
171786,-100,6,2,1,78,0,0
174205,-100,6,2,1,80,0,0
174689,-90.9090909090909,6,2,1,82,0,0
176866,-100,6,2,1,56,0,0
177108,-100,6,2,1,58,0,0
177350,-100,6,2,1,60,0,0
177592,-181.818181818182,6,2,1,62,0,0
183157,-100,6,2,1,64,0,0
183399,-125,6,2,1,66,0,0
186302,-111.111111111111,6,2,1,68,0,0
187270,-100,6,2,1,70,0,0
187391,-100,6,2,1,72,0,0
187512,-100,6,2,1,74,0,0
187633,-100,6,2,1,76,0,0
188963,-100,6,2,1,60,0,0
189205,-100,6,2,1,84,0,1
194951,-100,6,2,1,84,0,0
195012,-83.3333333333333,6,2,1,84,0,1
195193,-100,6,2,1,5,0,1
195254,-100,6,2,1,84,0,1
195375,-100,6,2,1,78,0,0
195737,-83.3333333333333,6,2,1,84,0,1
195919,-100,6,2,1,5,0,1
195979,-100,6,2,1,84,0,1
196100,-100,6,2,1,78,0,0
196463,-90.9090909090909,6,2,1,84,0,1
197431,-100,6,2,1,84,0,1
197915,-100,6,2,1,83,0,1
198641,-100,6,2,1,84,0,1
199366,-90.9090909090909,6,2,1,85,0,1
199971,-90.9090909090909,6,2,1,84,0,0
202270,-111.111111111111,6,2,2,68,0,0
202330,-111.111111111111,6,2,1,68,0,0
203661,-111.111111111111,6,2,2,68,0,0
203782,-111.111111111111,6,2,1,68,0,0
205112,-111.111111111111,6,2,2,68,0,0
205233,-111.111111111111,6,2,1,68,0,0
206564,-111.111111111111,6,2,2,68,0,0
206685,-111.111111111111,6,2,1,68,0,0
208076,-111.111111111111,6,2,2,68,0,0
208137,-111.111111111111,6,2,1,68,0,0
209467,-111.111111111111,6,2,2,68,0,0
209588,-111.111111111111,6,2,1,68,0,0
210919,-111.111111111111,6,2,2,68,0,0
211040,-111.111111111111,6,2,1,68,0,0
212370,-111.111111111111,6,2,2,68,0,0
212491,-111.111111111111,6,2,1,68,0,0
213157,-100,6,2,1,68,0,0
213883,-111.111111111111,6,2,1,64,0,0
213943,-111.111111111111,6,2,1,64,0,0
215274,-111.111111111111,6,2,2,64,0,0
215395,-111.111111111111,6,2,1,64,0,0
216725,-111.111111111111,6,2,2,64,0,0
216846,-111.111111111111,6,2,1,64,0,0
218177,-111.111111111111,6,2,2,64,0,0
218298,-111.111111111111,6,2,1,64,0,0
219689,-250,6,2,1,62,0,0
219750,-111.111111111111,6,2,1,40,0,0
220173,-111.111111111111,6,2,99,30,0,0
220657,-111.111111111111,6,2,99,20,0,0
221141,-111.111111111111,6,2,99,15,0,0
221625,-111.111111111111,6,2,99,10,0,0
222108,-111.111111111111,6,2,99,5,0,0
222592,-111.111111111111,6,2,99,20,0,0

[Colours]
Combo1 : 250,180,240
Combo2 : 120,200,230
Combo3 : 255,230,130
Combo4 : 160,230,150

[HitObjects]
95,227,496,6,0,B|118:312|46:350|46:350|0:326,2,195,2|0|0,0:0|0:0|0:0,0:0:0:0:
95,227,2673,2,0,P|159:211|212:243,1,130,2|0,0:0|0:0,0:0:0:0:
267,296,3399,2,0,P|322:327|437:272,1,195,2|0,0:0|0:0,0:0:0:0:
434,278,4850,2,0,L|450:144,1,130,2|0,0:0|0:0,0:0:0:0:
504,55,5576,6,0,P|444:72|399:45,1,97.50000371933,2|0,1:3|1:0,0:0:0:0:
348,97,5939,1,2,1:2:0:0:
348,97,6060,2,0,P|321:84|297:79,1,48.750001859665,8|8,3:3|3:3,0:0:0:0:
226,97,6302,6,0,P|114:77|34:157,1,233.999992858887,12|8,3:2|0:3,0:0:0:0:
1,281,7028,1,4,1:3:0:0:
109,352,7270,1,8,0:3:0:0:
210,272,7512,1,4,0:3:0:0:
165,151,7754,6,0,P|161:105|186:24,2,116.999996429443,10|0|8,3:2|3:0|0:3,0:0:0:0:
210,272,8479,1,4,1:3:0:0:
330,225,8721,1,8,0:3:0:0:
393,337,8963,1,0,1:3:0:0:
420,345,9084,1,0,1:3:0:0:
447,355,9205,6,0,B|493:329|493:329|514:234|453:159,1,233.999992858887,12|8,3:2|0:3,0:0:0:0:
359,69,9931,1,4,1:3:0:0:
234,105,10173,1,8,0:3:0:0:
202,231,10415,1,4,0:3:0:0:
295,321,10657,6,0,L|431:307,2,116.999996429443,10|0|8,3:2|3:0|0:3,0:0:0:0:
176,371,11383,1,4,1:3:0:0:
80,284,11625,2,0,P|71:237|83:192,1,77.999997619629,8|8,0:3|0:3,0:0:0:0:
59,173,11866,2,0,P|74:127|107:94,1,77.999997619629,4|4,0:3|0:3,0:0:0:0:
127,87,12108,6,0,B|247:103|192:16|359:27,1,233.999992858887,12|8,3:2|0:3,0:0:0:0:
473,40,12834,1,4,1:3:0:0:
500,168,13076,1,8,0:3:0:0:
386,233,13318,1,4,0:3:0:0:
288,144,13560,6,0,P|234:114|165:116,2,116.999996429443,10|0|8,3:2|3:0|0:3,0:0:0:0:
386,233,14286,1,4,1:3:0:0:
500,168,14528,1,8,0:3:0:0:
402,79,14770,1,0,1:3:0:0:
379,97,14891,1,0,1:3:0:0:
353,111,15012,6,0,B|206:121|286:34|138:45,1,233.999992858887,12|8,3:2|0:3,0:0:0:0:
15,79,15737,1,4,1:3:0:0:
2,207,15979,1,8,0:3:0:0:
111,277,16221,5,4,0:3:0:0:
139,269,16342,1,4,0:3:0:0:
166,260,16463,2,0,B|200:245|200:245|242:245|281:268,1,116.999996429443,10|0,3:2|3:0,0:0:0:0:
395,344,16947,5,8,3:3:0:0:
426,351,17068,1,8,3:3:0:0:
458,346,17189,2,0,B|469:307|469:307|460:276|460:276|471:218,1,130,4|8,1:2|3:3,0:0:0:0:
512,147,17552,2,0,B|480:181|441:167|441:167|431:142|404:132,1,130,4|8,1:2|3:3,0:0:0:0:
326,110,17915,1,12,3:2:0:0:
36,363,23721,6,0,P|7:231|70:143,1,233.999992858887,4|0,3:2|3:0,0:0:0:0:
223,67,25173,2,0,B|268:113|268:113|364:125|421:52,1,233.999992858887,0|0,3:0|3:0,0:0:0:0:
419,55,26625,6,0,L|268:42,1,136.499995834351,0|0,3:2|3:0,0:0:0:0:
229,138,27350,2,0,L|93:126,1,136.499995834351,0|0,3:0|3:0,0:0:0:0:
28,30,28076,5,0,3:0:0:0:
28,30,29165,6,0,L|33:92,1,58.4999982147217,0|0,3:0|1:0,0:0:0:0:
0,223,29528,6,0,P|43:201|125:210,1,116.999996429443,4|0,3:2|0:0,0:0:0:0:
168,253,29891,2,0,P|220:277|278:272,1,116.999996429443,0|0,1:2|3:0,0:0:0:0:
320,208,30254,2,0,P|299:153|308:96,1,116.999996429443,0|0,1:2|3:0,0:0:0:0:
359,40,30616,2,0,P|416:35|469:59,1,116.999996429443,0|0,2:0|0:0,0:0:0:0:
511,137,30979,6,0,B|501:177|501:177|508:200|508:200|488:273,1,116.999996429443,2|0,3:2|0:0,0:0:0:0:
501,326,31342,2,0,P|468:293|391:290,1,116.999996429443,0|0,1:0|3:0,0:0:0:0:
339,338,31705,2,0,P|306:371|229:374,1,116.999996429443,0|0,1:0|3:0,0:0:0:0:
110,358,32189,2,0,B|103:323|103:323|107:293|107:293|93:235,1,116.999996429443,0|2,1:0|3:2,0:0:0:0:
6,148,32673,5,0,2:0:0:0:
63,33,32915,1,0,2:0:0:0:
156,121,33157,2,0,P|204:134|269:88,1,116.999996429443,0|0,1:0|3:0,0:0:0:0:
312,158,33520,2,0,P|367:145|416:175,1,116.999996429443,0|0,0:0|0:0,0:0:0:0:
450,243,33883,6,0,B|478:253|478:253|528:237|506:161,1,116.999996429443,2|0,3:2|2:0,0:0:0:0:
480,111,34246,2,0,B|440:93|440:93|427:70|427:70|373:50,1,116.999996429443,0|0,1:0|3:0,0:0:0:0:
319,12,34608,1,4,1:2:0:0:
190,13,34850,1,0,1:0:0:0:
171,35,34971,1,0,1:0:0:0:
162,62,35092,1,8,3:3:0:0:
162,91,35213,1,8,3:3:0:0:
171,118,35334,6,0,B|199:135|199:135|283:128,1,116.999996429443,4|0,3:2|0:0,0:0:0:0:
354,154,35697,2,0,P|375:177|361:267,1,116.999996429443,0|0,1:2|3:0,0:0:0:0:
301,292,36060,2,0,B|221:281|221:281|188:295,1,116.999996429443,4|0,1:2|3:0,0:0:0:0:
75,359,36544,1,0,1:0:0:0:
2,252,36786,6,0,P|2:191|42:138,1,116.999996429443,4|0,1:2|0:0,0:0:0:0:
101,114,37149,2,0,B|155:128|155:128|208:97,1,116.999996429443,0|0,1:2|3:0,0:0:0:0:
270,52,37512,1,8,0:3:0:0:
382,83,37754,1,0,1:0:0:0:
407,68,37875,1,0,1:0:0:0:
435,63,37996,1,0,1:0:0:0:
462,72,38116,1,0,1:0:0:0:
483,92,38237,6,0,P|496:147|464:220,1,116.999996429443,4|0,3:2|0:0,0:0:0:0:
426,260,38600,2,0,P|384:237|309:249,1,116.999996429443,0|0,1:0|3:0,0:0:0:0:
256,291,38963,1,0,1:0:0:0:
161,203,39205,1,0,3:0:0:0:
264,126,39447,1,0,1:0:0:0:
157,47,39689,6,0,B|101:29|101:29|42:54,1,116.999996429443,4|0,3:2|0:0,0:0:0:0:
25,125,40052,2,0,P|-3:157|2:242,1,116.999996429443,0|0,1:0|3:0,0:0:0:0:
28,297,40415,1,4,1:2:0:0:
140,358,40657,1,8,3:3:0:0:
165,343,40778,1,0,1:0:0:0:
193,337,40899,1,4,3:3:0:0:
222,339,41020,1,4,3:3:0:0:
249,349,41141,6,0,B|279:365|279:365|331:349|330:292,1,130,4|0,1:2|3:0,0:0:0:0:
310,216,41504,1,4,1:2:0:0:
136,269,41866,6,0,B|78:280|78:280|28:250,1,116.999996429443,0|8,1:0|3:3,0:0:0:0:
0,184,42229,1,8,3:3:0:0:
0,184,42350,2,0,L|10:118,1,58.4999982147217,4|4,3:3|3:3,0:0:0:0:
64,72,42592,6,0,P|91:91|182:59,1,130,4|0,1:2|3:0,0:0:0:0:
225,3,42955,1,4,1:2:0:0:
338,162,43318,6,0,L|313:281,2,116.999996429443,0|0|0,1:0|1:0|1:0,0:0:0:0:
449,71,44044,6,0,P|483:81|525:72,2,65,4|0|0,1:2|3:0|3:0,0:0:0:0:
379,28,44407,1,4,1:2:0:0:
290,193,44770,6,0,L|310:325,2,116.999996429443,0|8|12,1:0|3:3|3:3,0:0:0:0:
195,85,45496,6,0,P|157:72|60:102,1,130,4|0,1:2|3:0,0:0:0:0:
38,162,45858,2,0,P|13:194|12:295,1,130,4|0,1:2|1:0,0:0:0:0:
46,347,46221,1,8,3:3:0:0:
162,292,46463,1,0,1:0:0:0:
264,369,46705,1,8,3:3:0:0:
369,309,46947,6,0,P|395:253|363:112,1,208,4|0,3:2|0:0,0:0:0:0:
272,67,47673,2,0,P|210:72|104:170,1,208,0|0,1:2|3:0,0:0:0:0:
111,273,48399,2,0,P|146:323|284:366,1,208,4|0,3:2|3:0,0:0:0:0:
369,309,49125,1,0,1:0:0:0:
443,380,49366,1,8,3:3:0:0:
511,301,49608,1,4,3:3:0:0:
427,219,49850,6,0,B|413:197|413:173|413:173|427:144|415:96,1,116.999996429443,4|0,3:2|1:0,0:0:0:0:
349,73,50213,1,0,1:0:0:0:
349,73,50334,2,0,B|299:104|299:104|242:89,1,116.999996429443,0|0,1:0|1:0,0:0:0:0:
120,48,50818,5,8,3:3:0:0:
30,140,51060,1,0,1:0:0:0:
101,246,51302,2,0,P|156:253|212:216,1,116.999996429443,2|0,1:2|3:0,0:0:0:0:
260,167,51665,1,0,1:0:0:0:
260,167,51786,2,0,P|256:131|285:46,1,116.999996429443,0|0,3:3|1:0,0:0:0:0:
385,7,52270,1,0,1:0:0:0:
402,26,52391,1,0,1:0:0:0:
424,38,52512,1,8,3:3:0:0:
448,46,52633,1,8,3:3:0:0:
473,47,52754,6,0,B|524:79|514:125|514:125|474:166,1,130,4|0,1:2|3:0,0:0:0:0:
424,204,53116,2,0,P|346:183|283:177,1,130,4|0,1:2|3:0,0:0:0:0:
223,227,53479,6,0,P|221:271|193:317,1,86.6666666666667,0|0,1:0|1:0,0:0:0:0:
181,346,53721,2,0,P|138:357|86:345,1,86.6666666666667,8|8,3:3|3:3,0:0:0:0:
54,342,53963,2,0,P|29:305|27:259,1,65,0|0,1:0|1:0,0:0:0:0:
29,104,54931,6,0,L|7:223,2,104,0|0|0,0:0|0:0|0:0,0:0:0:0:
152,44,55657,6,0,B|167:87|221:93|221:93|275:67,1,130,4|0,3:1|1:2,0:0:0:0:
326,38,56020,2,0,B|362:20|362:20|416:26|431:69,1,130,0|0,3:2|0:2,0:0:0:0:
461,142,56383,1,0,1:2:0:0:
347,228,56625,1,0,3:2:0:0:
478,283,56866,1,0,1:2:0:0:
364,368,57108,6,0,B|319:358|319:358|295:367|295:367|225:354,1,130,2|0,3:2|1:2,0:0:0:0:
163,381,57471,2,0,B|144:333|195:314|170:255,1,130,0|0,3:2|3:2,0:0:0:0:
105,211,57834,2,0,B|73:226|73:226|11:226|5:159,1,130,0|0,1:2|3:2,0:0:0:0:
81,49,58318,5,0,1:2:0:0:
110,61,58439,1,0,2:2:0:0:
141,68,58560,2,0,P|198:69|258:24,1,130,4|0,3:2|1:2,0:0:0:0:
325,63,58923,2,0,P|382:62|442:107,1,130,0|0,3:2|3:2,0:0:0:0:
485,166,59286,1,0,1:2:0:0:
350,213,59528,1,0,3:2:0:0:
223,145,59770,1,0,1:2:0:0:
92,206,60012,6,0,P|69:248|97:340,1,130,2|0,3:2|1:2,0:0:0:0:
145,374,60375,2,0,P|194:357|295:362,1,130,0|0,3:2|3:2,0:0:0:0:
346,378,60737,2,0,P|410:379|472:360,1,130,0|8,1:2|3:3,0:0:0:0:
510,208,61221,5,4,3:3:0:0:
491,181,61342,1,4,3:3:0:0:
467,158,61463,2,0,B|432:142|432:142|394:152|394:152|323:124,1,130,4|0,3:1|1:2,0:0:0:0:
241,231,61947,1,0,3:2:0:0:
210,242,62068,1,0,3:2:0:0:
178,248,62189,2,0,B|143:232|143:232|105:242|105:242|34:214,1,130,0|0,1:2|0:0,0:0:0:0:
2,89,62673,5,0,1:2:0:0:
121,9,62915,1,2,3:2:0:0:
242,83,63157,1,0,1:2:0:0:
368,15,63399,1,0,3:2:0:0:
487,93,63641,2,0,P|506:146|500:233,1,130,0|0,1:2|3:2,0:0:0:0:
409,327,64125,5,0,1:2:0:0:
377,318,64246,1,0,0:2:0:0:
346,307,64366,2,0,B|335:262|335:262|340:230|340:230|327:171,1,130,4|0,3:2|1:2,0:0:0:0:
206,104,64850,1,0,3:2:0:0:
172,99,64971,1,0,3:2:0:0:
140,105,65092,2,0,P|109:132|106:227,1,130,0|0,1:2|3:2,0:0:0:0:
148,352,65576,1,0,1:2:0:0:
290,336,65818,6,0,B|339:331|339:331|360:346|360:346|427:342,1,130,4|0,3:2|1:2,0:0:0:0:
485,307,66181,2,0,L|472:159,1,130,2|0,3:2|3:2,0:0:0:0:
431,111,66544,1,0,1:2:0:0:
332,214,66786,1,8,3:3:0:0:
241,97,67028,5,4,3:3:0:0:
241,97,67149,1,4,3:3:0:0:
241,97,67270,2,0,B|136:43|136:43|22:69,1,233.999992858887,4|0,3:1|0:0,0:0:0:0:
4,210,67996,2,0,B|108:263|108:263|222:237,1,233.999992858887,4|0,1:2|3:2,0:0:0:0:
335,205,68721,2,0,B|420:185|420:185|498:225,2,175.499994644165,2|0|4,3:2|3:2|1:2,0:0:0:0:
137,331,69931,5,4,0:2:0:0:
137,331,70052,1,0,0:2:0:0:
137,331,70173,2,0,P|48:332|-5:203,1,233.999992858887,4|0,3:1|0:0,0:0:0:0:
33,104,70899,2,0,B|168:64|117:163|254:127,1,233.999992858887,4|0,1:2|3:3,0:0:0:0:
365,85,71625,2,0,P|451:87|508:168,2,175.499994644165,4|0|2,3:2|3:2|1:2,0:0:0:0:
262,141,72592,5,0,1:2:0:0:
256,163,72713,1,0,1:2:0:0:
250,185,72834,1,8,3:3:0:0:
244,207,72955,1,8,3:3:0:0:
238,229,73076,6,0,B|203:256|203:256|163:263|106:226,1,130,4|0,3:1|1:2,0:0:0:0:
27,126,73560,1,0,3:0:0:0:
40,96,73681,1,0,3:0:0:0:
58,69,73802,2,0,B|83:58|108:62|108:62|126:73|126:73|157:79|182:67,1,130,0|0,1:2|3:2,0:0:0:0:
312,5,74286,5,0,1:2:0:0:
317,37,74407,1,0,2:2:0:0:
322,69,74528,1,2,3:2:0:0:
461,36,74770,1,0,1:2:0:0:
494,175,75012,1,0,2:2:0:0:
355,208,75254,2,0,L|222:190,1,130,0|0,1:2|3:2,0:0:0:0:
92,147,75737,5,0,1:2:0:0:
92,147,75858,1,0,0:2:0:0:
92,147,75979,2,0,P|67:206|81:297,2,130,4|0|0,1:1|1:2|1:2,0:0:0:0:
189,41,76705,1,2,1:2:0:0:
291,140,76947,1,0,1:2:0:0:
411,63,77189,1,0,1:2:0:0:
487,188,77431,6,0,P|490:252|462:332,1,143.000004364014,4|0,1:2|3:2,0:0:0:0:
399,370,77794,2,0,P|363:362|306:353,2,71.5000021820069,0|0|8,1:2|1:2|1:1,0:0:0:0:
498,238,78883,6,0,B|445:168|500:92|500:92|490:49|451:39,1,233.999992858887,12|8,3:2|0:3,0:0:0:0:
325,13,79608,1,4,1:3:0:0:
261,124,79850,1,8,0:3:0:0:
346,219,80092,1,4,0:3:0:0:
281,329,80334,6,0,B|226:346|226:346|159:326,2,116.999996429443,10|0|8,3:2|3:0|0:3,0:0:0:0:
346,219,81060,1,4,1:3:0:0:
261,124,81302,1,8,0:3:0:0:
145,176,81544,1,0,1:3:0:0:
118,187,81665,1,0,1:3:0:0:
90,196,81786,6,0,B|31:174|31:174|0:74|83:27,1,233.999992858887,12|8,3:2|0:3,0:0:0:0:
210,9,82512,1,4,1:3:0:0:
314,87,82754,1,8,0:3:0:0:
332,215,82996,1,4,0:3:0:0:
254,318,83237,6,0,L|118:304,2,116.999996429443,10|0|8,3:2|3:0|0:3,0:0:0:0:
371,372,83963,1,4,1:3:0:0:
467,285,84205,2,0,P|476:238|464:193,1,77.999997619629,8|8,0:3|0:3,0:0:0:0:
488,174,84447,2,0,P|473:128|440:95,1,77.999997619629,4|4,0:3|0:3,0:0:0:0:
419,87,84689,6,0,B|365:123|304:97|304:97|267:33|220:25,1,233.999992858887,12|8,3:2|0:3,0:0:0:0:
92,39,85415,1,4,1:3:0:0:
40,157,85657,1,8,0:3:0:0:
116,261,85899,1,4,0:3:0:0:
244,247,86141,6,0,L|377:228,2,116.999996429443,10|0|8,3:2|3:0|0:3,0:0:0:0:
116,261,86866,1,4,1:3:0:0:
40,157,87108,1,8,0:3:0:0:
168,143,87350,1,0,1:3:0:0:
193,157,87471,1,0,1:3:0:0:
221,163,87592,6,0,B|362:158|265:61|423:53,1,233.999992858887,12|8,3:2|0:3,0:0:0:0:
511,135,88318,1,4,1:3:0:0:
463,255,88560,1,8,0:3:0:0:
334,246,88802,5,4,0:3:0:0:
306,236,88923,1,4,0:3:0:0:
277,228,89044,2,0,B|237:225|237:225|213:250|213:250|157:265,1,116.999996429443,10|0,3:2|3:0,0:0:0:0:
57,324,89528,5,8,3:3:0:0:
43,298,89649,1,8,3:3:0:0:
26,269,89770,2,0,B|38:222|38:222|28:196|28:196|39:141,1,130,4|8,1:2|3:3,0:0:0:0:
98,92,90133,2,0,B|130:126|169:112|169:112|179:87|206:77,1,130,4|8,1:2|3:3,0:0:0:0:
277,45,90496,1,4,3:2:0:0:
381,96,90737,5,0,1:0:0:0:
285,161,90979,1,0,1:0:0:0:
389,212,91221,1,0,1:0:0:0:
485,147,91463,1,0,1:0:0:0:
485,147,91584,2,0,P|499:99|472:26,1,116.999996429443,0|0,0:0|3:0,0:0:0:0:
404,9,91947,6,0,L|269:24,1,116.999996429443,2|0,1:2|1:0,0:0:0:0:
233,74,92310,2,0,L|116:61,1,116.999996429443,0|0,0:0|3:0,0:0:0:0:
50,100,92673,2,0,P|29:127|27:266,2,175.499994644165,0|0|2,1:0|1:0|1:2,0:0:0:0:
165,28,93641,5,0,1:0:0:0:
255,119,93883,1,0,1:0:0:0:
377,78,94125,1,0,1:0:0:0:
463,179,94366,1,0,1:0:0:0:
463,179,94487,2,0,P|461:232|426:290,1,116.999996429443,0|0,0:0|2:0,0:0:0:0:
362,337,94850,6,0,P|303:317|231:316,1,116.999996429443,2|0,1:2|1:0,0:0:0:0:
186,361,95213,2,0,P|127:364|72:384,1,116.999996429443,0|0,0:0|2:0,0:0:0:0:
3,347,95576,2,0,P|-8:306|37:182,2,175.499994644165,0|0|2,1:0|1:0|1:2,0:0:0:0:
126,384,96544,5,0,1:0:0:0:
196,276,96786,1,0,1:0:0:0:
102,187,97028,1,0,1:0:0:0:
159,73,97270,1,0,1:0:0:0:
159,73,97391,2,0,P|200:53|281:66,1,116.999996429443,0|0,0:0|2:0,0:0:0:0:
327,121,97754,6,0,P|344:163|412:207,1,116.999996429443,2|0,1:2|1:0,0:0:0:0:
474,190,98116,2,0,P|502:154|506:72,1,116.999996429443,0|0,0:0|3:0,0:0:0:0:
459,26,98479,2,0,P|413:19|340:57,1,116.999996429443,0|2,1:0|1:2,0:0:0:0:
247,134,98963,5,8,3:3:0:0:
247,134,99084,1,8,3:3:0:0:
247,134,99205,2,0,P|189:138|137:112,1,116.999996429443,2|0,1:2|1:0,0:0:0:0:
48,18,99689,1,0,1:0:0:0:
9,140,99931,2,0,P|3:196|20:253,1,116.999996429443,0|0,1:0|1:0,0:0:0:0:
87,363,100415,1,0,1:0:0:0:
191,287,100657,6,0,B|200:246|200:246|194:226|194:226|205:172,1,116.999996429443,2|0,1:2|1:0,0:0:0:0:
244,49,101141,1,0,1:0:0:0:
370,22,101383,1,2,1:2:0:0:
456,117,101625,1,0,3:2:0:0:
463,145,101746,1,0,1:0:0:0:
470,173,101866,1,8,3:3:0:0:
477,201,101987,1,8,3:3:0:0:
484,229,102108,6,0,B|426:250|426:250|366:217,1,123.499996702194,4|0,3:2|1:2,0:0:0:0:
256,147,102592,1,0,3:0:0:0:
170,252,102834,2,0,B|115:281|115:281|57:260,1,123.499996702194,0|0,1:0|3:0,0:0:0:0:
2,205,103197,2,0,P|-2:141|29:89,1,123.499996702194,0|0,3:0|0:0,0:0:0:0:
96,46,103560,6,0,L|218:33,1,123.499996702194,2|0,3:2|1:0,0:0:0:0:
287,74,103923,2,0,L|409:86,1,123.499996702194,0|0,3:0|3:0,0:0:0:0:
475,135,104286,2,0,P|486:198|462:253,1,123.499996702194,0|0,1:0|3:0,0:0:0:0:
411,309,104649,1,0,3:0:0:0:
411,309,104770,2,0,L|288:321,1,123.499996702194,0|4,1:0|3:2,0:0:0:0:
144,369,105254,5,0,1:0:0:0:
150,233,105496,1,0,3:0:0:0:
272,176,105737,2,0,B|294:151|294:151|298:103|259:60,1,123.499996702194,0|0,1:0|3:0,0:0:0:0:
197,33,106100,2,0,B|182:59|148:60|148:60|123:37|87:37,1,123.499996702194,0|0,3:0|0:0,0:0:0:0:
17,83,106463,6,0,P|-3:131|10:212,1,123.499996702194,2|0,3:2|1:0,0:0:0:0:
53,262,106826,2,0,L|196:243,1,123.499996702194,0|0,3:2|3:0,0:0:0:0:
239,290,107189,1,0,1:2:0:0:
337,195,107431,1,8,3:3:0:0:
328,165,107552,1,0,1:0:0:0:
325,134,107673,1,4,3:3:0:0:
334,104,107794,1,4,3:3:0:0:
352,79,107915,6,0,B|404:51|404:51|474:76,1,123.499996702194,4|0,3:2|0:0,0:0:0:0:
494,145,108278,2,0,B|519:172|519:172|520:221|490:257,1,123.499996702194,0|0,1:2|3:0,0:0:0:0:
441,312,108641,2,0,B|389:284|389:284|319:309,1,123.499996702194,4|0,1:2|3:2,0:0:0:0:
214,381,109125,1,0,1:2:0:0:
105,298,109366,6,0,P|91:236|126:176,1,123.499996702194,4|0,1:2|0:0,0:0:0:0:
187,148,109729,2,0,B|245:170|245:170|299:141,1,123.499996702194,0|0,1:2|3:0,0:0:0:0:
366,99,110092,1,6,1:2:0:0:
247,33,110334,1,10,1:2:0:0:
127,97,110576,1,10,3:2:0:0:
13,20,110818,6,0,B|-18:51|-18:51|-24:87|11:143,1,123.499996702194,4|0,3:2|1:0,0:0:0:0:
62,176,111181,2,0,P|107:157|182:169,1,123.499996702194,0|0,0:0|0:0,0:0:0:0:
238,222,111544,1,0,1:0:0:0:
361,164,111786,1,0,3:0:0:0:
437,276,112028,1,0,1:0:0:0:
314,334,112270,6,0,L|180:317,1,123.499996702194,4|0,3:2|0:0,0:0:0:0:
125,358,112633,2,0,B|115:318|115:318|121:297|121:297|106:238,1,123.499996702194,0|0,1:2|3:0,0:0:0:0:
44,195,112996,1,4,1:2:0:0:
112,73,113237,5,8,3:3:0:0:
137,88,113358,1,0,1:0:0:0:
165,94,113479,1,4,3:3:0:0:
194,92,113600,1,4,3:3:0:0:
220,82,113721,1,8,0:2:0:0:
0,307,119044,6,0,L|110:301,1,104,8|4,3:3|3:3,0:0:0:0:
196,349,119528,6,0,B|319:314|272:393|396:367,1,208,4|0,3:2|0:0,0:0:0:0:
476,301,120254,2,0,P|495:251|455:93,1,208,0|0,1:2|3:0,0:0:0:0:
373,48,120979,2,0,B|251:13|294:90|173:66,1,208,4|0,3:2|0:0,0:0:0:0:
76,28,121705,1,0,1:0:0:0:
9,108,121947,1,8,3:3:0:0:
64,196,122189,1,4,3:3:0:0:
164,170,122431,6,0,P|213:154|288:162,1,116.999996429443,4|0,3:2|1:0,0:0:0:0:
344,210,122794,1,0,1:0:0:0:
344,210,122915,2,0,P|360:259|352:334,1,116.999996429443,0|0,1:0|1:0,0:0:0:0:
238,378,123399,5,8,3:3:0:0:
134,301,123641,1,0,1:0:0:0:
26,371,123883,2,0,B|9:339|9:339|5:304|38:260,1,116.999996429443,2|0,1:2|3:0,0:0:0:0:
98,215,124246,1,0,1:0:0:0:
98,215,124366,2,0,B|145:208|145:208|161:193|161:193|213:183,1,116.999996429443,0|0,3:3|1:0,0:0:0:0:
325,152,124850,1,0,1:0:0:0:
346,166,124971,1,0,1:0:0:0:
370,174,125092,1,8,3:3:0:0:
395,178,125213,1,8,3:3:0:0:
427,176,125334,6,0,P|454:136|433:54,1,130,4|0,1:2|3:0,0:0:0:0:
375,17,125697,2,0,P|326:13|266:72,1,130,4|0,1:2|3:0,0:0:0:0:
244,136,126060,6,0,P|242:180|214:226,1,86.6666666666667,0|0,1:0|1:0,0:0:0:0:
202,255,126302,2,0,P|159:266|107:254,1,86.6666666666667,8|8,3:3|3:3,0:0:0:0:
75,251,126544,2,0,P|50:214|48:168,1,65,0|0,1:0|1:0,0:0:0:0:
17,117,126786,6,0,L|39:1,2,104,10|10|10,3:2|3:2|3:2,0:0:0:0:
75,251,127512,1,4,1:2:0:0:
213,216,127754,1,0,1:2:0:0:
245,216,127875,1,0,1:0:0:0:
274,228,127996,1,0,1:0:0:0:
295,251,128116,1,0,1:0:0:0:
308,280,128237,6,0,P|355:322|420:321,1,130,4|0,3:1|1:2,0:0:0:0:
490,287,128600,2,0,B|481:245|481:245|489:221|489:221|475:156,1,130,0|0,3:2|0:2,0:0:0:0:
453,85,128963,1,0,1:2:0:0:
340,173,129205,1,0,3:2:0:0:
275,45,129447,1,0,1:2:0:0:
164,138,129689,6,0,B|141:157|107:151|107:151|86:125|45:118,1,130,2|0,3:2|1:2,0:0:0:0:
10,187,130052,2,0,P|-13:221|13:319,1,130,0|0,3:2|3:2,0:0:0:0:
59,355,130415,2,0,P|128:332|202:334,1,130,0|0,1:2|3:2,0:0:0:0:
327,346,130899,5,0,1:2:0:0:
357,360,131020,1,0,2:2:0:0:
387,372,131141,2,0,B|416:380|416:380|459:358|452:283,1,130,4|0,3:2|1:2,0:0:0:0:
410,227,131504,2,0,B|381:235|381:235|338:213|345:138,1,130,0|0,3:2|3:2,0:0:0:0:
363,72,131866,1,0,1:2:0:0:
235,8,132108,1,0,3:2:0:0:
122,96,132350,1,0,1:2:0:0:
238,180,132592,6,0,P|261:222|233:314,1,130,2|0,3:2|1:2,0:0:0:0:
190,355,132955,2,0,L|40:343,1,130,0|0,3:2|3:2,0:0:0:0:
4,288,133318,2,0,P|-3:224|30:171,1,130,0|8,1:2|3:3,0:0:0:0:
142,81,133802,5,4,3:3:0:0:
171,94,133923,1,4,3:3:0:0:
200,107,134044,2,0,B|246:98|246:98|266:77|266:77|318:68,1,130,4|0,3:1|1:1,0:0:0:0:
457,105,134528,1,0,3:2:0:0:
472,133,134649,1,0,3:2:0:0:
483,163,134770,2,0,P|487:219|460:288,1,130,0|0,1:2|0:0,0:0:0:0:
356,380,135254,5,0,1:2:0:0:
233,306,135496,1,2,3:2:0:0:
366,253,135737,1,0,1:2:0:0:
243,179,135979,1,0,2:2:0:0:
376,126,136221,2,0,B|403:103|403:103|411:52|362:25,1,130,0|0,1:2|3:2,0:0:0:0:
233,8,136705,5,0,1:2:0:0:
211,32,136826,1,0,0:2:0:0:
181,44,136947,2,0,B|107:50|141:9|52:16,1,130,4|0,3:2|1:2,0:0:0:0:
85,151,137431,1,0,3:2:0:0:
54,161,137552,1,0,3:2:0:0:
27,181,137673,2,0,P|-1:219|9:305,1,130,0|0,1:2|3:2,0:0:0:0:
128,372,138157,1,0,1:2:0:0:
230,270,138399,6,0,B|249:226|205:198|231:141,1,130,4|0,3:2|1:2,0:0:0:0:
275,78,138762,2,0,P|319:58|421:80,1,130,2|0,3:2|3:2,0:0:0:0:
451,126,139125,1,0,1:2:0:0:
499,260,139366,1,8,3:3:0:0:
401,364,139608,5,4,3:3:0:0:
401,364,139729,1,4,3:3:0:0:
401,364,139850,2,0,B|168:339,1,233.999992858887,4|0,3:1|0:0,0:0:0:0:
51,384,140576,2,0,B|76:151,1,233.999992858887,4|0,1:2|3:2,0:0:0:0:
31,34,141302,2,0,B|208:53,2,175.499994644165,2|0|4,3:2|3:1|1:2,0:0:0:0:
199,211,142512,5,4,0:2:0:0:
199,211,142633,1,0,0:2:0:0:
199,211,142754,2,0,B|342:225|264:125|405:129,1,233.999992858887,4|0,3:1|0:0,0:0:0:0:
494,203,143479,2,0,P|494:259|342:318,1,233.999992858887,4|0,1:2|3:2,0:0:0:0:
245,274,144205,2,0,P|135:288|113:365,2,175.499994644165,4|0|2,3:2|3:2|1:2,0:0:0:0:
352,323,145173,5,0,1:2:0:0:
374,316,145294,1,0,1:2:0:0:
396,311,145415,1,8,3:3:0:0:
418,305,145536,1,8,3:3:0:0:
440,299,145657,6,0,P|466:243|431:171,1,130,4|0,3:1|1:2,0:0:0:0:
335,88,146141,1,0,3:0:0:0:
308,106,146262,1,0,3:0:0:0:
278,118,146383,2,0,B|237:126|237:126|213:85|156:81,1,130,0|0,1:2|3:2,0:0:0:0:
11,91,146866,5,0,1:2:0:0:
95,206,147108,1,2,3:2:0:0:
164,81,147350,1,0,1:2:0:0:
248,196,147592,1,0,2:2:0:0:
317,71,147834,2,0,P|356:53|447:85,1,130,0|0,1:2|3:2,0:0:0:0:
507,210,148318,5,0,1:2:0:0:
507,210,148439,1,0,0:2:0:0:
507,210,148560,2,0,L|510:358,2,130,4|0|0,1:1|1:1|1:1,0:0:0:0:
438,83,149286,1,6,1:2:0:0:
337,185,149528,1,0,1:1:0:0:
266,60,149770,1,0,1:1:0:0:
157,153,150012,6,0,P|132:211|143:302,1,143.000004364014,4|0,1:2|3:2,0:0:0:0:
181,356,150375,2,0,L|268:347,1,71.5000021820069,0|0,1:2|1:2,0:0:0:0:
377,378,150737,6,0,P|377:323|358:280,1,77.999997619629,0|0,1:0|1:0,0:0:0:0:
350,267,150979,2,0,P|350:212|369:169,1,77.999997619629,8|8,3:3|3:3,0:0:0:0:
384,162,151221,2,0,P|384:107|365:64,1,77.999997619629,4|4,0:3|0:3,0:0:0:0:
356,47,151463,6,0,P|302:70|213:35,1,130,4|0,3:2|0:2,0:0:0:0:
170,15,151826,1,2,0:2:0:0:
72,119,152068,1,0,0:2:0:0:
146,241,152310,2,0,P|207:257|267:233,1,130,2|0,0:0|0:0,0:0:0:0:
321,177,152673,5,0,3:0:0:0:
321,177,152794,1,0,0:0:0:0:
321,177,152915,2,0,P|313:124|355:44,1,130,2|0,3:2|0:0,0:0:0:0:
420,42,153278,2,0,P|451:85|450:175,1,130,2|0,3:2|3:0,0:0:0:0:
428,233,153641,2,0,B|402:332|474:366|474:366|519:348,2,195,0|0|4,1:0|1:0|3:1,0:0:0:0:
369,102,154608,6,0,P|292:126|230:108,1,130,2|0,0:0|3:0,0:0:0:0:
173,84,154971,2,0,P|113:60|49:70,1,130,0|2,0:2|0:2,0:0:0:0:
3,133,155334,2,0,L|25:219,1,65,8|8,0:3|0:3,0:0:0:0:
14,274,155576,2,0,L|36:360,1,65,4|4,3:3|0:3,0:0:0:0:
99,374,155818,5,2,3:2:0:0:
217,293,156060,1,0,2:2:0:0:
340,365,156302,2,0,P|385:363|412:345,2,65,0|0|2,2:2|3:0|1:2,0:0:0:0:
148,252,156907,5,2,3:2:0:0:
136,221,157028,1,0,1:0:0:0:
140,188,157149,1,0,1:0:0:0:
158,161,157270,2,0,B|202:115|162:98|209:44,1,130,4|0,3:2|0:0,0:0:0:0:
280,12,157633,2,0,P|305:46|406:42,1,130,2|0,2:2|0:0,0:0:0:0:
457,18,157996,1,2,1:2:0:0:
510,150,158237,1,0,3:0:0:0:
478,289,158479,1,0,3:0:0:0:
359,368,158721,6,0,B|312:357|312:357|291:365|291:365|209:346,1,130,2|0,3:2|0:0,0:0:0:0:
179,294,159084,2,0,P|188:241|146:179,1,130,2|0,3:2|3:0,0:0:0:0:
69,178,159447,2,0,P|31:237|65:364,2,195,2|0|4,1:2|1:0|3:1,0:0:0:0:
190,97,160415,5,2,0:0:0:0:
315,165,160657,1,0,3:0:0:0:
425,73,160899,1,0,1:0:0:0:
300,7,161141,1,0,2:0:0:0:
190,97,161383,2,0,P|169:168|198:235,1,130,2|4,3:2|1:1,0:0:0:0:
318,297,161866,5,2,3:2:0:0:
318,297,161987,2,0,P|388:283|462:291,1,130,4|0,1:2|3:0,0:0:0:0:
508,240,162350,1,0,1:0:0:0:
501,208,162471,1,0,1:0:0:0:
494,176,162592,2,0,L|478:100,1,65,8|8,3:3|3:3,0:0:0:0:
406,141,162834,2,0,L|390:65,1,65,4|4,3:3|3:3,0:0:0:0:
341,15,163076,6,0,B|274:-1|285:50|216:34,1,130,4|0,3:1|0:0,0:0:0:0:
75,12,163560,1,0,3:2:0:0:
10,140,163802,1,2,1:2:0:0:
111,241,164044,1,0,2:2:0:0:
238,176,164286,1,0,3:2:0:0:
338,275,164528,6,0,B|402:289|402:289|467:260,1,130,2|0,3:2|0:0,0:0:0:0:
503,196,164891,2,0,L|472:70,1,130,2|0,3:2|3:0,0:0:0:0:
402,32,165254,1,2,1:2:0:0:
282,109,165496,1,8,3:3:0:0:
276,140,165616,1,8,3:3:0:0:
270,171,165737,1,4,3:3:0:0:
264,202,165858,1,4,3:3:0:0:
258,233,165979,6,0,B|238:256|204:251|204:251|178:223|128:215,1,130,4|0,3:2|0:0,0:0:0:0:
3,251,166463,1,0,3:0:0:0:
93,361,166705,2,0,P|176:368|232:342,1,130,2|0,1:2|0:0,0:0:0:0:
342,280,167189,1,0,3:0:0:0:
243,176,167431,6,0,B|222:145|222:145|216:96|258:51,1,130,2|0,3:2|0:0,0:0:0:0:
329,59,167794,2,0,P|360:39|454:41,1,130,0|0,3:0|3:0,0:0:0:0:
512,89,168157,1,2,1:2:0:0:
400,178,168399,1,2,3:2:0:0:
493,286,168641,1,2,3:2:0:0:
384,379,168883,1,4,3:1:0:0:
283,277,169125,6,0,P|231:247|153:247,1,130,2|0,0:0|3:0,0:0:0:0:
93,280,169487,2,0,B|55:291|55:291|8:275|-2:219,1,130,0|2,2:0|0:0,0:0:0:0:
5,146,169850,2,0,L|18:76,1,65,0|0,3:0|2:0,0:0:0:0:
89,112,170092,2,0,L|102:42,1,65,0|0,3:0|3:0,0:0:0:0:
173,78,170334,6,0,P|214:58|320:72,1,130,2|0,3:2|0:0,0:0:0:0:
366,97,170697,1,0,3:2:0:0:
278,210,170939,1,0,3:2:0:0:
379,311,171181,1,2,1:2:0:0:
409,321,171302,1,8,3:3:0:0:
439,331,171423,1,8,3:3:0:0:
469,341,171544,2,0,B|500:324|500:324|511:258|466:216,1,130,4|4,3:3|3:1,0:0:0:0:
353,167,172028,6,0,P|299:159|223:193,1,130,2|2,1:2|1:2,0:0:0:0:
190,252,172391,1,0,1:2:0:0:
190,252,172512,2,0,P|131:278|67:271,2,130,2|2|2,1:2|1:2|1:2,0:0:0:0:
288,136,173237,6,0,P|291:38|318:5,1,130,2|2,1:2|3:2,0:0:0:0:
388,1,173600,1,0,1:0:0:0:
388,1,173721,2,0,P|447:79|447:121,1,130,2|2,3:2|1:2,0:0:0:0:
363,222,174205,1,8,1:3:0:0:
331,215,174326,1,8,1:3:0:0:
299,208,174447,1,4,3:3:0:0:
267,201,174568,1,4,3:3:0:0:
235,194,174689,6,0,P|189:252|231:328,1,143.000004364014,4|0,3:2|3:0,0:0:0:0:
267,365,175052,2,0,B|327:370|327:370|351:330|401:328,1,143.000004364014,4|0,1:2|3:0,0:0:0:0:
473,319,175415,2,0,P|485:258|469:217,1,95.3333362426759,0|0,1:2|1:0,0:0:0:0:
439,195,175657,2,0,L|338:184,1,95.3333362426759,8|8,3:3|3:3,0:0:0:0:
303,158,175899,2,0,P|293:110|308:83,1,71.5000021820069,0|0,1:0|1:0,0:0:0:0:
0,317,183157,5,0,1:0:0:0:
0,317,183278,1,0,0:0:0:0:
0,317,183399,2,0,P|54:316|108:282,1,104,2|0,1:2|1:0,0:0:0:0:
180,213,183883,1,0,1:0:0:0:
180,213,184004,1,0,0:0:0:0:
180,213,184125,2,0,P|167:159|178:95,1,104,0|0,1:0|1:0,0:0:0:0:
240,19,184608,5,0,1:0:0:0:
354,3,184850,1,2,0:0:0:0:
445,72,185092,1,0,1:0:0:0:
460,185,185334,1,0,1:0:0:0:
390,275,185576,2,0,L|272:256,1,104,0|0,1:0|1:0,0:0:0:0:
191,321,186060,5,0,1:0:0:0:
191,321,186181,1,0,0:0:0:0:
191,321,186302,2,0,B|183:274|183:274|191:253|191:253|179:190,1,116.999996429443,2|0,1:2|0:0,0:0:0:0:
123,157,186665,2,0,P|94:178|14:153,1,116.999996429443,0|0,1:0|1:0,0:0:0:0:
5,85,187028,2,0,P|19:52|101:33,1,116.999996429443,0|0,1:0|1:0,0:0:0:0:
164,63,187391,2,0,B|195:72|195:72|226:62,2,65,0|0|8,1:0|1:0|1:2,0:0:0:0:
164,63,189205,6,0,P|223:91|291:78,1,130,4|0,3:1|1:2,0:0:0:0:
357,50,189568,2,0,P|420:40|477:68,1,130,0|0,3:2|0:2,0:0:0:0:
510,139,189931,1,0,1:2:0:0:
422,252,190173,1,0,3:2:0:0:
304,170,190415,1,0,1:2:0:0:
208,276,190657,6,0,B|146:299|146:299|85:265,1,130,2|0,3:2|1:2,0:0:0:0:
35,211,191020,2,0,P|20:152|61:89,1,130,0|0,3:2|3:2,0:0:0:0:
124,61,191383,2,0,L|264:45,1,130,0|0,1:2|3:2,0:0:0:0:
392,7,191866,5,2,1:2:0:0:
412,32,191987,1,0,2:2:0:0:
429,59,192108,2,0,P|444:118|403:181,1,130,4|0,3:2|1:2,0:0:0:0:
337,203,192471,2,0,L|194:189,1,130,0|0,3:2|3:2,0:0:0:0:
140,149,192834,1,2,1:2:0:0:
16,244,193076,1,0,3:0:0:0:
100,375,193318,1,0,1:2:0:0:
248,324,193560,6,0,B|310:305|310:305|388:317,1,130,4|0,3:2|1:2,0:0:0:0:
424,379,193923,2,0,P|453:330|421:250,1,130,0|0,3:2|3:2,0:0:0:0:
372,214,194286,2,0,B|307:223|307:223|245:204,1,130,0|8,1:2|3:3,0:0:0:0:
120,135,194770,5,4,3:3:0:0:
129,104,194891,1,4,3:3:0:0:
123,72,195012,2,0,B|88:43|88:43|-26:78,1,155.999995239258,6|4,1:2|1:2,0:0:0:0:
168,329,195737,6,0,B|203:358|203:358|317:323,1,155.999995239258,6|4,1:2|1:2,0:0:0:0:
495,107,196463,6,0,B|445:95|445:95|417:107|417:107|337:86,1,143.000004364014,4|0,1:2|3:0,0:0:0:0:
286,125,196826,2,0,B|236:113|236:113|208:125|208:125|128:104,1,143.000004364014,4|0,1:2|3:0,0:0:0:0:
89,56,197189,1,4,1:2:0:0:
7,174,197431,5,0,1:0:0:0:
0,205,197552,1,0,1:0:0:0:
6,236,197673,1,8,3:3:0:0:
20,265,197794,1,8,3:3:0:0:
47,282,197915,6,0,P|108:287|169:229,2,130,4|0|0,1:1|1:1|1:1,0:0:0:0:
0,146,198641,1,2,1:2:0:0:
94,38,198883,1,0,1:2:0:0:
234,65,199125,1,0,1:2:0:0:
280,199,199366,6,0,B|315:239|315:239|366:247|405:203,1,143.000004364014,4|0,1:2|3:2,0:0:0:0:
435,143,199729,2,0,L|418:74,2,71.5000021820069,0|0|8,1:2|1:2|1:1,0:0:0:0:
506,366,202270,6,0,B|423:366|401:282|401:282|309:261,1,233.999992858887,12|8,3:2|0:3,0:0:0:0:
188,240,202996,1,4,1:3:0:0:
112,343,203237,1,8,0:3:0:0:
239,365,203479,1,4,0:3:0:0:
315,262,203721,6,0,L|303:138,2,116.999996429443,10|0|8,3:2|3:0|0:3,0:0:0:0:
380,373,204447,1,4,1:3:0:0:
486,300,204689,1,8,0:3:0:0:
433,182,204931,1,0,1:3:0:0:
423,154,205052,1,0,1:3:0:0:
415,125,205173,6,0,B|382:13|382:13|273:61,1,233.999992858887,12|8,3:2|0:3,0:0:0:0:
159,118,205899,1,4,1:3:0:0:
152,247,206141,1,8,0:3:0:0:
260,317,206383,1,4,0:3:0:0:
374,258,206625,6,0,P|448:243|508:258,2,116.999996429443,10|0|8,3:2|3:0|0:3,0:0:0:0:
260,317,207350,1,4,1:3:0:0:
152,247,207592,2,0,P|143:200|155:155,1,77.999997619629,8|8,0:3|0:3,0:0:0:0:
115,149,207834,2,0,P|130:103|163:70,1,77.999997619629,4|4,0:3|0:3,0:0:0:0:
185,67,208076,6,0,B|236:74|277:51|277:51|300:17|300:17|357:1|397:13,1,233.999992858887,12|8,3:2|0:3,0:0:0:0:
507,79,208802,1,4,1:3:0:0:
505,209,209044,1,8,0:3:0:0:
392,273,209286,1,4,0:3:0:0:
280,207,209528,6,0,L|268:77,2,116.999996429443,10|0|8,3:2|3:0|0:3,0:0:0:0:
236,328,210254,1,4,1:3:0:0:
110,356,210496,1,8,0:3:0:0:
15,269,210737,1,0,1:3:0:0:
21,240,210858,1,0,1:3:0:0:
31,212,210979,6,0,B|63:154|37:89|37:89|56:24|131:23,1,233.999992858887,12|8,3:2|0:3,0:0:0:0:
242,24,211705,1,4,1:3:0:0:
275,148,211947,1,8,0:3:0:0:
395,192,212189,5,4,0:3:0:0:
424,188,212310,1,4,0:3:0:0:
452,183,212431,2,0,P|467:144|443:69,1,116.999996429443,10|0,3:2|3:0,0:0:0:0:
334,10,212915,5,8,3:3:0:0:
317,34,213036,1,8,3:3:0:0:
294,56,213157,2,0,B|256:74|256:74|157:51,1,130,4|8,1:2|3:3,0:0:0:0:
94,64,213520,2,0,P|49:114|54:180,1,130,4|8,1:2|3:3,0:0:0:0:
100,236,213883,6,0,P|153:222|219:229,1,116.999996429443,12|0,3:2|0:0,0:0:0:0:
275,283,214246,1,8,0:3:0:0:
275,283,214366,2,0,P|332:288|389:274,1,116.999996429443,8|4,3:3|3:3,0:0:0:0:
489,213,214850,1,8,0:3:0:0:
493,96,215092,1,4,0:3:0:0:
387,44,215334,6,0,P|329:38|272:52,1,116.999996429443,10|0,0:0|0:0,0:0:0:0:
223,112,215697,1,8,0:3:0:0:
223,112,215818,2,0,B|207:172|245:178|226:234,1,116.999996429443,8|4,3:3|1:3,0:0:0:0:
170,328,216302,1,8,3:3:0:0:
59,289,216544,1,0,1:0:0:0:
52,266,216665,1,0,1:0:0:0:
45,243,216786,6,0,P|39:194|63:120,1,116.999996429443,12|0,3:2|0:0,0:0:0:0:
107,72,217149,1,8,0:3:0:0:
107,72,217270,2,0,B|143:96|143:96|188:98|217:75,1,116.999996429443,8|4,3:3|2:3,0:0:0:0:
310,12,217754,1,8,0:3:0:0:
418,56,217996,1,4,0:3:0:0:
330,133,218237,6,0,P|313:169|330:257,1,116.999996429443,10|0,0:0|0:0,0:0:0:0:
376,301,218600,2,0,L|444:293,2,58.4999982147217,8|8|4,0:3|3:3|3:3,0:0:0:0:
329,365,218963,1,4,1:2:0:0:
229,303,219205,1,0,1:3:0:0:
124,355,219447,1,4,3:3:0:0:
88,231,219689,5,6,3:2:0:0:
256,192,219810,12,0,222592,0:2:0:0:
