osu file format v14

[General]
AudioFilename: audio.mp3
AudioLeadIn: 0
PreviewTime: 54871
Countdown: 0
SampleSet: Soft
StackLeniency: 0.6
Mode: 0
LetterboxInBreaks: 0
WidescreenStoryboard: 1

[Editor]
Bookmarks: 6302,17915,29528,41141,46947,55657,67270,73076,78157,78883,90496,102108,103923,110032,113721,118681,128237,139850,145657,151463,163076,173721,176141,177592,183399,189205,195012,202270,213883,219689,222592
DistanceSpacing: 1.1
BeatDivisor: 4
GridSize: 16
TimelineZoom: 2.599999

[Metadata]
Title:Singing Wheel
TitleUnicode:Singing Wheel
Artist:Sakuragawa Megu
ArtistUnicode:櫻川めぐ
Creator:Lasse
Version:Expert
Source:レヱル・ロマネスク
Tags:impurepug japanese pop rock nishizaka kyouhei kyohei 西坂 恭平 anime ending full version rail romanesque maitetsu まいてつ visual novel
BeatmapID:3012810
BeatmapSetID:1414414

[Difficulty]
HPDrainRate:5
CircleSize:4
OverallDifficulty:8.2
ApproachRate:9.2
SliderMultiplier:1.6
SliderTickRate:1

[Events]
//Background and Video events
0,0,"crop1.jpg",0,0
//Break Periods
2,18115,23121
2,113921,118081
//Storyboard Layer 0 (Background)
//Storyboard Layer 1 (Fail)
//Storyboard Layer 2 (Pass)
//Storyboard Layer 3 (Foreground)
//Storyboard Layer 4 (Overlay)
//Storyboard Sound Samples

[TimingPoints]
496,241.935483870968,6,2,1,50,1,0
496,-200,6,2,1,50,0,0
5576,-133.333333333333,6,2,1,55,0,0
5818,-133.333333333333,6,2,1,58,0,0
6060,-133.333333333333,6,2,1,62,0,0
6302,-111.111111111111,6,2,2,68,0,0
6362,-111.111111111111,6,2,1,68,0,0
7693,-111.111111111111,6,2,2,68,0,0
7814,-111.111111111111,6,2,1,68,0,0
9145,-111.111111111111,6,2,2,68,0,0
9266,-111.111111111111,6,2,1,68,0,0
10596,-111.111111111111,6,2,2,68,0,0
10717,-111.111111111111,6,2,1,68,0,0
12108,-111.111111111111,6,2,2,68,0,0
12169,-111.111111111111,6,2,1,68,0,0
13500,-111.111111111111,6,2,2,68,0,0
13621,-111.111111111111,6,2,1,68,0,0
14951,-111.111111111111,6,2,2,68,0,0
15072,-111.111111111111,6,2,1,68,0,0
16403,-111.111111111111,6,2,2,68,0,0
16524,-111.111111111111,6,2,1,68,0,0
17915,-153.846153846154,6,2,1,64,0,0
18036,-153.846153846154,6,2,1,54,0,0
23721,-153.846153846154,6,2,1,57,0,0
26625,-153.846153846154,6,2,1,60,0,0
29165,-153.846153846154,6,2,1,63,0,0
29286,-153.846153846154,6,2,1,64,0,0
29528,-100,6,2,1,70,0,0
35334,-95.2380952380952,6,2,1,72,0,0
39689,-90.9090909090909,6,2,1,74,0,0
41141,-83.3333333333333,6,2,1,74,0,0
41866,-83.3333333333333,6,2,1,70,0,0
42592,-83.3333333333333,6,2,1,74,0,0
43318,-100,6,2,1,70,0,0
44044,-83.3333333333333,6,2,1,74,0,0
44770,-133.333333333333,6,2,1,70,0,0
45496,-83.3333333333333,6,2,1,74,0,0
45858,-90.9090909090909,6,2,1,74,0,0
45979,-83.3333333333333,6,2,1,70,0,0
46947,-116.279069767442,6,2,1,70,0,0
47189,-116.279069767442,6,2,1,65,0,0
49850,-106.382978723404,6,2,1,68,0,0
52270,-106.382978723404,6,2,1,70,0,0
52754,-90.9090909090909,6,2,1,72,0,0
54931,-80,6,2,1,60,0,0
55173,-80,6,2,1,62,0,0
55415,-80,6,2,1,64,0,0
55657,-80,6,2,1,82,0,1
67270,-100,6,2,1,75,0,0
73076,-80,6,2,1,82,0,1
75979,-75.7575757575758,6,2,1,83,0,1
76705,-71.4285714285714,6,2,1,84,0,1
77431,-66.6666666666667,6,2,1,85,0,1
78036,-66.6666666666667,6,2,1,84,0,0
78883,-111.111111111111,6,2,2,68,0,0
78943,-111.111111111111,6,2,1,68,0,0
80274,-111.111111111111,6,2,2,68,0,0
80395,-111.111111111111,6,2,1,68,0,0
81725,-111.111111111111,6,2,2,68,0,0
81846,-111.111111111111,6,2,1,68,0,0
83177,-111.111111111111,6,2,2,68,0,0
83298,-111.111111111111,6,2,1,68,0,0
84689,-111.111111111111,6,2,2,68,0,0
84750,-111.111111111111,6,2,1,68,0,0
86080,-111.111111111111,6,2,2,68,0,0
86201,-111.111111111111,6,2,1,68,0,0
87532,-111.111111111111,6,2,2,68,0,0
87653,-111.111111111111,6,2,1,68,0,0
88983,-111.111111111111,6,2,2,68,0,0
89104,-111.111111111111,6,2,1,68,0,0
90496,-111.111111111111,6,2,1,68,0,0
90737,-121.951219512195,6,2,1,65,0,0
102108,-95.2380952380952,6,2,1,70,0,0
107915,-90.9090909090909,6,2,1,72,0,0
110334,-90.9090909090909,6,2,2,72,0,0
110818,-90.9090909090909,6,2,1,72,0,0
112270,-86.9565217391304,6,2,1,74,0,0
113721,-86.9565217391304,6,2,1,68,0,0
118681,-133.333333333333,6,2,1,64,0,0
119528,-116.279069767442,6,2,1,70,0,0
119770,-116.279069767442,6,2,1,65,0,0
122431,-106.382978723404,6,2,1,68,0,0
124850,-106.382978723404,6,2,1,70,0,0
125334,-90.9090909090909,6,2,1,72,0,0
126786,-111.111111111111,6,2,2,68,0,0
126907,-111.111111111111,6,2,3,64,0,0
127028,-111.111111111111,6,2,3,68,0,0
127149,-111.111111111111,6,2,3,64,0,0
127270,-111.111111111111,6,2,2,68,0,0
127391,-111.111111111111,6,2,2,64,0,0
127512,-90.9090909090909,6,2,2,72,0,0
127754,-90.9090909090909,6,2,2,73,0,0
127875,-90.9090909090909,6,2,2,74,0,0
127996,-90.9090909090909,6,2,2,75,0,0
128116,-90.9090909090909,6,2,2,76,0,0
128237,-80,6,2,1,82,0,1
139850,-100,6,2,1,75,0,0
145657,-80,6,2,1,82,0,1
148560,-75.7575757575758,6,2,1,83,0,1
149286,-71.4285714285714,6,2,1,84,0,1
150012,-66.6666666666667,6,2,1,85,0,1
150737,-133.333333333333,6,2,1,80,0,0
150979,-133.333333333333,6,2,1,78,0,0
151221,-133.333333333333,6,2,1,76,0,0
151463,-90.9090909090909,6,2,1,78,0,0
163076,-100,6,2,1,75,0,0
171786,-90.9090909090909,6,2,1,78,0,0
174205,-90.9090909090909,6,2,1,80,0,0
174689,-83.3333333333333,6,2,1,82,0,0
176866,-80,6,2,1,56,0,0
177108,-80,6,2,1,58,0,0
177350,-80,6,2,1,60,0,0
177592,-240.963855421687,6,2,1,62,0,0
183157,-133.333333333333,6,2,1,64,0,0
183399,-133.333333333333,6,2,1,66,0,0
186302,-121.951219512195,6,2,1,68,0,0
187270,-121.951219512195,6,2,1,70,0,0
187391,-121.951219512195,6,2,1,72,0,0
187512,-121.951219512195,6,2,1,74,0,0
187633,-121.951219512195,6,2,1,76,0,0
188963,-200,6,2,1,60,0,0
189205,-80,6,2,1,84,0,1
194951,-80,6,2,1,84,0,0
195012,-71.4285714285714,6,2,1,84,0,1
195193,-71.4285714285714,6,2,1,5,0,1
195254,-71.4285714285714,6,2,1,84,0,1
195375,-71.4285714285714,6,2,1,78,0,0
195737,-66.6666666666667,6,2,1,84,0,1
195919,-71.4285714285714,6,2,1,5,0,1
195979,-66.6666666666667,6,2,1,84,0,1
196100,-71.4285714285714,6,2,1,78,0,0
196463,-80,6,2,1,84,0,1
197915,-75.7575757575758,6,2,1,83,0,1
198641,-71.4285714285714,6,2,1,84,0,1
199366,-62.5,6,2,1,85,0,1
199971,-66.6666666666667,6,2,1,84,0,0
202270,-111.111111111111,6,2,2,68,0,0
202330,-111.111111111111,6,2,1,68,0,0
203661,-111.111111111111,6,2,2,68,0,0
203782,-111.111111111111,6,2,1,68,0,0
205112,-111.111111111111,6,2,2,68,0,0
205233,-111.111111111111,6,2,1,68,0,0
206564,-111.111111111111,6,2,2,68,0,0
206685,-111.111111111111,6,2,1,68,0,0
208076,-111.111111111111,6,2,2,68,0,0
208137,-111.111111111111,6,2,1,68,0,0
209467,-111.111111111111,6,2,2,68,0,0
209588,-111.111111111111,6,2,1,68,0,0
210919,-111.111111111111,6,2,2,68,0,0
211040,-111.111111111111,6,2,1,68,0,0
212370,-111.111111111111,6,2,2,68,0,0
212491,-111.111111111111,6,2,1,68,0,0
213883,-120.481927710843,6,2,1,64,0,0
213943,-120.481927710843,6,2,1,64,0,0
215274,-120.481927710843,6,2,2,64,0,0
215395,-120.481927710843,6,2,1,64,0,0
216725,-120.481927710843,6,2,2,64,0,0
216846,-120.481927710843,6,2,1,64,0,0
218177,-120.481927710843,6,2,2,64,0,0
218298,-120.481927710843,6,2,1,64,0,0
219689,-250,6,2,1,62,0,0
219750,-250,6,2,1,40,0,0
220173,-250,6,2,99,30,0,0
220657,-250,6,2,99,20,0,0
221141,-250,6,2,99,15,0,0
221625,-250,6,2,99,10,0,0
222108,-250,6,2,99,5,0,0
222592,-250,6,2,99,20,0,0

[Colours]
Combo1 : 250,180,240
Combo2 : 120,200,230
Combo3 : 255,230,130
Combo4 : 160,230,150

[HitObjects]
116,382,254,5,0,0:0:0:0:
116,382,375,1,0,0:0:0:0:
116,382,496,2,0,B|91:300|145:304|124:225,1,160,2|0,0:0|0:0,0:0:0:0:
86,160,1221,2,0,P|54:168|-7:179,2,80
148,115,1947,2,0,P|169:57|271:53,1,160
323,149,2673,6,0,P|328:107|338:54,2,80,2|0|0,0:0|0:0|0:0,0:0:0:0:
374,210,3399,2,0,P|416:215|469:225,2,80,2|0|0,0:0|0:0|0:0,0:0:0:0:
313,261,4125,2,0,P|308:303|298:356,2,80
262,200,4850,2,0,B|171:175|195:228|98:202,1,160,2|0,0:0|0:0,0:0:0:0:
0,100,5576,5,2,1:3:0:0:
65,137,5697,1,0,3:0:0:0:
139,131,5818,1,0,1:0:0:0:
192,78,5939,1,0,1:0:0:0:
262,52,6060,1,8,3:3:0:0:
333,75,6181,1,8,3:3:0:0:
372,142,6302,6,0,L|347:307,2,143.999995605469,12|0|8,3:2|3:0|0:3,0:0:0:0:
382,153,7028,2,0,L|360:295,1,143.999995605469,4|8,1:3|0:3,0:0:0:0:
312,354,7391,1,8,0:3:0:0:
236,349,7512,1,4,0:3:0:0:
164,374,7633,1,4,0:3:0:0:
93,346,7754,6,0,L|71:204,2,143.999995605469,10|0|8,3:2|3:0|0:3,0:0:0:0:
85,191,8479,1,4,1:3:0:0:
236,191,8721,1,8,0:3:0:0:
236,191,8842,1,8,0:3:0:0:
267,259,8963,1,0,1:3:0:0:
335,228,9084,1,0,1:3:0:0:
304,160,9205,6,0,P|307:129|329:10,2,143.999995605469,12|0|8,3:2|3:0|0:3,0:0:0:0:
314,167,9931,2,0,P|317:136|339:17,1,143.999995605469,4|8,1:3|0:3,0:0:0:0:
410,4,10294,1,8,0:3:0:0:
456,63,10415,1,4,0:3:0:0:
382,84,10536,1,4,0:3:0:0:
433,139,10657,6,0,P|430:170|408:289,2,143.999995605469,10|0|8,3:2|3:0|0:3,0:0:0:0:
336,25,11383,1,4,1:3:0:0:
233,130,11625,1,8,0:3:0:0:
207,142,11705,1,8,0:3:0:0:
178,148,11786,1,8,0:3:0:0:
149,145,11866,1,4,0:3:0:0:
125,128,11947,1,4,0:3:0:0:
102,110,12028,1,4,0:3:0:0:
73,109,12108,6,0,P|49:146|42:263,2,143.999995605469,12|0|8,3:2|3:0|0:3,0:0:0:0:
86,114,12834,2,0,P|62:151|55:268,1,143.999995605469,4|8,1:3|0:3,0:0:0:0:
82,317,13197,1,8,0:3:0:0:
157,313,13318,1,4,0:3:0:0:
219,355,13439,1,4,0:3:0:0:
293,341,13560,6,0,P|317:304|324:187,2,143.999995605469,10|0|8,3:2|3:0|0:3,0:0:0:0:
314,193,14286,1,4,1:3:0:0:
464,245,14528,1,8,0:3:0:0:
464,245,14649,1,8,0:3:0:0:
405,293,14770,1,0,1:3:0:0:
474,321,14891,1,0,1:3:0:0:
464,245,15012,6,0,L|453:90,2,143.999995605469,12|0|8,3:2|3:0|0:3,0:0:0:0:
451,250,15737,2,0,L|440:106,1,143.999995605469,4|8,1:3|0:3,0:0:0:0:
366,85,16100,1,8,0:3:0:0:
370,160,16221,1,4,0:3:0:0:
300,130,16342,1,4,0:3:0:0:
256,192,16463,6,0,L|266:335,2,143.999995605469,10|0|8,3:2|3:0|3:3,0:0:0:0:
196,139,17068,1,8,3:3:0:0:
179,241,17189,2,0,L|189:384,1,143.999995605469,4|8,1:2|3:3,0:0:0:0:
102,274,17552,2,0,L|30:279,2,71.9999978027344,4|8|8,1:2|3:3|3:3,0:0:0:0:
256,192,17915,5,12,3:2:0:0:
256,0,23721,5,4,3:2:0:0:
241,76,24447,1,0,3:0:0:0:
268,149,25173,1,0,3:0:0:0:
243,223,25899,1,0,3:0:0:0:
256,0,26625,5,0,3:2:0:0:
241,76,26987,1,0,3:0:0:0:
268,149,27350,1,0,3:0:0:0:
243,223,27713,1,0,3:0:0:0:
270,296,28076,1,0,3:0:0:0:
236,370,29165,5,0,3:0:0:0:
243,223,29286,1,0,1:0:0:0:
152,321,29528,6,0,P|84:338|-16:291,1,160,4|0,3:2|0:0,0:0:0:0:
144,239,29891,2,0,P|77:216|19:122,1,160,0|0,1:2|3:0,0:0:0:0:
181,165,30254,2,0,P|137:109|140:0,1,160,0|0,1:2|3:0,0:0:0:0:
257,121,30616,2,0,P|255:77|274:21,1,80,0|0,2:0|1:0,0:0:0:0:
332,1,30858,1,0,0:0:0:0:
396,96,30979,6,0,P|393:174|346:238,1,160,2|0,3:2|0:0,0:0:0:0:
214,184,31342,2,0,P|216:105|263:41,1,160,0|0,1:0|3:0,0:0:0:0:
122,112,31705,2,0,L|201:79,1,80,0|0,1:0|0:0,0:0:0:0:
143,9,31947,2,0,L|69:39,1,80,0|0,3:0|0:0,0:0:0:0:
32,120,32189,2,0,P|34:198|81:262,1,160,0|2,1:0|3:2,0:0:0:0:
284,384,32673,6,0,P|318:369|357:353,1,80,2|0,2:0|1:0,0:0:0:0:
319,273,32915,2,0,P|285:288|245:303,1,80,0|0,2:0|3:0,0:0:0:0:
400,284,33157,2,0,B|486:258|422:213|522:189,1,160,0|0,1:0|3:0,0:0:0:0:
378,204,33520,2,0,B|292:178|356:133|256:109,1,160
400,122,33883,5,2,3:2:0:0:
400,122,34004,2,0,P|420:77|424:24,1,80,0|0,3:2|2:0,0:0:0:0:
340,55,34246,2,0,P|250:26|164:68,1,160,0|0,1:0|3:0,0:0:0:0:
115,2,34608,1,4,1:2:0:0:
0,192,34850,5,0,1:0:0:0:
77,174,34971,1,0,1:0:0:0:
144,216,35092,1,8,3:3:0:0:
223,209,35213,1,8,3:3:0:0:
260,279,35334,6,0,P|275:339|370:348,1,167.999994873047,4|0,3:2|0:0,0:0:0:0:
493,384,35697,2,0,P|474:306|455:203,1,167.999994873047,0|0,1:2|3:0,0:0:0:0:
400,149,36060,2,0,P|443:142|492:132,1,83.9999974365235,4|0,1:2|0:0,0:0:0:0:
447,53,36302,2,0,P|404:60|355:70,1,83.9999974365235,0|0,3:0|0:0,0:0:0:0:
325,200,36544,2,0,P|283:206|242:214,1,83.9999974365235,0|0,1:0|0:0,0:0:0:0:
111,154,36786,6,0,P|45:159|3:254,1,167.999994873047,4|0,1:2|0:0,0:0:0:0:
44,334,37149,2,0,P|122:318|222:309,1,167.999994873047,0|0,1:2|3:0,0:0:0:0:
333,364,37512,5,8,0:3:0:0:
364,375,37592,1,8,0:3:0:0:
397,376,37673,1,8,2:3:0:0:
424,356,37754,2,0,P|421:311|417:266,1,83.9999974365235,0|0,1:0|1:0,0:0:0:0:
504,239,37996,2,0,P|507:284|511:329,1,83.9999974365235,0|0,1:0|1:0,0:0:0:0:
346,226,38237,6,0,B|249:217|310:170|194:165,1,167.999994873047,4|0,3:2|0:0,0:0:0:0:
344,143,38600,2,0,B|441:134|380:87|496:82,1,167.999994873047,0|0,1:0|3:0,0:0:0:0:
346,59,38963,2,0,P|296:41|254:31,1,83.9999974365235,0|0,1:0|0:0,0:0:0:0:
192,82,39205,2,0,P|153:67|113:57,1,83.9999974365235,0|0,3:0|0:0,0:0:0:0:
275,191,39447,2,0,P|235:176|195:165,1,83.9999974365235,0|0,1:0|0:0,0:0:0:0:
71,199,39689,6,0,P|54:113|120:54,1,176.000005371094,4|0,3:2|0:0,0:0:0:0:
275,191,40052,2,0,P|291:276|226:336,1,176.000005371094,0|0,1:0|3:0,0:0:0:0:
138,384,40415,2,0,P|132:334|123:278,1,88.000002685547,4|0,1:2|0:0,0:0:0:0:
71,199,40657,5,8,3:3:0:0:
119,136,40778,1,0,1:0:0:0:
149,209,40899,5,4,3:3:0:0:
41,126,41020,1,4,3:3:0:0:
167,73,41141,6,0,B|274:69|228:12|345:10,1,191.999994140625,4|0,1:2|3:0,0:0:0:0:
414,44,41504,1,4,1:2:0:0:
414,44,41866,5,0,1:0:0:0:
366,104,41987,1,0,1:0:0:0:
400,172,42108,1,8,3:3:0:0:
375,244,42229,1,8,3:3:0:0:
419,306,42350,1,4,3:3:0:0:
383,374,42471,1,4,3:3:0:0:
307,317,42592,6,0,P|251:292|119:306,1,191.999994140625,4|0,1:2|3:0,0:0:0:0:
54,338,42955,1,4,1:2:0:0:
54,338,43318,5,0,1:0:0:0:
45,313,43399,1,0,1:0:0:0:
47,287,43479,1,0,1:0:0:0:
57,263,43560,2,0,B|80:190|16:186|69:85,1,160,0|0,1:0|1:0,0:0:0:0:
264,27,44044,5,4,1:2:0:0:
324,73,44165,1,0,3:0:0:0:
253,100,44286,1,0,3:0:0:0:
313,147,44407,1,4,1:2:0:0:
313,147,44770,5,0,1:0:0:0:
335,133,44850,1,0,1:0:0:0:
361,129,44931,1,0,1:0:0:0:
387,134,45012,1,8,3:3:0:0:
409,149,45092,1,8,3:3:0:0:
425,170,45173,1,8,3:3:0:0:
431,196,45254,1,12,3:3:0:0:
427,222,45334,1,12,3:3:0:0:
414,245,45415,1,12,3:3:0:0:
394,262,45496,6,0,P|317:246|201:229,1,191.999994140625,4|0,1:2|3:0,0:0:0:0:
75,219,45858,2,0,P|35:295|60:377,1,176.000005371094,4|0,1:2|1:0,0:0:0:0:
134,355,46221,5,8,3:3:0:0:
208,375,46342,1,0,1:0:0:0:
281,352,46463,1,0,1:0:0:0:
355,372,46584,1,4,3:3:0:0:
425,342,46705,1,8,3:3:0:0:
437,266,46826,1,0,1:0:0:0:
381,209,46947,6,0,P|367:135|391:64,2,137.600002099609,4|0|0,3:2|0:0|0:0,0:0:0:0:
235,258,47673,2,0,P|306:282|355:339,2,137.600002099609,0|0|0,1:2|0:0|3:0,0:0:0:0:
265,107,48399,2,0,P|207:156|134:170,2,137.600002099609,4|0|0,3:2|0:0|3:0,0:0:0:0:
381,205,49125,5,0,1:0:0:0:
235,258,49366,1,8,3:3:0:0:
265,107,49608,1,4,3:3:0:0:
398,220,49850,6,0,P|484:225|504:150,1,150.399997705078,4|0,3:2|1:0,0:0:0:0:
493,105,50213,1,0,1:0:0:0:
433,144,50334,1,0,1:0:0:0:
366,118,50455,1,0,1:0:0:0:
342,50,50576,1,0,1:0:0:0:
276,21,50697,1,0,1:0:0:0:
208,43,50818,1,8,3:3:0:0:
225,192,51060,5,0,1:0:0:0:
197,203,51141,1,0,1:0:0:0:
167,204,51221,1,0,1:0:0:0:
137,199,51302,2,0,P|124:124|105:16,1,150.399997705078,2|0,1:2|3:0,3:0:0:0:
40,13,51665,1,0,1:0:0:0:
11,86,51786,2,0,P|24:161|43:269,1,150.399997705078,0|0,3:3|1:0,0:0:0:0:
162,370,52270,5,0,1:0:0:0:
235,340,52391,1,0,1:0:0:0:
174,290,52512,1,8,3:3:0:0:
247,351,52633,1,8,3:3:0:0:
328,290,52754,6,0,P|348:206|326:121,1,176.000005371094,4|0,1:2|3:0,0:0:0:0:
151,298,53116,2,0,P|135:212|161:129,1,176.000005371094,4|0,1:2|3:0,0:0:0:0:
287,20,53479,5,0,1:0:0:0:
316,43,53560,1,0,1:0:0:0:
352,52,53641,1,0,1:0:0:0:
389,51,53721,1,8,3:3:0:0:
421,31,53802,1,8,3:3:0:0:
457,21,53883,1,8,3:3:0:0:
493,27,53963,2,0,P|498:64|498:118,1,88.000002685547,0|0,1:0|1:0,0:0:0:0:
103,309,54931,5,0,0:0:0:0:
87,330,55173,5,0,0:0:0:0:
71,351,55415,5,0,0:0:0:0:
55,372,55657,6,0,B|31:286|114:285|78:181,1,200,4|0,3:1|1:2,0:2:0:0:
133,340,56020,2,0,P|208:337|249:215,1,200,0|0,3:2|0:2,0:2:0:0:
336,291,56383,1,0,1:2:0:0:
414,306,56504,1,0,1:2:0:0:
404,384,56625,2,0,P|360:371|299:361,1,100,0|0,3:2|0:2,0:2:0:0:
512,249,56866,2,0,P|499:293|489:354,1,100,0|0,1:2|0:2,0:2:0:0:
458,167,57108,6,0,B|357:136|405:81|291:62,1,200,2|0,3:2|1:2,0:2:0:0:
171,222,57471,2,0,P|253:249|295:160,1,200,0|0,3:2|3:2,0:2:0:0:
213,2,57834,1,0,1:2:0:0:
200,106,57955,1,0,1:2:0:0:
129,43,58076,1,0,3:2:0:0:
0,230,58318,5,0,1:2:0:0:
0,230,58439,1,0,2:2:0:0:
62,297,58560,6,0,B|132:312|180:250|180:250|220:301,1,200,4|0,3:2|1:2,0:2:0:0:
359,363,58923,2,0,P|326:312|297:264,1,100,0|0,3:2|0:2,0:2:0:0:
254,192,59165,1,0,3:2:0:0:
339,140,59286,2,0,P|381:113|423:86,1,100,0|0,1:2|1:2,0:0:0:0:
206,105,59528,2,0,P|180:62|153:21,1,100,0|0,3:2|0:2,0:2:0:0:
173,244,59770,2,0,P|130:270|88:297,1,100,0|0,1:2|0:2,0:2:0:0:
317,298,60012,6,0,B|347:358|414:348|414:348|441:313|496:309,1,200,2|0,3:2|1:2,0:2:0:0:
391,219,60375,2,0,P|428:132|369:56,1,200,0|0,3:2|3:2,0:2:0:0:
250,7,60737,5,0,1:2:0:0:
250,7,60858,1,0,1:2:0:0:
183,96,60979,1,8,3:3:0:0:
183,96,61100,1,0,1:2:0:0:
147,0,61221,5,4,3:3:0:0:
285,103,61342,1,4,3:3:0:0:
119,177,61463,6,0,P|71:240|60:368,2,200,4|0|0,3:1|1:2|3:2,0:2:0:0:
208,142,62068,1,0,3:2:0:0:
294,182,62189,1,0,1:2:0:0:
387,164,62310,2,0,P|435:227|446:355,1,200,0|0,1:2|0:2,0:2:0:0:
357,382,62673,6,0,P|316:375|222:366,1,100,0|0,1:2|0:2,0:2:0:0:
115,280,62915,2,0,P|156:287|250:296,1,100,2|0,3:2|0:2,0:2:0:0:
300,134,63157,2,0,P|293:175|284:269,1,100,0|0,1:2|0:2,0:2:0:0:
183,119,63399,2,0,P|191:69|196:19,1,100,0|0,3:2|3:2,0:2:0:0:
70,103,63641,1,0,1:2:0:0:
116,191,63762,1,0,1:2:0:0:
16,185,63883,1,0,3:2:0:0:
217,297,64125,5,0,1:2:0:0:
217,297,64246,1,0,0:2:0:0:
302,242,64366,6,0,B|341:147|246:160|280:52,2,200,4|0|0,3:2|1:2|3:2,0:2:0:0:
334,332,64971,1,0,3:2:0:0:
421,368,65092,1,0,1:2:0:0:
497,310,65213,2,0,P|523:230|476:122,1,200,0|0,1:2|0:2,0:0:0:0:
376,150,65576,2,0,L|393:42,1,100,0|0,1:2|0:2,0:2:0:0:
108,106,65818,6,0,P|180:68|288:107,1,200,4|0,3:2|1:2,0:2:0:0:
287,250,66181,2,0,P|215:288|107:249,1,200,2|0,3:2|3:2,0:2:0:0:
0,184,66544,5,0,1:2:0:0:
30,258,66665,1,0,1:2:0:0:
108,251,66786,1,8,3:3:0:0:
136,324,66907,1,8,3:3:0:0:
215,311,67028,1,4,3:3:0:0:
254,380,67149,1,4,3:3:0:0:
341,364,67270,6,0,B|366:291|304:296|337:209,1,160,4|0,3:1|0:2,0:2:0:0:
382,133,67633,2,0,B|306:147|341:199|249:213,1,160,0|0,3:2|0:2,0:2:0:0:
162,213,67996,2,0,B|212:271|239:214|298:287,2,160,4|0|0,1:2|0:2|3:2,0:2:0:0:
249,213,68721,6,0,B|341:199|306:147|382:133,1,160,2|0,3:2|0:2,0:2:0:0:
337,209,69084,2,0,B|304:296|366:291|341:364,1,160,0|0,3:2|3:2,0:2:0:0:
298,287,69447,2,0,B|239:214|212:271|162:213,1,160,4|0,1:2|0:2,0:2:0:0:
103,49,69931,5,4,0:2:0:0:
103,49,70052,1,0,0:2:0:0:
103,49,70173,2,0,P|191:50|240:-34,1,160,4|0,3:1|0:2,0:2:0:0:
185,74,70536,2,0,P|140:149|188:234,1,160,0|0,3:2|0:2,0:2:0:0:
122,132,70899,2,0,P|79:55|-18:54,2,160,4|0|0,1:2|3:3|3:3,0:2:0:0:
161,212,71625,6,0,P|141:137|185:74,1,160,4|0,3:2|0:2,0:2:0:0:
234,0,71987,2,0,P|180:54|103:49,1,160,0|0,3:2|0:2,0:2:0:0:
30,17,72350,1,2,1:2:0:0:
0,90,72471,1,0,3:2:0:0:
26,161,72592,1,0,1:2:0:0:
98,184,72713,1,0,1:2:0:0:
170,161,72834,1,8,3:3:0:0:
238,193,72955,1,8,3:3:0:0:
257,269,73076,6,0,P|250:330|241:379,1,100,4|0,3:1|0:2,0:2:0:0:
141,384,73318,2,0,P|148:323|157:274,1,100,0|0,1:2|0:2,0:2:0:0:
238,193,73560,1,0,3:0:0:0:
322,223,73681,1,0,3:0:0:0:
405,189,73802,2,0,P|413:139|418:90,2,100,0|0|0,1:2|1:2|3:2,0:0:0:0:
183,14,74286,5,0,1:2:0:0:
183,14,74407,1,0,2:2:0:0:
98,70,74528,6,0,P|47:59|-26:47,1,100,2|0,3:2|0:2,0:2:0:0:
148,186,74770,2,0,P|99:175|49:166,1,100,0|0,1:2|3:2,0:2:0:0:
281,33,75012,2,0,P|232:22|182:13,1,100,0|0,2:2|3:2,0:2:0:0:
325,123,75254,1,0,1:2:0:0:
407,66,75375,1,0,1:2:0:0:
494,114,75496,1,0,3:2:0:0:
256,192,75737,5,0,1:2:0:0:
256,192,75858,1,0,0:2:0:0:
340,225,75979,6,0,L|446:241,1,105.599999677734,4|0,1:1|0:2,0:2:0:0:
242,102,76221,2,0,L|203:1,1,105.599999677734,0|0,1:2|0:2,0:2:0:0:
185,248,76463,2,0,L|117:332,1,105.599999677734,0|0,1:2|0:2,0:2:0:0:
326,135,76705,6,0,L|398:48,1,111.999996582031,2|0,1:2|0:2,0:2:0:0:
269,281,76947,2,0,L|309:386,1,111.999996582031,0|0,1:2|0:2,0:2:0:0:
172,159,77189,2,0,L|60:141,1,111.999996582031,0|0,1:2|0:2,0:2:0:0:
340,225,77431,6,0,B|361:295|424:312|477:299|477:299|491:267|526:228,1,240.000009155274,4|0,1:2|3:2,0:2:0:0:
397,48,77794,5,0,1:2:0:0:
294,130,77915,1,0,1:2:0:0:
260,2,78036,1,8,1:1:0:0:
6,171,78883,6,0,P|-10:250|9:335,2,143.999995605469,12|0|8,3:2|3:0|0:3,0:0:0:0:
18,174,79608,2,0,P|2:253|21:338,1,143.999995605469,4|8,1:3|0:3,0:0:0:0:
65,370,79971,1,8,0:3:0:0:
138,351,80092,1,4,0:3:0:0:
212,365,80213,1,4,0:3:0:0:
276,325,80334,6,0,P|292:246|273:161,2,143.999995605469,10|0|8,3:2|3:0|0:3,0:0:0:0:
268,173,81060,1,4,1:3:0:0:
418,140,81302,1,8,0:3:0:0:
418,140,81423,1,8,0:3:0:0:
348,110,81544,1,0,1:3:0:0:
409,65,81665,1,0,1:3:0:0:
418,140,81786,6,0,L|432:314,2,143.999995605469,12|0|8,3:2|3:0|0:3,0:0:0:0:
404,146,82512,2,0,L|418:320,1,143.999995605469,4|8,1:3|0:3,0:0:0:0:
374,354,82875,1,8,0:3:0:0:
311,312,82996,1,4,0:3:0:0:
261,369,83116,1,4,0:3:0:0:
195,332,83237,6,0,L|181:158,2,143.999995605469,10|0|8,3:2|3:0|0:3,0:0:0:0:
48,382,83963,1,4,1:3:0:0:
0,237,84205,1,8,0:3:0:0:
27,246,84286,1,8,0:3:0:0:
55,244,84366,1,8,0:3:0:0:
79,229,84447,1,4,0:3:0:0:
94,204,84528,1,4,0:3:0:0:
95,175,84608,1,4,0:3:0:0:
85,148,84689,6,0,P|71:102|83:1,2,143.999995605469,12|0|8,3:2|3:0|0:3,0:0:0:0:
99,152,85415,2,0,P|85:106|97:5,1,143.999995605469,4|8,1:3|0:3,0:0:0:0:
165,39,85778,1,8,0:3:0:0:
234,9,85899,1,4,0:3:0:0:
304,36,86020,1,4,0:3:0:0:
374,9,86141,6,0,P|388:55|376:156,2,143.999995605469,10|0|8,3:2|3:0|0:3,0:0:0:0:
358,163,86866,1,4,1:3:0:0:
512,221,87108,1,8,0:3:0:0:
512,221,87229,1,8,0:3:0:0:
460,276,87350,1,0,1:3:0:0:
391,243,87471,1,0,1:3:0:0:
339,297,87592,6,0,P|289:320|195:284,2,143.999995605469,12|0|8,3:2|3:0|0:3,0:0:0:0:
338,316,88318,2,0,P|288:339|194:303,1,143.999995605469,4|8,1:3|0:3,0:0:0:0:
146,267,88681,1,8,0:3:0:0:
215,236,88802,1,4,0:3:0:0:
154,190,88923,1,4,0:3:0:0:
216,147,89044,6,0,P|228:86|206:4,2,143.999995605469,10|0|8,3:2|3:0|3:3,0:0:0:0:
154,190,89649,1,8,3:3:0:0:
242,261,89770,2,0,L|388:238,1,143.999995605469,4|8,1:2|3:3,0:0:0:0:
501,302,90133,2,0,L|512:373,2,71.9999978027344,4|8|8,1:2|3:3|3:3,0:0:0:0:
512,169,90496,2,0,L|501:98,1,71.9999978027344,4|0,3:2|0:0,0:0:0:0:
419,39,90737,5,0,1:0:0:0:
395,58,90818,1,0,1:0:0:0:
365,66,90899,1,0,1:0:0:0:
334,64,90979,2,0,P|261:33|201:36,1,131.200002001953,0|0,1:0|1:0,0:0:0:0:
102,158,91463,1,0,1:0:0:0:
77,168,91544,1,0,1:0:0:0:
50,170,91625,1,0,1:0:0:0:
23,170,91705,2,0,P|13:146|11:105,1,65.6000010009766,0|0,1:0|3:0,0:0:0:0:
157,185,91947,6,0,P|178:246|171:311,1,131.200002001953,2|0,1:2|1:0,0:0:0:0:
156,333,92270,1,0,1:0:0:0:
135,349,92350,1,0,1:0:0:0:
111,361,92431,2,0,B|68:332|11:340|11:340|52:375,1,131.200002001953,0|0,1:0|1:0,0:0:0:0:
276,288,92915,5,2,1:2:0:0:
340,332,93036,1,0,1:0:0:0:
400,281,93157,1,8,3:3:0:0:
464,326,93278,1,8,3:3:0:0:
512,264,93399,1,2,1:2:0:0:
354,143,93641,5,0,1:0:0:0:
338,163,93721,1,0,1:0:0:0:
314,174,93802,1,0,1:0:0:0:
288,168,93883,2,0,B|225:135|223:185|157:152,1,131.200002001953,0|0,1:0|1:0,0:0:0:0:
32,28,94366,1,0,1:0:0:0:
29,54,94447,1,0,1:0:0:0:
26,80,94528,1,0,1:0:0:0:
25,106,94608,2,0,L|32:193,1,65.6000010009766,0|0,1:0|2:0,0:0:0:0:
74,279,94850,6,0,B|138:293|138:293|156:256|184:247,1,131.200002001953,2|0,1:2|1:0,0:0:0:0:
209,245,95173,1,0,1:0:0:0:
234,252,95254,1,0,1:0:0:0:
255,267,95334,2,0,P|318:280|373:215,1,131.200002001953,0|0,1:0|1:0,0:0:0:0:
512,100,95818,5,2,1:2:0:0:
438,128,95939,1,0,1:0:0:0:
382,71,96060,1,0,3:3:0:0:
312,108,96181,1,0,3:3:0:0:
260,48,96302,1,2,1:2:0:0:
129,179,96544,5,0,1:0:0:0:
98,171,96625,1,0,1:0:0:0:
67,172,96705,1,0,1:0:0:0:
37,182,96786,2,0,P|26:219|39:318,1,131.200002001953,0|0,1:0|1:0,0:0:0:0:
179,359,97270,1,0,1:0:0:0:
203,347,97350,1,0,1:0:0:0:
231,345,97431,1,0,1:0:0:0:
258,353,97512,2,0,B|289:358|289:358|330:338,1,65.6000010009766,0|0,1:0|2:0,0:0:0:0:
428,384,97754,6,0,P|440:319|429:255,1,131.200002001953,2|0,1:2|1:0,0:0:0:0:
413,229,98076,1,0,1:0:0:0:
389,209,98157,1,0,1:0:0:0:
359,203,98237,2,0,P|302:223|226:212,1,131.200002001953,0|0,1:0|1:0,0:0:0:0:
75,59,98721,5,2,1:2:0:0:
20,124,98842,1,0,1:0:0:0:
87,184,98963,1,8,3:3:0:0:
87,184,99084,1,8,3:3:0:0:
141,119,99205,6,0,P|203:102|278:104,1,131.200002001953,2|0,1:2|1:0,0:0:0:0:
295,112,99528,1,0,1:0:0:0:
313,130,99608,1,0,1:0:0:0:
330,149,99689,2,0,P|324:182|320:237,1,65.6000010009766,0|0,1:0|2:0,0:0:0:0:
445,187,99931,6,0,P|453:121|462:32,1,131.200002001953,0|0,1:0|1:0,0:0:0:0:
443,35,100254,1,0,1:0:0:0:
420,22,100334,1,0,1:0:0:0:
393,22,100415,2,0,P|359:34|314:25,1,65.6000010009766,0|0,1:0|2:0,0:0:0:0:
210,62,100657,6,0,P|153:36|70:32,1,131.200002001953,2|0,1:2|1:0,0:0:0:0:
60,38,100979,1,0,1:0:0:0:
38,53,101060,1,0,1:0:0:0:
24,75,101141,2,0,L|40:219,1,131.200002001953,0|2,1:0|1:2,0:0:0:0:
164,383,101625,5,0,3:2:0:0:
126,321,101746,1,0,1:0:0:0:
156,256,101866,1,8,3:3:0:0:
228,256,101987,1,8,3:3:0:0:
280,335,102108,6,0,B|358:361|358:361|461:318,2,167.999994873047,4|0|0,3:2|1:2|3:0,0:0:0:0:
228,256,102713,1,0,3:0:0:0:
298,195,102834,2,0,P|316:126|290:8,1,167.999994873047,0|0,1:0|3:0,0:0:0:0:
220,104,103197,2,0,P|167:74|118:70,1,83.9999974365235,0|0,3:0|1:0,0:0:0:0:
90,15,103439,1,0,0:0:0:0:
26,111,103560,6,0,P|10:193|29:274,1,167.999994873047,2|0,3:2|1:0,0:0:0:0:
168,221,103923,2,0,P|183:303|164:384,1,167.999994873047,0|0,3:0|3:0,0:0:0:0:
93,351,104286,2,0,P|49:351|-4:353,1,83.9999974365235,0|0,1:0|0:0,0:0:0:0:
243,298,104528,2,0,P|199:298|146:300,1,83.9999974365235,0|0,3:0|3:0,0:0:0:0:
371,377,104770,2,0,P|327:377|274:379,1,83.9999974365235,0|0,1:0|2:0,0:0:0:0:
477,262,105012,5,4,3:2:0:0:
477,261,105254,2,0,P|479:303|479:345,1,83.9999974365235,0|0,1:0|2:0,0:0:0:0:
364,191,105496,2,0,P|364:232|366:274,1,83.9999974365235,0|0,3:0|2:0,0:0:0:0:
512,145,105737,2,0,P|443:141|417:42,1,167.999994873047,0|0,1:0|3:0,0:0:0:0:
248,110,106100,2,0,P|289:111|331:118,1,83.9999974365235,0|0,3:0|1:0,0:0:0:0:
243,6,106342,1,0,0:0:0:0:
156,62,106463,6,0,P|127:132|150:237,1,167.999994873047,2|0,3:2|1:0,0:0:0:0:
316,277,106826,2,0,P|345:199|331:117,1,167.999994873047,0|0,3:2|3:0,0:0:0:0:
217,297,107189,2,0,L|220:398,1,83.9999974365235,0|0,1:2|0:0,0:0:0:0:
140,356,107431,5,8,3:3:0:0:
64,382,107552,1,0,1:0:0:0:
7,326,107673,1,4,3:3:0:0:
34,251,107794,1,4,3:3:0:0:
110,225,107915,6,0,B|211:226|158:159|264:158,1,176.000005371094,4|0,3:2|0:0,0:0:0:0:
408,146,108278,2,0,B|307:146|360:79|254:78,1,176.000005371094,0|0,1:2|3:0,0:0:0:0:
111,67,108641,2,0,B|211:67|158:0|264:0,2,176.000005371094,4|0|0,1:2|3:2|1:2,0:0:0:0:
340,215,109366,6,0,P|412:195|517:193,1,176.000005371094,4|0,1:2|0:0,0:0:0:0:
494,337,109729,2,0,P|422:357|317:359,1,176.000005371094,0|0,1:2|3:0,0:0:0:0:
219,383,110092,2,0,P|219:338|213:288,1,88.000002685547,6|0,1:2|0:0,0:0:0:0:
111,275,110334,2,0,P|110:318|115:362,1,88.000002685547,10|0,1:2|0:0,0:0:0:0:
308,261,110576,2,0,P|308:217|303:173,1,88.000002685547,10|0,3:2|0:0,0:0:0:0:
181,79,110818,6,0,B|77:98|119:34|-12:60,2,176.000005371094,4|0|0,3:2|1:0|3:0,0:0:0:0:
50,137,111423,1,0,0:0:0:0:
109,199,111544,2,0,P|164:197|216:181,1,88.000002685547,0|0,1:0|0:0,0:0:0:0:
298,55,111786,2,0,P|272:103|260:156,1,88.000002685547,0|0,3:0|3:0,0:0:0:0:
328,290,112028,2,0,P|298:243|258:206,1,88.000002685547,0|0,1:0|0:0,0:0:0:0:
99,211,112270,6,0,B|89:273|8:299|8:299|-24:254,1,184.000003509522,4|0,3:2|0:0,0:0:0:0:
48,132,112633,2,0,P|61:72|180:37,1,184.000003509522,0|0,1:2|3:0,0:0:0:0:
343,4,112996,2,0,P|301:19|258:6,1,92.0000017547608,4|0,1:2|0:0,0:0:0:0:
164,129,113237,5,8,3:3:0:0:
264,114,113358,1,0,1:0:0:0:
323,195,113479,1,4,3:3:0:0:
223,210,113600,1,4,3:3:0:0:
193,285,113721,5,8,0:2:0:0:
0,67,118681,5,0,1:0:0:0:
0,67,118741,1,0,1:0:0:0:
0,67,118802,2,0,P|43:55|76:51,1,60.0000022888184,8|0,3:3|1:0,0:0:0:0:
134,75,119044,2,0,P|177:86|207:99,1,60.0000022888184,8|8,3:3|3:3,0:0:0:0:
246,148,119286,2,0,P|277:179|297:205,1,60.0000022888184,4|4,3:3|3:3,0:0:0:0:
356,235,119528,6,0,P|426:225|437:141,2,137.600002099609,4|0|0,3:2|0:0|0:0,0:0:0:0:
243,83,120254,2,0,P|199:28|121:60,2,137.600002099609,0|0|0,1:2|0:0|3:0,0:0:0:0:
168,257,120979,2,0,P|142:322|209:374,2,137.600002099609,4|0|0,3:2|0:0|0:0,0:0:0:0:
356,235,121705,5,0,1:0:0:0:
243,83,121947,1,8,3:3:0:0:
168,257,122189,1,4,3:3:0:0:
376,224,122431,6,0,B|427:209|466:236|466:236|515:189,1,150.399997705078,4|0,3:2|1:0,0:0:0:0:
504,125,122794,1,0,1:0:0:0:
436,147,122915,1,0,1:0:0:0:
366,130,123036,1,0,1:0:0:0:
323,72,123157,1,0,1:0:0:0:
263,32,123278,1,0,1:0:0:0:
191,26,123399,1,8,3:3:0:0:
289,181,123641,5,0,1:0:0:0:
252,159,123721,1,0,1:0:0:0:
210,153,123802,1,0,1:0:0:0:
172,173,123883,2,0,B|144:240|203:250|163:342,1,150.399997705078,2|0,1:2|3:0,3:0:0:0:
127,377,124246,1,0,1:0:0:0:
61,350,124366,1,0,3:3:0:0:
44,280,124487,1,0,3:0:0:0:
85,222,124608,1,0,1:0:0:0:
341,129,124850,5,0,1:0:0:0:
270,96,124971,1,0,1:0:0:0:
335,52,125092,5,8,3:3:0:0:
276,173,125213,1,8,3:3:0:0:
411,164,125334,6,0,P|441:237|395:345,1,176.000005371094,4|0,1:2|3:0,0:0:0:0:
190,384,125697,2,0,P|162:302|192:221,1,176.000005371094,4|0,1:2|3:0,0:0:0:0:
293,155,126060,5,0,1:0:0:0:
315,128,126141,1,0,1:0:0:0:
318,93,126221,1,0,1:0:0:0:
296,64,126302,1,8,3:3:0:0:
261,56,126383,1,8,3:3:0:0:
229,70,126463,1,8,3:3:0:0:
213,101,126544,2,0,P|165:107|131:72,1,88.000002685547,0|0,1:0|1:0,0:0:0:0:
93,15,126786,5,10,3:2:0:0:
34,67,126907,1,8,0:2:0:0:
50,144,127028,1,10,3:2:0:0:
124,171,127149,1,8,3:2:0:0:
163,239,127270,1,10,3:2:0:0:
151,317,127391,1,8,3:2:0:0:
87,364,127512,6,0,P|37:351|-4:350,1,88.000002685547,4|0,1:2|3:0,0:0:0:0:
256,298,127754,2,0,P|243:348|242:389,1,88.000002685547,0|0,1:2|1:0,0:0:0:0:
190,129,127996,2,0,P|240:141|281:142,1,88.000002685547,0|0,1:0|1:0,0:0:0:0:
21,195,128237,6,0,B|67:111|0:94|58:-11,1,200,4|0,3:1|1:2,0:2:0:0:
190,129,128600,2,0,B|313:102|275:184|392:150,1,200,0|0,3:2|0:2,0:2:0:0:
334,253,128963,1,0,1:2:0:0:
410,227,129084,1,0,1:2:0:0:
470,281,129205,2,0,P|472:332|456:396,1,100,0|0,3:2|0:2,0:2:0:0:
333,335,129447,2,0,P|285:324|214:313,1,100,0|0,1:2|0:2,0:2:0:0:
121,248,129689,6,0,P|20:295|24:387,1,200,2|0,3:2|1:2,0:2:0:0:
182,377,130052,2,0,P|204:271|223:182,1,200,0|0,3:2|3:2,0:2:0:0:
323,159,130415,1,0,1:2:0:0:
296,242,130536,1,0,1:2:0:0:
260,101,130657,1,0,3:2:0:0:
449,33,130899,5,0,1:2:0:0:
449,33,131020,1,0,2:2:0:0:
489,113,131141,6,0,P|467:219|448:308,1,200,4|0,3:2|1:2,0:2:0:0:
334,371,131504,2,0,P|324:318|298:262,1,100,0|0,3:2|0:2,0:2:0:0:
256,192,131746,1,0,3:2:0:0:
172,242,131866,2,0,P|126:261|77:270,1,100,0|0,1:2|1:2,0:0:0:0:
205,108,132108,2,0,P|186:62|178:13,1,100,0|0,3:2|0:2,0:2:0:0:
339,141,132350,2,0,P|385:122|435:114,1,100,0|0,1:2|0:2,0:2:0:0:
256,192,132592,6,0,B|141:179|213:107|49:110,1,200,2|0,3:2|1:2,0:2:0:0:
6,224,132955,2,0,P|73:279|97:198,1,200,0|0,3:2|3:2,0:2:0:0:
213,17,133318,5,0,1:2:0:0:
178,83,133439,1,0,1:2:0:0:
210,150,133560,1,8,3:3:0:0:
285,153,133681,1,0,1:2:0:0:
393,80,133802,5,4,3:3:0:0:
362,245,133923,1,4,3:3:0:0:
460,171,134044,6,0,P|502:245|489:366,2,200,4|0|0,3:1|1:1|3:2,0:2:0:0:
385,110,134649,1,0,3:2:0:0:
294,138,134770,1,0,1:2:0:0:
209,92,134891,2,0,B|102:58|132:122|10:91,1,200,0|0,1:2|0:2,0:2:0:0:
120,193,135254,6,0,P|70:184|21:176,1,100,0|0,1:2|0:2,0:2:0:0:
157,289,135496,2,0,P|107:280|58:272,1,100,2|0,3:2|0:2,0:2:0:0:
231,384,135737,2,0,P|239:334|247:285,1,100,0|0,1:2|3:2,0:2:0:0:
416,256,135979,2,0,P|407:305|399:354,1,100,0|0,2:2|3:2,0:2:0:0:
317,173,136221,1,0,1:2:0:0:
221,203,136342,1,0,1:2:0:0:
244,105,136463,1,0,3:2:0:0:
70,17,136705,5,0,1:2:0:0:
70,17,136826,1,0,0:2:0:0:
11,88,136947,6,0,P|-21:166|5:295,2,200,4|0|0,3:2|1:2|3:2,0:2:0:0:
96,44,137552,1,0,3:2:0:0:
183,80,137673,1,0,1:2:0:0:
277,62,137794,2,0,P|309:140|283:269,1,200,0|0,1:2|0:2,0:0:0:0:
203,384,138157,2,0,P|192:335|192:275,1,100,0|0,1:2|0:2,0:2:0:0:
346,352,138399,6,0,P|439:331|469:241,1,200,4|0,3:2|1:2,0:2:0:0:
254,153,138762,2,0,P|284:243|377:263,1,200,2|0,3:2|3:2,0:2:0:0:
506,147,139125,5,0,1:2:0:0:
432,174,139246,1,0,1:2:0:0:
361,137,139366,1,8,3:3:0:0:
348,58,139487,1,8,3:3:0:0:
275,26,139608,1,4,3:3:0:0:
197,40,139729,1,4,3:3:0:0:
150,114,139850,6,0,B|125:187|187:182|154:269,1,160,4|0,3:1|0:2,0:2:0:0:
109,345,140213,2,0,B|185:331|150:279|242:265,1,160,0|0,3:1|0:2,0:2:0:0:
329,265,140576,2,0,B|279:207|252:264|193:191,2,160,4|0|0,1:2|0:2|3:2,0:2:0:0:
242,265,141302,6,0,B|150:279|185:331|109:345,1,160,2|0,3:2|0:2,0:2:0:0:
154,269,141665,2,0,B|187:182|125:187|150:114,1,160,0|0,3:1|3:2,0:2:0:0:
193,191,142028,2,0,B|252:264|279:207|329:265,1,160,4|0,1:2|0:2,0:2:0:0:
512,102,142512,5,4,0:2:0:0:
512,102,142633,1,0,0:2:0:0:
511,102,142754,2,0,P|433:107|379:52,1,160,4|0,3:1|0:2,0:2:0:0:
306,0,143116,2,0,P|349:64|328:138,1,160,0|0,3:2|0:2,0:2:0:0:
321,229,143479,2,0,P|354:159|429:139,2,160,4|0|0,1:2|3:2|3:2,0:2:0:0:
328,139,144205,6,0,P|349:65|306:1,1,160,4|0,3:2|0:2,0:2:0:0:
379,52,144568,2,0,P|433:107|511:102,1,160,0|0,3:2|0:2,0:2:0:0:
429,139,144931,1,2,1:2:0:0:
474,198,145052,1,0,3:2:0:0:
474,273,145173,1,0,1:2:0:0:
427,331,145294,1,0,1:2:0:0:
351,332,145415,1,8,3:3:0:0:
295,281,145536,1,8,3:3:0:0:
325,200,145657,6,0,P|318:139|309:90,1,100,4|0,3:1|0:2,0:2:0:0:
196,295,145899,2,0,P|245:286|294:281,1,100,0|0,1:2|0:2,0:2:0:0:
149,203,146141,1,0,3:0:0:0:
86,272,146262,1,0,3:0:0:0:
20,203,146383,2,0,P|11:153|6:104,2,100,0|0|0,1:2|1:2|3:2,0:0:0:0:
291,108,146866,6,0,P|296:58|304:9,1,100,0|0,1:2|0:2,0:2:0:0:
366,153,147108,2,0,P|374:103|379:54,1,100,2|0,3:2|0:2,0:2:0:0:
205,135,147350,2,0,P|210:85|218:36,1,100,0|0,1:2|3:2,0:2:0:0:
440,204,147592,2,0,P|448:154|453:105,1,100,0|0,2:2|3:2,0:2:0:0:
257,204,147834,1,0,1:2:0:0:
307,290,147955,1,0,1:2:0:0:
248,369,148076,1,0,3:2:0:0:
0,186,148318,5,0,1:2:0:0:
0,186,148439,1,0,0:2:0:0:
69,238,148560,6,0,L|184:220,1,105.599999677734,4|0,1:1|0:2,0:2:0:0:
271,105,148802,2,0,L|309:7,1,105.599999677734,0|0,1:1|0:2,0:2:0:0:
323,248,149044,2,0,L|389:330,1,105.599999677734,0|0,1:1|0:2,0:2:0:0:
195,378,149286,6,0,L|240:267,1,111.999996582031,6|0,1:2|0:2,0:2:0:0:
336,167,149528,2,0,L|447:151,1,111.999996582031,0|0,1:1|0:2,0:2:0:0:
194,134,149770,2,0,L|125:46,1,111.999996582031,0|0,1:1|0:2,0:2:0:0:
309,6,150012,6,0,B|349:-20|389:1|389:1|393:23|409:29|411:61|411:61|467:92|500:49,1,240.000009155274,4|0,1:2|3:2,0:2:0:0:
426,185,150375,1,0,1:2:0:0:
512,268,150496,1,0,1:2:0:0:
277,384,150737,5,0,1:0:0:0:
298,349,150818,1,0,1:0:0:0:
295,308,150899,1,0,1:0:0:0:
269,277,150979,1,8,3:3:0:0:
229,268,151060,1,8,3:3:0:0:
196,243,151141,1,8,3:3:0:0:
185,204,151221,1,4,0:3:0:0:
196,165,151302,1,4,0:3:0:0:
228,140,151383,1,4,0:3:0:0:
275,141,151463,6,0,P|353:135|386:29,1,176.000005371094,4|0,3:2|0:2,0:0:0:0:
473,202,151826,2,0,P|429:200|383:215,1,88.000002685547,2|0,0:2|3:0,0:0:0:0:
288,288,152068,2,0,P|331:286|378:301,1,88.000002685547,0|0,0:2|1:0,0:0:0:0:
275,141,152310,2,0,P|240:217|157:227,1,176.000005371094,2|0,0:0|0:0,0:0:0:0:
97,145,152673,5,0,3:0:0:0:
22,147,152794,1,0,0:0:0:0:
2,219,152915,2,0,P|36:295|119:305,1,176.000005371094,2|0,3:2|0:0,0:0:0:0:
209,384,153278,2,0,P|209:315|238:203,1,176.000005371094,2|0,3:2|3:0,0:0:0:0:
381,337,153641,2,0,P|381:268|352:156,1,176.000005371094,0|0,1:0|0:0,0:0:0:0:
301,113,154004,1,0,1:0:0:0:
230,133,154125,1,0,3:0:0:0:
160,108,154246,1,0,3:0:0:0:
138,37,154366,1,4,3:1:0:0:
0,203,154608,5,2,0:0:0:0:
73,172,154729,1,0,0:0:0:0:
105,244,154850,1,0,3:0:0:0:
32,275,154971,2,0,P|30:327|37:369,1,88.000002685547,0|0,0:2|1:0,0:0:0:0:
113,381,155213,5,2,0:2:0:0:
186,350,155334,1,8,0:3:0:0:
261,373,155455,1,8,0:3:0:0:
335,346,155576,1,4,3:3:0:0:
410,370,155697,1,4,0:3:0:0:
491,297,155818,6,0,P|496:340|494:384,1,88.000002685547,2|0,3:2|0:0,0:0:0:0:
338,258,156060,2,0,P|332:301|334:345,1,88.000002685547,0|0,2:2|3:0,0:0:0:0:
466,197,156302,1,0,2:2:0:0:
466,197,156423,1,0,3:0:0:0:
466,197,156544,2,0,P|470:124|459:10,1,176.000005371094,2|0,1:2|0:0,0:0:0:0:
355,94,156907,5,2,3:2:0:0:
282,12,157028,1,0,1:0:0:0:
250,143,157149,1,0,1:0:0:0:
172,42,157270,6,4,P|88:44|58:141,1,176.000005371094,4|0,3:2|0:0,3:2:0:0:
147,199,157633,2,4,P|213:180|347:183,1,176.000005371094,2|0,2:2|0:0,3:2:0:0:
400,245,157996,5,2,1:2:0:0:
388,271,158076,1,0,0:0:0:0:
388,300,158157,1,0,0:0:0:0:
406,322,158237,2,0,B|448:332|448:332|492:311,1,88.000002685547,0|0,3:0|0:0,0:0:0:0:
247,370,158479,2,0,B|289:380|289:380|333:359,1,88.000002685547,0|0,3:0|0:0,0:0:0:0:
195,293,158721,6,0,B|229:203|163:210|194:120,1,176.000005371094,2|0,3:2|0:0,0:0:0:0:
386,88,159084,2,0,P|373:155|266:148,1,176.000005371094,2|0,3:2|3:0,0:0:0:0:
86,47,159447,2,0,P|99:114|206:107,1,176.000005371094,2|0,1:2|3:0,0:0:0:0:
273,65,159810,5,0,1:0:0:0:
278,162,159931,1,8,3:3:0:0:
195,214,160052,1,8,3:3:0:0:
75,147,160173,5,4,3:1:0:0:
75,147,160415,2,0,P|77:190|78:234,1,88.000002685547,2|0,0:0|0:0,0:0:0:0:
173,43,160657,2,0,P|129:45|85:46,1,88.000002685547,0|0,3:0|0:0,0:0:0:0:
277,141,160899,2,0,P|274:97|273:53,1,88.000002685547,0|0,1:0|0:0,0:0:0:0:
179,245,161141,2,0,P|222:242|266:241,1,88.000002685547,0|0,2:0|0:0,0:0:0:0:
75,147,161383,2,0,P|78:211|74:325,1,176.000005371094,2|4,3:2|1:1,0:0:0:0:
427,351,161866,5,2,3:2:0:0:
352,384,161987,2,0,P|348:296|351:208,1,176.000005371094,4|0,1:2|3:0,0:0:0:0:
428,226,162350,1,0,1:0:0:0:
495,184,162471,1,0,1:0:0:0:
512,107,162592,1,8,3:3:0:0:
470,41,162713,1,8,3:3:0:0:
393,24,162834,1,4,3:3:0:0:
327,66,162955,1,4,3:3:0:0:
310,142,163076,6,0,B|286:174|232:166|232:166|215:133|152:124,1,160,4|0,3:1|0:0,0:0:0:0:
171,127,163560,6,0,L|182:48,1,80,0|0,3:2|0:0,0:0:0:0:
82,161,163802,2,0,L|3:150,1,80,2|0,1:2|0:0,0:0:0:0:
116,250,164044,2,0,L|105:329,1,80,0|0,2:2|0:0,0:0:0:0:
205,216,164286,2,0,L|284:227,1,80,0|0,3:2|0:0,0:0:0:0:
356,331,164528,6,0,B|391:265|334:251|372:176,1,160,2|0,3:2|0:0,0:0:0:0:
509,172,164891,2,0,P|500:246|435:216,1,160,2|0,3:2|3:0,0:0:0:0:
404,97,165254,2,0,P|364:92|326:104,1,80,2|0,1:2|0:0,0:0:0:0:
261,148,165496,1,8,3:3:0:0:
184,149,165616,1,8,3:3:0:0:
117,109,165737,1,4,3:3:0:0:
85,38,165858,1,4,3:3:0:0:
2,114,165979,6,0,P|-15:191|0:269,1,160,4|0,3:2|0:0,0:0:0:0:
0,269,166463,2,0,L|111:257,1,80,0|0,3:0|0:0,0:0:0:0:
139,358,166705,2,0,P|123:280|140:202,1,160,2|0,1:2|0:0,0:0:0:0:
207,163,167068,1,0,0:0:0:0:
278,196,167189,2,0,L|389:208,1,80,0|0,3:0|0:0,0:0:0:0:
467,287,167431,6,0,P|482:209|465:131,1,160,2|0,3:2|0:0,0:0:0:0:
357,204,167794,2,0,B|256:214|313:162|193:163,1,160,0|0,3:0|3:0,0:0:0:0:
136,107,168157,2,0,P|135:66|118:15,1,80,2|0,1:2|0:0,0:0:0:0:
92,188,168399,2,0,P|51:189|0:206,1,80,2|0,3:2|0:0,0:0:0:0:
164,246,168641,2,0,P|164:300|258:343,1,160,2|4,3:2|3:1,0:0:0:0:
465,218,169125,5,2,0:0:0:0:
506,287,169246,2,0,P|510:341|498:379,1,80,0|0,3:0|3:0,0:0:0:0:
388,318,169487,2,0,P|382:278|390:239,1,80,0|0,2:0|1:0,0:0:0:0:
465,218,169729,1,2,0:0:0:0:
510,158,169850,1,0,3:0:0:0:
455,107,169971,1,0,2:0:0:0:
487,39,170092,1,0,3:0:0:0:
422,1,170213,1,0,3:0:0:0:
360,75,170334,6,0,P|298:90|218:20,1,160,2|0,3:2|0:0,0:0:0:0:
156,97,170697,2,0,P|138:52|149:-7,1,80,0|0,3:2|0:0,0:0:0:0:
229,156,170939,2,0,P|228:195|211:231,1,80,0|0,3:2|1:0,0:0:0:0:
142,307,171181,5,2,1:2:0:0:
65,267,171302,1,8,3:3:0:0:
0,322,171423,1,8,3:3:0:0:
76,361,171544,1,4,3:3:0:0:
142,307,171665,1,4,3:3:0:0:
62,247,171786,5,4,3:1:0:0:
237,364,172028,6,0,L|243:261,1,88.000002685547,2|0,1:2|1:2,0:0:0:0:
428,211,172270,2,0,L|340:205,1,88.000002685547,2|0,1:2|1:2,0:0:0:0:
275,20,172512,2,0,L|269:107,1,88.000002685547,2|0,1:2|1:0,0:0:0:0:
84,173,172754,2,0,L|171:178,1,88.000002685547,2|0,1:2|3:0,0:0:0:0:
359,127,172996,5,2,1:2:0:0:
359,127,173076,1,0,1:0:0:0:
359,127,173157,1,0,1:0:0:0:
359,127,173237,2,0,L|436:58,1,88.000002685547,2|0,1:2|3:0,3:0:0:0:
321,295,173479,2,0,L|390:372,1,88.000002685547,2|0,3:2|1:0,3:0:0:0:
153,257,173721,2,0,L|76:326,1,88.000002685547,2|0,3:2|2:0,3:0:0:0:
191,89,173963,2,0,L|122:12,1,88.000002685547,2|0,1:2|3:0,0:0:0:0:
24,6,174205,5,8,1:3:0:0:
104,150,174326,1,8,1:3:0:0:
121,4,174447,5,4,3:3:0:0:
3,140,174568,1,4,3:3:0:0:
118,239,174689,6,0,B|228:206|189:284|311:258,1,191.999994140625,4|0,3:2|3:0,0:0:0:0:
480,190,175052,2,0,P|521:241|502:374,1,191.999994140625,4|0,1:2|3:0,2:2:0:0:
391,195,175415,5,0,1:2:0:0:
386,168,175496,1,0,1:0:0:0:
382,142,175576,1,0,1:0:0:0:
377,116,175657,1,8,3:3:0:0:
373,89,175737,1,8,3:3:0:0:
368,63,175818,1,8,3:3:0:0:
364,37,175899,2,0,B|325:17|325:17|247:26,1,95.9999970703126,0|0,1:0|1:0,0:0:0:0:
103,309,176866,5,0,0:0:0:0:
87,330,177108,5,0,0:0:0:0:
71,351,177350,5,0,0:0:0:0:
55,372,177592,6,0,B|31:286|114:285|78:181,3,199.200002887573,4|0|2|0,3:2|2:2|2:2|2:2,0:0:0:0:
133,340,180496,2,0,P|208:337|250:220,3,199.200002887573,2|0|2|2,0:0|0:0|0:0|0:0,0:0:0:0:
254,234,183157,5,0,1:0:0:0:
230,238,183237,1,0,1:0:0:0:
205,234,183318,1,0,1:0:0:0:
183,223,183399,2,0,P|182:159|210:85,1,120.000004577637,2|0,1:2|1:0,0:0:0:0:
217,94,183721,1,0,1:0:0:0:
235,85,183802,1,0,1:0:0:0:
254,79,183883,2,0,P|312:85|389:50,1,120.000004577637,0|0,1:0|1:0,0:0:0:0:
494,8,184366,5,0,1:0:0:0:
478,21,184447,1,0,1:0:0:0:
467,38,184528,1,0,1:0:0:0:
466,57,184608,2,0,L|480:133,1,60.0000022888184,0|0,1:0|0:0,0:0:0:0:
405,191,184850,6,0,P|347:197|270:162,1,120.000004577637,2|0,0:0|1:0,0:0:0:0:
271,169,185173,1,0,1:0:0:0:
252,161,185254,1,0,1:0:0:0:
233,152,185334,2,0,P|173:146|117:166,1,120.000004577637,0|0,1:0|1:0,0:0:0:0:
16,286,185818,5,0,1:0:0:0:
21,305,185899,1,0,1:0:0:0:
28,324,185979,1,0,1:0:0:0:
36,343,186060,2,0,P|65:342|107:328,1,60.0000022888184,0|0,1:0|0:0,0:0:0:0:
175,384,186302,6,0,P|172:323|208:239,1,131.200002001953,2|0,1:2|0:0,0:0:0:0:
338,322,186665,2,0,P|341:261|305:177,1,131.200002001953,0|0,1:0|1:0,0:0:0:0:
171,164,187028,2,0,P|181:131|210:95,1,65.6000010009766,0|0,1:0|0:0,0:0:0:0:
322,5,187270,5,0,1:0:0:0:
395,71,187391,1,0,1:0:0:0:
469,12,187512,5,0,1:0:0:0:
431,157,187633,1,8,1:2:0:0:
100,45,188963,5,0,0:0:0:0:
94,31,189205,6,0,P|30:46|13:183,1,200,4|0,3:1|1:2,0:2:0:0:
178,103,189568,2,0,P|242:118|259:255,1,200,0|0,3:2|0:2,0:2:0:0:
361,186,189931,1,0,1:2:0:0:
431,223,190052,1,0,1:2:0:0:
499,180,190173,2,0,P|504:119|489:59,1,100,0|0,3:2|0:2,0:2:0:0:
340,104,190415,2,0,P|332:54|338:5,1,100,0|0,1:2|0:2,0:2:0:0:
215,140,190657,6,0,B|97:138|171:64|37:68,1,200,2|0,3:2|1:2,0:2:0:0:
98,201,191020,2,0,P|23:263|21:360,1,200,0|0,3:2|3:2,0:2:0:0:
220,250,191383,1,0,1:2:0:0:
186,373,191504,1,0,1:2:0:0:
310,341,191625,1,0,3:2:0:0:
512,381,191866,5,2,1:2:0:0:
512,381,191987,1,0,2:2:0:0:
461,296,192108,6,0,B|424:237|462:164|462:164|433:90,1,200,4|0,3:2|1:2,0:2:0:0:
338,11,192471,2,0,P|310:52|290:98,1,100,0|0,3:2|0:2,0:2:0:0:
256,192,192713,1,0,3:2:0:0:
222,285,192834,2,0,P|201:331|173:372,1,100,2|0,1:2|1:2,0:0:0:0:
162,158,193076,2,0,P|116:137|75:109,1,100,0|0,3:0|0:2,0:2:0:0:
349,225,193318,2,0,P|395:246|436:274,1,100,0|0,1:2|0:2,0:2:0:0:
208,303,193560,6,0,B|100:337|131:268|12:306,1,200,4|0,3:2|1:2,0:2:0:0:
157,202,193923,2,0,P|147:85|205:20,1,200,0|0,3:2|3:2,0:2:0:0:
298,3,194286,5,0,1:2:0:0:
334,71,194407,1,0,1:2:0:0:
408,100,194528,1,8,3:3:0:0:
486,85,194649,1,0,1:2:0:0:
398,15,194770,5,4,3:3:0:0:
345,155,194891,1,4,3:3:0:0:
454,230,195012,6,0,B|492:267|492:267|502:329|449:386,1,167.999994873047,6|0,1:2|0:2,0:2:0:0:
459,373,195254,2,0,P|405:356|349:350,1,111.999996582031,4|0,1:2|0:2,0:2:0:0:
80,381,195737,6,0,B|42:344|42:344|32:282|82:216,1,180.000006866455,6|0,1:2|0:2,0:2:0:0:
75,224,195979,2,0,P|129:241|196:247,1,120.000004577637,4|0,1:2|0:2,0:2:0:0:
381,28,196463,6,0,P|462:98|436:202,1,200,4|0,1:2|3:0,0:0:0:0:
191,247,196826,2,0,P|185:151|261:92,1,200,4|0,1:2|3:0,0:0:0:0:
379,244,197189,2,0,P|379:282|363:363,1,100,4|0,1:2|3:0,0:0:0:0:
276,323,197431,5,0,1:0:0:0:
202,375,197552,1,0,1:0:0:0:
124,328,197673,1,8,3:3:0:0:
48,376,197794,1,8,3:3:0:0:
0,294,197915,6,0,L|25:178,1,105.599999677734,4|0,1:1|0:2,0:2:0:0:
256,240,198157,2,0,L|256:112,1,105.599999677734,0|0,1:1|0:2,0:2:0:0:
512,294,198399,2,0,L|487:178,1,105.599999677734,0|0,1:1|0:2,0:2:0:0:
379,94,198641,6,0,L|516:71,1,111.999996582031,2|0,1:2|0:2,0:2:0:0:
256,240,198883,2,0,L|256:364,1,111.999996582031,0|0,1:2|0:2,0:2:0:0:
133,94,199125,2,0,L|-5:71,1,111.999996582031,0|0,1:2|0:2,0:2:0:0:
256,0,199366,6,0,B|217:66|259:127|319:138|319:138|345:106|384:93,1,256,4|0,1:2|3:2,0:2:0:0:
512,57,199729,5,0,1:2:0:0:
454,174,199850,1,0,1:2:0:0:
413,0,199971,1,8,1:1:0:0:
504,86,202270,6,0,P|513:166|486:249,2,143.999995605469,12|0|8,3:2|3:0|0:3,0:0:0:0:
491,88,202996,2,0,P|501:168|474:251,1,143.999995605469,4|8,1:3|0:3,0:0:0:0:
428,279,203358,1,8,0:3:0:0:
356,254,203479,1,4,0:3:0:0:
282,261,203600,1,4,0:3:0:0:
221,216,203721,6,0,P|212:136|239:52,2,143.999995605469,10|0|8,3:2|3:0|0:3,0:0:0:0:
247,66,204447,1,4,1:3:0:0:
107,6,204689,1,8,0:3:0:0:
107,6,204810,1,8,0:3:0:0:
48,54,204931,1,0,1:3:0:0:
108,99,205052,1,0,1:3:0:0:
59,156,205173,6,0,P|35:214|29:328,2,143.999995605469,12|0|8,3:2|3:0|0:3,0:0:0:0:
70,168,205899,2,0,P|46:226|40:340,1,143.999995605469,4|8,1:3|0:3,0:0:0:0:
82,367,206262,1,8,0:3:0:0:
155,347,206383,1,4,0:3:0:0:
222,380,206504,1,4,0:3:0:0:
292,350,206625,6,0,P|316:292|321:177,2,143.999995605469,10|0|8,3:2|3:0|0:3,0:0:0:0:
314,200,207350,1,4,1:3:0:0:
169,243,207592,1,8,0:3:0:0:
153,218,207673,1,8,0:3:0:0:
144,190,207754,1,8,0:3:0:0:
147,161,207834,1,4,0:3:0:0:
161,136,207915,1,4,0:3:0:0:
183,118,207996,1,4,0:3:0:0:
210,110,208076,6,0,L|380:95,2,143.999995605469,12|0|8,3:2|3:0|0:3,0:0:0:0:
217,124,208802,2,0,L|360:111,1,143.999995605469,4|8,1:3|0:3,0:0:0:0:
430,140,209165,1,8,0:3:0:0:
459,209,209286,1,4,0:3:0:0:
448,283,209407,1,4,0:3:0:0:
390,332,209528,6,0,L|246:344,2,143.999995605469,10|0|8,3:2|3:0|0:3,0:0:0:0:
242,366,210254,1,4,1:3:0:0:
289,224,210496,1,8,0:3:0:0:
289,224,210616,1,8,0:3:0:0:
358,194,210737,1,0,1:3:0:0:
313,132,210858,1,0,1:3:0:0:
244,162,210979,6,0,L|100:149,2,143.999995605469,12|0|8,3:2|3:0|0:3,0:0:0:0:
240,179,211705,2,0,L|96:166,1,143.999995605469,4|8,1:3|0:3,0:0:0:0:
30,203,212068,1,8,0:3:0:0:
92,245,212189,1,4,0:3:0:0:
26,282,212310,1,4,0:3:0:0:
83,330,212431,6,0,L|226:342,2,143.999995605469,10|0|8,3:2|3:0|3:3,0:0:0:0:
26,381,213036,1,8,3:3:0:0:
0,274,213157,2,0,P|1:200|36:135,1,143.999995605469,4|8,1:2|3:3,0:0:0:0:
140,50,213520,2,0,L|145:129,2,71.9999978027344,4|8|8,1:2|3:3|3:3,0:0:0:0:
258,155,213883,6,0,P|338:162|393:123,1,132.800001925049,12|0,3:2|0:0,0:0:0:0:
438,89,214246,1,8,0:3:0:0:
493,138,214366,2,0,P|508:194|485:285,1,132.800001925049,8|4,3:3|3:3,0:0:0:0:
394,374,214850,1,8,0:3:0:0:
324,350,214971,1,8,0:3:0:0:
259,381,215092,1,4,0:3:0:0:
259,381,215213,1,4,0:3:0:0:
192,325,215334,6,0,P|185:259|207:197,1,132.800001925049,10|0,0:0|0:0,0:0:0:0:
251,138,215697,1,8,0:3:0:0:
320,159,215818,2,0,P|389:165|453:117,1,132.800001925049,8|4,3:3|1:3,0:0:0:0:
357,12,216302,1,8,3:3:0:0:
357,12,216423,1,8,3:3:0:0:
289,41,216544,1,0,1:0:0:0:
221,12,216665,1,0,1:0:0:0:
139,52,216786,6,0,P|114:98|119:184,1,132.800001925049,12|0,3:2|0:0,0:0:0:0:
155,239,217149,1,8,0:3:0:0:
226,252,217270,2,0,L|384:237,1,132.800001925049,8|4,3:3|2:3,0:0:0:0:
490,313,217754,1,8,0:3:0:0:
453,249,217875,1,8,0:3:0:0:
495,187,217996,1,4,0:3:0:0:
495,187,218116,1,4,0:3:0:0:
441,122,218237,6,0,P|396:101|292:101,1,132.800001925049,10|0,0:0|0:0,0:0:0:0:
249,131,218600,1,8,0:3:0:0:
178,149,218721,1,8,3:3:0:0:
105,137,218842,1,4,3:3:0:0:
52,86,218963,1,4,1:2:0:0:
151,264,219205,5,0,1:3:0:0:
22,317,219326,1,8,3:3:0:0:
35,223,219447,5,4,3:3:0:0:
126,361,219568,1,4,3:3:0:0:
259,282,219689,6,0,B|329:243|401:290|401:290|429:349|503:363|503:363|472:273|518:243|518:243|504:164|453:134|453:134|489:88|484:20|484:20|530:68|508:119,1,768,6|0,3:2|0:2,0:0:0:0:
