osu file format v14

[General]
AudioFilename: audio.mp3
AudioLeadIn: 0
PreviewTime: 54871
Countdown: 0
SampleSet: Soft
StackLeniency: 0.6
Mode: 0
LetterboxInBreaks: 0
WidescreenStoryboard: 0

[Editor]
Bookmarks: 6302,17915,29528,41141,46947,55657,67270,73076,78157,78883,90496,102108,110032,113721,118681,128237,139850,145657,151463,163076,176141,177592,183399,189205,195012,202270,213883,219689,222592
DistanceSpacing: 1.3
BeatDivisor: 4
GridSize: 32
TimelineZoom: 2.599999

[Metadata]
Title:Singing Wheel
TitleUnicode:Singing Wheel
Artist:Sakuragawa Megu
ArtistUnicode:櫻川めぐ
Creator:Lasse
Version:Affection
Source:レヱル・ロマネスク
Tags:impurepug japanese pop rock nishizaka kyouhei kyohei 西坂 恭平 anime ending full version rail romanesque maitetsu まいてつ visual novel
BeatmapID:2915332
BeatmapSetID:1414414

[Difficulty]
HPDrainRate:5.4
CircleSize:4
OverallDifficulty:9
ApproachRate:9.5
SliderMultiplier:1.9
SliderTickRate:1

[Events]
//Background and Video events
0,0,"crop1.jpg",0,0
//Break Periods
2,18115,23196
2,113921,118156
//Storyboard Layer 0 (Background)
//Storyboard Layer 1 (Fail)
//Storyboard Layer 2 (Pass)
//Storyboard Layer 3 (Foreground)
//Storyboard Layer 4 (Overlay)
//Storyboard Sound Samples

[TimingPoints]
496,241.935483870968,6,2,1,50,1,0
496,-200,6,2,1,50,0,0
5576,-133.333333333333,6,2,1,55,0,0
5818,-133.333333333333,6,2,1,58,0,0
6060,-133.333333333333,6,2,1,62,0,0
6302,-111.111111111111,6,2,2,68,0,0
6362,-111.111111111111,6,2,1,68,0,0
7693,-111.111111111111,6,2,2,68,0,0
7814,-111.111111111111,6,2,1,68,0,0
9145,-111.111111111111,6,2,2,68,0,0
9266,-111.111111111111,6,2,1,68,0,0
10596,-111.111111111111,6,2,2,68,0,0
10717,-111.111111111111,6,2,1,68,0,0
12108,-111.111111111111,6,2,2,68,0,0
12169,-111.111111111111,6,2,1,68,0,0
13500,-111.111111111111,6,2,2,68,0,0
13621,-111.111111111111,6,2,1,68,0,0
14951,-111.111111111111,6,2,2,68,0,0
15072,-111.111111111111,6,2,1,68,0,0
16403,-111.111111111111,6,2,2,68,0,0
16524,-111.111111111111,6,2,1,68,0,0
17915,-153.846153846154,6,2,1,64,0,0
18036,-153.846153846154,6,2,1,54,0,0
23721,-153.846153846154,6,2,1,57,0,0
26625,-153.846153846154,6,2,1,60,0,0
29165,-153.846153846154,6,2,1,63,0,0
29286,-153.846153846154,6,2,1,64,0,0
29528,-100,6,2,1,70,0,0
35334,-95.2380952380952,6,2,1,72,0,0
39689,-90.9090909090909,6,2,1,74,0,0
41141,-83.3333333333333,6,2,1,74,0,0
41866,-83.3333333333333,6,2,1,70,0,0
42592,-83.3333333333333,6,2,1,74,0,0
43318,-83.3333333333333,6,2,1,70,0,0
44044,-83.3333333333333,6,2,1,74,0,0
44770,-133.333333333333,6,2,1,70,0,0
45496,-83.3333333333333,6,2,1,74,0,0
45858,-90.9090909090909,6,2,1,74,0,0
45979,-83.3333333333333,6,2,1,70,0,0
46947,-116.279069767442,6,2,1,70,0,0
47189,-116.279069767442,6,2,1,65,0,0
49850,-106.382978723404,6,2,1,68,0,0
52270,-106.382978723404,6,2,1,70,0,0
52754,-90.9090909090909,6,2,1,72,0,0
54931,-80,6,2,1,60,0,0
55173,-80,6,2,1,62,0,0
55415,-80,6,2,1,64,0,0
55657,-80,6,2,1,82,0,1
67270,-100,6,2,1,75,0,0
73076,-80,6,2,1,82,0,1
75979,-75.7575757575758,6,2,1,83,0,1
76705,-71.4285714285714,6,2,1,84,0,1
77431,-66.6666666666667,6,2,1,85,0,1
78036,-66.6666666666667,6,2,1,84,0,0
78883,-111.111111111111,6,2,2,68,0,0
78943,-111.111111111111,6,2,1,68,0,0
80274,-111.111111111111,6,2,2,68,0,0
80395,-111.111111111111,6,2,1,68,0,0
81725,-111.111111111111,6,2,2,68,0,0
81846,-111.111111111111,6,2,1,68,0,0
83177,-111.111111111111,6,2,2,68,0,0
83298,-111.111111111111,6,2,1,68,0,0
84689,-111.111111111111,6,2,2,68,0,0
84750,-111.111111111111,6,2,1,68,0,0
86080,-111.111111111111,6,2,2,68,0,0
86201,-111.111111111111,6,2,1,68,0,0
87532,-111.111111111111,6,2,2,68,0,0
87653,-111.111111111111,6,2,1,68,0,0
88983,-111.111111111111,6,2,2,68,0,0
89104,-111.111111111111,6,2,1,68,0,0
90496,-111.111111111111,6,2,1,68,0,0
90737,-121.951219512195,6,2,1,65,0,0
102108,-95.2380952380952,6,2,1,70,0,0
107915,-90.9090909090909,6,2,1,72,0,0
110334,-90.9090909090909,6,2,2,72,0,0
110818,-90.9090909090909,6,2,1,72,0,0
112270,-86.9565217391304,6,2,1,74,0,0
113721,-86.9565217391304,6,2,1,68,0,0
118681,-133.333333333333,6,2,1,64,0,0
119528,-116.279069767442,6,2,1,70,0,0
119770,-116.279069767442,6,2,1,65,0,0
122431,-106.382978723404,6,2,1,68,0,0
124850,-106.382978723404,6,2,1,70,0,0
125334,-90.9090909090909,6,2,1,72,0,0
126786,-111.111111111111,6,2,2,68,0,0
126907,-111.111111111111,6,2,3,64,0,0
127028,-111.111111111111,6,2,3,68,0,0
127149,-111.111111111111,6,2,3,64,0,0
127270,-111.111111111111,6,2,2,68,0,0
127391,-111.111111111111,6,2,2,64,0,0
127512,-90.9090909090909,6,2,2,72,0,0
127754,-90.9090909090909,6,2,2,73,0,0
127875,-90.9090909090909,6,2,2,74,0,0
127996,-90.9090909090909,6,2,2,75,0,0
128116,-90.9090909090909,6,2,2,76,0,0
128237,-80,6,2,1,82,0,1
139850,-100,6,2,1,75,0,0
145657,-80,6,2,1,82,0,1
148560,-75.7575757575758,6,2,1,83,0,1
149286,-71.4285714285714,6,2,1,84,0,1
150012,-66.6666666666667,6,2,1,85,0,1
150737,-133.333333333333,6,2,1,80,0,0
150979,-133.333333333333,6,2,1,78,0,0
151221,-133.333333333333,6,2,1,76,0,0
151463,-90.9090909090909,6,2,1,78,0,0
163076,-100,6,2,1,75,0,0
171786,-90.9090909090909,6,2,1,78,0,0
174205,-90.9090909090909,6,2,1,80,0,0
174689,-83.3333333333333,6,2,1,82,0,0
176866,-80,6,2,1,56,0,0
177108,-80,6,2,1,58,0,0
177350,-80,6,2,1,60,0,0
177592,-200,6,2,1,62,0,0
183157,-133.333333333333,6,2,1,64,0,0
183399,-133.333333333333,6,2,1,66,0,0
186302,-121.951219512195,6,2,1,68,0,0
187270,-121.951219512195,6,2,1,70,0,0
187391,-121.951219512195,6,2,1,72,0,0
187512,-121.951219512195,6,2,1,74,0,0
187633,-121.951219512195,6,2,1,76,0,0
188963,-200,6,2,1,60,0,0
189205,-80,6,2,1,84,0,1
194951,-80,6,2,1,84,0,0
195012,-71.4285714285714,6,2,1,84,0,1
195193,-71.4285714285714,6,2,1,5,0,1
195254,-71.4285714285714,6,2,1,84,0,1
195375,-71.4285714285714,6,2,1,78,0,0
195737,-66.6666666666667,6,2,1,84,0,1
195919,-71.4285714285714,6,2,1,5,0,1
195979,-66.6666666666667,6,2,1,84,0,1
196100,-71.4285714285714,6,2,1,78,0,0
196463,-80,6,2,1,84,0,1
197915,-75.7575757575758,6,2,1,83,0,1
198641,-71.4285714285714,6,2,1,84,0,1
199366,-66.6666666666667,6,2,1,85,0,1
199971,-66.6666666666667,6,2,1,84,0,0
202270,-111.111111111111,6,2,2,68,0,0
202330,-111.111111111111,6,2,1,68,0,0
203661,-111.111111111111,6,2,2,68,0,0
203782,-111.111111111111,6,2,1,68,0,0
205112,-111.111111111111,6,2,2,68,0,0
205233,-111.111111111111,6,2,1,68,0,0
206564,-111.111111111111,6,2,2,68,0,0
206685,-111.111111111111,6,2,1,68,0,0
208076,-111.111111111111,6,2,2,68,0,0
208137,-111.111111111111,6,2,1,68,0,0
209467,-111.111111111111,6,2,2,68,0,0
209588,-111.111111111111,6,2,1,68,0,0
210919,-111.111111111111,6,2,2,68,0,0
211040,-111.111111111111,6,2,1,68,0,0
212370,-111.111111111111,6,2,2,68,0,0
212491,-111.111111111111,6,2,1,68,0,0
213883,-120.481927710843,6,2,1,64,0,0
213943,-120.481927710843,6,2,1,64,0,0
215274,-120.481927710843,6,2,2,64,0,0
215395,-120.481927710843,6,2,1,64,0,0
216725,-120.481927710843,6,2,2,64,0,0
216846,-120.481927710843,6,2,1,64,0,0
218177,-120.481927710843,6,2,2,64,0,0
218298,-120.481927710843,6,2,1,64,0,0
219689,-250,6,2,1,62,0,0
219750,-250,6,2,1,40,0,0
220173,-250,6,2,99,30,0,0
220657,-250,6,2,99,20,0,0
221141,-250,6,2,99,15,0,0
221625,-250,6,2,99,10,0,0
222108,-250,6,2,99,5,0,0
222592,-250,6,2,99,20,0,0

[Colours]
Combo1 : 250,180,240
Combo2 : 120,200,230
Combo3 : 255,230,130
Combo4 : 160,230,150

[HitObjects]
203,79,254,5,0,0:0:0:0:
203,79,375,1,0,0:0:0:0:
203,79,496,2,0,B|171:119|117:106|117:106|84:64|35:70,1,190,2|0,0:0|0:0,0:0:0:0:
91,188,1221,2,0,P|56:189|-9:219,2,95
149,254,1947,2,0,B|131:339|205:373|205:373|249:357,1,190
366,285,2673,6,0,L|374:187,2,95,2|0|0,0:0|0:0|0:0,0:0:0:0:
451,378,3399,2,0,B|502:360|502:360|515:282|466:231,1,190,2|0,0:0|0:0,0:0:0:0:
373,190,4125,2,0,P|325:202|264:191,2,95
461,123,4850,2,0,P|448:35|357:20,1,190,2|0,0:0|0:0,0:0:0:0:
203,127,5576,5,2,1:3:0:0:
100,104,5697,1,0,3:0:0:0:
171,26,5818,1,0,1:0:0:0:
171,26,5939,1,0,1:0:0:0:
132,205,6060,1,8,3:3:0:0:
132,205,6181,1,8,3:3:0:0:
305,142,6302,6,0,P|388:152|438:219,1,170.999994781494,12|0,3:2|3:0,0:0:0:0:
459,338,6665,1,0,3:2:0:0:
499,272,6786,1,8,0:3:0:0:
326,383,7028,1,4,1:3:0:0:
231,228,7270,1,8,0:3:0:0:
231,228,7391,1,8,0:3:0:0:
198,325,7512,1,4,0:3:0:0:
198,325,7633,1,4,0:3:0:0:
130,206,7754,6,0,P|94:200|11:299,2,170.999994781494,10|0|8,3:2|3:0|0:3,0:0:0:0:
313,328,8479,1,4,1:3:0:0:
103,291,8721,1,8,0:3:0:0:
103,291,8842,1,8,0:3:0:0:
213,233,8963,1,0,1:3:0:0:
163,364,9084,1,0,1:3:0:0:
130,206,9205,6,0,P|124:144|179:45,1,170.999994781494,12|0,3:2|3:0,0:0:0:0:
284,0,9568,1,0,3:2:0:0:
250,69,9689,1,8,0:3:0:0:
49,0,9931,1,4,1:3:0:0:
0,194,10173,1,8,0:3:0:0:
0,194,10294,1,8,0:3:0:0:
107,129,10415,1,4,0:3:0:0:
107,129,10536,1,4,0:3:0:0:
198,214,10657,6,0,L|186:390,2,170.999994781494,10|0|8,3:2|3:0|0:3,0:0:0:0:
293,60,11383,1,4,1:3:0:0:
392,183,11625,1,8,0:3:0:0:
423,197,11705,1,8,0:3:0:0:
456,193,11786,1,8,0:3:0:0:
482,173,11866,1,4,0:3:0:0:
494,142,11947,1,4,0:3:0:0:
488,109,12028,1,4,0:3:0:0:
466,84,12108,6,0,B|364:83|424:32|299:34,1,170.999994781494,12|0,3:2|3:0,0:0:0:0:
198,73,12471,1,0,3:2:0:0:
234,5,12592,1,8,0:3:0:0:
454,100,12834,1,4,1:3:0:0:
235,220,13076,1,8,0:3:0:0:
235,220,13197,1,8,0:3:0:0:
318,143,13318,1,4,0:3:0:0:
318,143,13439,1,4,0:3:0:0:
416,217,13560,6,0,P|435:266|425:390,2,170.999994781494,10|0|8,3:2|3:0|0:3,0:0:0:0:
241,85,14286,1,4,1:3:0:0:
173,296,14528,1,8,0:3:0:0:
173,296,14649,1,8,0:3:0:0:
92,237,14770,1,0,1:3:0:0:
129,381,14891,1,0,1:3:0:0:
253,250,15012,6,0,P|331:216|416:217,1,170.999994781494,12|0,3:2|3:0,0:0:0:0:
512,275,15375,1,0,3:2:0:0:
495,199,15496,1,8,0:3:0:0:
343,362,15737,1,4,1:3:0:0:
286,119,15979,1,8,0:3:0:0:
286,119,16100,1,8,0:3:0:0:
190,189,16221,1,4,0:3:0:0:
190,189,16342,1,4,0:3:0:0:
86,119,16463,6,0,B|121:77|98:11|98:11|68:-6|33:13,1,170.999994781494,10|0,3:2|3:0,0:0:0:0:
47,243,16947,5,8,3:3:0:0:
190,189,17068,1,8,3:3:0:0:
167,350,17189,1,4,1:2:0:0:
396,82,17431,5,8,3:3:0:0:
468,260,17552,1,4,1:2:0:0:
301,161,17673,1,8,3:3:0:0:
496,141,17794,1,8,3:3:0:0:
348,272,17915,1,12,3:2:0:0:
90,33,23721,5,4,3:2:0:0:
30,123,24447,1,0,3:0:0:0:
35,232,25173,1,0,3:0:0:0:
104,318,25899,1,0,3:0:0:0:
408,66,26625,5,0,3:2:0:0:
477,152,26987,1,0,3:0:0:0:
482,261,27350,1,0,3:0:0:0:
422,351,27713,1,0,3:0:0:0:
256,192,28076,5,0,3:0:0:0:
271,105,29165,5,0,3:0:0:0:
241,279,29286,1,0,1:0:0:0:
157,60,29528,6,0,P|65:55|8:146,1,190,4|0,3:2|0:0,0:0:0:0:
141,221,29891,2,0,P|191:143|141:48,1,190,0|0,1:2|3:0,0:0:0:0:
10,127,30254,2,0,P|51:209|158:213,1,190,0|0,1:2|3:0,0:0:0:0:
287,141,30616,2,0,P|332:128|390:141,1,95,0|0,2:0|1:0,0:0:0:0:
303,46,30858,1,0,0:0:0:0:
400,150,30979,6,0,B|433:191|482:204|532:183|532:183|513:166|486:167,1,190,2|0,3:2|0:0,0:0:0:0:
383,304,31342,2,0,B|388:355|440:373|440:373|478:339|463:287,1,190,0|0,1:0|3:0,0:0:0:0:
304,213,31705,2,0,P|257:214|216:236,1,95,0|0,1:0|0:0,0:0:0:0:
129,381,31947,2,0,P|152:340|153:293,1,95,0|0,3:0|0:0,0:0:0:0:
71,145,32189,2,0,P|94:185|135:209,1,95,0|0,1:0|0:0,0:0:0:0:
332,216,32431,5,2,3:2:0:0:
156,13,32673,2,0,P|149:60|161:106,1,95,0|0,2:0|1:0,0:0:0:0:
292,117,32915,2,0,P|314:75|318:28,1,95,0|0,2:0|3:0,0:0:0:0:
121,209,33157,2,0,P|42:219|70:144,1,190,0|0,1:0|3:0,0:0:0:0:
248,284,33520,2,0,P|260:310|264:388,1,95,0|0,0:0|1:0,0:0:0:0:
370,255,33762,1,0,0:0:0:0:
491,296,33883,5,2,3:2:0:0:
491,296,34004,2,0,P|495:248|482:198,1,95,0|0,3:2|2:0,0:0:0:0:
408,93,34246,2,0,P|335:56|208:72,1,190,0|0,1:0|3:0,0:0:0:0:
84,125,34608,2,0,P|88:73|116:26,1,95,4|0,1:2|0:0,0:0:0:0:
215,186,34850,5,0,1:0:0:0:
63,250,34971,1,0,1:0:0:0:
92,149,35092,1,8,3:3:0:0:
193,285,35213,1,8,3:3:0:0:
311,222,35334,6,0,P|396:269|377:365,1,199.499993911743,4|0,3:2|0:0,0:0:0:0:
193,285,35697,2,0,B|69:251|118:321|-2:298,1,199.499993911743,0|0,1:2|3:0,0:0:0:0:
189,150,36060,2,0,P|178:102|189:54,1,99.7499969558717,4|0,1:2|0:0,0:0:0:0:
365,152,36302,2,0,P|329:185|282:200,1,99.7499969558717,0|0,3:0|0:0,0:0:0:0:
279,0,36544,2,0,P|326:14|362:47,1,99.7499969558717,0|0,1:0|0:0,0:0:0:0:
433,228,36786,6,0,P|516:224|469:156,1,199.499993911743,4|0,1:2|0:0,0:0:0:0:
238,316,37149,2,0,P|156:311|203:243,1,199.499993911743,0|0,1:2|3:0,0:0:0:0:
423,349,37512,5,8,0:3:0:0:
463,361,37592,1,8,0:3:0:0:
502,342,37673,1,8,2:3:0:0:
505,297,37754,5,0,1:0:0:0:
433,228,37875,1,0,1:0:0:0:
425,128,37996,1,0,1:0:0:0:
488,52,38116,1,0,1:0:0:0:
413,140,38237,6,0,B|371:180|318:158|318:158|290:113|238:110,1,199.499993911743,4|0,3:2|0:0,0:0:0:0:
317,256,38600,2,0,P|320:161|240:110,1,199.499993911743,0|0,1:0|3:0,0:0:0:0:
232,301,38963,2,0,P|280:289|316:256,1,99.7499969558717,0|0,1:0|0:0,0:0:0:0:
155,154,39205,2,0,P|140:201|151:249,1,99.7499969558717,0|0,3:0|0:0,0:0:0:0:
320,161,39447,2,0,P|286:125|239:110,1,99.7499969558717,0|0,1:0|0:0,0:0:0:0:
304,329,39689,6,0,B|338:390|416:374|416:374|419:330|385:304,1,209.000006378174,4|0,3:2|0:0,0:0:0:0:
235,211,40052,2,0,B|119:172|156:250|29:210,1,209.000006378174,0|0,1:0|3:0,0:0:0:0:
192,108,40415,2,0,P|203:55|249:20,1,104.500003189087,4|0,1:2|0:0,0:0:0:0:
370,3,40657,5,8,3:3:0:0:
404,168,40778,1,0,1:0:0:0:
305,101,40899,1,4,3:3:0:0:
305,101,41020,1,4,3:3:0:0:
473,69,41141,6,0,B|505:93|515:119|515:119|522:189|470:271,1,227.999993041992,4|0,1:2|3:0,0:0:0:0:
395,358,41504,1,4,1:2:0:0:
283,180,41866,5,0,1:0:0:0:
283,180,41987,1,0,1:0:0:0:
261,259,42108,5,8,3:3:0:0:
305,101,42229,1,8,3:3:0:0:
355,240,42350,5,4,3:3:0:0:
210,119,42471,1,4,3:3:0:0:
145,278,42592,6,0,B|124:296|93:300|93:300|8:256|31:146,1,227.999993041992,4|0,1:2|3:0,0:0:0:0:
87,41,42955,1,4,1:2:0:0:
433,127,43318,5,0,1:0:0:0:
410,86,43399,1,0,1:0:0:0:
423,42,43479,1,0,1:0:0:0:
401,1,43560,1,0,1:0:0:0:
189,140,43802,1,0,1:0:0:0:
391,209,44044,5,4,1:2:0:0:
512,161,44165,1,0,3:0:0:0:
484,274,44286,1,0,3:0:0:0:
415,92,44407,1,4,1:2:0:0:
415,92,44770,5,0,1:0:0:0:
405,101,44850,1,0,1:0:0:0:
388,109,44931,1,0,1:0:0:0:
364,110,45012,1,8,3:3:0:0:
337,100,45092,1,8,3:3:0:0:
316,73,45173,1,8,3:3:0:0:
284,51,45254,1,12,3:3:0:0:
240,55,45334,1,12,3:3:0:0:
212,88,45415,1,12,3:3:0:0:
223,138,45496,6,0,B|268:227|177:296|177:296|155:280|120:279,1,227.999993041992,4|0,1:2|3:0,0:0:0:0:
16,372,45858,2,0,P|-15:261|50:176,1,209.000006378174,4|0,1:2|1:0,0:0:0:0:
52,176,46161,1,0,1:0:0:0:
72,165,46221,5,8,3:3:0:0:
16,65,46342,1,0,1:0:0:0:
126,31,46463,1,0,1:0:0:0:
180,131,46584,1,4,3:3:0:0:
290,105,46705,1,8,3:3:0:0:
236,4,46826,1,0,1:0:0:0:
169,142,46947,6,0,P|141:226|163:330,2,163.400002493286,4|0|0,3:2|0:0|0:0,0:0:0:0:
360,224,47673,2,0,P|365:304|338:381,2,163.400002493286,0|0|0,1:2|0:0|3:0,0:0:0:0:
164,134,48399,6,0,B|85:152|85:152|13:111,2,163.400002493286,4|0|0,3:2|0:0|3:0,0:0:0:0:
339,93,49125,1,0,1:0:0:0:
445,236,49366,1,8,3:3:0:0:
270,277,49608,1,4,3:3:0:0:
164,134,49850,6,0,B|144:122|111:126|111:126|77:185|116:244,1,178.59999727478,4|0,3:2|1:0,0:0:0:0:
177,331,50213,1,0,1:0:0:0:
270,277,50334,1,0,1:0:0:0:
285,382,50455,1,0,1:0:0:0:
372,320,50576,1,0,1:0:0:0:
469,376,50697,1,0,1:0:0:0:
466,267,50818,1,8,3:3:0:0:
245,164,51060,5,0,1:0:0:0:
254,204,51141,1,0,1:0:0:0:
242,243,51221,1,0,1:0:0:0:
213,273,51302,2,0,B|194:282|165:286|165:286|97:252|109:165,1,178.59999727478,2|0,1:2|3:0,3:0:0:0:
142,68,51665,1,0,1:0:0:0:
45,2,51786,1,0,3:3:0:0:
0,300,52028,1,0,1:0:0:0:
277,202,52270,5,0,1:0:0:0:
206,332,52391,1,0,1:0:0:0:
187,191,52512,5,8,3:3:0:0:
287,357,52633,1,8,3:3:0:0:
403,197,52754,6,0,P|425:104|370:-13,1,209.000006378174,4|0,1:2|3:0,0:0:0:0:
109,68,53116,2,0,P|68:162|90:263,1,209.000006378174,4|0,1:2|3:0,0:0:0:0:
287,357,53479,5,0,1:0:0:0:
322,334,53560,1,0,1:0:0:0:
363,332,53641,1,0,1:0:0:0:
402,343,53721,1,8,3:3:0:0:
429,375,53802,1,8,3:3:0:0:
470,383,53883,1,8,3:3:0:0:
508,366,53963,5,0,1:0:0:0:
403,197,54084,1,0,1:0:0:0:
118,105,54931,5,0,0:0:0:0:
145,116,55173,5,0,0:0:0:0:
174,112,55415,5,0,0:0:0:0:
197,94,55657,6,0,P|88:65|4:147,1,237.5,4|0,3:1|1:2,0:2:0:0:
226,205,56020,2,0,P|305:124|276:12,1,237.5,0|0,3:2|0:2,0:2:0:0:
116,177,56383,1,0,1:2:0:0:
116,177,56504,1,0,1:2:0:0:
190,297,56625,2,0,P|259:300|308:261,1,118.75,0|0,3:2|0:2,0:2:0:0:
382,54,56866,2,0,P|344:112|354:174,1,118.75,0|0,1:2|0:2,0:2:0:0:
498,184,57108,6,0,P|490:74|382:54,1,237.5,2|0,3:2|1:2,0:2:0:0:
222,198,57471,2,0,B|78:222|149:127|-13:151,1,237.5,0|0,3:2|3:2,0:2:0:0:
176,109,57834,1,0,1:2:0:0:
42,242,57955,1,0,1:2:0:0:
91,42,58076,1,0,3:2:0:0:
407,189,58318,5,0,1:2:0:0:
407,189,58439,1,0,2:2:0:0:
427,274,58560,6,0,B|451:336|520:331|520:331|541:266|486:227,1,237.5,4|0,3:2|1:2,0:2:0:0:
286,271,58923,2,0,P|259:324|260:382,1,118.75,0|0,3:2|0:2,0:2:0:0:
407,189,59165,5,0,3:2:0:0:
274,125,59286,1,0,1:2:0:0:
395,42,59407,1,0,1:2:0:0:
416,210,59528,6,0,P|446:224|532:203,1,118.75,0|0,3:2|0:2,0:2:0:0:
383,24,59770,2,0,P|353:10|267:31,1,118.75,0|0,1:2|0:2,0:2:0:0:
116,180,60012,6,0,B|86:240|19:230|19:230|3:164|59:129,1,237.5,2|0,3:2|1:2,0:2:0:0:
296,160,60375,2,0,B|445:152|355:78|513:77,1,237.5,0|0,3:2|3:2,0:2:0:0:
350,273,60737,5,0,1:2:0:0:
350,273,60858,1,0,1:2:0:0:
429,348,60979,5,8,3:3:0:0:
378,173,61100,1,0,1:2:0:0:
262,302,61221,5,4,3:3:0:0:
474,242,61342,1,4,3:3:0:0:
269,138,61463,6,0,P|211:115|142:123,1,118.75,4|0,3:1|0:2,0:2:0:0:
0,265,61705,2,0,P|48:226|76:162,1,118.75,0|0,1:2|0:2,0:2:0:0:
62,76,61947,5,0,3:2:0:0:
62,76,62068,1,0,3:2:0:0:
158,214,62189,1,0,1:2:0:0:
269,138,62310,2,0,P|361:97|490:130,1,237.5,0|0,1:2|0:2,0:2:0:0:
233,228,62673,6,0,P|186:192|171:134,1,118.75,0|0,1:2|0:2,0:2:0:0:
388,237,62915,2,0,P|404:293|382:349,1,118.75,2|0,3:2|0:2,0:2:0:0:
269,138,63157,2,0,P|288:82|339:49,1,118.75,0|0,1:2|0:2,0:2:0:0:
307,288,63399,2,0,P|258:321|198:317,1,118.75,0|0,3:2|3:2,0:2:0:0:
364,144,63641,5,0,1:2:0:0:
474,242,63762,1,0,1:2:0:0:
502,96,63883,1,0,3:2:0:0:
163,309,64125,5,0,1:2:0:0:
163,309,64246,1,0,0:2:0:0:
285,372,64366,6,0,P|347:363|384:317,1,118.75,4|0,3:2|0:2,0:2:0:0:
169,200,64608,2,0,P|145:258|167:313,1,118.75,0|0,1:2|3:2,0:2:0:0:
376,186,64850,5,0,3:2:0:0:
310,96,64971,1,0,3:2:0:0:
266,199,65092,1,0,1:2:0:0:
266,199,65213,1,0,1:2:0:0:
420,83,65334,6,0,P|468:63|535:72,1,118.75,0|0,3:2|0:2,0:2:0:0:
266,199,65576,2,0,P|207:207|153:187,1,118.75,0|0,1:2|0:2,0:2:0:0:
50,3,65818,6,0,P|4:87|99:73,1,237.5,4|0,3:2|1:2,0:2:0:0:
352,236,66181,2,0,P|374:329|286:291,1,237.5,2|0,3:2|3:2,0:2:0:0:
387,118,66544,5,0,1:2:0:0:
387,118,66665,1,0,1:2:0:0:
463,199,66786,5,8,3:3:0:0:
278,143,66907,1,8,3:3:0:0:
418,10,67028,1,4,3:3:0:0:
387,118,67149,1,4,3:3:0:0:
308,37,67270,6,0,P|217:51|169:130,1,190,4|0,3:1|0:2,0:2:0:0:
290,310,67633,2,0,P|322:223|278:143,1,190,0|0,3:2|0:2,0:2:0:0:
62,156,67996,2,0,P|120:227|212:228,2,190,4|0|0,1:2|0:2|3:2,0:2:0:0:
278,143,68721,6,0,P|322:223|290:310,1,190,2|0,3:2|0:2,0:2:0:0:
169,130,69084,2,0,P|217:51|308:37,1,190,0|0,3:2|3:2,0:2:0:0:
212,228,69447,2,0,P|120:227|62:156,1,190,4|0,1:2|0:2,0:2:0:0:
61,155,69931,5,4,0:2:0:0:
61,155,70052,1,0,0:2:0:0:
134,258,70173,6,0,B|244:278|201:212|317:232,1,190,4|0,3:1|0:2,0:2:0:0:
439,327,70536,2,0,B|451:368|514:377|514:377|539:330|509:287,1,190,0|0,3:2|0:2,0:2:0:0:
399,260,70899,2,0,P|372:286|370:362,1,95,4|0,1:2|0:2,0:2:0:0:
264,202,71141,2,0,P|300:212|366:176,1,95,0|0,3:3|0:2,3:2:0:0:
282,348,71383,2,0,P|272:311|208:271,1,95,0|0,3:3|0:2,0:2:0:0:
94,314,71625,6,0,B|75:356|16:366|16:366|-4:312|23:274,1,190,4|0,3:2|0:2,0:2:0:0:
163,194,71987,2,0,B|274:170|201:131|328:112,1,190,0|0,3:2|0:2,0:2:0:0:
398,262,72350,2,0,P|433:284|490:278,1,95,2|0,1:2|0:2,0:2:0:0:
337,94,72592,5,0,1:2:0:0:
295,219,72713,1,0,1:2:0:0:
250,62,72834,5,8,3:3:0:0:
285,238,72955,1,8,3:3:0:0:
155,94,73076,6,0,P|114:73|25:77,1,118.75,4|0,3:1|0:2,0:2:0:0:
142,268,73318,2,0,P|121:309|125:398,1,118.75,0|0,1:2|0:2,0:2:0:0:
299,223,73560,5,0,3:0:0:0:
299,223,73681,1,0,3:0:0:0:
345,384,73802,1,0,1:2:0:0:
403,281,73923,1,0,1:2:0:0:
242,326,74044,1,0,3:2:0:0:
449,179,74286,5,0,1:2:0:0:
449,179,74407,1,0,2:2:0:0:
271,112,74528,6,0,P|270:65|314:-5,1,118.75,2|0,3:2|0:2,0:2:0:0:
196,247,74770,2,0,P|170:286|93:317,1,118.75,0|0,1:2|3:2,0:2:0:0:
336,181,75012,2,0,P|381:166|461:186,1,118.75,0|0,2:2|3:2,0:2:0:0:
175,145,75254,5,0,1:2:0:0:
56,76,75375,1,0,1:2:0:0:
181,0,75496,1,0,3:2:0:0:
291,264,75737,5,0,1:2:0:0:
291,264,75858,1,0,0:2:0:0:
369,186,75979,6,0,P|391:138|366:51,1,125.39999961731,4|0,1:1|0:2,0:2:0:0:
204,293,76221,2,0,P|234:336|322:357,1,125.39999961731,0|0,1:2|0:2,0:2:0:0:
194,96,76463,2,0,P|141:101|79:166,1,125.39999961731,0|0,1:2|0:2,0:2:0:0:
353,294,76705,6,0,P|405:289|455:203,1,132.999995941162,2|0,1:2|0:2,0:2:0:0:
119,225,76947,2,0,P|97:272|146:358,1,132.999995941162,0|0,1:2|0:2,0:2:0:0:
295,56,77189,2,0,P|265:14|166:14,1,132.999995941162,0|0,1:2|0:2,0:2:0:0:
384,295,77431,6,0,B|413:354|504:353|504:353|516:262|453:228,1,285.000010871888,4|0,1:2|3:2,0:2:0:0:
196,85,77794,5,0,1:2:0:0:
87,252,77915,1,0,1:2:0:0:
4,70,78036,1,8,1:1:0:0:
86,133,78883,6,0,P|173:105|266:114,1,170.999994781494,12|0,3:2|3:0,0:0:0:0:
361,144,79246,1,0,3:2:0:0:
325,75,79366,1,8,0:3:0:0:
162,200,79608,1,4,1:3:0:0:
295,362,79850,1,8,0:3:0:0:
295,362,79971,1,8,0:3:0:0:
384,309,80092,1,4,0:3:0:0:
384,309,80213,1,4,0:3:0:0:
472,372,80334,6,0,P|492:308|436:206,2,170.999994781494,10|0|8,3:2|3:0|0:3,0:0:0:0:
290,266,81060,1,4,1:3:0:0:
442,125,81302,1,8,0:3:0:0:
442,125,81423,1,8,0:3:0:0:
451,217,81544,1,0,1:3:0:0:
352,97,81665,1,0,1:3:0:0:
244,193,81786,6,0,B|199:218|199:218|132:220|95:167,1,170.999994781494,12|0,3:2|3:0,0:0:0:0:
52,70,82149,1,0,3:2:0:0:
22,141,82270,1,8,0:3:0:0:
195,18,82512,1,4,1:3:0:0:
250,209,82754,1,8,0:3:0:0:
250,209,82875,1,8,0:3:0:0:
345,133,82996,1,4,0:3:0:0:
345,133,83116,1,4,0:3:0:0:
441,213,83237,6,0,P|470:286|451:384,2,170.999994781494,10|0|8,3:2|3:0|0:3,0:0:0:0:
261,312,83963,1,4,1:3:0:0:
113,184,84205,1,8,0:3:0:0:
87,207,84286,1,8,0:3:0:0:
78,239,84366,1,8,0:3:0:0:
85,271,84447,1,4,0:3:0:0:
109,294,84528,1,4,0:3:0:0:
141,302,84608,1,4,0:3:0:0:
173,292,84689,6,0,P|246:263|353:294,1,170.999994781494,12|0,3:2|3:0,0:0:0:0:
415,349,85052,1,0,3:2:0:0:
412,272,85173,1,8,0:3:0:0:
216,379,85415,1,4,1:3:0:0:
268,165,85657,1,8,0:3:0:0:
268,165,85778,1,8,0:3:0:0:
177,232,85899,1,4,0:3:0:0:
177,232,86020,1,4,0:3:0:0:
73,163,86141,6,0,P|51:112|69:2,2,170.999994781494,10|0|8,3:2|3:0|0:3,0:0:0:0:
280,79,86866,1,4,1:3:0:0:
405,276,87108,1,8,0:3:0:0:
405,276,87229,1,8,0:3:0:0:
489,230,87350,1,0,1:3:0:0:
454,361,87471,1,0,1:3:0:0:
310,271,87592,6,0,P|232:245|141:248,1,170.999994781494,12|0,3:2|3:0,0:0:0:0:
44,274,87955,1,0,3:2:0:0:
78,204,88076,1,8,0:3:0:0:
220,374,88318,1,4,1:3:0:0:
336,186,88560,1,8,0:3:0:0:
336,186,88681,1,8,0:3:0:0:
397,294,88802,1,4,0:3:0:0:
397,294,88923,1,4,0:3:0:0:
477,194,89044,6,0,B|516:142|494:77|494:77|475:62|443:56,1,170.999994781494,10|0,3:2|3:0,0:0:0:0:
148,95,89528,5,8,3:3:0:0:
297,169,89649,1,8,3:3:0:0:
287,3,89770,1,4,1:2:0:0:
0,191,90012,5,8,3:3:0:0:
187,237,90133,1,4,1:2:0:0:
63,90,90254,1,8,3:3:0:0:
76,281,90375,1,8,3:3:0:0:
177,118,90496,1,4,3:2:0:0:
275,362,90737,5,0,1:0:0:0:
304,373,90818,1,0,1:0:0:0:
335,374,90899,1,0,1:0:0:0:
364,364,90979,2,0,P|381:329|373:276,1,77.9000011886597,0|0,1:0|3:0,0:0:0:0:
309,203,91221,2,0,P|270:197|234:210,1,77.9000011886597,0|0,1:0|2:0,0:0:0:0:
386,140,91463,1,0,1:0:0:0:
412,156,91544,1,0,1:0:0:0:
443,154,91625,1,0,1:0:0:0:
464,132,91705,2,0,P|463:89|434:42,1,77.9000011886597,0|0,1:0|3:0,0:0:0:0:
357,0,91947,5,2,1:2:0:0:
205,132,92189,1,0,1:0:0:0:
173,131,92270,1,0,1:0:0:0:
143,119,92350,1,0,1:0:0:0:
123,95,92431,2,0,P|128:59|160:18,1,77.9000011886597,0|0,1:0|3:0,0:0:0:0:
294,150,92673,2,0,P|296:111|283:75,1,77.9000011886597,0|0,1:0|2:0,0:0:0:0:
129,198,92915,5,2,1:2:0:0:
235,232,93036,1,0,1:0:0:0:
93,303,93157,1,8,3:3:0:0:
199,337,93278,1,8,3:3:0:0:
129,198,93399,1,2,1:2:0:0:
352,103,93641,5,0,1:0:0:0:
383,100,93721,1,0,1:0:0:0:
414,97,93802,1,0,1:0:0:0:
445,94,93883,2,0,P|463:130|454:181,1,77.9000011886597,0|0,1:0|2:0,0:0:0:0:
343,264,94125,2,0,P|304:262|264:240,1,77.9000011886597,0|0,1:0|2:0,0:0:0:0:
179,129,94366,1,0,1:0:0:0:
149,117,94447,1,0,1:0:0:0:
117,116,94528,1,0,1:0:0:0:
88,126,94608,2,0,P|70:162|79:213,1,77.9000011886597,0|0,1:0|2:0,0:0:0:0:
117,318,94850,5,2,1:2:0:0:
327,174,95092,1,0,1:0:0:0:
357,165,95173,1,0,1:0:0:0:
387,169,95254,1,0,1:0:0:0:
415,178,95334,2,0,P|433:214|424:265,1,77.9000011886597,0|0,1:0|2:0,0:0:0:0:
239,200,95576,2,0,P|237:161|251:124,1,77.9000011886597,0|0,1:0|2:0,0:0:0:0:
309,6,95818,5,2,1:2:0:0:
343,89,95939,1,0,1:0:0:0:
217,42,96060,1,0,3:3:0:0:
251,125,96181,1,0,3:3:0:0:
309,6,96302,1,2,1:2:0:0:
128,166,96544,5,0,1:0:0:0:
98,177,96625,1,0,1:0:0:0:
66,177,96705,1,0,1:0:0:0:
38,162,96786,2,0,P|30:133|48:78,1,77.9000011886597,0|0,1:0|2:0,0:0:0:0:
166,21,97028,2,0,P|198:15|247:18,1,77.9000011886597,0|0,1:0|2:0,0:0:0:0:
316,109,97270,1,0,1:0:0:0:
322,123,97350,1,0,1:0:0:0:
329,136,97431,1,0,1:0:0:0:
336,149,97512,2,0,P|368:162|416:160,1,77.9000011886597,0|0,1:0|2:0,0:0:0:0:
512,85,97754,5,2,1:2:0:0:
475,348,97996,1,0,1:0:0:0:
448,331,98076,1,0,1:0:0:0:
416,328,98157,1,0,1:0:0:0:
386,339,98237,2,0,P|349:341|310:323,1,77.9000011886597,0|0,1:0|3:0,0:0:0:0:
230,208,98479,2,0,P|229:170|210:126,1,77.9000011886597,0|0,1:0|2:0,0:0:0:0:
161,45,98721,5,2,1:2:0:0:
113,135,98842,1,0,1:0:0:0:
60,48,98963,1,8,3:3:0:0:
60,48,99084,1,8,3:3:0:0:
215,133,99205,6,0,P|251:133|291:116,1,77.9000011886597,2|0,1:2|0:0,0:0:0:0:
365,42,99447,1,0,1:0:0:0:
370,33,99528,1,0,1:0:0:0:
378,26,99608,1,0,1:0:0:0:
387,22,99689,2,0,P|426:19|462:33,1,77.9000011886597,0|0,1:0|2:0,0:0:0:0:
289,138,99931,6,0,P|252:156|202:151,1,77.9000011886597,0|0,1:0|2:0,0:0:0:0:
129,56,100173,1,0,1:0:0:0:
126,46,100254,1,0,1:0:0:0:
119,37,100334,1,0,1:0:0:0:
111,29,100415,2,0,P|76:14|31:15,1,77.9000011886597,0|0,1:0|2:0,0:0:0:0:
204,172,100657,5,2,1:2:0:0:
37,304,100899,1,0,1:0:0:0:
27,291,100979,1,0,1:0:0:0:
20,276,101060,1,0,1:0:0:0:
19,260,101141,2,0,P|27:216|56:175,1,77.9000011886597,0|0,1:0|3:0,0:0:0:0:
172,90,101383,5,2,1:2:0:0:
204,172,101504,1,0,3:0:0:0:
258,103,101625,1,0,3:2:0:0:
118,160,101746,1,0,1:0:0:0:
237,254,101866,1,8,3:3:0:0:
237,254,101987,1,8,3:3:0:0:
361,182,102108,6,0,P|366:132|348:86,1,99.7499969558717,4|0,3:2|0:0,0:0:0:0:
237,254,102350,2,0,P|231:303|249:349,1,99.7499969558717,0|0,1:2|0:0,0:0:0:0:
141,336,102592,1,0,3:0:0:0:
141,336,102713,1,0,3:0:0:0:
267,365,102834,2,0,P|372:352|482:347,1,199.499993911743,0|0,1:0|3:0,0:0:0:0:
246,238,103197,2,0,P|203:225|130:219,1,99.7499969558717,0|0,3:0|1:0,0:0:0:0:
219,144,103439,1,0,0:0:0:0:
135,230,103560,6,0,B|105:266|63:277|-3:254|-3:254|44:230,1,199.499993911743,2|0,3:2|1:0,0:0:0:0:
258,136,103923,2,0,B|300:162|358:141|358:141|345:88|287:68,1,199.499993911743,0|0,3:0|3:0,0:0:0:0:
110,137,104286,2,0,P|110:186|134:229,1,99.7499969558717,0|0,1:0|0:0,0:0:0:0:
184,62,104528,2,0,P|141:37|91:36,1,99.7499969558717,0|0,3:0|3:0,0:0:0:0:
212,163,104770,2,0,P|254:138|279:95,1,99.7499969558717,0|0,1:0|2:0,0:0:0:0:
68,43,105012,5,4,3:2:0:0:
335,175,105254,2,0,L|445:161,1,99.7499969558717,0|0,1:0|2:0,0:0:0:0:
337,282,105496,2,0,L|332:393,1,99.7499969558717,0|0,3:0|2:0,0:0:0:0:
218,276,105737,2,0,B|103:279|155:213|28:236,1,199.499993911743,0|0,1:0|3:0,0:0:0:0:
212,163,106100,2,0,P|216:109|248:56,1,99.7499969558717,0|0,3:0|1:0,0:0:0:0:
314,2,106342,1,0,0:0:0:0:
409,100,106463,6,0,P|483:114|443:36,1,199.499993911743,2|0,3:2|1:0,0:0:0:0:
212,163,106826,2,0,P|138:177|178:99,1,199.499993911743,0|0,3:2|3:0,0:0:0:0:
391,210,107189,2,0,P|405:262|379:307,1,99.7499969558717,0|0,1:2|0:0,0:0:0:0:
286,381,107431,5,8,3:3:0:0:
250,254,107552,1,0,1:0:0:0:
155,300,107673,5,4,3:3:0:0:
212,163,107794,1,4,3:3:0:0:
109,200,107915,6,0,B|60:207|60:207|0:144|38:57,1,209.000006378174,4|0,3:2|0:0,0:0:0:0:
224,144,108278,2,0,B|345:128|266:59|401:49,1,209.000006378174,0|0,1:2|3:0,0:0:0:0:
324,206,108641,2,0,P|313:254|334:316,1,104.500003189087,4|0,1:2|0:0,0:0:0:0:
501,198,108883,2,0,P|464:164|400:151,1,104.500003189087,0|0,3:2|0:0,0:0:0:0:
419,355,109125,2,0,P|466:340|509:291,1,104.500003189087,0|0,1:2|0:0,0:0:0:0:
304,185,109366,6,0,B|248:209|207:180|207:180|192:128|133:110,1,209.000006378174,4|0,1:2|0:0,0:0:0:0:
99,296,109729,2,0,P|7:312|63:240,1,209.000006378174,0|0,1:2|3:0,0:0:0:0:
226,225,110092,2,0,P|241:258|238:325,1,104.500003189087,6|0,1:2|0:0,0:0:0:0:
412,188,110334,2,0,P|375:184|319:148,1,104.500003189087,10|0,1:2|0:0,0:0:0:0:
351,367,110576,2,0,P|372:337|431:306,1,104.500003189087,10|0,3:2|0:0,0:0:0:0:
213,209,110818,6,0,L|-14:218,2,209.000006378174,4|0|0,3:2|1:0|3:0,0:0:0:0:
319,148,111423,1,0,0:0:0:0:
216,87,111544,2,0,P|191:39|199:-11,1,104.500003189087,0|0,1:0|0:0,0:0:0:0:
298,234,111786,2,0,P|268:279|221:297,1,104.500003189087,0|0,3:0|3:0,0:0:0:0:
385,90,112028,2,0,P|439:92|478:124,1,104.500003189087,0|0,1:0|0:0,0:0:0:0:
407,316,112270,6,0,B|423:368|491:376|491:376|514:307|473:275,1,218.500004167557,4|0,3:2|0:0,0:0:0:0:
207,233,112633,2,0,B|163:259|179:330|179:330|248:329|269:279,1,218.500004167557,0|0,1:2|3:0,0:0:0:0:
373,134,112996,2,0,P|383:94|360:26,1,109.250002083778,4|0,1:2|0:0,0:0:0:0:
188,136,113237,5,8,3:3:0:0:
166,6,113358,1,0,1:0:0:0:
83,83,113479,1,4,3:3:0:0:
267,54,113600,1,4,3:3:0:0:
207,233,113721,5,8,0:2:0:0:
184,235,118681,5,0,1:0:0:0:
184,235,118741,1,0,1:0:0:0:
184,235,118802,1,8,3:3:0:0:
261,275,118923,1,0,1:0:0:0:
330,228,119044,1,8,3:3:0:0:
324,146,119165,1,8,3:3:0:0:
251,108,119286,1,4,3:3:0:0:
181,155,119407,1,4,3:3:0:0:
256,192,119528,6,0,P|326:182|439:191,2,163.400002493286,4|0|0,3:2|0:0|0:0,0:0:0:0:
93,270,120254,2,0,P|69:187|103:109,2,163.400002493286,0|0|0,1:2|0:0|3:0,0:0:0:0:
253,351,120979,6,0,L|433:343,2,163.400002493286,4|0|0,3:2|0:0|0:0,0:0:0:0:
93,270,121705,1,0,1:0:0:0:
244,172,121947,1,8,3:3:0:0:
253,351,122189,1,4,3:3:0:0:
66,276,122431,6,0,P|39:193|74:102,1,178.59999727478,4|0,3:2|1:0,0:0:0:0:
153,30,122794,1,0,1:0:0:0:
196,138,122915,1,0,1:0:0:0:
253,37,123036,1,0,1:0:0:0:
319,132,123157,1,0,1:0:0:0:
347,19,123278,1,0,1:0:0:0:
421,108,123399,1,8,3:3:0:0:
219,252,123641,5,0,1:0:0:0:
230,211,123721,1,0,1:0:0:0:
225,169,123802,1,0,1:0:0:0:
196,138,123883,2,0,B|101:112|123:172|10:148,1,178.59999727478,2|0,1:2|3:0,3:0:0:0:
120,233,124246,5,0,1:0:0:0:
0,270,124366,1,0,3:3:0:0:
92,333,124487,1,0,3:0:0:0:
32,171,124608,1,0,1:0:0:0:
324,221,124850,5,0,1:0:0:0:
217,366,124971,1,0,1:0:0:0:
224,186,125092,5,8,3:3:0:0:
318,368,125213,1,8,3:3:0:0:
437,207,125334,6,0,B|463:173|463:173|468:82|401:11,1,209.000006378174,4|0,1:2|3:0,0:0:0:0:
102,180,125697,2,0,B|85:140|85:140|104:51|177:6,1,209.000006378174,4|0,1:2|3:0,0:0:0:0:
309,220,126060,5,0,1:0:0:0:
349,192,126141,1,0,1:0:0:0:
395,208,126221,1,0,1:0:0:0:
413,252,126302,1,8,3:3:0:0:
398,298,126383,1,8,3:3:0:0:
421,340,126463,1,8,3:3:0:0:
468,350,126544,2,0,B|499:338|499:338|515:299|484:252,1,104.500003189087,0|0,1:0|1:0,0:0:0:0:
392,168,126786,5,10,3:2:0:0:
392,168,126907,1,8,0:2:0:0:
313,223,127028,5,10,3:2:0:0:
313,223,127149,1,8,3:2:0:0:
243,158,127270,5,10,3:2:0:0:
243,158,127391,1,8,3:2:0:0:
208,281,127512,6,0,B|195:319|225:345|225:345|217:325|224:298,1,104.500003189087,4|0,1:2|3:0,0:0:0:0:
112,228,127754,5,0,1:2:0:0:
1,278,127875,1,0,1:0:0:0:
22,162,127996,5,0,1:0:0:0:
96,339,128116,1,0,1:0:0:0:
243,158,128237,6,0,P|352:129|436:211,1,237.5,4|0,3:1|1:2,0:2:0:0:
214,269,128600,2,0,P|135:188|164:76,1,237.5,0|0,3:2|0:2,0:2:0:0:
324,241,128963,1,0,1:2:0:0:
324,241,129084,1,0,1:2:0:0:
249,370,129205,2,0,P|180:373|131:334,1,118.75,0|0,3:2|0:2,0:2:0:0:
36,180,129447,2,0,P|11:242|34:303,1,118.75,0|0,1:2|0:2,0:2:0:0:
243,158,129689,6,0,B|312:110|388:148|388:148|440:119|429:74,1,237.5,2|0,3:2|1:2,0:2:0:0:
324,241,130052,2,0,B|313:335|415:358|415:358|437:320|416:280,1,237.5,0|0,3:2|3:2,0:2:0:0:
234,138,130415,5,0,1:2:0:0:
102,257,130536,1,0,1:2:0:0:
23,97,130657,1,0,3:2:0:0:
375,9,130899,5,0,1:2:0:0:
375,9,131020,1,0,2:2:0:0:
402,92,131141,6,0,P|491:119|448:28,1,237.5,4|0,3:2|1:2,0:2:0:0:
234,138,131504,2,0,L|103:149,1,118.75,0|0,3:2|0:2,0:2:0:0:
377,293,131746,5,0,3:2:0:0:
323,196,131866,1,0,1:2:0:0:
303,365,131987,1,0,1:2:0:0:
477,333,132108,6,0,P|481:270|446:211,1,118.75,0|0,3:2|0:2,0:2:0:0:
215,256,132350,2,0,P|189:308|194:367,1,118.75,0|0,1:2|0:2,0:2:0:0:
339,184,132592,6,0,B|394:135|367:37|367:37|317:14|285:35,1,237.5,2|0,3:2|1:2,0:2:0:0:
98,161,132955,2,0,B|42:197|-12:155|-12:155|8:90|74:88,1,237.5,0|0,3:2|3:2,0:2:0:0:
239,180,133318,5,0,1:2:0:0:
239,180,133439,1,0,1:2:0:0:
180,72,133560,5,8,3:3:0:0:
234,290,133681,1,0,1:2:0:0:
348,187,133802,5,4,3:3:0:0:
98,161,133923,1,4,3:3:0:0:
245,308,134044,6,0,P|305:310|364:276,1,118.75,4|0,3:1|0:2,0:2:0:0:
395,77,134286,2,0,P|455:75|514:109,1,118.75,0|0,1:1|0:2,0:2:0:0:
276,163,134528,5,0,3:2:0:0:
276,163,134649,1,0,3:2:0:0:
423,191,134770,1,0,1:2:0:0:
343,316,134891,2,0,B|278:366|198:330|198:330|172:291|129:279,1,237.5,0|0,1:2|0:2,0:2:0:0:
276,163,135254,6,0,P|297:108|276:38,1,118.75,0|0,1:2|0:2,0:2:0:0:
133,280,135496,2,0,P|148:336|206:381,1,118.75,2|0,3:2|0:2,0:2:0:0:
184,101,135737,2,0,P|138:64|65:62,1,118.75,0|0,1:2|3:2,0:2:0:0:
245,274,135979,2,0,P|303:276|363:235,1,118.75,0|0,2:2|3:2,0:2:0:0:
93,169,136221,5,0,1:2:0:0:
0,249,136342,1,0,1:2:0:0:
80,58,136463,1,0,3:2:0:0:
358,250,136705,5,0,1:2:0:0:
358,250,136826,1,0,0:2:0:0:
442,178,136947,6,0,P|458:119|440:58,1,118.75,4|0,3:2|0:2,0:2:0:0:
261,192,137189,2,0,P|304:235|365:250,1,118.75,0|0,1:2|3:2,2:2:0:0:
339,28,137431,5,0,3:2:0:0:
239,83,137552,1,0,3:2:0:0:
150,9,137673,1,0,1:2:0:0:
150,9,137794,1,0,1:2:0:0:
32,77,137915,6,0,P|1:127|5:185,1,118.75,0|0,3:2|0:2,0:2:0:0:
274,302,138157,2,0,P|283:244|259:191,1,118.75,0|0,1:2|0:2,0:2:0:0:
94,344,138399,6,0,P|0:352|54:275,1,237.5,4|0,3:2|1:2,0:2:0:0:
374,346,138762,2,0,P|468:338|401:271,1,237.5,2|0,3:2|3:2,0:2:0:0:
182,384,139125,5,0,1:2:0:0:
182,384,139246,1,0,1:2:0:0:
274,302,139366,5,8,3:3:0:0:
100,212,139487,1,8,3:3:0:0:
261,106,139608,1,4,3:3:0:0:
213,207,139729,1,4,3:3:0:0:
150,115,139850,6,0,P|49:116|-3:182,1,190,4|0,3:1|0:2,0:2:0:0:
213,207,140213,2,0,P|261:118|228:40,1,190,0|0,3:1|0:2,0:2:0:0:
100,212,140576,2,0,P|149:299|232:313,2,190,4|0|0,1:2|0:2|3:2,0:2:0:0:
229,41,141302,6,0,P|260:128|213:207,1,190,2|0,3:2|0:2,0:2:0:0:
0,180,141665,2,0,P|58:111|150:115,1,190,0|0,3:1|3:2,0:2:0:0:
231,313,142028,2,0,P|141:294|100:212,1,190,4|0,1:2|0:2,0:2:0:0:
234,46,142512,5,4,0:2:0:0:
234,46,142633,1,0,0:2:0:0:
305,113,142754,6,0,B|413:119|360:52|478:55,1,190,4|0,3:1|0:2,0:2:0:0:
385,183,143116,2,0,B|399:223|463:227|463:227|484:179|452:138,1,190,0|0,3:2|0:2,0:2:0:0:
305,198,143479,2,0,P|278:235|281:289,1,95,4|0,1:2|0:2,0:2:0:0:
446,249,143721,2,0,P|426:207|378:182,1,95,0|0,3:2|0:2,0:2:0:0:
331,345,143963,2,0,P|377:348|423:319,1,95,0|0,3:2|0:2,0:2:0:0:
282,177,144205,6,0,B|229:182|196:130|196:130|154:108|110:128,1,190,4|0,3:2|0:2,0:2:0:0:
272,97,144568,2,0,B|304:56|283:8|283:8|219:12|205:52,1,190,0|0,3:2|0:2,0:2:0:0:
130,203,144931,2,0,P|83:201|44:175,1,95,2|0,1:2|0:2,0:2:0:0:
205,51,145173,5,0,1:2:0:0:
301,200,145294,1,0,1:2:0:0:
292,100,145415,5,8,3:3:0:0:
219,265,145536,1,8,3:3:0:0:
369,329,145657,6,0,P|427:330|472:292,1,118.75,4|0,3:1|0:2,0:2:0:0:
374,137,145899,2,0,P|395:96|367:11,1,118.75,0|0,1:2|0:2,0:2:0:0:
139,89,146141,5,0,3:0:0:0:
139,89,146262,1,0,3:0:0:0:
301,200,146383,1,0,1:2:0:0:
227,47,146504,1,0,1:2:0:0:
219,265,146625,1,0,3:2:0:0:
219,265,146746,1,0,3:0:0:0:
433,130,146866,6,0,B|467:100|511:109|511:109|495:125|472:122,1,118.75,0|0,1:2|0:2,0:2:0:0:
301,200,147108,2,0,B|255:204|225:171|225:171|247:167|264:183,1,118.75,2|0,3:2|0:2,0:2:0:0:
448,220,147350,2,0,B|487:243|492:287|492:287|471:277|467:254,1,118.75,0|0,1:2|3:2,0:2:0:0:
340,117,147592,2,0,B|321:75|344:36|344:36|354:56|344:77,1,118.75,0|0,2:2|3:2,0:2:0:0:
367,264,147834,5,0,1:2:0:0:
275,357,147955,1,0,1:2:0:0:
157,297,148076,1,0,3:2:0:0:
256,46,148318,5,0,1:2:0:0:
256,46,148439,1,0,0:2:0:0:
340,117,148560,6,0,B|375:156|435:137|435:137|411:119,1,125.39999961731,4|0,1:1|0:2,0:2:0:0:
258,281,148802,2,0,B|231:327|268:377|268:377|278:349,1,125.39999961731,0|0,1:1|0:2,0:2:0:0:
76,253,149044,2,0,B|23:241|-12:292|-12:292|17:293,1,125.39999961731,0|0,1:1|0:2,0:2:0:0:
347,124,149286,6,0,B|396:100|397:34|397:34|371:53,1,132.999995941162,6|0,1:2|0:2,0:2:0:0:
265,288,149528,2,0,B|301:328|363:308|363:308|338:289,1,132.999995941162,0|0,1:1|0:2,0:2:0:0:
83,260,149770,2,0,B|55:308|92:360|92:360|104:331,1,132.999995941162,0|0,1:1|0:2,0:2:0:0:
356,133,150012,6,0,B|404:174|490:134|490:134|467:53|388:37,1,285.000010871888,4|0,1:2|3:2,0:2:0:0:
183,193,150375,1,0,1:2:0:0:
341,294,150496,1,0,1:2:0:0:
194,16,150737,5,0,1:0:0:0:
224,58,150818,5,0,1:0:0:0:
224,105,150899,5,0,1:0:0:0:
199,139,150979,5,8,3:3:0:0:
162,149,151060,5,8,3:3:0:0:
128,143,151141,5,8,3:3:0:0:
109,121,151221,5,4,0:3:0:0:
109,96,151302,5,4,0:3:0:0:
124,85,151383,5,4,0:3:0:0:
140,81,151463,6,0,P|189:170|156:299,1,209.000006378174,4|0,3:2|0:2,0:0:0:0:
46,384,151826,2,0,P|31:335|46:285,1,104.500003189087,2|0,0:2|3:0,0:0:0:0:
224,352,152068,2,0,P|274:359|332:316,1,104.500003189087,0|0,0:2|1:0,0:0:0:0:
419,228,152310,2,0,B|355:160|367:79|367:79|403:46,1,209.000006378174,2|0,0:0|0:0,0:0:0:0:
477,0,152673,5,0,3:0:0:0:
477,0,152794,1,0,0:0:0:0:
401,63,152915,6,0,B|352:101|296:67|296:67|271:18|217:14,1,209.000006378174,2|0,3:2|0:0,0:0:0:0:
265,166,153278,2,0,P|161:161|139:62,1,209.000006378174,2|0,3:2|3:0,0:0:0:0:
93,224,153641,2,0,P|9:230|57:156,1,209.000006378174,0|0,1:0|0:0,0:0:0:0:
207,228,154004,5,0,1:0:0:0:
131,340,154125,1,0,3:0:0:0:
256,340,154246,1,0,3:0:0:0:
93,224,154366,1,4,3:1:0:0:
354,106,154608,5,2,0:0:0:0:
290,28,154729,1,0,0:0:0:0:
254,123,154850,1,0,3:0:0:0:
318,201,154971,2,0,P|375:207|427:170,1,104.500003189087,0|0,0:2|1:0,0:0:0:0:
488,99,155213,5,2,0:2:0:0:
512,246,155334,1,8,0:3:0:0:
512,246,155455,1,8,0:3:0:0:
418,189,155576,1,4,3:3:0:0:
418,189,155697,1,4,0:3:0:0:
374,315,155818,6,0,P|415:335|491:323,1,104.500003189087,2|0,3:2|0:0,0:0:0:0:
248,271,156060,2,0,P|228:312|240:388,1,104.500003189087,0|0,2:2|3:0,0:0:0:0:
292,145,156302,2,0,P|251:125|175:137,1,104.500003189087,0|0,2:2|3:0,0:0:0:0:
418,189,156544,2,0,P|463:75|420:-7,1,209.000006378174,2|0,1:2|0:0,0:0:0:0:
333,72,156907,5,2,3:2:0:0:
226,0,157028,1,0,1:0:0:0:
193,128,157149,1,0,1:0:0:0:
73,38,157270,6,4,B|41:35|14:57|14:57|-15:134|35:193,1,209.000006378174,4|0,3:2|0:0,3:2:0:0:
292,145,157633,2,4,B|323:150|344:178|344:178|352:260|288:305,1,209.000006378174,2|0,2:2|0:0,3:2:0:0:
24,207,157996,5,2,1:2:0:0:
8,237,158076,1,0,0:0:0:0:
8,271,158157,1,0,0:0:0:0:
24,301,158237,2,0,P|82:306|132:279,1,104.500003189087,0|0,3:0|0:0,0:0:0:0:
217,122,158479,2,0,P|275:117|325:144,1,104.500003189087,0|0,3:0|0:0,0:0:0:0:
432,294,158721,6,0,B|462:292|487:267|487:267|502:189|442:133,1,209.000006378174,2|0,3:2|0:0,0:0:0:0:
327,4,159084,2,0,B|338:84|277:135|277:135|242:139|218:123,1,209.000006378174,2|0,3:2|3:0,0:0:0:0:
77,38,159447,2,0,B|47:40|22:65|22:65|7:143|67:198,1,209.000006378174,2|0,1:2|3:0,0:0:0:0:
218,123,159810,5,0,1:0:0:0:
208,292,159931,1,8,3:3:0:0:
208,292,160052,1,8,3:3:0:0:
67,198,160173,1,4,3:1:0:0:
312,277,160415,6,0,L|303:382,1,104.500003189087,2|0,0:0|0:0,0:0:0:0:
76,302,160657,2,0,L|66:197,1,104.500003189087,0|0,3:0|0:0,0:0:0:0:
413,264,160899,2,0,L|404:369,1,104.500003189087,0|0,1:0|0:0,0:0:0:0:
177,289,161141,2,0,L|167:184,1,104.500003189087,0|0,2:0|0:0,0:0:0:0:
389,40,161383,6,0,B|421:101|500:85|500:85|504:31|459:0,1,209.000006378174,2|4,3:2|1:1,0:0:0:0:
475,13,161866,5,2,3:2:0:0:
411,163,161987,2,0,B|370:255|436:307|436:307|430:281|412:263,1,209.000006378174,4|0,1:2|3:0,0:0:0:0:
305,186,162350,5,0,1:0:0:0:
305,186,162471,1,0,1:0:0:0:
246,299,162592,5,8,3:3:0:0:
246,299,162713,1,8,3:3:0:0:
166,170,162834,5,4,3:3:0:0:
166,170,162955,1,4,3:3:0:0:
47,254,163076,6,0,B|1:306|28:363|28:363|76:373|94:328,1,190,4|0,3:1|0:0,0:0:0:0:
166,170,163560,6,0,P|155:120|171:76,1,95,0|0,3:2|0:0,0:0:0:0:
246,299,163802,2,0,P|195:294|158:265,1,95,2|0,1:2|0:0,0:0:0:0:
393,262,164044,2,0,P|372:308|333:335,1,95,0|0,2:2|0:0,0:0:0:0:
403,110,164286,2,0,P|441:143|454:188,1,95,0|0,3:2|0:0,0:0:0:0:
261,53,164528,6,0,B|300:-2|366:22|366:22|346:55|296:46,1,190,2|0,3:2|0:0,0:0:0:0:
159,97,164891,2,0,B|118:47|46:57|46:57|35:88|55:117,1,190,2|0,3:2|3:0,0:0:0:0:
187,206,165254,2,0,P|250:183|299:182,1,95,2|0,1:2|0:0,0:0:0:0:
408,196,165496,5,8,3:3:0:0:
408,196,165616,1,8,3:3:0:0:
336,295,165737,5,4,3:3:0:0:
336,295,165858,1,4,3:3:0:0:
469,347,165979,6,0,B|498:338|508:319|508:319|528:247|483:177,1,190,4|0,3:2|0:0,0:0:0:0:
488,184,166463,6,0,L|373:173,1,95,0|0,3:0|0:0,0:0:0:0:
237,231,166705,2,0,B|195:144|257:135|221:46,1,190,2|0,1:2|0:0,0:0:0:0:
221,46,167068,1,0,0:0:0:0:
145,96,167189,2,0,L|35:80,1,95,0|0,3:0|0:0,0:0:0:0:
312,168,167431,6,0,P|405:173|432:85,1,190,2|0,3:2|0:0,0:0:0:0:
414,259,167794,2,0,B|438:297|497:296|497:296|511:237|484:206,1,190,0|0,3:0|3:0,0:0:0:0:
333,263,168157,2,0,P|321:293|337:366,1,95,2|0,1:2|0:0,0:0:0:0:
187,256,168399,2,0,P|218:251|274:201,1,95,2|0,3:2|0:0,0:0:0:0:
256,384,168641,2,0,P|236:358|164:335,1,95,2|0,3:2|0:0,0:0:0:0:
345,181,168883,5,4,3:1:0:0:
76,25,169125,1,2,0:0:0:0:
6,99,169246,2,0,P|1:132|21:195,1,95,0|0,3:0|3:0,0:0:0:0:
143,104,169487,2,0,P|187:89|238:94,1,95,0|0,2:0|1:0,0:0:0:0:
345,181,169729,1,2,0:0:0:0:
415,107,169850,2,0,P|420:74|400:11,1,95,0|0,3:0|2:0,0:0:0:0:
199,171,170092,2,0,P|194:204|214:267,1,95,0|0,3:0|3:0,0:0:0:0:
357,354,170334,6,0,B|414:304|484:323|484:323|503:364|469:397,1,190,2|0,3:2|0:0,0:0:0:0:
331,234,170697,2,0,P|316:188|324:130,1,95,0|0,3:2|0:0,0:0:0:0:
512,185,170939,2,0,P|497:140|467:103,1,95,0|0,3:2|1:0,0:0:0:0:
343,34,171181,5,2,1:2:0:0:
323,146,171302,1,8,3:3:0:0:
236,73,171423,1,8,3:3:0:0:
347,38,171544,1,4,3:3:0:0:
351,42,171665,1,4,3:3:0:0:
327,150,171786,5,4,3:1:0:0:
0,16,172028,5,2,1:2:0:0:
31,119,172149,1,0,1:2:0:0:
108,50,172270,5,2,1:2:0:0:
31,119,172391,1,0,1:2:0:0:
136,164,172512,5,2,1:2:0:0:
31,119,172633,1,0,1:0:0:0:
54,245,172754,5,2,1:2:0:0:
31,119,172875,1,0,3:0:0:0:
169,185,172996,5,2,1:2:0:0:
208,196,173076,1,0,1:0:0:0:
249,197,173157,1,0,1:0:0:0:
285,178,173237,2,0,P|307:130|295:69,1,104.500003189087,2|0,1:2|3:0,3:0:0:0:
74,208,173479,2,0,P|39:169|30:118,1,104.500003189087,2|0,3:2|1:0,3:0:0:0:
373,261,173721,6,0,P|415:232|439:186,1,104.500003189087,2|0,3:2|2:0,3:0:0:0:
173,131,173963,2,0,P|159:82|171:29,1,104.500003189087,2|0,1:2|3:0,0:0:0:0:
467,22,174205,5,8,1:3:0:0:
300,158,174326,1,8,1:3:0:0:
317,0,174447,5,4,3:3:0:0:
439,185,174568,1,4,3:3:0:0:
219,266,174689,6,0,B|154:203|47:226|47:226|107:270,1,227.999993041992,4|0,3:2|3:0,0:0:0:0:
281,380,175052,2,0,P|343:290|312:184,1,227.999993041992,4|0,1:2|3:0,2:2:0:0:
169,43,175415,5,0,1:2:0:0:
160,94,175496,1,0,1:0:0:0:
122,130,175576,1,0,1:0:0:0:
69,136,175657,1,8,3:3:0:0:
23,110,175737,1,8,3:3:0:0:
0,62,175818,1,8,3:3:0:0:
11,8,175899,5,0,1:0:0:0:
122,215,176020,1,0,1:0:0:0:
449,108,176866,5,0,0:0:0:0:
455,75,177108,5,0,0:0:0:0:
448,42,177350,5,0,0:0:0:0:
425,17,177592,6,0,P|351:56|342:165,1,190,4|0,3:2|0:0,0:0:0:0:
506,263,178318,2,0,P|506:172|432:119,1,190,0|0,2:2|0:0,0:0:0:0:
251,210,179044,2,0,P|330:255|413:217,1,190,2|0,2:2|0:0,0:0:0:0:
425,17,179770,2,0,P|351:56|342:165,1,190,0|0,2:2|2:0,2:0:0:0:
337,154,180496,6,0,L|136:124,1,190,2|0,0:0|0:0,0:0:0:0:
266,244,181221,2,0,L|392:84,1,190
223,137,181947,2,0,L|297:326,1,190,2|0,0:0|0:0,0:0:0:0:
292,313,182673,2,0,L|355:243,1,95,2|0,0:0|0:0,0:0:0:0:
483,154,183157,5,0,1:0:0:0:
459,158,183237,1,0,1:0:0:0:
434,154,183318,1,0,1:0:0:0:
412,143,183399,2,0,P|411:79|345:31,1,142.500005435944,2|0,1:2|1:0,0:0:0:0:
329,33,183721,1,0,1:0:0:0:
308,45,183802,1,0,1:0:0:0:
291,62,183883,2,0,B|223:82|223:82|156:33,1,142.500005435944,0|0,1:0|1:0,0:0:0:0:
51,122,184366,5,0,1:0:0:0:
27,119,184447,1,0,1:0:0:0:
7,132,184528,1,0,1:0:0:0:
0,155,184608,2,0,L|13:238,1,71.2500027179719,0|0,1:0|0:0,0:0:0:0:
71,289,184850,6,0,P|134:292|200:222,1,142.500005435944,2|0,0:0|1:0,0:0:0:0:
202,221,185173,1,0,1:0:0:0:
206,197,185254,1,0,1:0:0:0:
201,173,185334,2,0,P|204:109|272:49,1,142.500005435944,0|0,1:0|1:0,0:0:0:0:
422,17,185818,5,0,1:0:0:0:
428,39,185899,1,0,1:0:0:0:
436,61,185979,1,0,1:0:0:0:
445,82,186060,2,0,P|482:86|523:57,1,71.2500027179719,0|0,1:0|0:0,0:0:0:0:
359,125,186302,6,0,B|337:143|328:169|328:169|325:218|354:265,1,155.800002377319,2|0,1:2|0:0,0:0:0:0:
278,384,186665,2,0,P|369:360|432:366,1,155.800002377319,0|0,1:0|1:0,0:0:0:0:
265,291,187028,2,0,P|222:277|170:274,1,77.9000011886597,0|0,1:0|0:0,0:0:0:0:
0,325,187270,5,0,1:0:0:0:
132,180,187391,1,0,1:0:0:0:
100,370,187512,5,0,1:0:0:0:
25,136,187633,1,8,1:2:0:0:
396,15,188963,5,0,0:0:0:0:
396,15,189205,6,0,P|400:128|289:168,1,237.5,4|0,3:1|1:2,0:2:0:0:
73,70,189568,2,0,P|24:155|122:152,1,237.5,0|0,3:2|0:2,0:2:0:0:
192,15,189931,1,0,1:2:0:0:
192,15,190052,1,0,1:2:0:0:
122,153,190173,2,0,P|106:212|126:267,1,118.75,0|0,3:2|0:2,0:2:0:0:
385,138,190415,2,0,P|341:94|284:84,1,118.75,0|0,1:2|0:2,0:2:0:0:
268,375,190657,6,0,B|407:373|319:286|477:290,1,237.5,2|0,3:2|1:2,0:2:0:0:
209,124,191020,2,0,B|157:150|147:219|147:219|215:230|257:190,1,237.5,0|0,3:2|3:2,0:2:0:0:
182,0,191383,5,0,1:2:0:0:
119,181,191504,1,0,1:2:0:0:
0,35,191625,1,0,3:2:0:0:
305,61,191866,5,2,1:2:0:0:
305,61,191987,1,0,2:2:0:0:
368,210,192108,6,0,P|479:210|512:105,1,237.5,4|0,3:2|1:2,0:2:0:0:
226,144,192471,2,0,P|206:198|221:254,1,118.75,0|0,3:2|0:2,0:2:0:0:
426,141,192713,5,0,3:2:0:0:
320,299,192834,1,2,1:2:0:0:
509,304,192955,1,0,1:2:0:0:
411,126,193076,6,0,P|397:78|435:10,1,118.75,0|0,3:0|0:2,0:2:0:0:
281,204,193318,2,0,P|225:223|171:203,1,118.75,0|0,1:2|0:2,0:2:0:0:
46,45,193560,6,0,B|-18:117|40:188|40:188|87:178|103:139,1,237.5,4|0,3:2|1:2,0:2:0:0:
319,281,193923,2,0,P|411:306|374:218,1,237.5,0|0,3:2|3:2,0:2:0:0:
112,299,194286,5,0,1:2:0:0:
112,299,194407,1,0,1:2:0:0:
223,287,194528,5,8,3:3:0:0:
11,249,194649,1,0,1:2:0:0:
150,384,194770,5,4,3:3:0:0:
191,157,194891,1,4,3:3:0:0:
379,310,195012,6,0,B|416:345|477:323|477:323|452:299|461:275|424:247,1,199.499993911743,6|0,1:2|0:2,0:2:0:0:
367,194,195254,2,0,B|351:185|338:165|338:165|331:107|391:78,1,132.999995941162,4|0,1:2|0:2,0:2:0:0:
375,87,195737,6,0,B|415:83|432:32|432:32|365:-12|302:38,1,213.750008153916,6|0,1:2|0:2,0:2:0:0:
249,74,195979,2,0,B|231:90|201:89|201:89|154:65|155:12,1,142.500005435944,4|0,1:2|0:2,0:2:0:0:
155,16,196463,6,0,P|89:13|36:38,1,118.75,4|0,1:2|3:0,0:0:0:0:
249,74,196705,5,0,3:0:0:0:
111,125,196826,2,0,P|55:161|27:212,1,118.75,4|0,1:2|3:0,0:0:0:0:
249,74,197068,5,0,3:0:0:0:
139,239,197189,2,0,P|115:300|123:358,1,118.75,4|0,1:2|3:0,0:0:0:0:
459,240,197431,5,0,1:0:0:0:
306,344,197552,1,0,1:0:0:0:
483,328,197673,5,8,3:3:0:0:
273,263,197794,1,8,3:3:0:0:
441,147,197915,6,0,P|453:94|402:26,1,125.39999961731,4|0,1:1|0:2,0:2:0:0:
198,309,198157,2,0,P|237:345|321:336,1,125.39999961731,0|0,1:1|0:2,0:2:0:0:
179,17,198399,2,0,P|127:32|94:110,1,125.39999961731,0|0,1:1|0:2,0:2:0:0:
389,258,198641,6,0,B|424:260|456:271|456:271|480:253|514:244,1,132.999995941162,2|0,1:2|0:2,0:2:0:0:
147,170,198883,2,0,B|112:172|80:183|80:183|56:165|21:156,1,132.999995941162,0|0,1:2|0:2,0:2:0:0:
380,43,199125,2,0,B|415:45|445:57|445:57|474:37|505:29,1,132.999995941162,0|0,1:2|0:2,0:2:0:0:
246,228,199366,6,0,B|249:301|346:328|346:328|330:276|372:243|332:198,1,285.000010871888,4|0,1:2|3:2,0:2:0:0:
164,39,199729,5,0,1:2:0:0:
104,251,199850,1,0,1:2:0:0:
0,20,199971,1,8,1:1:0:0:
0,299,202270,6,0,P|87:271|180:280,1,170.999994781494,12|0,3:2|3:0,0:0:0:0:
275,310,202633,1,0,3:2:0:0:
239,241,202754,1,8,0:3:0:0:
60,363,202996,1,4,1:3:0:0:
153,183,203237,1,8,0:3:0:0:
153,183,203358,1,8,0:3:0:0:
243,245,203479,1,4,0:3:0:0:
243,245,203600,1,4,0:3:0:0:
334,163,203721,6,0,P|359:98|314:-1,2,170.999994781494,10|0|8,3:2|3:0|0:3,0:0:0:0:
157,57,204447,1,4,1:3:0:0:
33,221,204689,1,8,0:3:0:0:
33,221,204810,1,8,0:3:0:0:
129,238,204931,1,0,1:3:0:0:
5,321,205052,1,0,1:3:0:0:
119,366,205173,6,0,P|197:349|299:345,1,170.999994781494,12|0,3:2|3:0,0:0:0:0:
390,379,205536,1,0,3:2:0:0:
358,308,205657,1,8,0:3:0:0:
489,150,205899,1,4,1:3:0:0:
329,29,206141,1,8,0:3:0:0:
329,29,206262,1,8,0:3:0:0:
262,119,206383,1,4,0:3:0:0:
262,119,206504,1,4,0:3:0:0:
173,39,206625,6,0,B|146:21|117:15|117:15|67:16|-6:48,2,170.999994781494,10|0|8,3:2|3:0|0:3,0:0:0:0:
306,195,207350,1,4,1:3:0:0:
116,116,207592,1,8,0:3:0:0:
101,148,207673,1,8,0:3:0:0:
105,180,207754,1,8,0:3:0:0:
125,207,207834,1,4,0:3:0:0:
156,218,207915,1,4,0:3:0:0:
188,212,207996,1,4,0:3:0:0:
213,190,208076,6,0,P|290:155|396:187,1,170.999994781494,12|0,3:2|3:0,0:0:0:0:
470,231,208439,1,0,3:2:0:0:
448,157,208560,1,8,0:3:0:0:
357,360,208802,1,4,1:3:0:0:
217,193,209044,1,8,0:3:0:0:
217,193,209165,1,8,0:3:0:0:
124,268,209286,1,4,0:3:0:0:
124,268,209407,1,4,0:3:0:0:
23,187,209528,6,0,P|1:136|44:29,2,170.999994781494,10|0|8,3:2|3:0|0:3,0:0:0:0:
213,111,210254,1,4,1:3:0:0:
305,299,210496,1,8,0:3:0:0:
305,299,210616,1,8,0:3:0:0:
229,343,210737,1,0,1:3:0:0:
304,211,210858,1,0,1:3:0:0:
381,342,210979,6,0,B|425:373|480:366|480:366|509:326|496:289,1,170.999994781494,12|0,3:2|3:0,0:0:0:0:
486,192,211342,1,0,3:2:0:0:
441,254,211463,1,8,0:3:0:0:
346,52,211705,1,4,1:3:0:0:
216,233,211947,1,8,0:3:0:0:
216,233,212068,1,8,0:3:0:0:
148,140,212189,1,4,0:3:0:0:
148,140,212310,1,4,0:3:0:0:
42,218,212431,6,0,B|6:291|67:341|67:341|104:331,1,170.999994781494,10|0,3:2|3:0,0:0:0:0:
323,234,212915,5,8,3:3:0:0:
248,378,213036,1,8,3:3:0:0:
173,235,213157,1,4,1:2:0:0:
449,88,213399,5,8,3:3:0:0:
266,131,213520,1,4,1:2:0:0:
427,211,213641,5,8,3:3:0:0:
366,2,213762,1,8,3:3:0:0:
253,143,213883,6,0,P|173:150|110:101,1,157.700002285996,12|0,3:2|0:0,0:0:0:0:
60,24,214246,1,8,0:3:0:0:
4,78,214366,2,0,P|-18:155|5:246,1,157.700002285996,8|4,3:3|3:3,0:0:0:0:
93,361,214850,1,8,0:3:0:0:
93,361,214971,1,8,0:3:0:0:
174,310,215092,1,4,0:3:0:0:
174,310,215213,1,4,0:3:0:0:
252,380,215334,6,0,P|260:328|225:221,1,157.700002285996,10|0,0:0|0:0,0:0:0:0:
164,148,215697,1,8,0:3:0:0:
117,212,215818,2,0,B|97:259|36:252|36:252|18:215|48:174,1,157.700002285996,8|4,3:3|1:3,0:0:0:0:
195,69,216302,1,8,3:3:0:0:
195,69,216423,1,8,3:3:0:0:
255,143,216544,1,0,1:0:0:0:
284,25,216665,1,0,1:0:0:0:
363,108,216786,6,0,P|447:122|496:54,1,157.700002285996,12|0,3:2|0:0,0:0:0:0:
412,165,217149,1,8,0:3:0:0:
467,221,217270,2,0,B|503:264|494:330|494:330|438:360,1,157.700002285996,8|4,3:3|2:3,0:0:0:0:
231,307,217754,1,8,0:3:0:0:
231,307,217875,1,8,0:3:0:0:
155,375,217996,1,4,0:3:0:0:
155,375,218116,1,4,0:3:0:0:
51,296,218237,6,0,P|40:227|103:142,1,157.700002285996,10|0,0:0|0:0,0:0:0:0:
171,97,218600,1,8,0:3:0:0:
84,59,218721,1,8,3:3:0:0:
169,191,218842,1,4,3:3:0:0:
218,19,218963,5,4,1:2:0:0:
453,214,219205,5,0,1:3:0:0:
286,288,219326,1,8,3:3:0:0:
287,163,219447,5,4,3:3:0:0:
451,334,219568,1,4,3:3:0:0:
500,99,219689,6,0,B|501:185|412:215|412:215|291:161|209:258|209:258|44:238|-25:73|81:-82|266:-20|236:115|159:123,1,912,6|0,3:2|0:2,0:0:0:0:
