osu file format v14

[General]
AudioFilename: audio.mp3
AudioLeadIn: 0
PreviewTime: -1
Countdown: 1
SampleSet: Soft
StackLeniency: 0.7
Mode: 0
LetterboxInBreaks: 0
WidescreenStoryboard: 0

[Editor]
Bookmarks: 302,5141,18044,20625,33850,65141,67721,70302,72883,75463,78044,123205,144496,162560,165141,207076
DistanceSpacing: 0.9
BeatDivisor: 4
GridSize: 32
TimelineZoom: 1

[Metadata]
Title:Forest Of The Spirits
TitleUnicode:Forest Of The Spirits
Artist:SakuraBurst
ArtistUnicode:SakuraBurst
Creator:EriveltonGold
Version:Normal
Source:Osu!
Tags:SakuraBurst Forest Of The Spirits Experimental EDM Japanese Electronic Instrumental
BeatmapID:1211176
BeatmapSetID:571499

[Difficulty]
HPDrainRate:3
CircleSize:3
OverallDifficulty:3
ApproachRate:4
SliderMultiplier:1
SliderTickRate:1

[Events]
//Background and Video events
0,0,"rqqqq.png",0,0
//Break Periods
2,62770,63831
2,65351,66411
2,67931,68992
2,73093,74153
2,75673,76734
2,80189,81250
2,123415,132863
2,142447,143186
2,162770,163831
//Storyboard Layer 0 (Background)
//Storyboard Layer 1 (Fail)
//Storyboard Layer 2 (Pass)
//Storyboard Layer 3 (Foreground)
//Storyboard Sound Samples

[TimingPoints]
-20,-133.333333333333,4,2,0,100,0,0
-10,322.58064516129,4,2,0,100,1,0
31915,-133.333333333333,4,2,0,100,0,0
43528,-100,4,2,0,100,0,0
59334,-100,4,2,0,20,0,0
65141,-133.333333333333,4,2,0,10,0,0
65786,-133.333333333333,4,2,0,20,0,0
68044,-133.333333333333,4,2,0,30,0,0
69979,-133.333333333333,4,2,0,40,0,0
72567,-133.333333333333,4,2,0,50,0,0
75141,-133.333333333333,4,2,0,60,0,0
77721,-133.333333333333,4,2,0,80,0,0
82560,-100,4,2,3,100,0,0
137721,-133.333333333333,4,2,0,60,0,0
144496,-100,4,2,0,100,0,1
162560,-133.333333333333,4,2,0,100,0,0
165141,-100,4,3,1,100,0,1
207076,-100,4,2,0,100,0,0

[Colours]
Combo1 : 255,128,128
Combo2 : 255,128,255
Combo3 : 107,151,254

[HitObjects]
64,320,30,5,0,0:0:0:0:
150,304,312,2,0,P|182:272|180:208,1,100
197,130,957,1,0,0:0:0:0:
279,94,1280,2,8,B|374:130|374:130|425:213|346:338,1,300,2|0,0:0|0:0,0:0:0:0:
260,316,2570,6,0,P|217:286|211:234,1,100
145,177,3215,1,0,0:0:0:0:
148,86,3538,1,0,0:0:0:0:
237,75,3860,2,0,B|291:47|384:76|441:144|397:248,1,300,2|0,0:0|0:0,0:0:0:0:
450,314,5151,6,8,P|406:328|341:312,1,100,0|0,0:0|0:0,0:0:0:0:
400,233,5796,2,8,P|356:217|296:229,1,100,0|0,0:0|0:0,0:0:0:0:
214,214,6441,2,0,B|198:275|105:249|161:96|229:116|229:116|299:59|299:59|339:142,1,400,2|0,0:0|0:0,0:0:0:0:
424,117,8054,6,0,L|481:207,1,100
442,284,8699,1,0,0:0:0:0:
354,303,9022,2,0,B|311:274|310:273|310:273|263:311|263:311|263:312|217:264|217:264|163:289|163:289|139:216,1,300,2|0,0:0|0:0,0:0:0:0:
136,141,10312,2,8,B|185:154|224:102,1,100,0|0,0:0|0:0,0:0:0:0:
289,164,10957,2,8,P|337:184|378:136,1,100,0|0,0:0|0:0,0:0:0:0:
353,70,11602,2,0,P|455:112|415:280,1,300,2|0,0:0|0:0,0:0:0:0:
326,322,12893,6,0,P|310:288|286:226,1,100
200,253,13538,2,0,L|240:348,1,100
330,312,14183,2,0,P|361:254|200:147,1,300,2|0,0:0|0:0,0:0:0:0:
154,231,15473,5,0,0:0:0:0:
114,176,15796,1,0,0:0:0:0:
140,113,16119,2,0,P|184:105|246:108,2,100,0|0|2,0:0|0:0|0:0,0:0:0:0:
76,311,18054,5,0,0:0:0:0:
123,262,18377,1,0,0:0:0:0:
174,218,18699,2,0,P|229:191|279:198,1,100
342,242,19344,2,0,B|314:269|290:285|261:285|261:285|226:315|150:308,1,200,2|0,0:0|0:0,0:0:0:0:
75,287,20635,6,0,B|38:237|91:146|91:146|131:196,1,200,2|0,0:0|0:0,0:0:0:0:
234,274,21602,1,2,0:0:0:0:
235,259,23538,2,0,P|210:213|228:164,1,100,2|2,0:0|0:0,0:0:0:0:
272,94,24183,1,2,0:0:0:0:
351,110,25151,5,2,0:0:0:0:
396,166,25473,1,2,0:0:0:0:
433,230,25796,2,0,B|454:281|397:321|397:321|340:238,1,200,2|0,0:0|0:0,0:0:0:0:
316,158,26764,2,0,B|277:142|277:142|210:219|130:198,1,200,2|0,0:0|0:0,0:0:0:0:
101,118,27731,6,0,B|39:181|39:181|54:301,1,200,2|0,0:0|0:0,0:0:0:0:
136,326,28699,2,0,B|192:303|242:328,1,100
323,317,29344,2,0,P|381:283|292:234,1,200,2|2,0:0|0:0,0:0:0:0:
214,228,30312,2,0,B|193:155|193:155|234:109|234:109|317:108,1,200,2|2,0:0|0:0,0:0:0:0:
385,114,31925,2,0,P|450:115|477:193,1,150.000005722046,2|0,0:0|0:0,0:0:0:0:
377,318,33860,6,0,L|292:317,1,75.0000028610231,2|0,0:0|0:0,0:0:0:0:
273,255,34506,2,0,L|353:256,1,75.0000028610231,2|0,0:0|0:0,0:0:0:0:
416,256,35473,2,0,L|453:186,1,75.0000028610231,2|0,0:0|0:0,0:0:0:0:
332,156,36119,2,0,P|290:134|380:107,1,225.000008583069,2|2,0:0|0:0,0:0:0:0:
416,182,38054,5,2,0:0:0:0:
480,224,39022,2,0,L|415:281,1,75.0000028610231,2|0,0:0|0:0,0:0:0:0:
448,352,39667,2,0,P|416:352|358:351,1,75.0000028610231,2|0,0:0|0:0,0:0:0:0:
272,328,40635,1,2,0:0:0:0:
140,299,41280,6,0,L|184:237,1,75.0000028610231,2|0,0:0|0:0,0:0:0:0:
199,163,41925,2,0,P|250:155|276:130,1,75.0000028610231
343,93,42570,1,2,0:0:0:0:
419,129,42893,2,0,P|457:160|472:188,1,75.0000028610231,0|2,0:0|0:0,0:0:0:0:
441,267,43538,5,0,0:0:0:0:
372,325,43860,2,0,B|331:292|331:292|262:294,1,100
198,262,44506,2,0,P|152:210|163:169,1,100
192,96,45151,6,0,B|256:96|256:96|307:122,1,100,2|0,0:0|0:0,0:0:0:0:
256,192,45796,2,0,P|288:256|313:256,2,100,2|0|0,0:0|0:0|0:0,0:0:0:0:
324,120,46764,2,0,P|389:135|401:171,1,100,0|2,0:0|0:0,0:0:0:0:
399,250,47409,1,0,0:0:0:0:
372,335,47731,2,0,B|328:362|261:348,1,100,2|0,0:0|0:0,0:0:0:0:
259,249,48377,5,2,0:0:0:0:
259,249,48699,2,0,P|218:197|181:184,1,100,10|0,0:0|0:0,0:0:0:0:
209,102,49344,1,0,0:0:0:0:
294,130,49667,2,0,L|328:28,2,100,2|0|10,0:0|0:0|0:0,0:0:0:0:
237,200,50635,5,2,0:0:0:0:
264,298,50957,2,0,P|320:249|328:209,1,100,8|0,0:0|0:0,0:0:0:0:
294,130,51602,2,0,P|329:79|377:82,1,100,8|0,0:0|0:0,0:0:0:0:
388,163,52248,1,2,0:0:0:0:
447,252,52570,6,0,P|479:221|481:153,1,100,8|0,0:0|0:0,0:0:0:0:
425,81,53215,2,0,P|380:74|319:108,1,100,0|2,0:0|0:0,0:0:0:0:
343,197,53860,1,0,0:0:0:0:
361,295,54183,2,0,L|305:338,2,50,8|0|0,0:0|0:0|0:0,0:0:0:0:
450,300,54828,6,0,B|450:229|450:229|422:209,1,100,0|8,0:0|0:0,0:0:0:0:
349,164,55473,2,0,P|382:105|428:97,1,100
499,94,56119,1,8,0:0:0:0:
480,200,56441,2,0,L|481:309,1,100,8|10,0:0|0:0,0:0:0:0:
289,329,57731,6,0,P|217:302|197:270,1,100,8|0,0:0|0:0,0:0:0:0:
143,116,59344,5,0,0:0:0:0:
235,180,60635,6,0,L|246:118,4,50,0|0|0|0|8,0:0|0:0|0:0|0:0|0:0,0:0:0:0:
126,230,61602,2,0,P|177:276|221:278,1,100,2|0,0:0|0:0,0:0:0:0:
206,99,62570,1,0,0:0:0:0:
239,154,65151,5,4,0:0:0:0:
253,173,67731,5,2,0:0:0:0:
277,214,70312,5,6,0:0:0:0:
256,192,70957,12,0,72570,0:0:0:0:
270,202,72893,5,10,0:0:0:0:
303,198,75473,5,12,0:0:0:0:
415,134,78054,5,2,0:0:0:0:
318,40,78699,2,0,L|253:98,1,75.0000028610231,0|2,0:0|0:0,0:0:0:0:
223,145,79344,2,0,L|157:207,1,75.0000028610231,0|2,0:0|0:0,0:0:0:0:
114,237,79989,1,4,0:0:0:0:
392,135,82570,6,0,P|342:98|291:102,1,100
319,186,83215,2,0,P|235:164|222:138,1,100,8|0,0:0|0:0,0:0:0:0:
242,61,83860,1,0,0:0:0:0:
148,94,84183,2,0,L|70:175,1,100,0|8,0:0|0:0,0:0:0:0:
121,258,84828,6,0,P|190:303|229:302,1,100
222,205,85473,2,0,P|268:173|330:178,1,100,0|8,0:0|0:0,0:0:0:0:
344,255,86119,1,0,0:0:0:0:
446,257,86441,2,0,P|452:192|424:155,1,100
372,99,87086,5,8,0:0:0:0:
265,117,87409,1,0,0:0:0:0:
265,117,87731,2,0,B|215:97|215:97|162:110,1,100
89,147,88377,1,8,0:0:0:0:
94,236,88699,6,0,P|152:291|185:293,1,100
192,200,89344,2,0,P|250:211|276:261,1,100,0|8,0:0|0:0,0:0:0:0:
325,314,89989,1,0,0:0:0:0:
414,319,90312,2,0,L|414:206,1,100
387,132,90957,5,8,0:0:0:0:
341,54,91280,2,0,P|282:72|264:114,1,100
239,189,91925,2,0,P|174:151|150:119,1,100,0|8,0:0|0:0,0:0:0:0:
94,68,92570,1,0,0:0:0:0:
47,145,92893,6,0,B|68:198|68:198|112:227,1,100
176,275,93538,2,0,P|254:284|290:279,1,100,8|0,0:0|0:0,0:0:0:0:
355,240,94183,1,0,0:0:0:0:
412,170,94506,2,0,B|461:128|426:79,1,100,0|8,0:0|0:0,0:0:0:0:
339,101,95151,2,0,B|299:138|299:138|286:188,1,100
361,234,95796,5,0,0:0:0:0:
284,282,96119,2,0,P|334:330|384:327,1,100,8|0,0:0|0:0,0:0:0:0:
361,234,96764,6,0,B|415:221|423:156,1,100
332,153,97409,2,0,P|344:106|301:66,1,100,8|0,0:0|0:0,0:0:0:0:
237,118,98054,2,0,L|121:117,1,100
68,175,98699,1,8,0:0:0:0:
128,241,99022,6,0,B|191:241|191:241|234:199,1,100
218,125,99667,2,0,B|263:87|263:87|317:83,1,100,0|8,0:0|0:0,0:0:0:0:
393,93,100312,1,0,0:0:0:0:
475,128,100635,2,0,P|484:195|451:219,1,100
376,232,101280,6,0,B|344:265|344:265|294:295,1,100,14|10,0:0|0:0,0:0:0:0:
245,219,101925,2,0,L|223:120,1,100
313,121,102570,2,0,P|288:60|245:42,1,100,8|0,0:0|0:0,0:0:0:0:
170,54,103215,1,0,0:0:0:0:
91,97,103538,6,0,L|91:213,1,100,0|8,0:0|0:0,0:0:0:0:
180,202,104183,2,0,L|132:296,1,100
210,338,104828,1,0,0:0:0:0:
299,326,105151,2,0,P|386:275|327:216,1,200,8|0,0:0|0:0,0:0:0:0:
253,194,106119,5,0,0:0:0:0:
313,127,106441,2,0,L|397:57,2,100,8|0|0,0:0|0:0|0:0,0:0:0:0:
284,41,107409,2,0,P|209:69|199:92,1,100,0|8,0:0|0:0,0:0:0:0:
188,171,108054,1,0,0:0:0:0:
112,219,108377,1,0,0:0:0:0:
112,219,108699,2,0,P|144:264|199:286,1,100,0|8,0:0|0:0,0:0:0:0:
209,197,109344,6,0,P|239:147|285:136,1,100
305,220,109989,1,0,0:0:0:0:
394,232,110312,2,0,L|394:114,1,100,8|0,0:0|0:0,0:0:0:0:
392,41,110957,2,0,P|332:62|305:100,1,100
304,178,111602,2,0,L|303:279,1,100,8|0,0:0|0:0,0:0:0:0:
224,323,112248,5,0,0:0:0:0:
157,262,112570,1,0,0:0:0:0:
157,262,112893,2,0,P|151:182|131:173,1,100,8|0,0:0|0:0,0:0:0:0:
68,227,113538,1,0,0:0:0:0:
60,137,113860,2,0,P|85:99|146:92,1,100,0|8,0:0|0:0,0:0:0:0:
226,92,114506,5,0,0:0:0:0:
315,92,114828,2,0,B|367:93|367:93|423:71,1,100
467,140,115473,1,8,0:0:0:0:
469,227,115796,2,0,P|470:275|423:308,1,100
362,250,116441,2,0,P|311:246|266:285,1,100,0|8,0:0|0:0,0:0:0:0:
206,334,117086,5,0,0:0:0:0:
206,334,117409,2,0,P|138:280|137:258,1,100
225,255,118054,2,0,P|197:200|149:193,1,100,8|0,0:0|0:0,0:0:0:0:
73,192,118699,5,0,0:0:0:0:
114,112,119022,1,0,0:0:0:0:
203,114,119344,2,0,L|305:161,1,100,8|0,0:0|0:0,0:0:0:0:
381,178,119989,5,0,0:0:0:0:
381,178,120312,2,0,P|417:209|403:275,1,100,0|8,0:0|0:0,0:0:0:0:
343,311,120957,1,0,0:0:0:0:
253,300,121280,2,0,P|202:256|288:262,1,200
370,212,122248,2,0,B|363:158|278:155|278:155|314:82,1,200
224,80,123215,1,12,0:0:0:0:
256,192,134183,12,0,137409,0:0:0:0:
245,300,137731,6,0,B|281:259|281:259|325:302|382:291|382:291|395:184|312:196,1,300.000011444092
317,127,139344,2,0,B|255:126|255:126|290:99|233:66|233:66|151:75|193:182|193:182|206:188,1,300.000011444092
227,247,140957,2,0,B|257:322|257:322|299:273|334:326|334:326|400:220,1,300.000011444092
256,128,144506,5,0,0:0:0:0:
180,177,144828,2,0,L|100:260,1,100
178,308,145473,2,0,L|258:225,1,100
256,146,146119,1,0,0:0:0:0:
288,62,146441,6,0,P|333:61|381:115,1,100
413,175,147086,1,0,0:0:0:0:
441,260,147409,2,0,L|327:289,1,100
260,317,148054,2,0,P|196:253|173:252,1,100
106,223,148699,5,0,0:0:0:0:
127,135,149022,2,0,P|191:103|219:129,1,100
259,187,149667,2,0,P|327:171|345:134,1,100
385,67,150312,1,0,0:0:0:0:
385,67,150635,2,0,P|436:65|465:111,2,100
341,155,151602,5,0,0:0:0:0:
244,176,151925,2,0,B|230:264|230:264|253:250,1,100
328,274,152570,2,0,P|372:310|414:300,1,100
440,216,153215,5,0,0:0:0:0:
410,130,153538,1,0,0:0:0:0:
325,99,153860,2,0,P|280:99|235:132,1,100
322,200,154506,1,0,0:0:0:0:
380,279,154828,6,0,P|311:292|269:281,1,100,10|2,0:0|0:0,0:0:0:0:
196,260,155473,2,0,P|146:195|125:164,1,100,8|2,0:0|0:0,0:0:0:0:
175,99,156119,2,0,P|239:99|269:126,1,100,10|0,0:0|0:0,0:0:0:0:
270,210,156764,2,0,P|334:242|358:214,1,100,8|0,0:0|0:0,0:0:0:0:
354,141,157409,5,8,0:0:0:0:
418,203,157731,1,0,0:0:0:0:
408,292,158054,1,8,0:0:0:0:
319,272,158377,2,0,L|319:334,2,50,0|0|8,0:0|0:0|0:0,0:0:0:0:
293,185,159022,6,0,B|229:185|229:185|181:202,1,100,0|8,0:0|0:0,0:0:0:0:
109,226,159667,2,0,P|141:290|170:292,1,100,0|8,0:0|0:0,0:0:0:0:
251,300,160312,1,0,0:0:0:0:
340,289,160635,1,8,0:0:0:0:
319,201,160957,6,0,L|226:137,1,100,0|8,0:0|0:0,0:0:0:0:
147,158,161602,2,0,L|146:275,1,100,0|8,0:0|0:0,0:0:0:0:
227,296,162248,1,0,0:0:0:0:
261,238,162570,1,12,0:0:0:0:
192,128,165151,5,0,0:0:0:0:
128,192,165473,2,0,P|160:224|218:229,1,100,0|8,0:0|0:0,0:0:0:0:
277,167,166119,2,0,P|309:199|310:253,1,100
256,320,166764,2,0,L|146:320,1,100,0|8,0:0|0:0,0:0:0:0:
117,238,167409,5,0,0:0:0:0:
122,148,167731,2,0,P|186:148|211:170,1,100
224,256,168377,2,0,P|288:256|316:237,1,100,8|0,0:0|0:0,0:0:0:0:
285,151,169022,1,0,0:0:0:0:
358,99,169344,6,0,P|400:129|405:176,1,100,0|12,0:0|0:0,0:0:0:0:
448,253,169989,1,8,0:0:0:0:
415,353,170312,2,0,L|297:349,1,100
230,317,170957,2,0,L|146:248,1,100,8|0,0:0|0:0,0:0:0:0:
117,170,171602,6,0,P|123:119|169:81,1,100
242,112,172248,1,8,0:0:0:0:
331,114,172570,2,0,P|391:137|390:185,1,100
381,253,173215,2,0,L|288:331,1,100,0|8,0:0|0:0,0:0:0:0:
240,253,173860,6,0,L|330:189,1,100
410,212,174506,2,0,P|423:162|382:111,1,100,0|12,0:0|0:0,0:0:0:0:
326,71,175151,2,0,L|243:145,1,100
193,68,175796,1,0,0:0:0:0:
117,116,176119,6,0,P|94:175|111:226,1,100,8|0,0:0|0:0,0:0:0:0:
188,186,176764,2,0,P|221:239|200:268,1,100
151,337,177409,1,8,0:0:0:0:
81,280,177731,2,0,L|83:169,1,100
133,105,178377,2,0,P|195:154|193:181,1,100,0|8,0:0|0:0,0:0:0:0:
160,250,179022,5,0,0:0:0:0:
231,304,179344,1,0,0:0:0:0:
285,231,179667,2,0,P|251:169|268:141,1,100,0|12,0:0|0:0,0:0:0:0:
350,153,180312,2,0,L|458:152,2,100
350,62,181280,5,8,0:0:0:0:
260,69,181602,2,0,B|225:111|225:111|169:136,1,100
137,51,182248,2,0,P|94:87|87:143,1,100,0|8,0:0|0:0,0:0:0:0:
141,198,182893,5,0,0:0:0:0:
199,266,183215,1,0,0:0:0:0:
288,276,183538,2,0,L|408:277,1,100,0|8,0:0|0:0,0:0:0:0:
443,205,184183,2,0,P|471:151|450:102,1,100
372,100,184828,2,0,P|346:149|371:201,1,100,0|8,0:0|0:0,0:0:0:0:
412,261,185473,5,0,0:0:0:0:
462,340,185796,2,0,P|405:348|353:338,1,100
307,270,186441,2,0,P|254:284|221:329,1,100,8|0,0:0|0:0,0:0:0:0:
135,317,187086,1,0,0:0:0:0:
135,317,187409,2,0,P|88:260|93:220,1,100,0|8,0:0|0:0,0:0:0:0:
177,228,188054,6,0,P|168:144|144:130,1,100
241,96,188699,1,0,0:0:0:0:
328,117,189022,2,0,P|365:132|389:206,1,100,8|0,0:0|0:0,0:0:0:0:
386,273,189667,2,0,L|499:273,2,100,0|0|8,0:0|0:0|0:0,0:0:0:0:
320,334,190635,6,0,P|259:342|234:305,1,100
282,238,191280,1,0,0:0:0:0:
227,166,191602,1,8,0:0:0:0:
139,142,191925,2,0,L|99:248,1,100
192,251,192570,6,0,L|223:148,1,100,0|8,0:0|0:0,0:0:0:0:
235,66,193215,2,0,P|183:68|133:100,1,100
78,155,193860,1,0,0:0:0:0:
69,244,194183,2,0,L|159:329,1,100,8|0,0:0|0:0,0:0:0:0:
200,244,194828,6,0,P|263:242|303:277,1,100
341,336,195473,2,0,L|407:336,2,50,8|0|0,0:0|0:0|0:0,0:0:0:0:
371,251,196119,1,0,0:0:0:0:
421,176,196441,2,0,P|428:123|386:93,1,100,0|8,0:0|0:0,0:0:0:0:
326,152,197086,6,0,P|298:110|241:104,1,100
252,191,197731,2,0,P|223:177|153:198,1,100,0|8,0:0|0:0,0:0:0:0:
86,245,198377,1,0,0:0:0:0:
137,318,198699,2,0,B|185:324|185:324|245:282,1,100
208,206,199344,6,0,B|248:179|248:179|319:182,1,100,8|0,0:0|0:0,0:0:0:0:
388,163,199989,2,0,L|458:82,2,100,0|0|8,0:0|0:0|0:0,0:0:0:0:
358,77,200957,2,0,P|292:62|255:81,1,100
298,157,201602,5,0,0:0:0:0:
298,157,201925,2,0,P|248:210|208:211,1,100,8|0,0:0|0:0,0:0:0:0:
212,123,202570,2,0,B|158:129|158:129|111:174,1,100
115,250,203215,2,0,P|131:296|183:314,1,100,8|0,0:0|0:0,0:0:0:0:
232,244,203860,5,0,0:0:0:0:
316,213,204183,2,0,P|377:240|406:280,2,100,0|8|0,0:0|0:0|0:0,0:0:0:0:
373,143,205151,2,0,P|340:88|235:133,1,200,0|8,0:0|0:0,0:0:0:0:
304,229,206441,2,0,P|249:249|199:239,1,100
256,192,207086,12,0,209667,0:0:0:0:
