osu file format v14

[General]
AudioFilename: audio.mp3
AudioLeadIn: 0
PreviewTime: -1
Countdown: 1
SampleSet: None
StackLeniency: 0.9
Mode: 0
LetterboxInBreaks: 0
WidescreenStoryboard: 1

[Editor]
Bookmarks: 302,5141,18044,20625,33850,65141,67721,70302,72883,75463,78044,101915,123850,144496,162560,165141,207076
DistanceSpacing: 0.9
BeatDivisor: 4
GridSize: 16
TimelineZoom: 2.1

[Metadata]
Title:Forest Of The Spirits
TitleUnicode:Forest Of The Spirits
Artist:SakuraBurst
ArtistUnicode:SakuraBurst
Creator:EriveltonGold
Version:Insane
Source:Osu!
Tags:SakuraBurst Forest Of The Spirits Experimental
BeatmapID:1270216
BeatmapSetID:601244

[Difficulty]
HPDrainRate:6
CircleSize:4
OverallDifficulty:7.5
ApproachRate:9
SliderMultiplier:1.6
SliderTickRate:1

[Events]
//Background and Video events
0,0,"rqqqq.png",0,0
//Break Periods
2,21802,22938
2,32125,33260
2,46480,143906
2,146318,164551
//Storyboard Layer 0 (Background)
//Storyboard Layer 1 (Fail)
//Storyboard Layer 2 (Pass)
//Storyboard Layer 3 (Foreground)
//Storyboard Sound Samples

[TimingPoints]
-30,-133.333333333333,4,2,3,80,0,0
-10,322.58064516129,4,2,3,80,1,0
1270,-200,4,2,3,60,0,0
20625,-100,4,2,3,80,0,0
27721,-111.111111111111,4,2,3,100,0,0
43528,-100,4,2,3,100,0,0
59334,-100,4,2,3,20,0,0
65141,-133.333333333333,4,2,0,10,0,0
65786,-133.333333333333,4,2,0,20,0,0
68044,-133.333333333333,4,2,0,10,0,0
69979,-133.333333333333,4,2,0,10,0,0
72567,-133.333333333333,4,2,0,10,0,0
75141,-133.333333333333,4,2,0,10,0,0
77721,-133.333333333333,4,2,0,80,0,0
82560,-83.3333333333333,4,2,3,100,0,0
91109,-125,4,2,0,100,0,0
91592,-83.3333333333333,4,2,3,100,0,0
123205,-200,4,2,0,100,0,0
137721,-133.333333333333,4,2,0,60,0,0
144506,-133.333333333333,4,2,3,100,0,1
162570,-200,4,3,1,100,0,0
165151,-200,4,3,1,100,0,1
206431,-200,4,3,1,100,0,1
207076,-100,4,2,0,100,0,0

[Colours]
Combo1 : 255,128,128
Combo2 : 255,128,255
Combo3 : 107,151,254

[HitObjects]
432,336,10,5,0,0:0:0:0:
115,304,312,5,0,0:0:0:0:
401,231,635,1,0,0:0:0:0:
111,211,957,1,0,0:0:0:0:
224,256,1280,2,0,B|256:224|224:144|224:144|288:192|352:144,1,240
464,264,2570,6,0,P|424:288|376:288,1,80
128,120,3215,6,0,P|168:112|208:120,1,80
200,272,3860,6,0,P|216:312|288:216,1,240,2|0,0:0|0:0,0:0:0:0:
216,80,5151,6,0,P|176:96|128:88,1,80
104,296,5796,2,0,P|88:256|96:208,1,80
224,280,6441,2,0,B|288:272|320:208|320:208|344:264|416:256,1,240,2|0,0:0|0:0,0:0:0:0:
440,64,7731,6,0,L|384:80,1,40
224,128,8054,2,0,L|272:136,1,40
440,184,8377,2,0,L|400:208,1,40
248,256,8699,2,0,L|288:280,1,40
376,328,9022,2,0,P|408:288|336:136,1,240,2|0,0:0|0:0,0:0:0:0:
88,96,10312,5,0,0:0:0:0:
168,184,10473,2,0,L|120:200,1,40
224,264,10796,2,0,L|248:312,1,40
304,216,11119,6,0,L|320:168,1,40
336,96,11441,1,0,0:0:0:0:
432,80,11602,2,0,B|448:128|448:128|480:152|480:208|440:240|440:240|440:304,1,240,2|0,0:0|0:0,0:0:0:0:
216,296,12893,5,0,0:0:0:0:
280,224,13054,1,0,0:0:0:0:
192,320,13215,2,0,L|144:336,1,40
264,192,13538,2,0,L|224:168,1,40
248,304,13860,2,0,L|296:320,1,40
368,304,14183,2,0,B|384:224|344:176|344:176|376:136|368:64,1,240,2|0,0:0|0:0,0:0:0:0:
248,312,15473,5,0,0:0:0:0:
216,216,15635,1,0,0:0:0:0:
264,136,15796,1,0,0:0:0:0:
248,312,15957,2,0,L|296:328,1,40
216,216,16280,2,0,L|168:208,1,40
264,136,16602,5,0,0:0:0:0:
264,136,16764,2,0,B|312:120|336:96|336:96|344:232|400:232,1,240,2|0,0:0|0:0,0:0:0:0:
280,320,18054,6,0,P|224:320|192:312,1,80
232,120,18699,2,0,P|184:112|144:120,1,80
376,304,19344,2,0,B|408:232|368:192|368:192|424:144|344:80,1,240,2|0,0:0|0:0,0:0:0:0:
136,88,20635,6,0,P|128:136|176:248,1,160,2|0,0:0|0:0,0:0:0:0:
408,280,21602,1,0,0:0:0:0:
152,96,23538,6,0,P|128:144|144:192,1,80,2|0,0:0|0:0,0:0:0:0:
200,272,23860,2,0,P|216:224|208:176,1,80,2|0,0:0|0:0,0:0:0:0:
96,280,24183,2,0,P|120:320|240:336,1,160,2|0,0:0|0:0,0:0:0:0:
432,160,25151,1,2,0:0:0:0:
280,328,25473,5,2,0:0:0:0:
432,160,25796,2,0,P|384:144|264:168,1,160,2|0,0:0|0:0,0:0:0:0:
48,320,26764,5,2,0:0:0:0:
432,64,27731,5,2,0:0:0:0:
384,176,28699,5,0,0:0:0:0:
368,176,28780,1,0,0:0:0:0:
352,176,28860,1,0,0:0:0:0:
336,176,28941,1,0,0:0:0:0:
320,176,29022,2,0,B|256:160|256:160|168:176,1,143.999995605469,0|2,0:0|0:0,0:0:0:0:
160,80,29989,6,0,P|200:96|312:72,1,143.999995605469,2|2,0:0|0:0,0:0:0:0:
448,328,30957,5,2,0:0:0:0:
40,64,31925,5,2,0:0:0:0:
304,176,33860,5,2,0:0:0:0:
280,200,33941,1,0,0:0:0:0:
280,232,34022,1,0,0:0:0:0:
296,256,34102,1,0,0:0:0:0:
320,280,34183,2,0,P|368:288|408:192,1,143.999995605469,2|2,0:0|0:0,0:0:0:0:
416,104,35473,6,0,B|368:104|368:104|320:72|320:72|272:72,1,143.999995605469,2|0,0:0|0:0,0:0:0:0:
88,216,36119,2,0,B|144:216|144:216|192:184|192:184|232:184,1,143.999995605469,2|0,0:0|0:0,0:0:0:0:
456,312,37086,5,2,0:0:0:0:
160,56,38054,5,2,0:0:0:0:
176,128,39022,5,2,0:0:0:0:
200,120,39102,1,0,0:0:0:0:
224,120,39183,1,0,0:0:0:0:
248,128,39264,1,0,0:0:0:0:
272,144,39344,1,2,0:0:0:0:
288,168,39425,1,0,0:0:0:0:
288,192,39506,1,0,0:0:0:0:
280,216,39586,1,0,0:0:0:0:
264,224,39667,1,2,0:0:0:0:
456,96,40635,5,2,0:0:0:0:
432,312,41280,5,0,0:0:0:0:
96,200,41602,1,0,0:0:0:0:
344,336,41925,1,0,0:0:0:0:
160,144,42248,1,0,0:0:0:0:
256,336,42570,5,2,0:0:0:0:
304,224,42731,1,0,0:0:0:0:
208,256,42893,1,2,0:0:0:0:
344,304,43054,1,0,0:0:0:0:
304,224,43215,2,0,P|304:176|352:88,1,143.999995605469,2|0,0:0|0:0,0:0:0:0:
160,80,43860,6,0,P|144:128|152:184,1,80
112,312,44183,2,0,P|136:272|144:224,1,80
40,192,44506,2,0,P|104:208|144:184,1,80
275,219,44828,2,0,P|239:203|200:208,1,80
312,120,45151,6,0,L|288:80,2,40,2|0|0,0:0|0:0|0:0,0:0:0:0:
392,168,45473,2,0,L|416:120,2,40,2|0|0,0:0|0:0|0:0,0:0:0:0:
432,248,45796,2,0,L|480:264,2,40,2|0|0,0:0|0:0|0:0,0:0:0:0:
352,304,46119,2,0,L|376:344,2,40,2|0|0,0:0|0:0|0:0,0:0:0:0:
192,176,144506,6,0,P|232:208|320:200,1,120.000004577637
408,168,144989,1,0,0:0:0:0:
328,72,145151,2,0,P|312:104|312:144,1,60.0000022888184
224,296,145473,2,0,P|264:304|304:296,1,60.0000022888184
360,280,145715,1,0,0:0:0:0:
360,280,145796,2,0,P|368:232|352:144,1,120.000004577637
176,88,165151,6,0,L|136:128,1,40
416,328,165473,2,0,L|456:288,1,40
200,328,165796,2,0,L|144:328,1,40
392,136,166119,2,0,L|416:96,1,40
328,296,166441,2,0,L|360:344,1,40
160,208,166764,1,0,0:0:0:0:
160,208,166844,1,0,0:0:0:0:
160,208,166925,2,0,L|144:160,2,40
