osu file format v14

[General]
AudioFilename: audio.mp3
AudioLeadIn: 0
PreviewTime: 200280
Countdown: 0
SampleSet: Soft
StackLeniency: 0.7
Mode: 0
LetterboxInBreaks: 0
WidescreenStoryboard: 0

[Editor]
DistanceSpacing: 1.5
BeatDivisor: 4
GridSize: 32
TimelineZoom: 1.4

[Metadata]
Title:Sweet Sorrow Lilac
TitleUnicode:Sweet Sorrow Lilac
Artist:Sakura Yuno
ArtistUnicode:咲良ゆの
Creator:SpokenAway
Version:Sorrow
Source:
Tags:japanese ららい つくね nemu 秋M3 2021 rarai tsukune Meis Clauson female vocals pop amelia Replica blue. jpop j-pop
BeatmapID:3653320
BeatmapSetID:1783889

[Difficulty]
HPDrainRate:5
CircleSize:4
OverallDifficulty:8
ApproachRate:8.5
SliderMultiplier:1.7
SliderTickRate:1

[Events]
//Background and Video events
0,0,"bg.jpg",0,0
//Break Periods
2,72076,77917
2,153186,159044
2,200534,209748
2,220808,225831
//Storyboard Layer 0 (Background)
//Storyboard Layer 1 (Fail)
//Storyboard Layer 2 (Pass)
//Storyboard Layer 3 (Foreground)
//Storyboard Layer 4 (Overlay)
//Storyboard Sound Samples

[TimingPoints]
891,422.535211267606,4,2,1,40,1,0
891,-100,4,2,1,40,0,0
4261,422.535211267606,4,2,1,40,1,0
4261,-181.818181818182,4,2,1,45,0,0
5845,-181.818181818182,4,2,1,5,0,0
5951,-181.818181818182,4,2,1,45,0,0
7535,-181.818181818182,4,2,1,5,0,0
7641,-250,4,2,1,45,0,0
9225,-250,4,2,1,5,0,0
9331,-222.222222222222,4,2,1,45,0,0
10915,-222.222222222222,4,2,1,5,0,0
11021,-111.111111111111,4,2,1,55,0,0
21479,-111.111111111111,4,2,1,5,0,0
21584,-111.111111111111,4,2,1,55,0,0
24120,-166.666666666666,4,2,1,55,0,0
24437,-166.666666666666,4,2,1,5,0,0
24542,-83.3333333333333,4,2,1,60,0,0
24965,-100,4,2,1,60,0,0
26549,-100,4,2,1,5,0,0
26655,-100,4,2,1,60,0,0
29930,-100,4,2,1,5,0,0
30035,-100,4,2,1,60,0,0
31303,-86.9565217391304,4,2,1,60,0,0
31725,-100,4,2,1,60,0,0
33310,-100,4,2,1,5,0,0
33415,-100,4,2,1,60,0,0
36690,-100,4,2,1,5,0,0
36796,-100,4,2,1,60,0,0
38063,-76.9230769230769,4,2,1,65,0,0
39331,-90.9090909090909,4,2,1,65,0,0
40176,-142.857142857143,4,2,1,65,0,0
41444,-71.4285714285714,4,2,1,65,0,0
42711,-83.3333333333333,4,2,1,65,0,0
43768,-125,4,2,1,65,0,0
44718,-125,4,2,1,5,0,0
44824,-83.3333333333333,4,2,1,60,0,0
45246,-100,4,2,1,60,0,0
46831,-100,4,2,1,5,0,0
46937,-100,4,2,1,60,0,0
51584,-83.3333333333333,4,2,1,80,0,1
56972,-83.3333333333333,4,2,1,5,0,1
57077,-83.3333333333333,4,2,1,80,0,1
58345,-76.9230769230769,4,2,1,80,0,1
58768,-83.3333333333333,4,2,1,80,0,1
62042,-83.3333333333333,4,2,1,5,0,1
62148,-83.3333333333333,4,2,1,80,0,1
64049,-76.9230769230769,4,2,1,80,0,1
64472,-83.3333333333333,4,2,1,80,0,1
65106,-76.9230769230769,4,2,1,80,0,1
65528,-83.3333333333333,4,2,1,80,0,1
68496,422.535211267606,4,2,1,80,1,1
68496,-83.3333333333333,4,2,1,80,0,1
71876,-125,4,2,1,50,0,0
78636,-90.9090909090909,4,2,1,60,0,0
78953,-90.9090909090909,4,2,1,5,0,0
79059,-100,4,2,1,60,0,0
82334,-100,4,2,1,5,0,0
82439,-100,4,2,1,60,0,0
85397,-90.9090909090909,4,2,1,60,0,0
85714,-90.9090909090909,4,2,1,5,0,0
85819,-100,4,2,1,60,0,0
89094,-100,4,2,1,5,0,0
89200,-100,4,2,1,60,0,0
92157,-125,4,2,1,50,0,0
105256,-142.857142857143,4,2,1,50,0,0
105573,-142.857142857143,4,2,1,5,0,0
105669,422.535211267606,4,2,1,5,1,0
105669,-90.9090909090908,4,2,1,55,0,0
106091,-99.9999999999999,4,2,1,55,0,0
107676,-99.9999999999999,4,2,1,5,0,0
107781,-99.9999999999999,4,2,1,55,0,0
111056,-99.9999999999999,4,2,1,5,0,0
111161,-99.9999999999999,4,2,1,55,0,0
112429,-83.3333333333333,4,2,1,55,0,0
112852,-99.9999999999999,4,2,1,55,0,0
114436,-99.9999999999999,4,2,1,5,0,0
114542,-99.9999999999999,4,2,1,55,0,0
119190,-68.9655172413793,4,2,1,65,0,0
120457,-83.3333333333333,4,2,1,65,0,0
121302,-142.857142857143,4,2,1,65,0,0
122464,-142.857142857143,4,2,1,5,0,0
122570,-68.9655172413793,4,2,1,65,0,0
123838,-80,4,2,1,65,0,0
124894,-111.111111111111,4,2,1,50,0,0
125960,422.535211267606,4,2,1,50,1,0
125960,-90.9090909090909,4,2,1,60,0,0
126382,-100,4,2,1,60,0,0
127967,-100,4,2,1,5,0,0
128072,-100,4,2,1,60,0,0
132720,-76.9230769230769,4,2,1,80,0,1
133143,-83.3333333333333,4,2,1,80,0,1
138107,-83.3333333333333,4,2,1,5,0,1
138213,-83.3333333333333,4,2,1,80,0,1
143178,-83.3333333333333,4,2,1,5,0,1
143283,-83.3333333333333,4,2,1,80,0,1
146226,422.535211267606,4,2,1,80,1,1
146226,-76.9230769230769,4,2,1,80,0,1
146648,-83.3333333333333,4,2,1,80,0,1
152986,-125,4,2,1,60,0,0
159767,422.535211267606,4,2,1,60,1,0
159767,-86.9565217391304,4,2,1,60,0,0
160083,-86.9565217391304,4,2,1,5,0,0
160189,-100,4,2,1,60,0,0
165154,-100,4,2,1,5,0,0
165259,-100,4,2,1,60,0,0
166527,-90.9090909090909,4,2,1,60,0,0
166950,-100,4,2,1,60,0,0
168202,422.535211267606,4,2,1,60,1,0
168202,-100,4,2,1,60,0,0
171582,397.350993377483,4,2,1,60,1,0
171979,410.958904109589,4,2,1,60,1,0
172389,428.571428571428,4,2,1,60,1,0
172817,-250,4,2,1,60,0,0
173139,-250,4,2,1,5,0,0
173246,425.531914893616,4,2,1,5,1,0
173246,-83.3333333333333,4,2,1,65,0,0
173565,-83.3333333333333,4,2,1,5,0,0
173671,-90.9090909090909,4,2,1,65,0,0
178671,-90.9090909090909,4,2,1,5,0,0
178777,-90.9090909090909,4,2,1,65,0,0
180054,422.535211267605,4,2,1,65,1,0
180054,-83.3333333333333,4,2,1,65,0,0
180476,-90.9090909090909,4,2,1,65,0,0
186392,-125,4,2,1,65,0,0
186708,-125,4,2,1,5,0,0
186814,-66.6666666666667,4,2,1,50,0,0
188082,-80,4,2,1,50,0,0
188927,-125,4,2,1,50,0,0
190089,-125,4,2,1,5,0,0
190184,422.535211267605,4,2,1,5,1,0
190184,-66.6666666666667,4,2,1,50,0,0
191451,-80,4,2,1,50,0,0
191768,-111.111111111111,4,2,1,50,0,0
193564,-86.9565217391304,4,2,1,55,0,0
193986,-100,4,2,1,55,0,0
195571,-100,4,2,1,5,0,0
195676,-100,4,2,1,55,0,0
200334,422.535211267605,4,2,1,55,1,0
200334,-142.857142857143,4,2,1,55,0,0
212164,-83.3333333333333,4,2,1,60,0,0
213010,400,4,2,1,60,1,0
213830,422.535211267605,4,2,1,60,1,0
213830,-76.9230769230769,4,2,1,80,0,1
214252,-83.3333333333333,4,2,1,80,0,1
215817,-83.3333333333333,4,2,1,5,0,1
215942,-83.3333333333333,4,2,1,80,0,1
220590,-125,4,2,1,80,0,0
226506,-111.111111111111,4,2,1,55,0,0
227351,-83.3333333333333,4,2,1,60,0,0
227773,-100,4,2,1,60,0,0
231048,-100,4,2,1,5,0,0
231153,-100,4,2,1,60,0,0
234111,-86.9565217391304,4,2,1,60,0,0
234534,-100,4,2,1,60,0,0
237808,-100,4,2,1,5,0,0
237914,-100,4,2,1,60,0,0
239202,422.535211267605,4,2,1,60,1,0
240882,422.535211267605,4,2,1,60,1,0
240882,-142.857142857143,4,2,1,60,0,0
247642,-142.857142857143,4,2,1,5,0,0

[Colours]
Combo1 : 243,212,213
Combo2 : 193,114,145
Combo3 : 214,173,171
Combo4 : 215,154,168

[HitObjects]
227,258,679,6,0,L|236:229,3,28.3333333333333,2|0|0|0,0:0|0:0|0:0|0:0,0:0:0:0:
117,117,2369,6,0,L|108:88,3,28.3333333333333,2|0|0|0,0:0|0:0|0:0|0:0,0:0:0:0:
133,152,4261,6,0,B|78:109|115:30|115:30|228:28|219:187,1,350.625010700226,2|0,0:0|0:0,0:0:0:0:
227,207,5951,6,0,B|252:235|252:235|303:150|405:153|405:153|416:234|356:278,1,350.625010700226,2|0,0:0|0:0,0:0:0:0:
359,281,7641,6,0,P|314:325|134:303,1,255,2|0,0:0|0:0,0:0:0:0:
126,296,9331,6,0,B|90:243|28:241|28:241|59:139|147:119,1,286.87499124527,2|0,0:0|0:0,0:0:0:0:
67,18,11021,6,0,P|43:79|65:178,1,152.999995330811,2|0,3:2|3:2,0:0:0:0:
153,222,11655,1,2,0:0:0:0:
153,222,11761,1,2,0:0:0:0:
153,222,11866,2,0,P|192:208|230:201,1,76.4999976654053,0|0,3:2|0:0,0:0:0:0:
46,365,12289,6,0,B|90:334|97:285|97:285|68:257|73:217,2,152.999995330811,2|0|0,3:2|3:2|3:2,0:0:0:0:
201,358,13556,6,0,P|256:345|277:336,1,76.4999976654053,2|0,3:2|0:0,0:0:0:0:
334,234,13979,2,0,P|304:206|271:205,1,76.4999976654053,0|0,3:2|0:0,0:0:0:0:
235,212,14296,1,0,0:0:0:0:
235,212,14401,6,0,P|207:178|208:68,1,152.999995330811,2|0,3:2|3:2,0:0:0:0:
315,37,15035,1,2,0:0:0:0:
315,37,15141,1,2,0:0:0:0:
315,37,15246,1,0,3:2:0:0:
272,125,15458,1,0,0:0:0:0:
405,153,15669,6,0,P|347:134|277:68,2,152.999995330811,2|0|0,3:2|3:2|3:2,0:0:0:0:
478,14,16937,5,2,3:2:0:0:
429,71,17148,1,0,0:0:0:0:
483,189,17359,5,0,3:2:0:0:
497,205,17570,1,0,0:0:0:0:
369,145,17782,6,0,L|213:178,1,152.999995330811,2|0,3:2|3:2,0:0:0:0:
129,95,18415,1,2,0:0:0:0:
129,95,18521,1,2,0:0:0:0:
129,95,18627,2,0,P|105:64|93:25,1,76.4999976654053,0|0,3:2|0:0,0:0:0:0:
21,218,19049,2,0,P|58:205|91:182,1,76.4999976654053,2|0,3:2|0:0,0:0:0:0:
221,335,19472,6,0,B|131:348|159:273|64:287,1,152.999995330811,0|0,3:2|3:2,0:0:0:0:
206,257,20317,6,0,P|220:219|227:180,1,76.4999976654053,2|0,3:2|0:0,0:0:0:0:
327,208,20739,2,0,P|313:246|306:285,1,76.4999976654053,0|0,3:2|0:0,0:0:0:0:
241,108,21162,6,0,P|208:84|196:6,1,114.749996498108,2|0,3:2|0:0,0:0:0:0:
273,7,21584,1,0,3:2:0:0:
349,9,21796,1,0,0:0:0:0:
407,58,22007,1,0,3:2:0:0:
398,210,22218,5,0,0:0:0:0:
335,157,22430,2,0,P|322:121|316:80,1,76.4999976654053,2|0,3:2|0:0,0:0:0:0:
503,294,22852,5,2,3:2:0:0:
426,284,23063,1,2,0:0:0:0:
386,349,23275,1,2,3:2:0:0:
461,360,23486,1,2,0:0:0:0:
418,263,23697,6,0,L|408:183,1,76.4999976654053,2|0,3:2|0:0,0:0:0:0:
501,74,24120,6,0,B|497:30|464:23|464:23|468:44,1,76.4999976654053,8|0,0:0|0:0,0:0:0:0:
418,89,24542,6,0,L|198:55,1,203.999993774414,6|8,3:2|0:0,0:0:0:0:
104,119,25176,1,2,0:0:0:0:
104,119,25282,1,2,0:0:0:0:
104,119,25387,1,0,3:2:0:0:
211,208,25599,1,0,3:2:0:0:
96,281,25810,2,0,P|113:230|132:191,1,85,10|0,0:0|0:0,0:0:0:0:
175,280,26127,1,2,0:0:0:0:
175,280,26232,6,0,P|200:320|285:310,1,127.5,0|0,3:2|0:0,0:0:0:0:
332,262,26655,2,0,P|319:216|311:175,1,85,8|0,0:0|0:0,0:0:0:0:
410,39,27077,1,2,3:2:0:0:
355,105,27289,1,0,3:2:0:0:
282,28,27500,2,0,P|242:27|191:17,1,85,8|0,0:0|0:0,0:0:0:0:
32,149,27922,6,0,P|86:170|165:100,1,170,2|8,3:2|0:0,0:0:0:0:
107,50,28556,1,2,0:0:0:0:
235,150,28768,1,0,3:2:0:0:
235,150,28979,1,0,3:2:0:0:
168,272,29190,2,0,P|153:230|143:175,1,85,10|0,0:0|0:0,0:0:0:0:
249,321,29507,1,2,0:0:0:0:
249,321,29613,6,0,P|182:313|134:371,1,127.5,0|0,3:2|0:0,0:0:0:0:
54,362,30035,2,0,P|23:330|33:286,1,85,8|0,0:0|0:0,0:0:0:0:
25,175,30458,5,2,3:2:0:0:
139,247,30669,1,0,3:2:0:0:
237,152,30880,1,8,0:0:0:0:
117,86,31091,1,8,0:0:0:0:
117,86,31197,1,8,0:0:0:0:
117,86,31303,6,0,P|226:70|317:35,1,195.500003728867,4|8,3:2|0:0,0:0:0:0:
417,120,31937,1,2,0:0:0:0:
417,120,32042,1,2,0:0:0:0:
417,120,32148,2,0,P|398:72|389:21,1,85,0|0,3:2|3:2,0:0:0:0:
284,153,32570,2,0,P|303:201|312:252,1,85,10|0,0:0|0:0,0:0:0:0:
474,350,32993,6,0,P|417:338|392:253,1,127.5,0|0,3:2|0:0,0:0:0:0:
478,225,33415,2,0,P|440:248|421:291,1,85,8|0,0:0|0:0,0:0:0:0:
374,157,33838,1,2,3:2:0:0:
374,157,34049,1,0,3:2:0:0:
489,84,34261,2,0,P|475:47|418:24,1,85,8|0,0:0|0:0,0:0:0:0:
364,68,34577,1,2,0:0:0:0:
364,68,34683,6,0,L|184:46,1,170,2|8,3:2|0:0,0:0:0:0:
70,138,35317,1,2,0:0:0:0:
70,138,35422,1,2,0:0:0:0:
70,138,35528,1,0,3:2:0:0:
112,48,35739,1,0,3:2:0:0:
198,163,35951,2,0,P|191:204|171:247,1,85,10|0,0:0|0:0,0:0:0:0:
11,302,36373,6,0,P|30:348|108:360,1,127.5,0|0,3:2|0:0,0:0:0:0:
169,330,36796,2,0,P|209:332|255:347,1,85,8|0,0:0|0:0,0:0:0:0:
348,272,37218,1,2,3:2:0:0:
413,182,37430,1,0,3:2:0:0:
351,90,37641,1,8,0:0:0:0:
351,90,37746,1,8,0:0:0:0:
351,90,37852,1,8,0:0:0:0:
176,201,38063,6,0,B|147:272|75:257|75:257|135:244|125:202|164:218,1,220.999989883423,6|8,3:2|0:0,0:0:0:0:
241,67,38697,6,0,B|269:-4|341:10|341:10|277:26|291:65|252:49,1,220.999989883423,6|0,3:2|3:2,0:0:0:0:
79,80,39331,6,0,B|42:74|40:35|40:35|57:62|83:69,1,93.5000028533936,10|0,0:0|0:0,0:0:0:0:
199,269,40176,6,0,P|222:245|260:244,1,59.4999981842042,2|0,0:0|0:0,0:0:0:0:
349,295,40599,2,0,P|381:302|401:335,1,59.4999981842042
462,272,40915,1,0,0:0:0:0:
462,272,41021,2,0,P|494:264|516:206,1,89.2499972763062
410,115,41444,6,0,B|347:123|287:61|289:24|289:24|337:54|332:97,1,237.999992736817,6|8,3:2|0:0,0:0:0:0:
219,222,42077,6,0,B|156:213|96:275|98:312|98:312|146:282|141:239,1,237.999992736817,6|0,3:2|3:2,0:0:0:0:
90,97,42711,6,0,B|45:67|51:30|51:30|73:47|65:70,1,101.999996887207,10|0,0:0|0:0,0:0:0:0:
33,368,43768,6,0,L|28:288,1,68,8|0,0:3|0:0,0:0:0:0:
106,185,44190,1,8,0:3:0:0:
106,185,44401,2,0,B|101:130|65:115|65:115|63:153,1,102,8|0,0:3|0:0,0:0:0:0:
23,213,44824,6,0,P|107:198|216:144,1,203.999993774414,6|8,3:2|0:0,0:0:0:0:
300,54,45458,1,2,0:0:0:0:
300,54,45563,1,2,0:0:0:0:
300,54,45669,2,0,P|348:68|383:128,1,85,0|0,3:2|3:2,0:0:0:0:
505,229,46091,1,8,0:0:0:0:
452,172,46303,1,0,0:0:0:0:
337,300,46514,6,0,P|381:354|434:346,1,127.5,2|0,3:2|0:0,0:0:0:0:
438,271,46937,2,0,P|392:251|354:267,1,85,8|0,0:0|0:0,0:0:0:0:
186,346,47359,5,2,3:2:0:0:
270,238,47570,1,0,3:2:0:0:
188,128,47782,1,8,0:0:0:0:
278,26,47993,1,0,3:2:0:0:
278,26,48099,1,2,0:0:0:0:
278,26,48204,6,0,P|208:37|92:11,1,170,14|0,0:0|3:2,0:0:0:0:
17,101,48838,1,0,3:2:0:0:
126,158,49049,1,0,3:2:0:0:
32,18,49261,1,0,3:2:0:0:
71,229,49472,1,0,3:2:0:0:
280,115,49683,1,14,0:0:0:0:
280,115,50106,5,8,0:0:0:0:
205,326,50317,1,8,0:0:0:0:
410,341,50739,5,2,0:0:0:0:
425,325,50845,1,2,0:0:0:0:
444,317,50951,1,2,0:0:0:0:
465,315,51056,1,2,0:0:0:0:
478,321,51162,5,2,0:0:0:0:
444,327,51268,1,2,0:0:0:0:
409,332,51373,1,2,0:0:0:0:
374,339,51479,1,2,0:0:0:0:
339,345,51584,6,0,B|316:323|316:323|315:285|348:252,1,101.999996887207,6|0,3:2|0:0,0:0:0:0:
428,139,52007,2,0,P|456:92|452:42,1,101.999996887207,8|2,0:0|0:0,0:0:0:0:
438,28,52324,1,2,0:0:0:0:
438,28,52430,1,0,3:2:0:0:
345,147,52641,1,0,3:2:0:0:
237,14,52852,1,8,0:0:0:0:
368,66,53063,1,0,0:0:0:0:
217,28,53275,6,0,P|188:89|206:138,1,101.999996887207,2|0,3:2|0:0,0:0:0:0:
297,246,53697,2,0,P|350:241|401:231,1,101.999996887207,8|0,0:0|0:0,0:0:0:0:
211,365,54120,1,2,3:2:0:0:
90,301,54331,1,0,3:2:0:0:
205,210,54542,2,0,P|218:154|212:102,1,101.999996887207,8|0,0:0|0:0,0:0:0:0:
26,28,54965,6,0,B|59:88|140:80|140:80|158:41|205:25,1,203.999993774414,2|8,3:2|0:0,0:0:0:0:
349,67,55599,1,2,0:0:0:0:
349,67,55704,1,2,0:0:0:0:
349,67,55810,1,0,3:2:0:0:
388,218,56021,1,0,3:2:0:0:
509,132,56232,2,0,P|506:72|468:40,1,101.999996887207,8|0,0:0|0:0,0:0:0:0:
415,119,56549,1,0,0:0:0:0:
415,119,56655,6,0,P|351:144|265:96,1,152.999995330811,2|0,3:2|0:0,0:0:0:0:
194,62,57077,2,0,P|136:81|86:90,1,101.999996887207,8|0,0:0|0:0,0:0:0:0:
0,216,57500,1,0,3:2:0:0:
168,286,57711,1,0,3:2:0:0:
105,180,57922,1,8,0:0:0:0:
99,210,58028,1,8,0:0:0:0:
94,240,58134,1,8,0:0:0:0:
89,270,58239,1,8,0:0:0:0:
83,297,58345,6,0,P|134:324|263:247,1,220.999989883423,6|8,3:2|0:0,0:0:0:0:
383,329,58979,1,2,0:0:0:0:
383,329,59084,1,2,0:0:0:0:
383,329,59190,1,0,3:2:0:0:
249,239,59401,1,0,3:2:0:0:
463,136,59613,1,8,0:0:0:0:
382,194,59824,1,0,0:0:0:0:
488,247,60035,6,0,P|435:222|382:211,1,101.999996887207,2|0,3:2|0:0,0:0:0:0:
410,7,60458,2,0,P|463:32|516:43,1,101.999996887207,8|0,0:0|0:0,0:0:0:0:
276,89,60880,1,2,3:2:0:0:
392,179,61091,1,0,3:2:0:0:
262,92,61303,2,0,P|198:113|141:111,1,101.999996887207,8|0,0:0|0:0,0:0:0:0:
46,258,61725,6,0,L|210:301,1,152.999995330811,2|0,3:2|0:0,0:0:0:0:
280,259,62148,2,0,P|296:208|266:171,1,101.999996887207,8|0,0:0|0:0,0:0:0:0:
135,189,62570,1,0,3:2:0:0:
270,89,62782,1,0,3:2:0:0:
125,5,62993,2,0,P|145:60|169:100,1,101.999996887207,8|0,0:0|0:0,0:0:0:0:
394,126,63415,5,6,3:2:0:0:
324,20,63627,1,0,3:2:0:0:
484,114,63838,1,8,0:0:0:0:
331,243,64049,6,0,P|441:305|514:250,1,220.999989883423,6|0,3:2|3:2,0:0:0:0:
292,174,64683,1,8,0:0:0:0:
259,190,64789,1,8,0:0:0:0:
225,193,64894,1,8,0:0:0:0:
190,182,65000,1,8,0:0:0:0:
164,157,65106,6,0,P|162:222|181:298,1,110.499994941712,6|0,3:2|0:0,0:0:0:0:
12,351,65528,2,0,P|71:337|86:284,1,101.999996887207,8|2,0:0|0:0,0:0:0:0:
82,264,65845,1,2,0:0:0:0:
82,264,65951,5,0,3:2:0:0:
164,157,66162,1,0,3:2:0:0:
59,12,66373,1,8,0:0:0:0:
0,72,66584,1,0,0:0:0:0:
157,134,66796,6,0,L|277:113,1,101.999996887207,2|0,3:2|0:0,0:0:0:0:
417,102,67218,2,0,P|399:46|397:-15,1,101.999996887207,8|0,0:0|0:0,0:0:0:0:
304,196,67641,5,2,3:2:0:0:
426,278,67852,1,0,3:2:0:0:
286,200,68063,2,0,P|219:214|169:217,1,101.999996887207,8|0,0:0|0:0,0:0:0:0:
360,335,68496,6,0,P|439:357|513:270,1,203.999993774414,2|8,3:2|0:0,0:0:0:0:
410,139,69129,1,2,0:0:0:0:
410,139,69235,1,2,0:0:0:0:
410,139,69341,1,0,3:2:0:0:
512,194,69552,1,0,3:2:0:0:
441,34,69763,2,0,P|393:57|337:71,1,101.999996887207,8|0,0:0|0:0,0:0:0:0:
261,106,70080,1,2,0:0:0:0:
261,106,70186,6,0,P|221:161|248:307,1,203.999993774414,2|8,3:2|0:0,0:0:0:0:
317,331,70819,1,0,0:0:0:0:
140,273,71031,1,0,3:2:0:0:
61,353,71242,1,8,0:3:0:0:
101,188,71453,1,8,0:0:0:0:
231,308,71665,1,8,0:0:0:0:
231,308,71770,1,8,0:0:0:0:
231,308,71876,1,6,3:2:0:0:
123,362,78636,6,0,P|172:352|201:269,1,140.25000428009,6|0,3:2|0:0,0:0:0:0:
152,198,79059,2,0,P|137:147|134:110,1,85,8|0,0:0|0:0,0:0:0:0:
261,192,79481,1,2,3:2:0:0:
261,192,79693,1,0,3:2:0:0:
97,284,79904,2,0,L|9:275,1,85,8|0,0:0|0:0,0:0:0:0:
268,364,80327,6,0,B|361:375|336:286|448:309,1,170,2|8,3:2|0:0,0:0:0:0:
476,180,80960,2,0,P|454:134|437:82,1,85,2|0,0:0|3:2,0:0:0:0:
363,238,81383,1,0,3:2:0:0:
491,359,81594,2,0,L|502:265,1,85,8|0,0:0|0:0,0:0:0:0:
344,151,82017,6,0,L|205:184,1,127.5,2|0,3:2|0:0,0:0:0:0:
150,130,82439,2,0,P|126:86|150:45,1,85,8|0,0:0|0:0,0:0:0:0:
136,222,82862,1,2,3:2:0:0:
235,97,83073,1,0,3:2:0:0:
123,237,83284,2,0,P|137:286|146:324,1,85,8|0,0:0|0:0,0:0:0:0:
8,203,83707,5,2,3:2:0:0:
68,140,83918,1,0,0:0:0:0:
32,27,84129,1,8,0:0:0:0:
189,118,84341,1,2,0:0:0:0:
149,11,84552,1,0,3:2:0:0:
149,11,84763,1,0,3:2:0:0:
307,123,84974,5,8,0:0:0:0:
343,115,85080,1,8,0:0:0:0:
379,107,85186,1,8,0:3:0:0:
416,99,85291,1,8,0:3:0:0:
452,91,85397,6,0,P|395:76|317:44,1,140.25000428009,6|0,3:2|0:0,0:0:0:0:
243,21,85819,2,0,L|143:45,1,85,8|0,0:0|0:0,0:0:0:0:
55,127,86242,1,2,3:2:0:0:
55,127,86453,1,0,3:2:0:0:
150,218,86665,2,0,P|176:178|159:130,1,85,8|0,0:0|0:0,0:0:0:0:
3,306,87087,6,0,P|64:298|138:376,1,170,2|8,3:2|0:0,0:0:0:0:
250,249,87721,2,0,P|271:195|276:159,1,85,2|0,0:0|3:2,0:0:0:0:
131,234,88143,1,0,3:2:0:0:
250,361,88355,2,0,L|339:346,1,85,8|0,0:0|0:0,0:0:0:0:
499,261,88777,6,0,P|447:239|367:216,1,127.5,2|0,3:2|0:0,0:0:0:0:
309,161,89200,2,0,P|294:118|327:74,1,85,8|0,0:0|0:0,0:0:0:0:
467,39,89622,1,2,3:2:0:0:
391,139,89834,1,0,3:2:0:0:
259,22,90045,2,0,P|217:36|160:45,1,85,8|0,0:0|0:0,0:0:0:0:
66,107,90467,5,2,3:2:0:0:
186,194,90679,1,8,0:0:0:0:
102,316,90890,1,0,3:2:0:0:
102,316,90996,1,8,0:0:0:0:
102,316,91101,1,8,0:0:0:0:
184,373,91312,1,8,3:3:0:0:
351,221,91629,5,8,0:0:0:0:
355,211,91735,1,8,0:0:0:0:
259,247,91946,1,8,0:3:0:0:
195,105,92157,6,0,P|261:80|319:49,1,136,6|0,3:2|0:0,0:0:0:0:
193,20,92791,2,0,P|144:14|102:38,1,68,2|0,0:0|0:0,0:0:0:0:
210,25,93214,1,0,3:0:0:0:
113,96,93425,2,0,P|83:135|83:183,1,68,0|0,0:0|3:0,0:0:0:0:
200,211,93848,6,0,P|255:229|283:316,1,136,2|0,3:2|0:0,0:0:0:0:
219,361,94481,1,0,3:0:0:0:
219,361,94693,2,0,P|183:359|153:330,1,68,2|0,0:0|3:0,0:0:0:0:
88,280,95115,2,0,P|52:282|22:311,1,68,0|0,0:0|3:0,0:0:0:0:
180,221,95538,6,0,P|190:188|195:130,1,68,2|0,3:2|0:0,0:0:0:0:
141,75,95960,2,0,P|211:66|285:47,1,136,2|0,0:0|0:0,0:0:0:0:
131,83,96594,1,0,3:0:0:0:
208,159,96805,2,0,P|278:168|297:176,1,68
385,244,97228,6,0,P|351:176|386:106,1,136,2|0,3:2|0:0,0:0:0:0:
445,54,97862,1,0,3:0:0:0:
445,54,98073,2,0,L|368:41,1,68,2|0,0:0|3:0,0:0:0:0:
285,76,98496,2,0,L|208:63,1,68,0|0,0:0|3:0,0:0:0:0:
114,139,98918,6,0,P|103:212|144:274,1,136,2|0,3:2|0:0,0:0:0:0:
234,292,99552,2,0,P|271:266|308:262,1,68
224,299,99974,1,0,3:0:0:0:
343,338,100186,2,0,P|380:364|417:368,1,68,2|0,0:0|3:0,0:0:0:0:
483,264,100608,6,0,L|476:123,1,136,2|0,3:2|0:0,0:0:0:0:
395,57,101242,1,0,3:0:0:0:
395,57,101453,2,0,P|358:73|341:111,1,68,2|0,0:0|3:0,0:0:0:0:
327,182,101876,2,0,P|343:219|381:236,1,68,0|0,0:0|3:0,0:0:0:0:
232,107,102298,6,0,P|180:91|144:12,1,136,2|0,3:2|0:0,0:0:0:0:
247,117,102932,2,0,P|266:148|271:189,1,68,0|0,3:2|0:2,0:2:0:0:
221,265,103355,1,0,0:0:0:0:
221,265,103566,2,0,L|143:250,1,68,6|0,0:2|0:0,0:0:0:0:
154,114,103988,5,2,0:0:0:0:
95,169,104200,1,2,0:0:0:0:
40,110,104411,1,2,0:0:0:0:
99,55,104622,1,2,0:0:0:0:
303,34,105256,6,0,B|286:22|318:6|349:34|345:89,1,89.2499972763062,2|0,0:0|0:0,0:0:0:0:
283,150,105669,6,0,P|333:108|468:123,1,187.000005706787,6|8,3:2|0:0,0:0:0:0:
389,214,106302,1,2,0:0:0:0:
389,214,106408,1,2,0:0:0:0:
389,214,106514,1,0,3:2:0:0:
512,278,106725,1,0,3:2:0:0:
414,372,106936,2,0,P|425:332|436:286,1,85,10|0,0:0|0:0,0:0:0:0:
345,297,107253,1,0,0:0:0:0:
345,297,107359,6,0,P|311:336|227:314,1,127.5,0|0,3:2|0:0,0:0:0:0:
229,250,107781,2,0,P|243:206|252:169,1,85,8|0,0:0|0:0,0:0:0:0:
161,90,108204,1,2,3:2:0:0:
249,28,108415,1,0,3:2:0:0:
146,102,108626,2,0,L|57:84,1,85,8|0,0:0|0:0,0:0:0:0:
274,174,109049,6,0,B|369:173|329:95|439:106,1,170,2|8,3:2|0:0,0:0:0:0:
498,97,109683,1,2,0:0:0:0:
413,185,109894,1,0,3:2:0:0:
413,185,110105,1,0,3:2:0:0:
285,94,110316,2,0,P|270:52|260:-3,1,85,10|0,0:0|0:0,0:0:0:0:
192,98,110633,1,2,0:0:0:0:
192,98,110739,6,0,P|126:114|102:185,1,127.5,0|0,3:2|0:0,0:0:0:0:
167,229,111161,2,0,P|216:239|260:253,1,85,8|0,0:0|0:0,0:0:0:0:
442,356,111584,5,2,3:2:0:0:
503,263,111795,1,0,3:2:0:0:
453,143,112007,1,8,0:0:0:0:
392,236,112218,1,0,0:0:0:0:
263,76,112429,6,0,B|299:136|374:131|374:131|387:80|436:65,1,203.999993774414,4|8,3:2|0:0,0:0:0:0:
294,209,113063,1,2,0:0:0:0:
294,209,113169,1,2,0:0:0:0:
294,209,113274,2,0,P|275:257|266:308,1,85,0|0,3:2|3:2,0:0:0:0:
167,163,113697,2,0,P|148:115|139:64,1,85,10|0,0:0|0:0,0:0:0:0:
48,313,114119,6,0,P|114:300|185:278,1,127.5,0|0,3:2|0:0,0:0:0:0:
109,222,114542,2,0,L|12:206,1,85,8|0,0:0|0:0,0:0:0:0:
227,184,114964,1,2,3:2:0:0:
227,184,115176,1,0,3:2:0:0:
271,262,115387,2,0,P|290:302|332:318,1,85,8|0,0:0|0:0,0:0:0:0:
432,284,115704,1,2,0:0:0:0:
432,284,115809,6,0,P|362:231|269:256,1,170,2|8,3:2|0:0,0:0:0:0:
435,161,116443,1,2,0:0:0:0:
435,161,116549,1,2,0:0:0:0:
435,161,116654,1,0,3:2:0:0:
314,36,116866,1,0,3:2:0:0:
396,17,117077,2,0,P|389:58|369:101,1,85,10|0,0:0|0:0,0:0:0:0:
264,198,117499,5,0,3:2:0:0:
125,254,117711,1,8,0:0:0:0:
20,137,117922,1,8,0:0:0:0:
13,149,118028,1,8,0:0:0:0:
170,66,118239,5,8,0:0:0:0:
171,80,118345,1,2,3:2:0:0:
33,242,118661,5,8,0:0:0:0:
29,254,118767,2,0,P|33:279|52:305,1,42.5,8|8,0:0|0:0,0:0:0:0:
149,371,118978,1,8,0:0:0:0:
170,367,119084,1,8,0:0:0:0:
194,362,119190,6,0,B|313:344|233:247|360:182|379:280|327:303|276:275,1,246.500007522583,6|8,3:2|0:0,0:0:0:0:
204,182,119823,6,0,B|301:110|184:61|266:-54|329:23|294:67|235:66,1,246.500007522583,6|0,3:2|3:2,0:0:0:0:
93,220,120457,6,0,B|42:214|7:145|74:145|52:174,1,101.999996887207,10|0,0:0|0:0,0:0:0:0:
433,66,121302,6,0,L|518:51,1,59.4999981842042,2|0,0:0|0:0,0:0:0:0:
321,140,121725,2,0,L|406:125,1,59.4999981842042
448,174,122042,1,0,0:0:0:0:
448,174,122147,2,0,P|473:207|468:263,1,89.2499972763062
306,291,122570,6,0,B|294:309|245:297|281:205|437:273|443:371,1,246.500007522583,6|8,3:2|0:0,0:0:0:0:
217,238,123204,6,0,B|197:247|161:211|239:151|337:290|292:377,1,246.500007522583,6|0,3:2|3:2,0:0:0:0:
136,187,123838,6,0,B|108:191|125:155|193:187|182:244,1,106.25,10|0,0:0|0:0,0:0:0:0:
15,352,124894,5,8,0:0:0:0:
15,352,124999,1,8,0:0:0:0:
15,352,125105,1,8,0:0:0:0:
121,279,125316,5,8,0:3:0:0:
152,181,125528,5,8,0:3:0:0:
103,111,125739,5,8,0:3:0:0:
80,97,125960,6,0,P|185:87|283:57,1,187.000005706787,6|8,3:2|0:0,0:0:0:0:
385,119,126593,1,2,0:0:0:0:
385,119,126699,1,2,0:0:0:0:
385,119,126805,2,0,P|371:76|358:22,1,85,0|0,3:2|3:2,0:0:0:0:
289,178,127227,1,8,0:0:0:0:
386,234,127438,1,0,0:0:0:0:
242,344,127650,6,0,P|294:302|367:324,1,127.5,2|0,3:2|0:0,0:0:0:0:
414,362,128072,2,0,P|456:356|511:342,1,85,8|0,0:0|0:0,0:0:0:0:
399,217,128495,5,2,3:2:0:0:
496,121,128706,1,0,3:2:0:0:
400,24,128917,1,8,0:0:0:0:
303,120,129129,1,0,3:2:0:0:
303,120,129234,1,2,0:0:0:0:
303,120,129340,1,14,0:0:0:0:
400,121,129762,5,0,3:2:0:0:
317,206,129974,1,0,3:2:0:0:
220,73,130185,1,0,3:2:0:0:
148,242,130396,1,0,3:2:0:0:
303,120,130607,1,0,3:2:0:0:
408,339,130819,1,14,0:0:0:0:
408,339,131241,5,8,0:0:0:0:
148,242,131452,1,8,0:0:0:0:
381,52,131875,5,8,0:0:0:0:
357,80,131981,1,8,0:0:0:0:
378,110,132086,1,8,0:0:0:0:
413,101,132192,1,8,0:0:0:0:
418,61,132298,5,8,0:0:0:0:
393,92,132403,1,8,0:0:0:0:
377,132,132509,1,8,0:0:0:0:
376,174,132614,1,8,0:0:0:0:
389,214,132720,6,0,B|348:240|348:240|327:219|282:214,1,110.499994941712,6|0,3:2|0:0,0:0:0:0:
83,171,133143,2,0,L|108:58,1,101.999996887207,8|2,0:0|0:0,0:0:0:0:
109,54,133460,1,2,0:0:0:0:
109,54,133565,1,0,3:2:0:0:
205,26,133776,1,0,3:2:0:0:
91,143,133988,1,8,0:0:0:0:
29,11,134199,1,0,0:0:0:0:
183,114,134410,6,0,L|295:100,1,101.999996887207,2|0,3:2|0:0,0:0:0:0:
444,87,134833,2,0,P|476:39|458:-4,1,101.999996887207,8|0,0:0|0:0,0:0:0:0:
335,184,135255,1,2,3:2:0:0:
488,242,135467,1,0,3:2:0:0:
365,354,135678,2,0,P|381:295|401:245,1,101.999996887207,8|0,0:0|0:0,0:0:0:0:
206,358,136100,6,0,P|113:318|13:385,1,203.999993774414,2|8,3:2|0:0,0:0:0:0:
86,176,136734,1,2,0:0:0:0:
86,176,136840,1,2,0:0:0:0:
86,176,136945,1,0,3:2:0:0:
206,248,137157,1,0,3:2:0:0:
22,253,137368,2,0,P|7:199|0:147,1,101.999996887207,8|0,0:0|0:0,0:0:0:0:
71,70,137685,1,2,0:0:0:0:
71,70,137790,6,0,P|148:93|213:38,1,152.999995330811,2|0,3:2|0:0,0:0:0:0:
277,114,138213,2,0,P|297:179|307:221,1,101.999996887207,8|0,0:0|0:0,0:0:0:0:
164,314,138636,1,0,3:2:0:0:
164,314,138847,1,0,3:2:0:0:
421,363,139058,1,8,0:0:0:0:
376,380,139164,1,8,0:0:0:0:
347,342,139269,1,8,0:0:0:0:
376,304,139375,1,8,0:0:0:0:
420,321,139481,6,0,B|315:335|333:238|220:254,1,203.999993774414,6|8,3:2|0:0,0:0:0:0:
429,99,140114,1,2,0:0:0:0:
429,99,140220,1,2,0:0:0:0:
429,99,140326,1,0,3:2:0:0:
281,154,140537,1,0,3:2:0:0:
412,220,140748,1,8,0:0:0:0:
317,33,140960,1,0,0:0:0:0:
147,150,141171,6,0,P|121:194|107:258,1,101.999996887207,2|0,3:2|0:0,0:0:0:0:
228,367,141593,2,0,P|254:323|268:259,1,101.999996887207,8|0,0:2|0:0,0:0:0:0:
161,138,142016,1,2,3:2:0:0:
270,256,142227,1,0,3:2:0:0:
411,170,142438,2,0,P|434:121|448:72,1,101.999996887207,8|0,0:0|0:0,0:0:0:0:
356,359,142861,6,0,P|437:318|497:350,1,152.999995330811,2|0,3:2|0:0,0:0:0:0:
377,246,143283,2,0,P|336:201|331:151,1,101.999996887207,8|0,0:0|0:0,0:0:0:0:
126,72,143706,1,0,3:2:0:0:
225,127,143917,1,0,3:2:0:0:
344,30,144129,2,0,P|407:47|454:43,1,101.999996887207,8|0,0:0|0:0,0:0:0:0:
338,233,144551,5,6,3:2:0:0:
420,126,144762,1,0,3:2:0:0:
512,292,144974,1,8,0:0:0:0:
324,372,145185,6,0,B|382:319|434:329|434:329|457:365|512:382,1,203.999993774414,6|0,3:2|3:2,0:0:0:0:
278,182,145819,1,8,0:0:0:0:
233,193,145924,1,8,0:0:0:0:
188,204,146030,1,8,0:0:0:0:
143,215,146136,1,8,0:0:0:0:
99,226,146226,6,0,P|150:198|235:193,1,110.499994941712,6|0,3:2|0:0,0:0:0:0:
294,19,146648,2,0,P|243:47|168:58,1,101.999996887207,8|2,0:2|0:0,0:0:0:0:
165,65,146965,1,2,0:0:0:0:
165,65,147071,5,0,3:2:0:0:
296,186,147282,1,0,3:2:0:0:
128,372,147493,1,8,0:0:0:0:
205,341,147704,1,0,0:0:0:0:
139,276,147916,6,0,P|201:321|242:328,1,101.999996887207,2|0,3:2|0:0,0:0:0:0:
403,270,148338,2,0,P|426:218|402:169,1,101.999996887207,8|0,0:0|0:0,0:0:0:0:
287,96,148761,5,2,3:2:0:0:
439,26,148972,1,0,3:2:0:0:
270,102,149183,2,0,P|220:94|164:79,1,101.999996887207,8|0,0:0|0:0,0:0:0:0:
299,333,149606,6,0,P|344:293|510:341,1,203.999993774414,2|8,3:2|0:0,0:0:0:0:
423,132,150239,1,2,0:0:0:0:
423,132,150345,1,2,0:0:0:0:
423,132,150450,1,0,3:2:0:0:
512,219,150662,1,0,3:2:0:0:
355,71,150873,2,0,P|310:97|258:115,1,101.999996887207,8|0,0:0|0:0,0:0:0:0:
93,255,151296,5,2,3:2:0:0:
15,147,151508,1,0,3:2:0:0:
82,32,151719,1,8,0:0:0:0:
82,32,151930,1,0,0:0:0:0:
5,65,152141,5,0,3:2:0:0:
121,139,152353,5,8,0:3:0:0:
203,197,152564,5,8,0:3:0:0:
280,251,152775,5,8,0:3:0:0:
280,251,152881,5,8,0:3:0:0:
280,251,152986,5,6,3:2:0:0:
25,81,159767,6,0,P|100:67|126:-5,1,146.62500279665,6|0,3:2|0:0,0:0:0:0:
173,102,160189,2,0,P|187:143|218:206,1,85,8|0,0:0|0:0,0:0:0:0:
307,257,160612,1,2,3:2:0:0:
307,257,160823,1,0,3:2:0:0:
196,338,161034,2,0,P|150:335|131:302,1,85,8|0,0:0|0:0,0:0:0:0:
300,165,161457,6,0,P|379:193|481:203,1,170,2|8,3:2|0:0,0:0:0:0:
421,31,162090,2,0,P|369:46|356:84,1,85,2|0,0:0|3:2,0:0:0:0:
197,169,162513,1,0,3:2:0:0:
79,189,162724,1,8,0:0:0:0:
12,89,162936,1,0,0:0:0:0:
52,277,163147,6,0,P|31:316|25:363,1,85,2|0,3:2|0:0,0:0:0:0:
273,305,163569,2,0,P|224:257|129:283,1,170,8|2,0:0|3:2,0:0:0:0:
285,183,164203,1,0,3:2:0:0:
178,100,164414,1,8,0:0:0:0:
320,16,164626,1,2,0:0:0:0:
320,16,164731,1,2,0:0:0:0:
320,16,164837,6,0,L|475:46,1,127.5,2|0,3:2|0:0,0:0:0:0:
492,123,165259,2,0,P|518:162|507:207,1,85,8|0,0:0|0:0,0:0:0:0:
414,278,165682,1,0,3:2:0:0:
414,278,165893,1,0,3:2:0:0:
322,189,166105,1,8,0:0:0:0:
512,354,166316,1,8,0:3:0:0:
512,354,166421,1,8,0:3:0:0:
512,354,166527,6,0,P|452:321|325:382,1,187.000005706787,6|8,3:2|0:0,0:0:0:0:
219,213,167161,2,0,P|207:167|194:122,1,85,2|0,0:0|3:2,0:0:0:0:
332,237,167583,1,0,3:2:0:0:
228,345,167795,1,8,0:0:0:0:
353,227,168006,1,2,0:0:0:0:
353,227,168112,1,2,0:0:0:0:
353,227,168202,6,0,L|447:214,1,85,2|0,3:2|0:0,0:0:0:0:
307,85,168624,1,8,0:0:0:0:
140,230,168836,5,2,0:0:0:0:
35,281,169047,1,0,3:2:0:0:
132,338,169258,1,0,3:2:0:0:
57,182,169469,2,0,P|42:144|35:93,1,85,8|0,0:0|0:0,0:0:0:0:
141,61,169786,1,2,0:0:0:0:
141,61,169892,6,0,B|204:41|236:75|236:75|231:117|264:145,1,170,2|8,3:2|0:0,0:0:0:0:
220,210,170525,1,0,0:0:0:0:
326,286,170737,1,0,3:2:0:0:
437,130,170948,1,2,3:2:0:0:
487,200,171159,2,0,P|474:253|469:292,1,85,8|0,0:0|0:0,0:0:0:0:
309,181,171582,5,8,0:0:0:0:
282,146,171681,1,8,0:0:0:0:
270,103,171780,1,8,0:0:0:0:
276,60,171880,1,8,0:3:0:0:
306,24,171979,5,8,0:3:0:0:
263,29,172081,5,8,0:3:0:0:
224,34,172184,5,8,0:3:0:0:
194,37,172287,5,8,0:3:0:0:
168,40,172389,5,8,0:3:0:0:
147,43,172496,5,8,0:3:0:0:
130,45,172603,5,8,0:3:0:0:
117,47,172710,5,8,0:3:0:0:
108,49,172817,6,0,L|54:56,1,51,10|0,0:0|0:0,0:0:0:0:
2,172,173246,6,0,P|62:152|131:209,1,152.999995330811,6|0,3:2|0:0,0:0:0:0:
212,248,173671,2,0,P|258:242|310:230,1,93.5000028533936,8|0,0:0|0:0,0:0:0:0:
399,129,174096,1,0,3:2:0:0:
399,129,174309,1,0,3:2:0:0:
276,28,174522,2,0,P|249:76|283:122,1,93.5000028533936,10|0,0:0|0:0,0:0:0:0:
466,246,174947,6,0,L|492:56,1,187.000005706787,2|8,3:2|0:0,0:0:0:0:
310,177,175586,2,0,P|322:228|340:273,1,93.5000028533936,2|0,0:0|3:2,0:0:0:0:
482,327,176011,1,0,3:2:0:0:
397,169,176224,1,8,0:0:0:0:
226,218,176437,1,2,0:0:0:0:
226,218,176543,1,2,0:0:0:0:
226,218,176649,6,0,P|164:218|139:177,1,93.5000028533936,2|0,3:2|0:0,0:0:0:0:
320,355,177075,2,0,P|390:339|513:346,1,187.000005706787,8|0,0:0|3:2,0:0:0:0:
336,231,177713,1,0,3:2:0:0:
213,352,177926,1,10,0:0:0:0:
355,206,178139,1,2,0:0:0:0:
355,206,178245,1,2,0:0:0:0:
355,206,178351,6,0,P|382:156|348:78,1,140.25000428009,2|0,3:2|0:0,0:0:0:0:
268,51,178777,2,0,P|215:38|173:11,1,93.5000028533936,8|0,0:0|0:0,0:0:0:0:
52,120,179204,1,0,3:2:0:0:
52,120,179310,1,8,0:0:0:0:
52,120,179416,1,0,3:2:0:0:
165,225,179629,2,0,P|189:180|169:132,1,93.5000028533936,8|0,0:0|0:0,0:0:0:0:
54,242,179948,1,2,0:0:0:0:
54,242,180054,6,0,P|139:262|242:326,1,203.999993774414,2|8,3:2|0:0,0:0:0:0:
353,196,180687,2,0,P|361:149|381:93,1,93.5000028533936,2|0,0:0|3:2,0:0:0:0:
458,274,181110,1,0,3:2:0:0:
337,343,181321,1,8,0:0:0:0:
214,208,181533,1,2,0:0:0:0:
214,208,181638,1,2,0:0:0:0:
214,208,181744,6,0,L|113:191,1,93.5000028533936,2|0,3:2|0:0,0:0:0:0:
51,41,182166,1,8,0:0:0:0:
224,110,182377,5,2,0:0:0:0:
301,77,182589,1,0,3:2:0:0:
377,41,182800,1,0,3:2:0:0:
388,225,183011,2,0,P|347:188|357:138,1,93.5000028533936,10|0,0:0|0:0,0:0:0:0:
500,195,183328,1,2,0:0:0:0:
500,195,183434,6,0,P|425:220|393:320,1,187.000005706787,2|8,3:2|0:0,0:0:0:0:
470,346,184068,1,0,0:0:0:0:
314,233,184279,1,0,3:2:0:0:
455,79,184491,1,0,3:2:0:0:
378,38,184702,2,0,P|326:38|278:21,1,93.5000028533936,10|0,0:0|0:0,0:0:0:0:
151,120,185124,5,10,0:0:0:0:
395,212,185336,5,8,0:0:0:0:
350,196,185441,1,8,0:0:0:0:
314,226,185547,1,8,0:0:0:0:
293,254,185653,1,8,0:3:0:0:
248,270,185758,1,8,0:3:0:0:
212,240,185864,1,8,0:3:0:0:
210,221,185969,1,8,0:3:0:0:
35,363,186181,5,8,0:3:0:0:
31,339,186286,1,8,0:3:0:0:
28,315,186392,2,0,P|75:293|122:320,1,102,8|0,0:0|0:0,0:0:0:0:
239,310,186814,6,0,B|298:303|343:363|343:363|317:296|364:228,1,255.000009727478,6|8,3:2|0:0,0:0:0:0:
146,179,187448,6,0,B|81:178|43:243|43:243|61:174|6:112,1,255.000009727478,6|0,3:2|3:2,0:0:0:0:
288,55,188082,6,0,B|315:60|327:89|327:89|317:53|337:20,1,106.25,10|0,0:0|0:0,0:0:0:0:
459,369,188927,6,0,L|463:287,1,68,2|0,0:0|0:0,0:0:0:0:
409,226,189349,2,0,L|413:144,1,68
475,108,189666,1,0,0:0:0:0:
475,108,189772,2,0,L|482:-8,1,102
361,47,190184,6,0,B|350:101|225:139|192:115|171:8|258:42,1,255.000009727478,6|8,3:2|0:0,0:0:0:0:
200,218,190817,6,0,B|147:200|51:289|56:329|138:401|152:309,1,255.000009727478,6|0,3:2|3:2,0:0:0:0:
62,127,191451,6,0,B|-2:102|-19:18|39:-7|45:49,1,159.375,10|8,0:0|0:0,0:0:0:0:
125,46,191874,5,8,0:0:0:0:
136,36,191979,1,8,0:0:0:0:
271,68,192191,5,8,0:3:0:0:
282,58,192296,1,8,0:3:0:0:
385,25,192507,1,8,0:3:0:0:
472,200,192719,5,8,0:0:0:0:
421,145,192860,1,8,0:3:0:0:
350,170,193000,1,8,0:3:0:0:
294,231,193141,5,8,0:3:0:0:
250,277,193282,1,8,0:3:0:0:
189,256,193423,1,8,0:3:0:0:
139,321,193564,6,0,B|254:319|206:246|327:243,1,195.500003728867,6|8,3:2|0:0,0:0:0:0:
168,163,194198,1,2,0:0:0:0:
168,163,194303,1,2,0:0:0:0:
168,163,194409,1,0,3:2:0:0:
259,80,194620,1,0,3:2:0:0:
132,19,194831,2,0,P|76:30|31:32,1,85,8|0,0:0|0:0,0:0:0:0:
261,169,195254,6,0,P|315:180|373:115,1,127.5,2|0,3:2|0:0,0:0:0:0:
442,89,195676,2,0,P|459:150|471:182,1,85,8|0,0:0|0:0,0:0:0:0:
414,350,196099,5,2,3:2:0:0:
363,266,196310,1,0,3:2:0:0:
175,257,196522,5,8,0:0:0:0:
226,341,196733,1,0,3:2:0:0:
312,178,196944,5,14,0:0:0:0:
312,178,197367,5,0,3:2:0:0:
246,120,197578,1,0,3:2:0:0:
372,87,197789,1,0,3:2:0:0:
235,215,198001,1,0,3:2:0:0:
183,47,198212,1,0,3:2:0:0:
51,215,198423,1,14,0:0:0:0:
51,215,198845,5,8,0:0:0:0:
274,308,199057,1,8,0:0:0:0:
257,183,200334,5,6,3:2:0:0:
256,192,210474,12,0,211953,0:0:0:0:
95,61,212164,5,6,3:2:0:0:
229,169,212376,1,0,3:2:0:0:
60,210,212587,1,8,0:0:0:0:
134,147,212798,5,6,3:2:0:0:
277,298,213010,5,8,0:0:0:0:
310,270,213110,1,8,0:0:0:0:
355,262,213210,1,8,0:0:0:0:
399,271,213310,1,8,0:0:0:0:
433,300,213410,5,8,0:3:0:0:
453,331,213510,5,8,0:3:0:0:
446,350,213610,5,8,0:3:0:0:
433,355,213710,5,8,0:3:0:0:
422,354,213830,6,0,B|401:309|401:309|421:273|412:250,1,110.499994941712,6|0,3:2|0:0,0:0:0:0:
388,76,214252,2,0,P|337:36|285:39,1,101.999996887207,8|2,0:0|0:0,0:0:0:0:
266,45,214569,1,2,0:0:0:0:
266,45,214675,1,0,3:2:0:0:
187,139,214886,1,0,3:2:0:0:
319,156,215097,1,8,0:0:0:0:
152,23,215308,1,0,0:0:0:0:
58,188,215520,6,0,P|37:246|70:300,1,101.999996887207,2|0,3:2|0:0,0:0:0:0:
182,353,215942,2,0,L|290:333,1,101.999996887207,8|0,0:0|0:0,0:0:0:0:
394,246,216365,1,2,3:2:0:0:
237,186,216576,1,0,3:2:0:0:
366,76,216787,2,0,P|350:135|330:185,1,101.999996887207,8|0,0:0|0:0,0:0:0:0:
435,347,217210,6,0,P|480:308|454:171,1,203.999993774414,2|8,3:2|0:0,0:0:0:0:
346,61,217844,1,2,0:0:0:0:
346,61,217949,1,2,0:0:0:0:
346,61,218055,1,0,3:2:0:0:
446,168,218266,1,0,3:2:0:0:
286,256,218477,2,0,P|231:243|182:225,1,101.999996887207,8|0,0:0|0:0,0:0:0:0:
122,17,218900,5,2,3:2:0:0:
195,92,219111,1,0,3:2:0:0:
88,287,219322,1,8,0:0:0:0:
15,212,219534,1,0,0:0:0:0:
0,49,219745,5,8,0:3:0:0:
32,81,219851,1,8,0:3:0:0:
65,114,219956,1,8,0:3:0:0:
97,146,220062,1,8,0:0:0:0:
130,179,220168,1,8,0:0:0:0:
316,265,220379,5,8,0:0:0:0:
298,275,220484,1,8,0:0:0:0:
281,287,220590,1,6,3:2:0:0:
374,293,226506,5,8,0:3:0:0:
473,212,226717,1,8,0:3:0:0:
322,124,226928,5,8,0:0:0:0:
294,89,227034,1,8,0:0:0:0:
313,50,227139,1,8,0:0:0:0:
356,50,227245,1,8,0:0:0:0:
375,88,227351,6,0,P|291:101|222:16,1,203.999993774414,6|8,3:2|0:0,0:0:0:0:
144,82,227984,1,0,0:0:0:0:
249,182,228196,1,2,3:2:0:0:
249,182,228407,1,0,3:2:0:0:
96,261,228618,2,0,P|43:250|9:232,1,85,8|0,0:0|0:0,0:0:0:0:
301,366,229041,6,0,P|354:326|464:357,1,170,2|8,3:2|0:0,0:0:0:0:
275,254,229675,2,0,P|245:215|256:170,1,85,2|0,0:0|3:2,0:0:0:0:
322,63,230097,1,0,3:2:0:0:
389,197,230308,1,8,0:0:0:0:
228,104,230520,1,2,0:0:0:0:
228,104,230625,1,2,0:0:0:0:
228,104,230731,6,0,P|153:97|89:74,1,127.5,2|0,3:2|0:0,0:0:0:0:
30,132,231153,2,0,P|17:179|1:220,1,85,8|0,0:0|0:0,0:0:0:0:
2,19,231576,1,2,3:2:0:0:
2,19,231787,1,0,3:2:0:0:
121,169,231999,2,0,L|185:234,1,85,8|0,0:0|0:0,0:0:0:0:
416,281,232421,5,2,3:2:0:0:
330,353,232632,1,0,0:0:0:0:
344,195,232844,1,8,0:0:0:0:
258,267,233055,1,2,0:0:0:0:
434,193,233266,1,0,3:2:0:0:
434,193,233477,1,0,3:2:0:0:
267,108,233689,1,8,0:0:0:0:
308,100,233794,1,8,0:0:0:0:
350,93,233900,1,8,0:3:0:0:
392,86,234006,1,8,0:3:0:0:
434,78,234111,6,0,P|336:85|298:5,1,195.500003728867,6|8,3:2|0:0,0:0:0:0:
220,38,234745,1,0,0:0:0:0:
321,181,234956,1,2,3:2:0:0:
321,181,235168,1,0,3:2:0:0:
175,238,235379,2,0,P|186:193|199:146,1,85,8|0,0:0|0:0,0:0:0:0:
70,317,235801,6,0,P|142:314|212:398,1,170,2|8,3:2|0:0,0:0:0:0:
36,216,236435,2,0,P|15:166|33:132,1,85,2|0,0:0|3:2,0:0:0:0:
211,90,236858,1,0,3:2:0:0:
151,33,237069,2,0,P|103:23|61:4,1,85,8|0,0:0|0:0,0:0:0:0:
206,206,237491,6,0,P|267:188|344:176,1,127.5,2|0,3:2|0:0,0:0:0:0:
391,113,237914,2,0,P|417:69|402:31,1,85,8|0,0:0|0:0,0:0:0:0:
483,192,238337,1,2,3:2:0:0:
377,259,238548,1,0,3:2:0:0:
494,361,238759,1,8,0:0:0:0:
252,367,239202,5,10,0:0:0:0:
260,352,239307,1,8,0:3:0:0:
146,165,239624,1,8,0:3:0:0:
273,77,239942,5,8,0:0:0:0:
267,93,240047,1,8,0:3:0:0:
64,166,240363,5,8,0:0:0:0:
63,151,240469,2,0,L|56:105,1,42.5,8|8,0:3|0:3,0:0:0:0:
147,198,240680,1,8,0:3:0:0:
107,313,240882,5,6,3:2:0:0:
256,192,240987,12,0,247642,0:0:0:0:
