osu file format v14

[General]
AudioFilename: audio.mp3
AudioLeadIn: 0
PreviewTime: 200280
Countdown: 0
SampleSet: Soft
StackLeniency: 0.7
Mode: 0
LetterboxInBreaks: 0
WidescreenStoryboard: 1

[Editor]
DistanceSpacing: 1.3
BeatDivisor: 4
GridSize: 32
TimelineZoom: 1.4

[Metadata]
Title:Sweet Sorrow Lilac
TitleUnicode:Sweet Sorrow Lilac
Artist:Sakura Yuno
ArtistUnicode:咲良ゆの
Creator:SpokenAway
Version:Hard
Source:
Tags:japanese ららい つくね nemu 秋M3 2021 rarai tsukune Meis Clauson female vocals pop amelia Replica blue. jpop j-pop
BeatmapID:3653319
BeatmapSetID:1783889

[Difficulty]
HPDrainRate:4
CircleSize:3.6
OverallDifficulty:6
ApproachRate:7.5
SliderMultiplier:1.4
SliderTickRate:1

[Events]
//Background and Video events
0,0,"bg.jpg",0,0
//Break Periods
2,72076,77811
2,104189,104844
2,153185,158939
2,200534,211333
2,220809,225681
//Storyboard Layer 0 (Background)
//Storyboard Layer 1 (Fail)
//Storyboard Layer 2 (Pass)
//Storyboard Layer 3 (Foreground)
//Storyboard Layer 4 (Overlay)
//Storyboard Sound Samples

[TimingPoints]
891,422.535211267606,4,2,1,40,1,0
891,-100,4,2,1,40,0,0
4261,422.535211267606,4,2,1,40,1,0
4261,-100,4,2,1,45,0,0
11021,-111.111111111111,4,2,1,55,0,0
24542,-100,4,2,1,60,0,0
38063,-90.9090909090909,4,2,1,65,0,0
40176,-125,4,2,1,65,0,0
41444,-90.9090909090909,4,2,1,65,0,0
43556,-125,4,2,1,65,0,0
44718,-125,4,2,1,5,0,0
44824,-111.111111111111,4,2,1,60,0,0
51584,-90.9090909090909,4,2,1,80,0,1
62042,-90.9090909090909,4,2,1,5,0,1
62148,-90.9090909090909,4,2,1,80,0,1
68496,422.535211267606,4,2,1,80,1,1
68496,-90.9090909090909,4,2,1,80,0,1
70503,-90.9090909090909,4,2,1,5,0,1
70608,-90.9090909090909,4,2,1,80,0,1
71876,-125,4,2,1,50,0,0
78636,-100,4,2,1,60,0,0
92157,-125,4,2,1,50,0,0
105669,422.535211267606,4,2,1,50,1,0
105669,-99.9999999999999,4,2,1,55,0,0
119190,-83.3333333333333,4,2,1,65,0,0
121302,-125,4,2,1,65,0,0
122570,-83.3333333333333,4,2,1,65,0,0
124894,-125,4,2,1,50,0,0
125960,422.535211267606,4,2,1,50,1,0
125960,-111.111111111111,4,2,1,60,0,0
132720,-90.9090909090909,4,2,1,80,0,1
143178,-90.9090909090909,4,2,1,5,0,1
143283,-90.9090909090909,4,2,1,80,0,1
146226,422.535211267606,4,2,1,80,1,1
146226,-90.9090909090909,4,2,1,80,0,1
152986,-125,4,2,1,60,0,0
159767,422.535211267606,4,2,1,60,1,0
159767,-100,4,2,1,60,0,0
168202,422.535211267606,4,2,1,60,1,0
171582,397.350993377483,4,2,1,60,1,0
171979,410.958904109589,4,2,1,60,1,0
172389,428.571428571428,4,2,1,60,1,0
173246,425.531914893616,4,2,1,60,1,0
173246,-100,4,2,1,65,0,0
180054,422.535211267605,4,2,1,65,1,0
186814,-83.3333333333333,4,2,1,50,0,0
188927,-125,4,2,1,50,0,0
190184,422.535211267605,4,2,1,50,1,0
190184,-83.3333333333333,4,2,1,50,0,0
191874,-111.111111111111,4,2,1,50,0,0
193564,-100,4,2,1,55,0,0
200334,422.535211267605,4,2,1,55,1,0
212164,-111.111111111111,4,2,1,60,0,0
213010,400,4,2,1,60,1,0
213010,-111.111111111111,4,2,1,60,0,0
213830,422.535211267605,4,2,1,60,1,0
213830,-90.9090909090909,4,2,1,80,0,1
220590,-125,4,2,1,80,0,0
226506,-111.111111111111,4,2,1,55,0,0
227351,-100,4,2,1,60,0,0
239202,422.535211267605,4,2,1,60,1,0
240882,422.535211267605,4,2,1,60,1,0
247642,-100,4,2,1,5,0,0

[Colours]
Combo1 : 243,212,213
Combo2 : 193,114,145
Combo3 : 214,173,171
Combo4 : 215,154,168

[HitObjects]
39,78,11021,6,0,L|191:53,1,125.999996154785,2|0,3:2|3:2,0:0:0:0:
237,93,11655,2,0,P|261:137|254:167,1,62.9999980773926,2|0,0:0|3:2,0:0:0:0:
207,211,12077,1,0,0:0:0:0:
306,286,12289,6,0,P|344:304|422:248,2,125.999996154785,2|0|0,3:2|3:2|3:2,0:0:0:0:
158,357,13556,2,0,L|86:349,1,62.9999980773926,2|0,3:2|0:0,0:0:0:0:
56,278,13979,2,0,L|117:260,1,62.9999980773926,0|0,3:2|0:0,0:0:0:0:
201,194,14401,6,0,P|219:158|192:75,1,125.999996154785,2|0,3:2|3:2,0:0:0:0:
130,30,15035,2,0,L|56:42,1,62.9999980773926,2|0,0:0|3:2,0:0:0:0:
7,104,15458,1,0,0:0:0:0:
69,189,15669,6,0,L|46:328,2,125.999996154785,2|0|0,3:2|3:2|3:2,0:0:0:0:
201,71,16937,2,0,P|238:59|267:70,1,62.9999980773926,2|0,3:2|0:0,0:0:0:0:
322,127,17359,2,0,P|359:139|388:128,1,62.9999980773926,0|0,3:2|0:0,0:0:0:0:
468,90,17782,6,0,P|496:119|496:215,1,125.999996154785,2|0,3:2|3:2,0:0:0:0:
442,266,18415,2,0,L|369:261,1,62.9999980773926,2|0,0:0|3:2,0:0:0:0:
314,202,18838,1,0,0:0:0:0:
216,254,19049,6,0,B|213:307|213:307|196:331|196:331|195:391,2,125.999996154785,2|0|0,3:2|3:2|3:2,0:0:0:0:
153,89,20317,2,0,P|114:72|85:78,1,62.9999980773926,2|0,3:2|0:0,0:0:0:0:
24,128,20739,2,0,L|28:203,1,62.9999980773926,0|0,3:2|0:0,0:0:0:0:
101,270,21162,6,0,P|139:281|162:273,1,62.9999980773926,2|0,3:2|0:0,0:0:0:0:
229,218,21584,2,0,L|250:74,1,125.999996154785,0|0,3:2|3:2,0:0:0:0:
308,29,22218,1,0,0:0:0:0:
375,85,22430,2,0,L|394:161,1,62.9999980773926,2|0,3:2|0:0,0:0:0:0:
457,230,22852,5,2,3:2:0:0:
457,230,23063,1,2,0:0:0:0:
407,302,23275,1,2,3:2:0:0:
326,265,23486,1,2,0:0:0:0:
250,310,23697,2,0,L|182:298,1,62.9999980773926,2|0,3:2|0:0,0:0:0:0:
139,225,24120,2,0,L|205:208,1,62.9999980773926,8|0,0:0|0:0,0:0:0:0:
298,138,24542,6,0,P|246:137|196:66,1,140,6|8,3:2|0:0,0:0:0:0:
111,21,25176,2,0,P|76:15|30:36,1,70,2|0,0:0|3:2,0:0:0:0:
8,109,25599,1,0,3:2:0:0:
69,176,25810,2,0,L|147:168,1,70,10|0,0:0|0:0,0:0:0:0:
230,104,26232,6,0,L|390:132,1,140,0|8,3:2|0:0,0:0:0:0:
485,267,27077,1,2,3:2:0:0:
485,267,27289,1,0,3:2:0:0:
421,332,27500,2,0,L|341:323,1,70,8|0,0:0|0:0,0:0:0:0:
246,361,27922,6,0,P|224:335|244:231,1,140,2|8,3:2|0:0,0:0:0:0:
308,179,28556,2,0,L|301:103,1,70,2|0,0:0|3:2,0:0:0:0:
239,42,28979,1,0,3:2:0:0:
172,103,29190,2,0,P|116:95|97:76,1,70,10|0,0:0|0:0,0:0:0:0:
15,34,29613,6,0,P|24:105|49:182,1,140,0|8,3:2|0:0,0:0:0:0:
186,283,30458,1,2,3:2:0:0:
186,283,30669,1,0,3:2:0:0:
118,344,30880,2,0,P|77:351|41:336,1,70,8|8,0:0|0:0,0:0:0:0:
12,318,31197,1,8,0:0:0:0:
12,318,31303,6,0,P|-5:248|29:174,1,140,4|8,3:2|0:0,0:0:0:0:
94,143,31937,2,0,L|173:156,1,70,2|0,0:0|3:2,0:0:0:0:
234,210,32359,1,0,3:2:0:0:
314,167,32570,2,0,P|331:127|326:93,1,70,10|0,0:0|0:0,0:0:0:0:
256,22,32993,6,0,P|302:53|401:26,1,140,0|8,3:2|0:0,0:0:0:0:
487,190,33838,1,2,3:2:0:0:
487,190,34049,1,0,3:2:0:0:
420,251,34261,2,0,L|338:238,1,70,8|0,0:0|0:0,0:0:0:0:
261,175,34683,6,0,B|202:184|202:184|183:206|183:206|111:219,1,140,2|8,3:2|0:0,0:0:0:0:
55,263,35317,2,0,L|64:354,1,70,2|0,0:0|3:2,0:0:0:0:
142,376,35739,1,0,3:2:0:0:
210,316,35951,2,0,P|250:303|285:319,1,70,10|0,0:0|0:0,0:0:0:0:
370,358,36373,6,0,L|387:210,1,140,0|8,3:2|0:0,0:0:0:0:
479,61,37218,1,2,3:2:0:0:
479,61,37430,1,0,3:2:0:0:
395,97,37641,1,8,0:0:0:0:
395,97,37746,1,8,0:0:0:0:
395,97,37852,1,8,0:0:0:0:
303,28,38063,6,0,B|265:62|265:62|256:109|298:172,1,154.000004699707,6|8,3:2|0:0,0:0:0:0:
371,217,38697,2,0,B|409:251|409:251|418:298|376:361,1,154.000004699707,6|0,3:2|3:2,0:0:0:0:
296,299,39331,1,10,0:0:0:0:
48,343,40176,6,0,L|42:270,1,56,2|0,0:0|0:0,0:0:0:0:
90,217,40599,2,0,L|84:144,1,56
59,135,40915,1,0,0:0:0:0:
59,135,41021,2,0,L|53:62,1,56
138,21,41444,6,0,B|196:29|196:29|222:55|222:55|305:66,1,154.000004699707,6|8,3:2|0:0,0:0:0:0:
372,130,42077,2,0,B|315:146|315:146|294:176|294:176|214:200,1,154.000004699707,6|0,3:2|3:2,0:0:0:0:
180,275,42711,1,10,0:0:0:0:
462,65,43768,6,0,L|389:53,1,56,8|0,0:3|0:0,0:0:0:0:
329,28,44190,1,8,0:3:0:0:
329,28,44401,2,0,P|279:24|238:49,1,84,8|0,0:3|0:0,0:0:0:0:
219,83,44824,6,0,B|260:101|260:101|276:126|276:126|330:153,1,125.999996154785,6|8,3:2|0:0,0:0:0:0:
410,149,45458,2,0,P|420:192|408:223,1,62.9999980773926,2|0,0:0|3:2,0:0:0:0:
353,272,45880,1,0,3:2:0:0:
416,332,46091,2,0,L|507:322,1,62.9999980773926,8|0,0:0|0:0,0:0:0:0:
500,228,46514,6,0,P|513:188|508:160,1,62.9999980773926,2|0,3:2|0:0,0:0:0:0:
461,93,46937,2,0,L|317:71,1,125.999996154785,8|2,0:0|3:2,0:0:0:0:
260,27,47570,1,0,3:2:0:0:
180,78,47782,2,0,L|111:64,1,62.9999980773926,8|0,0:0|3:2,0:0:0:0:
22,114,48204,1,14,0:0:0:0:
113,244,48627,6,0,L|191:230,1,62.9999980773926,0|0,3:2|3:2,0:0:0:0:
248,173,49049,1,0,3:2:0:0:
248,173,49261,1,0,3:2:0:0:
332,227,49472,1,0,3:2:0:0:
419,177,49683,1,14,0:0:0:0:
483,351,50106,5,8,0:0:0:0:
398,296,50317,1,8,0:0:0:0:
197,343,50739,6,0,L|160:329,3,31.4999990386963,2|2|2|2,0:0|0:0|0:0|0:0,0:0:0:0:
126,329,51162,2,0,L|89:343,3,31.4999990386963,2|2|2|2,0:0|0:0|0:0|0:0,0:0:0:0:
47,352,51584,6,0,L|27:188,1,154.000004699707,6|8,3:2|0:0,0:0:0:0:
83,115,52218,2,0,P|122:98|164:114,1,77.0000023498536,2|0,0:0|3:2,0:0:0:0:
236,163,52641,1,0,3:2:0:0:
317,105,52852,2,0,L|332:22,1,77.0000023498536,8|0,0:0|0:0,0:0:0:0:
454,88,53275,6,0,P|409:122|429:221,1,154.000004699707,2|8,3:2|0:0,0:0:0:0:
281,358,54120,1,2,3:2:0:0:
281,358,54331,1,0,3:2:0:0:
200,298,54542,2,0,L|210:212,1,77.0000023498536,8|0,0:0|0:0,0:0:0:0:
309,157,54965,6,0,B|250:142|250:142|225:112|225:112|143:94,1,154.000004699707,2|8,3:2|0:0,0:0:0:0:
110,21,55599,2,0,P|74:20|29:46,1,77.0000023498536,2|0,0:0|3:2,0:0:0:0:
88,123,56021,1,0,3:2:0:0:
18,195,56232,2,0,L|35:277,1,77.0000023498536,8|0,0:0|0:0,0:0:0:0:
123,351,56655,6,0,L|280:317,1,154.000004699707,2|8,3:2|0:0,0:0:0:0:
424,186,57500,1,0,3:2:0:0:
424,186,57711,1,0,3:2:0:0:
344,123,57922,2,0,L|329:67,3,38.5000011749268,8|8|8|8,0:0|0:0|0:0|0:0,0:0:0:0:
363,45,58345,6,0,P|402:22|495:68,1,154.000004699707,6|8,3:2|0:0,0:0:0:0:
512,162,58979,2,0,L|496:252,1,77.0000023498536,2|0,0:0|3:2,0:0:0:0:
432,313,59401,1,0,3:2:0:0:
353,251,59613,1,8,0:0:0:0:
353,251,59824,1,0,0:0:0:0:
270,342,60035,6,0,L|245:191,1,154.000004699707,2|8,3:2|0:0,0:0:0:0:
369,32,60880,1,2,3:2:0:0:
369,32,61091,1,0,3:2:0:0:
283,83,61303,2,0,P|232:74|213:53,1,77.0000023498536,8|0,0:0|0:0,0:0:0:0:
103,17,61725,6,0,P|75:49|87:135,1,115.50000352478,2|0,3:2|0:0,0:0:0:0:
108,157,62148,2,0,L|101:253,1,77.0000023498536,8|0,0:0|0:0,0:0:0:0:
171,306,62570,1,0,3:2:0:0:
171,306,62782,1,0,3:2:0:0:
252,248,62993,2,0,P|303:242|333:259,1,77.0000023498536,8|0,0:0|0:0,0:0:0:0:
390,176,63415,5,6,3:2:0:0:
390,176,63627,1,0,3:2:0:0:
326,98,63838,1,8,0:0:0:0:
409,20,64049,2,0,P|459:30|484:131,1,154.000004699707,6|0,3:2|3:2,0:0:0:0:
470,216,64683,2,0,L|479:261,3,38.5000011749268,8|8|8|8,0:0|0:0|0:0|0:0,0:0:0:0:
465,307,65106,6,0,B|406:323|406:323|386:351|386:351|318:374,1,154.000004699707,6|8,3:2|0:0,0:0:0:0:
252,307,65739,2,0,P|235:263|245:227,1,77.0000023498536,2|0,0:0|3:2,0:0:0:0:
309,162,66162,1,0,3:2:0:0:
235,94,66373,2,0,L|159:103,1,77.0000023498536,8|0,0:0|0:0,0:0:0:0:
50,170,66796,6,0,L|19:0,1,154.000004699707,2|8,3:2|0:0,0:0:0:0:
137,182,67641,1,2,3:2:0:0:
137,182,67852,1,0,3:2:0:0:
72,258,68063,2,0,L|96:346,1,77.0000023498536,8|0,0:0|0:0,0:0:0:0:
215,357,68496,6,0,L|377:323,1,154.000004699707,2|8,3:2|0:0,0:0:0:0:
405,233,69129,2,0,P|423:192|419:155,1,77.0000023498536,2|0,0:0|3:2,0:0:0:0:
387,66,69552,1,0,3:2:0:0:
294,105,69763,2,0,P|261:153|264:183,1,77.0000023498536,8|0,0:0|0:0,0:0:0:0:
180,252,70186,6,0,L|48:229,1,115.50000352478,2|0,3:2|0:0,0:0:0:0:
19,213,70608,2,0,P|8:170|31:137,1,77.0000023498536,8|0,0:0|0:0,0:0:0:0:
79,60,71031,1,0,3:2:0:0:
79,60,71242,1,8,0:3:0:0:
152,127,71453,1,8,0:0:0:0:
236,74,71665,1,8,0:0:0:0:
236,74,71770,1,8,0:0:0:0:
236,74,71876,1,6,3:2:0:0:
27,330,78636,6,0,P|82:321|163:281,1,140,6|8,3:2|0:0,0:0:0:0:
334,200,79481,1,2,3:2:0:0:
334,200,79693,1,0,3:2:0:0:
395,276,79904,2,0,P|382:320|377:360,1,70,8|0,0:0|0:0,0:0:0:0:
276,372,80327,6,0,L|231:209,1,140,2|8,3:2|0:0,0:0:0:0:
174,162,80960,2,0,L|187:84,1,70,2|0,0:0|3:2,0:0:0:0:
258,28,81383,1,0,3:2:0:0:
323,101,81594,2,0,P|361:112|398:97,1,70,8|0,0:0|0:0,0:0:0:0:
496,43,82017,6,0,P|472:82|505:174,1,140,2|8,3:2|0:0,0:0:0:0:
370,317,82862,1,2,3:2:0:0:
370,317,83073,1,0,3:2:0:0:
294,254,83284,2,0,L|213:278,1,70,8|0,0:0|0:0,0:0:0:0:
134,331,83707,6,0,L|57:309,1,70,2|0,3:2|0:0,0:0:0:0:
17,226,84129,1,8,0:0:0:0:
100,175,84341,2,0,P|116:137|108:108,1,70,2|0,0:0|3:2,0:0:0:0:
28,54,84763,1,0,3:2:0:0:
114,8,84974,2,0,L|157:21,3,35,8|8|8|8,0:0|0:0|0:3|0:3,0:0:0:0:
196,39,85397,6,0,B|251:62|251:62|267:89|267:89|332:117,1,140,6|8,3:2|0:0,0:0:0:0:
442,255,86242,1,2,3:2:0:0:
442,255,86453,1,0,3:2:0:0:
504,179,86665,2,0,L|488:102,1,70,8|0,0:0|0:0,0:0:0:0:
402,32,87087,6,0,P|356:58|259:20,1,140,2|8,3:2|0:0,0:0:0:0:
190,88,87721,2,0,P|171:131|177:164,1,70,2|0,0:0|3:2,0:0:0:0:
241,223,88143,1,0,3:2:0:0:
174,295,88355,2,0,P|132:301|103:284,1,70,8|0,0:0|0:0,0:0:0:0:
30,202,88777,6,0,L|19:52,1,140,2|8,3:2|0:0,0:0:0:0:
211,19,89622,1,2,3:2:0:0:
211,19,89834,1,0,3:2:0:0:
154,99,90045,2,0,P|148:148|156:173,1,70,8|0,0:0|0:0,0:0:0:0:
222,247,90467,6,0,L|211:331,1,70,2|8,3:2|0:0,0:0:0:0:
302,357,90890,1,0,3:2:0:0:
302,357,90996,1,8,0:0:0:0:
302,357,91101,1,8,0:0:0:0:
366,283,91312,2,0,P|412:288|435:315,1,70,8|0,0:3|0:0,0:0:0:0:
456,322,91629,1,8,0:0:0:0:
456,322,91735,1,8,0:0:0:0:
504,241,91946,1,8,0:3:0:0:
415,199,92157,5,6,3:2:0:0:
288,125,92580,1,0,0:0:0:0:
288,125,92791,2,0,L|409:100,1,112,2|0,0:0|3:2,0:0:0:0:
479,121,93425,2,0,P|494:148|496:177,1,56,0|0,0:0|3:2,0:0:0:0:
438,233,93848,6,0,B|419:257|419:257|423:355,1,112,2|0,3:2|0:0,0:0:0:0:
339,362,94481,1,0,3:2:0:0:
339,362,94693,2,0,L|332:298,1,56,2|0,0:0|3:2,0:0:0:0:
276,245,95115,2,0,L|269:181,1,56,0|0,0:0|3:2,0:0:0:0:
215,121,95538,1,2,3:2:0:0:
90,219,95960,6,0,P|44:227|0:172,1,112,2|0,0:0|0:0,0:0:0:0:
42,109,96594,1,0,3:2:0:0:
42,109,96805,2,0,L|35:33,1,56,0|0,0:0|3:2,0:0:0:0:
110,11,97228,6,0,L|226:40,1,112,2|0,3:2|0:0,0:0:0:0:
270,110,97862,1,0,3:2:0:0:
270,110,98073,2,0,P|249:149|253:175,1,56,2|0,0:0|3:2,0:0:0:0:
286,237,98496,2,0,L|349:231,1,56,0|0,0:0|3:2,0:0:0:0:
418,186,98918,6,0,L|429:64,1,112,2|0,3:2|0:0,0:0:0:0:
362,22,99552,2,0,L|289:5,1,56
241,61,99974,1,0,3:2:0:0:
241,61,100186,2,0,L|168:78,1,56,2|0,0:0|3:2,0:0:0:0:
177,165,100608,6,0,P|191:226|153:272,1,112,2|0,3:2|0:0,0:0:0:0:
85,279,101242,5,0,3:2:0:0:
85,279,101453,2,0,P|71:248|76:208,1,56,2|0,0:0|3:2,0:0:0:0:
86,147,101876,2,0,P|91:116|79:81,1,56,0|0,0:0|3:2,0:0:0:0:
32,29,102298,6,0,L|168:41,1,112,2|0,3:2|0:0,0:0:0:0:
204,90,102932,2,0,L|211:155,1,56,0|0,3:2|0:0,0:0:0:0:
159,213,103355,1,0,0:0:0:0:
216,288,103566,2,0,P|276:297|324:261,1,112,6|2,0:2|0:0,0:0:0:0:
192,346,105669,6,0,B|243:341|243:341|267:318|267:318|329:311,1,140,6|8,3:2|0:0,0:0:0:0:
374,236,106302,2,0,P|382:183|363:153,1,70,2|0,0:0|3:2,0:0:0:0:
302,115,106725,1,0,3:2:0:0:
371,56,106936,2,0,L|458:65,1,70,10|0,0:0|0:0,0:0:0:0:
487,165,107359,6,0,L|467:306,1,140,0|8,3:2|0:0,0:0:0:0:
297,368,108204,1,2,3:2:0:0:
297,368,108415,1,0,3:2:0:0:
236,300,108626,2,0,P|227:259|242:224,1,70,8|0,0:0|0:0,0:0:0:0:
312,157,109049,6,0,P|260:182|174:145,1,140,2|8,3:2|0:0,0:0:0:0:
116,97,109683,2,0,L|33:114,1,70,2|0,0:0|3:2,0:0:0:0:
7,193,110105,1,0,3:2:0:0:
79,247,110316,2,0,P|91:297|82:324,1,70,10|0,0:0|0:0,0:0:0:0:
186,354,110739,6,0,B|243:340|243:340|263:315|263:315|328:298,1,140,0|8,3:2|0:0,0:0:0:0:
458,196,111584,1,2,3:2:0:0:
458,196,111795,1,0,3:2:0:0:
375,234,112007,2,0,L|305:217,1,70,8|0,0:0|0:0,0:0:0:0:
275,184,112323,1,2,0:0:0:0:
275,184,112429,6,0,L|253:38,1,140,4|8,3:2|0:0,0:0:0:0:
341,19,113063,2,0,P|378:30|413:19,1,70,2|0,0:0|3:2,0:0:0:0:
479,77,113485,1,0,3:2:0:0:
405,131,113697,2,0,L|416:208,1,70,10|0,0:0|0:0,0:0:0:0:
486,278,114119,6,0,P|423:251|346:287,1,140,0|8,3:2|0:0,0:0:0:0:
196,356,114964,1,2,3:2:0:0:
196,356,115176,1,0,3:2:0:0:
246,279,115387,2,0,P|260:239|248:210,1,70,8|0,0:0|0:0,0:0:0:0:
158,180,115809,6,0,B|214:171|214:171|232:146|232:146|299:135,1,140,2|8,3:2|0:0,0:0:0:0:
324,55,116443,2,0,L|241:34,1,70,2|0,0:0|3:2,0:0:0:0:
167,16,116866,1,0,3:2:0:0:
102,81,117077,2,0,P|86:127|91:153,1,70,10|0,0:0|0:0,0:0:0:0:
171,224,117499,5,0,3:2:0:0:
111,292,117711,1,8,0:0:0:0:
192,358,117922,1,8,0:0:0:0:
192,358,118028,1,8,0:0:0:0:
282,303,118239,1,8,0:0:0:0:
282,303,118345,2,0,L|358:316,1,70,2|0,3:2|0:0,0:0:0:0:
395,323,118661,1,8,0:0:0:0:
395,323,118767,1,8,0:0:0:0:
365,224,118978,1,8,0:0:0:0:
365,224,119084,1,8,0:0:0:0:
365,224,119190,6,0,B|379:163|411:130|411:130|365:65,1,167.999994873047,6|8,3:2|0:0,0:0:0:0:
265,71,119823,2,0,B|251:132|219:165|219:165|265:230,1,167.999994873047,6|0,3:2|3:2,0:0:0:0:
304,303,120457,1,10,0:0:0:0:
35,94,121302,6,0,P|71:81|104:93,1,56,2|0,0:0|0:0,0:0:0:0:
156,130,121725,2,0,P|192:143|225:131,1,56
273,87,122147,2,0,P|309:74|342:86,1,56
426,134,122570,6,0,B|378:166|373:224|373:224|411:237|435:295,1,167.999994873047,6|8,3:2|0:0,0:0:0:0:
326,302,123204,2,0,B|294:254|239:251|239:251|224:291|165:311,1,167.999994873047,6|0,3:2|3:2,0:0:0:0:
144,210,123838,1,10,0:0:0:0:
290,48,124894,5,8,0:0:0:0:
290,48,124999,1,8,0:0:0:0:
290,48,125105,2,0,L|230:37,1,56,8|8,0:0|0:3,0:0:0:0:
161,78,125528,1,8,0:3:0:0:
95,25,125739,1,8,0:3:0:0:
16,108,125960,6,0,L|27:244,1,125.999996154785,6|8,3:2|0:0,0:0:0:0:
91,293,126593,2,0,P|127:298|171:273,1,62.9999980773926,2|0,0:0|3:2,0:0:0:0:
211,224,127016,1,0,3:2:0:0:
149,160,127227,2,0,L|144:88,1,62.9999980773926,8|0,0:0|0:0,0:0:0:0:
233,23,127650,6,0,P|269:42|301:35,1,62.9999980773926,2|0,3:2|0:0,0:0:0:0:
358,96,128072,2,0,B|353:150|353:150|367:173|367:173|362:236,1,125.999996154785,8|2,0:0|3:2,0:0:0:0:
407,294,128706,1,0,3:2:0:0:
331,350,128917,2,0,P|299:355|254:332,1,62.9999980773926,8|0,0:0|3:2,0:0:0:0:
203,262,129340,1,14,0:0:0:0:
51,240,129762,6,0,L|125:226,1,62.9999980773926,0|0,3:2|3:2,0:0:0:0:
179,161,130185,1,0,3:2:0:0:
179,161,130396,1,0,3:2:0:0:
114,91,130607,1,0,3:2:0:0:
197,20,130819,1,14,0:0:0:0:
325,169,131241,5,8,0:0:0:0:
259,90,131452,1,8,0:0:0:0:
471,32,131875,5,8,0:0:0:0:
470,58,131981,1,8,0:0:0:0:
469,85,132086,1,8,0:0:0:0:
468,112,132192,1,8,0:0:0:0:
467,138,132298,2,0,L|457:190,3,31.4999990386963,8|8|8|8,0:0|0:0|0:0|0:0,0:0:0:0:
433,220,132720,6,0,P|381:250|296:187,1,154.000004699707,6|8,3:2|0:0,0:0:0:0:
231,139,133354,2,0,L|147:157,1,77.0000023498536,2|0,0:0|3:2,0:0:0:0:
83,225,133776,1,0,3:2:0:0:
144,303,133988,2,0,P|192:317|221:303,1,77.0000023498536,8|0,0:0|0:0,0:0:0:0:
293,228,134410,6,0,B|354:240|354:240|382:264|382:264|454:277,1,154.000004699707,2|8,3:2|0:0,0:0:0:0:
308,118,135255,1,2,3:2:0:0:
308,118,135467,1,0,3:2:0:0:
373,42,135678,2,0,P|412:25|454:34,1,77.0000023498536,8|0,0:0|0:0,0:0:0:0:
507,138,136100,6,0,P|460:167|458:271,1,154.000004699707,2|8,3:2|0:0,0:0:0:0:
491,350,136734,2,0,L|396:342,1,77.0000023498536,2|0,0:0|3:2,0:0:0:0:
346,270,137157,1,0,3:2:0:0:
274,340,137368,2,0,P|257:297|269:265,1,77.0000023498536,8|0,0:0|0:0,0:0:0:0:
355,180,137790,6,0,L|198:146,1,154.000004699707,2|8,3:2|0:0,0:0:0:0:
23,61,138636,1,0,3:2:0:0:
23,61,138847,1,0,3:2:0:0:
91,133,139058,2,0,L|97:188,3,38.5000011749268,8|8|8|8,0:0|0:0|0:0|0:0,0:0:0:0:
99,221,139481,6,0,P|142:233|254:216,1,154.000004699707,6|8,3:2|0:0,0:0:0:0:
307,137,140114,2,0,L|323:47,1,77.0000023498536,2|0,0:0|3:2,0:0:0:0:
414,26,140537,1,0,3:2:0:0:
490,90,140748,1,8,0:0:0:0:
490,90,140960,1,0,0:0:0:0:
409,177,141171,6,0,P|393:235|440:319,1,154.000004699707,2|8,3:2|0:0,0:0:0:0:
241,373,142016,1,2,3:2:0:0:
241,373,142227,1,0,3:2:0:0:
290,286,142438,2,0,L|277:201,1,77.0000023498536,8|0,0:0|0:0,0:0:0:0:
196,138,142861,6,0,B|246:129|246:129|261:114|261:114|318:102,1,115.50000352478,2|0,3:2|0:0,0:0:0:0:
354,103,143283,2,0,L|449:130,1,77.0000023498536,8|0,0:0|0:0,0:0:0:0:
504,59,143706,1,0,3:2:0:0:
504,59,143917,1,0,3:2:0:0:
408,30,144129,2,0,L|310:13,1,77.0000023498536,8|0,0:0|0:0,0:0:0:0:
221,69,144551,5,6,3:2:0:0:
221,69,144762,1,0,3:2:0:0:
137,14,144974,1,8,0:0:0:0:
62,80,145185,2,0,L|73:240,1,154.000004699707,6|0,3:2|3:2,0:0:0:0:
138,309,145819,2,0,L|175:294,3,38.5000011749268,8|8|8|8,0:0|0:0|0:0|0:0,0:0:0:0:
222,280,146226,6,0,P|254:229|226:133,1,154.000004699707,6|8,3:2|0:0,0:0:0:0:
166,68,146859,2,0,L|259:53,1,77.0000023498536,2|0,0:0|3:2,0:0:0:0:
332,11,147282,1,0,3:2:0:0:
398,85,147493,2,0,P|398:136|378:159,1,77.0000023498536,8|0,0:0|0:0,0:0:0:0:
279,224,147916,6,0,P|329:222|382:314,1,154.000004699707,2|8,3:2|0:0,0:0:0:0:
190,352,148761,1,2,3:2:0:0:
190,352,148972,1,0,3:2:0:0:
128,272,149183,2,0,L|136:183,1,77.0000023498536,8|0,0:0|0:0,0:0:0:0:
240,143,149606,6,0,B|178:127|178:127|162:102|162:102|80:83,1,154.000004699707,2|8,3:2|0:0,0:0:0:0:
17,141,150239,2,0,P|-1:182|3:219,1,77.0000023498536,2|0,0:0|3:2,0:0:0:0:
75,280,150662,1,0,3:2:0:0:
162,230,150873,2,0,L|259:258,1,77.0000023498536,8|0,0:0|0:0,0:0:0:0:
319,338,151295,5,2,3:2:0:0:
387,264,151507,1,0,3:2:0:0:
471,317,151718,2,0,P|483:263|468:226,1,77.0000023498536,8|0,0:0|0:0,0:0:0:0:
401,178,152140,1,0,3:2:0:0:
461,98,152352,1,8,0:3:0:0:
461,98,152563,1,8,0:3:0:0:
393,24,152774,1,8,0:3:0:0:
393,24,152880,1,8,0:3:0:0:
393,24,152985,1,6,3:2:0:0:
22,94,159767,6,0,P|89:98|163:69,1,140,6|8,3:2|0:0,0:0:0:0:
329,17,160612,1,2,3:2:0:0:
329,17,160823,1,0,3:2:0:0:
273,89,161034,2,0,L|291:177,1,70,8|0,0:0|0:0,0:0:0:0:
347,242,161457,6,0,B|406:232|406:232|423:213|423:213|496:196,1,140,2|8,3:2|0:0,0:0:0:0:
422,126,162090,2,0,L|414:51,1,70,2|0,0:0|3:2,0:0:0:0:
334,13,162513,1,0,3:2:0:0:
270,78,162724,1,8,0:0:0:0:
270,78,162936,1,0,0:0:0:0:
178,21,163147,6,0,P|131:61|140:154,1,140,2|8,3:2|0:0,0:0:0:0:
227,287,163992,1,2,3:2:0:0:
150,238,164203,1,0,3:2:0:0:
75,290,164414,2,0,P|39:290|4:263,1,70,8|0,0:0|0:0,0:0:0:0:
66,181,164837,6,0,L|46:34,1,140,2|8,3:2|0:0,0:0:0:0:
202,137,165682,1,0,3:2:0:0:
202,137,165893,1,0,3:2:0:0:
270,77,166105,2,0,L|345:68,1,70,8|8,0:0|0:3,0:0:0:0:
381,85,166421,1,8,0:3:0:0:
381,85,166527,6,0,P|405:133|384:227,1,140,6|8,3:2|0:0,0:0:0:0:
309,255,167161,2,0,P|293:292|313:334,1,70,2|0,0:0|3:2,0:0:0:0:
377,368,167583,1,0,3:2:0:0:
452,316,167795,2,0,L|472:244,1,70,8|0,0:0|0:0,0:0:0:0:
442,146,168202,6,0,B|383:131|383:131|370:110|370:110|303:93,1,140,2|8,3:2|0:0,0:0:0:0:
235,55,168835,2,0,L|154:72,1,70,2|0,0:0|3:2,0:0:0:0:
103,135,169258,1,0,3:2:0:0:
184,175,169469,2,0,P|203:212|193:257,1,70,8|0,0:0|0:0,0:0:0:0:
165,267,169786,1,0,0:0:0:0:
165,267,169892,6,0,L|-1:242,1,140,2|8,3:2|0:0,0:0:0:0:
166,362,170737,1,0,3:2:0:0:
243,314,170948,1,2,3:2:0:0:
322,358,171159,2,0,L|404:342,1,70,8|0,0:0|0:0,0:0:0:0:
436,265,171582,5,8,0:0:0:0:
430,237,171681,1,8,0:0:0:0:
424,209,171780,1,8,0:0:0:0:
418,181,171880,1,8,0:3:0:0:
410,152,171979,2,0,L|414:111,3,35,8|8|8|8,0:3|0:3|0:3|0:3,0:0:0:0:
396,74,172389,2,0,L|392:33,3,35,8|8|8|8,0:3|0:3|0:3|0:3,0:0:0:0:
433,5,172817,1,10,0:0:0:0:
275,97,173246,6,0,B|218:86|218:86|198:63|198:63|130:49,1,140,6|8,3:2|0:0,0:0:0:0:
35,197,174096,1,0,3:2:0:0:
35,197,174309,1,0,3:2:0:0:
101,134,174522,2,0,L|176:154,1,70,10|0,0:0|0:0,0:0:0:0:
251,218,174947,6,0,P|274:284|231:361,1,140,2|8,3:2|0:0,0:0:0:0:
163,312,175586,2,0,L|76:333,1,70,2|0,0:0|3:2,0:0:0:0:
18,267,176011,1,0,3:2:0:0:
79,190,176224,1,8,0:0:0:0:
79,190,176437,1,0,0:0:0:0:
6,104,176649,6,0,P|41:126|140:92,1,140,2|8,3:2|0:0,0:0:0:0:
314,33,177500,1,0,3:2:0:0:
314,33,177713,1,0,3:2:0:0:
241,98,177926,2,0,P|244:149|261:170,1,70,10|0,0:0|0:0,0:0:0:0:
338,240,178351,6,0,B|396:233|396:233|418:218|418:218|480:210,1,140,2|8,3:2|0:0,0:0:0:0:
336,352,179203,1,0,3:2:0:0:
336,352,179309,1,8,0:0:0:0:
336,352,179415,1,0,3:2:0:0:
255,295,179628,1,8,0:0:0:0:
171,345,179841,1,0,0:0:0:0:
103,259,180054,6,0,L|126:114,1,140,2|8,3:2|0:0,0:0:0:0:
192,49,180688,2,0,P|231:50|265:35,1,70,2|0,0:0|3:2,0:0:0:0:
340,94,181110,1,0,3:2:0:0:
276,168,181322,2,0,L|267:248,1,70,8|0,0:0|0:0,0:0:0:0:
322,337,181744,6,0,P|400:350|458:302,1,140,2|8,3:2|0:0,0:0:0:0:
494,232,182378,2,0,L|474:157,1,70,2|0,0:0|3:2,0:0:0:0:
408,92,182800,1,0,3:2:0:0:
344,166,183012,2,0,P|291:169|261:149,1,70,10|0,0:0|0:0,0:0:0:0:
238,131,183329,1,0,0:0:0:0:
238,131,183434,6,0,L|81:98,1,140,2|8,3:2|0:0,0:0:0:0:
18,280,184279,1,0,3:2:0:0:
103,232,184491,1,0,3:2:0:0:
182,289,184702,2,0,L|277:272,1,70,10|0,0:0|0:0,0:0:0:0:
314,201,185124,5,10,0:0:0:0:
379,273,185336,1,8,0:0:0:0:
379,273,185441,1,8,0:0:0:0:
379,273,185547,2,0,L|370:334,3,35,8|8|8|8,0:0|0:3|0:3|0:3,0:0:0:0:
404,346,185969,2,0,L|490:340,1,70,8|8,0:3|0:3,0:0:0:0:
493,295,186286,1,8,0:3:0:0:
493,295,186392,1,8,0:0:0:0:
473,94,186814,6,0,B|378:67|378:67|359:97|319:114,1,167.999994873047,6|8,3:2|0:0,0:0:0:0:
248,176,187448,2,0,B|153:203|153:203|134:173|94:156,1,167.999994873047,6|0,3:2|3:2,0:0:0:0:
65,253,188082,1,10,0:0:0:0:
313,355,188927,6,0,L|239:344,1,56,2|0,0:0|0:0,0:0:0:0:
196,290,189349,2,0,P|196:256|208:227,1,56
264,180,189772,2,0,P|264:146|252:117,1,56
142,115,190184,6,0,B|232:122|201:46|309:54,1,167.999994873047,6|8,3:2|0:0,0:0:0:0:
357,137,190817,2,0,B|447:130|416:206|524:198,1,167.999994873047,6|0,3:2|3:2,0:0:0:0:
500,97,191451,2,0,P|459:56|381:48,1,125.999996154785,10|8,0:0|0:0,0:0:0:0:
354,64,191874,1,8,0:0:0:0:
354,64,191979,1,8,0:0:0:0:
276,104,192191,1,8,0:3:0:0:
276,104,192296,2,0,L|191:88,1,62.9999980773926,8|8,0:3|0:3,0:0:0:0:
130,120,192719,6,0,P|106:128|67:136,2,41.9999987182618,8|8|8,0:0|0:3|0:3,0:0:0:0:
172,161,193141,6,0,P|196:169|235:177,2,41.9999987182618,8|8|8,0:3|0:3|0:3,0:0:0:0:
146,215,193564,6,0,L|132:366,1,140,6|8,3:2|0:0,0:0:0:0:
38,380,194198,2,0,L|24:298,1,70,2|0,0:0|3:2,0:0:0:0:
64,228,194620,1,0,3:2:0:0:
10,154,194832,2,0,P|2:110|21:75,1,70,8|0,0:0|0:0,0:0:0:0:
122,28,195254,6,0,B|181:40|181:40|202:61|202:61|274:76,1,140,2|8,3:2|0:0,0:0:0:0:
412,155,196099,2,0,L|331:168,1,70,2|0,3:2|3:2,0:0:0:0:
265,214,196522,1,8,0:0:0:0:
328,279,196733,1,0,3:2:0:0:
250,357,196944,1,14,0:0:0:0:
449,359,197367,6,0,P|461:317|457:285,1,70,0|0,3:2|3:2,0:0:0:0:
397,223,197789,1,0,3:2:0:0:
457,155,198001,1,0,3:2:0:0:
400,83,198212,1,0,3:2:0:0:
467,8,198423,1,14,0:0:0:0:
336,145,198846,5,8,0:0:0:0:
287,68,199057,1,8,0:0:0:0:
256,188,200334,5,6,3:2:0:0:
28,348,212164,6,0,L|26:257,1,62.9999980773926,6|0,3:2|3:2,0:0:0:0:
88,222,212587,1,8,0:0:0:0:
38,149,212798,1,6,3:2:0:0:
111,99,213010,1,8,0:0:0:0:
138,104,213110,1,8,0:0:0:0:
164,109,213210,1,8,0:0:0:0:
191,114,213310,1,8,0:0:0:0:
217,118,213410,2,0,L|274:105,3,31.4999990386963,8|8|8|8,0:3|0:3|0:3|0:3,0:0:0:0:
298,129,213830,6,0,P|320:181|277:281,1,154.000004699707,6|8,3:2|0:0,0:0:0:0:
345,353,214463,2,0,L|442:335,1,77.0000023498536,2|0,0:0|3:2,0:0:0:0:
488,265,214886,1,0,3:2:0:0:
405,207,215097,2,0,P|396:161|414:133,1,77.0000023498536,8|0,0:0|0:0,0:0:0:0:
502,68,215520,6,0,L|344:36,1,154.000004699707,2|8,3:2|0:0,0:0:0:0:
219,188,216365,1,2,3:2:0:0:
219,188,216576,1,0,3:2:0:0:
138,128,216787,2,0,P|136:85|158:47,1,77.0000023498536,8|0,0:0|0:0,0:0:0:0:
249,100,217210,6,0,B|308:115|308:115|333:145|333:145|415:163,1,154.000004699707,2|8,3:2|0:0,0:0:0:0:
465,217,217844,2,0,P|481:261|466:296,1,77.0000023498536,2|0,0:0|3:2,0:0:0:0:
398,356,218266,1,0,3:2:0:0:
331,281,218477,2,0,L|238:298,1,77.0000023498536,8|0,0:0|0:0,0:0:0:0:
175,233,218900,5,2,3:2:0:0:
236,153,219111,1,0,3:2:0:0:
182,68,219322,2,0,L|93:87,1,77.0000023498536,8|0,0:0|0:0,0:0:0:0:
30,149,219745,2,0,L|13:197,3,38.5000011749268,8|8|8|8,0:3|0:3|0:3|0:0,0:0:0:0:
41,229,220168,2,0,P|55:274|42:304,1,77.0000023498536,8|8,0:0|0:0,0:0:0:0:
13,339,220484,1,8,0:0:0:0:
13,339,220590,1,6,3:2:0:0:
459,50,226506,5,8,0:3:0:0:
459,50,226717,1,8,0:3:0:0:
409,131,226928,1,8,0:0:0:0:
412,155,227034,1,8,0:0:0:0:
416,179,227139,1,8,0:0:0:0:
420,203,227245,1,8,0:0:0:0:
424,227,227351,6,0,P|374:274|294:237,1,140,6|8,3:2|0:0,0:0:0:0:
175,135,228196,1,2,3:2:0:0:
175,135,228407,1,0,3:2:0:0:
238,69,228618,2,0,L|316:89,1,70,8|0,0:0|0:0,0:0:0:0:
272,178,229041,6,0,P|220:235|236:313,1,140,2|8,3:2|0:0,0:0:0:0:
295,349,229675,2,0,P|332:359|379:340,1,70,2|0,0:0|3:2,0:0:0:0:
425,285,230097,1,0,3:2:0:0:
365,215,230308,2,0,L|378:137,1,70,8|0,0:0|0:0,0:0:0:0:
463,76,230731,6,0,P|393:64|303:30,1,140,2|8,3:2|0:0,0:0:0:0:
191,162,231576,1,2,3:2:0:0:
191,162,231787,1,0,3:2:0:0:
263,216,231999,2,0,L|251:289,1,70,8|0,0:0|0:0,0:0:0:0:
170,353,232421,6,0,P|124:358|99:339,1,70,2|0,3:2|0:0,0:0:0:0:
50,274,232844,1,8,0:0:0:0:
108,204,233055,1,2,0:0:0:0:
53,130,233266,1,0,3:2:0:0:
53,130,233477,1,0,3:2:0:0:
118,67,233689,2,0,L|165:58,3,35,8|8|8|8,0:0|0:0|0:3|0:3,0:0:0:0:
199,40,234111,6,0,B|254:61|254:61|273:84|273:84|346:111,1,140,6|8,3:2|0:0,0:0:0:0:
464,214,234956,1,2,3:2:0:0:
464,214,235168,1,0,3:2:0:0:
392,271,235379,2,0,P|344:259|329:237,1,70,8|0,0:0|0:0,0:0:0:0:
388,158,235801,6,0,P|413:120|390:32,1,140,2|8,3:2|0:0,0:0:0:0:
306,66,236435,2,0,L|229:54,1,70,2|0,0:0|3:2,0:0:0:0:
164,110,236858,1,0,3:2:0:0:
213,186,237069,2,0,P|222:228|208:262,1,70,8|0,0:0|0:0,0:0:0:0:
139,338,237491,6,0,L|-8:306,1,140,2|8,3:2|0:0,0:0:0:0:
91,149,238337,1,2,3:2:0:0:
91,149,238548,1,0,3:2:0:0:
156,212,238759,2,0,L|233:198,1,70,8|0,0:0|0:0,0:0:0:0:
244,110,239202,5,10,0:0:0:0:
244,110,239307,1,8,0:3:0:0:
363,174,239624,2,0,L|359:260,1,70,8|0,0:3|0:0,0:0:0:0:
365,289,239941,1,8,0:0:0:0:
365,289,240047,2,0,P|409:308|445:301,1,70,8|0,0:3|0:0,0:0:0:0:
466,279,240363,1,8,0:0:0:0:
466,279,240469,2,0,L|481:241,2,35,8|8|8,0:3|0:3|0:3,0:0:0:0:
502,362,240882,5,6,3:2:0:0:
256,192,240987,12,0,247642,0:0:0:0:
