osu file format v14

[General]
AudioFilename: audio.mp3
AudioLeadIn: 0
PreviewTime: 52607
Countdown: 0
SampleSet: Soft
StackLeniency: 0.6
Mode: 0
LetterboxInBreaks: 0
WidescreenStoryboard: 1

[Editor]
Bookmarks: 10627,12522,12600,20732,30837,40943,45995,53574,63679,72995,73785,75679,75758,83890,93995,104100,109153,116732,126837,136153,136943,141995,142627,147048,152100,155732,157153,162206,164732,167258,168364,186679,197574,203890
DistanceSpacing: 1
BeatDivisor: 4
GridSize: 32
TimelineZoom: 1.8

[Metadata]
Title:PROMISiNG
TitleUnicode:PROMISiNG
Artist:Sakura Yuno
ArtistUnicode:咲良ゆの
Creator:Lasse
Version:Normal
Source:
Tags:futurize me japanese pop rock amelia
BeatmapID:4037321
BeatmapSetID:1950038

[Difficulty]
HPDrainRate:3
CircleSize:3.4
OverallDifficulty:5
ApproachRate:6
SliderMultiplier:1
SliderTickRate:1

[Events]
//Background and Video events
0,0,"102793945_p0_3.jpg",0,0
//Break Periods
2,157353,163682
//Storyboard Layer 0 (Background)
//Storyboard Layer 1 (Fail)
//Storyboard Layer 2 (Pass)
//Storyboard Layer 3 (Foreground)
//Storyboard Layer 4 (Overlay)
//Storyboard Sound Samples

[TimingPoints]
522,315.789473684211,4,2,1,32,1,0
522,-142.857142857143,4,2,1,32,0,0
2416,-142.857142857143,4,2,1,34,0,0
3048,-142.857142857143,4,2,1,36,0,0
5574,-142.857142857143,4,2,1,38,0,0
6837,-142.857142857143,4,2,1,40,0,0
8100,-125,4,2,1,45,0,0
9048,-125,4,2,1,50,0,0
9916,-125,4,2,1,20,0,0
9995,-125,4,2,1,60,0,0
10311,-125,4,2,1,50,0,0
10627,-100,4,2,3,65,0,0
10706,-100,4,2,1,65,0,0
11811,-100,4,2,1,30,0,0
11890,-100,4,2,1,65,0,0
14653,-100,4,2,1,30,0,0
14732,-100,4,2,1,65,0,0
15679,-100,4,2,2,65,0,0
15837,-100,4,2,1,65,0,0
16864,-100,4,2,1,30,0,0
16943,-100,4,2,1,65,0,0
20653,-100,4,2,1,30,0,0
20732,-125,4,2,1,50,0,0
21048,-125,4,2,2,50,0,0
22153,-125,4,2,2,40,0,0
22311,-125,4,2,2,50,0,0
22469,-125,4,2,2,40,0,0
22627,-125,4,2,2,50,0,0
22785,-125,4,2,2,40,0,0
22943,-125,4,2,2,50,0,0
24679,-125,4,2,2,40,0,0
24837,-125,4,2,2,50,0,0
24995,-125,4,2,2,40,0,0
25153,-125,4,2,2,50,0,0
25311,-125,4,2,2,40,0,0
25469,-125,4,2,2,50,0,0
25627,-125,4,2,2,40,0,0
27048,-125,4,2,2,50,0,0
27206,-125,4,2,2,40,0,0
27364,-125,4,2,2,50,0,0
27522,-125,4,2,2,40,0,0
27679,-125,4,2,2,50,0,0
27837,-125,4,2,2,40,0,0
27995,-125,4,2,2,50,0,0
28153,-125,4,2,2,40,0,0
28311,-125,4,2,2,50,0,0
28785,-125,4,2,1,50,0,0
29732,-125,4,2,1,55,0,0
30837,-111.111111111111,4,2,1,60,0,0
32022,-111.111111111111,4,2,1,30,0,0
32100,-111.111111111111,4,2,1,60,0,0
33285,-111.111111111111,4,2,1,30,0,0
33364,-111.111111111111,4,2,1,60,0,0
35811,-111.111111111111,4,2,1,30,0,0
35890,-111.111111111111,4,2,1,60,0,0
37074,-111.111111111111,4,2,1,30,0,0
37153,-111.111111111111,4,2,1,60,0,0
38653,-111.111111111111,4,2,1,30,0,0
38732,-111.111111111111,4,2,1,60,0,0
40943,-111.111111111111,4,2,4,60,0,0
41100,-111.111111111111,4,2,1,60,0,0
42285,-111.111111111111,4,2,1,30,0,0
42364,-111.111111111111,4,2,1,60,0,0
43469,-111.111111111111,4,2,2,60,0,0
43627,-111.111111111111,4,2,1,60,0,0
45995,-100,4,2,4,65,0,0
46153,-100,4,2,1,65,0,0
47179,-100,4,2,1,30,0,0
47258,-100,4,2,1,65,0,0
48522,-100,4,2,2,65,0,0
48679,-100,4,2,1,65,0,0
52074,-100,4,2,1,30,0,0
52153,-100,4,2,1,65,0,0
52232,-100,4,2,1,30,0,0
53258,-100,4,2,1,50,0,0
53574,-90.9090909090909,4,2,3,70,0,1
53653,-90.9090909090909,4,2,1,70,0,1
54916,-90.9090909090909,4,2,1,35,0,1
54995,-90.9090909090909,4,2,1,70,0,1
56100,-90.9090909090909,4,2,2,70,0,1
56179,-90.9090909090909,4,2,1,70,0,1
57443,-90.9090909090909,4,2,1,35,0,1
57522,-90.9090909090909,4,2,1,70,0,1
58627,-90.9090909090909,4,2,4,70,0,1
58706,-90.9090909090909,4,2,1,70,0,1
61074,-90.9090909090909,4,2,1,35,0,1
61153,-90.9090909090909,4,2,2,70,0,1
61390,-90.9090909090909,4,2,1,35,0,1
61469,-90.9090909090909,4,2,1,70,0,1
63640,-90.9090909090909,4,2,1,70,0,0
63679,-90.9090909090909,4,2,3,70,0,1
63758,-90.9090909090909,4,2,1,70,0,1
65022,-90.9090909090909,4,2,1,35,0,1
65100,-90.9090909090909,4,2,1,70,0,1
66206,-90.9090909090909,4,2,2,70,0,1
66285,-90.9090909090909,4,2,1,70,0,1
67548,-90.9090909090909,4,2,1,35,0,1
67627,-90.9090909090909,4,2,1,70,0,1
68653,-90.9090909090909,4,2,1,35,0,1
68732,-90.9090909090909,4,2,4,70,0,1
68811,-90.9090909090909,4,2,1,70,0,1
71258,-90.9090909090909,4,2,2,70,0,1
71337,-90.9090909090909,4,2,1,70,0,1
72285,-90.9090909090909,4,2,1,35,0,1
72364,-90.9090909090909,4,2,1,70,0,1
72600,-90.9090909090909,4,2,1,35,0,1
72679,-90.9090909090909,4,2,1,70,0,1
72995,-100,4,2,1,70,0,0
73311,-100,4,2,1,60,0,0
73469,-111.111111111111,4,2,1,60,0,0
73785,-100,4,2,3,65,0,0
73864,-100,4,2,1,65,0,0
77811,-100,4,2,1,30,0,0
77890,-100,4,2,1,65,0,0
78837,-100,4,2,2,65,0,0
79074,-100,4,2,1,30,0,0
79153,-100,4,2,1,65,0,0
80022,-100,4,2,1,30,0,0
80100,-100,4,2,1,65,0,0
83811,-100,4,2,1,30,0,0
83890,-117.647058823529,4,2,1,55,0,0
92653,-117.647058823529,4,2,1,30,0,0
92732,-117.647058823529,4,2,1,55,0,0
93995,-111.111111111111,4,2,1,60,0,0
95179,-111.111111111111,4,2,1,30,0,0
95258,-111.111111111111,4,2,1,60,0,0
96443,-111.111111111111,4,2,1,30,0,0
96522,-111.111111111111,4,2,1,60,0,0
98969,-111.111111111111,4,2,1,30,0,0
99048,-111.111111111111,4,2,1,60,0,0
100232,-111.111111111111,4,2,1,30,0,0
100311,-111.111111111111,4,2,1,60,0,0
104100,-111.111111111111,4,2,4,60,0,0
104258,-111.111111111111,4,2,1,60,0,0
105443,-111.111111111111,4,2,1,30,0,0
105522,-111.111111111111,4,2,1,60,0,0
106627,-111.111111111111,4,2,2,60,0,0
106785,-111.111111111111,4,2,1,60,0,0
109153,-100,4,2,4,65,0,0
109311,-100,4,2,1,65,0,0
110337,-100,4,2,1,30,0,0
110416,-100,4,2,1,65,0,0
111679,-100,4,2,2,65,0,0
111837,-100,4,2,1,65,0,0
115232,-100,4,2,1,30,0,0
115311,-100,4,2,1,65,0,0
115390,-100,4,2,1,30,0,0
116416,-100,4,2,1,50,0,0
116732,-90.9090909090909,4,2,3,70,0,1
116811,-90.9090909090909,4,2,1,70,0,1
118074,-90.9090909090909,4,2,1,35,0,1
118153,-90.9090909090909,4,2,1,70,0,1
119258,-90.9090909090909,4,2,2,70,0,1
119337,-90.9090909090909,4,2,1,70,0,1
120600,-90.9090909090909,4,2,1,35,0,1
120679,-90.9090909090909,4,2,1,70,0,1
121785,-90.9090909090909,4,2,4,70,0,1
121864,-90.9090909090909,4,2,1,70,0,1
124232,-90.9090909090909,4,2,1,35,0,1
124311,-90.9090909090909,4,2,2,70,0,1
124548,-90.9090909090909,4,2,1,35,0,1
124627,-90.9090909090909,4,2,1,70,0,1
126798,-90.9090909090909,4,2,1,70,0,0
126837,-90.9090909090909,4,2,3,70,0,1
126916,-90.9090909090909,4,2,1,70,0,1
128179,-90.9090909090909,4,2,1,35,0,1
128258,-90.9090909090909,4,2,1,70,0,1
129364,-90.9090909090909,4,2,2,70,0,1
129443,-90.9090909090909,4,2,1,70,0,1
130706,-90.9090909090909,4,2,1,35,0,1
130785,-90.9090909090909,4,2,1,70,0,1
131890,-90.9090909090909,4,2,4,70,0,1
131969,-90.9090909090909,4,2,1,70,0,1
134416,-90.9090909090909,4,2,2,70,0,1
134495,-90.9090909090909,4,2,1,70,0,1
135443,-90.9090909090909,4,2,1,35,0,1
135522,-90.9090909090909,4,2,1,70,0,1
135758,-90.9090909090909,4,2,1,35,0,1
135837,-90.9090909090909,4,2,1,70,0,1
136153,-100,4,2,1,70,0,0
136469,-111.111111111111,4,2,1,60,0,0
136943,-100,4,2,3,65,0,0
137022,-100,4,2,1,60,0,0
139469,-100,4,2,2,65,0,0
139548,-100,4,2,1,65,0,0
141995,-100,4,2,4,65,0,0
142074,-100,4,2,1,65,0,0
144522,-100,4,2,2,65,0,0
144601,-100,4,2,1,65,0,0
147048,-100,4,2,3,70,0,0
147127,-100,4,2,1,70,0,0
147285,-100,4,2,1,35,0,0
147364,-100,4,2,1,70,0,0
149574,-100,4,2,2,70,0,0
149653,-100,4,2,1,70,0,0
152022,-100,4,2,1,35,0,0
152100,-90.9090909090909,4,2,4,70,0,0
152179,-90.9090909090909,4,2,1,70,0,0
154627,-90.9090909090909,4,2,2,70,0,0
154706,-90.9090909090909,4,2,1,70,0,0
157153,-90.9090909090909,4,2,3,45,0,0
162206,-90.9090909090909,4,2,1,40,0,0
163469,-90.9090909090909,4,2,1,45,0,0
164732,-111.111111111111,4,2,2,60,0,0
164811,-111.111111111111,4,2,1,60,0,0
166074,-111.111111111111,4,2,1,30,0,0
166153,-111.111111111111,4,2,1,65,0,0
167258,-111.111111111111,4,2,1,50,0,0
167337,-111.111111111111,4,2,1,25,0,0
167416,-111.111111111111,4,2,1,60,0,0
167574,-100,4,2,3,70,0,1
167653,-100,4,2,1,30,0,1
167732,-90.9090909090909,4,2,1,65,0,0
167811,-90.9090909090909,4,2,1,30,0,0
167890,-90.9090909090909,4,2,1,65,0,0
168364,-90.9090909090909,4,2,1,70,0,1
168600,-90.9090909090909,4,2,1,35,0,1
168679,-90.9090909090909,4,2,1,70,0,1
169785,-90.9090909090909,4,2,2,70,0,1
169864,-90.9090909090909,4,2,1,70,0,1
171127,-90.9090909090909,4,2,1,35,0,1
171206,-90.9090909090909,4,2,1,70,0,1
172232,-90.9090909090909,4,2,1,35,0,1
172311,-90.9090909090909,4,2,4,70,0,1
172390,-90.9090909090909,4,2,1,70,0,1
172864,-90.9090909090909,4,2,1,35,0,1
172943,-90.9090909090909,4,2,1,70,0,1
174758,-90.9090909090909,4,2,1,35,0,1
174837,-90.9090909090909,4,2,2,70,0,1
175074,-90.9090909090909,4,2,1,35,0,1
175153,-90.9090909090909,4,2,1,70,0,1
177324,-90.9090909090909,4,2,1,70,0,0
177364,-90.9090909090909,4,2,3,70,0,1
177443,-90.9090909090909,4,2,1,70,0,1
178706,-90.9090909090909,4,2,1,35,0,1
178785,-90.9090909090909,4,2,1,70,0,1
179890,-90.9090909090909,4,2,2,70,0,1
179969,-90.9090909090909,4,2,1,70,0,1
181232,-90.9090909090909,4,2,1,35,0,1
181311,-90.9090909090909,4,2,1,70,0,1
182416,-90.9090909090909,4,2,4,70,0,1
182495,-90.9090909090909,4,2,1,70,0,1
184943,-90.9090909090909,4,2,2,70,0,1
185022,-90.9090909090909,4,2,1,70,0,1
185969,-90.9090909090909,4,2,1,35,0,1
186048,-90.9090909090909,4,2,1,70,0,1
186285,-90.9090909090909,4,2,1,35,0,1
186364,-90.9090909090909,4,2,1,70,0,1
186679,-100,4,2,1,70,0,0
186995,-100,4,2,1,60,0,0
187469,-100,4,2,3,65,0,0
187548,-100,4,2,1,65,0,0
188653,-100,4,2,1,30,0,0
188732,-100,4,2,1,65,0,0
191495,-100,4,2,1,30,0,0
191574,-100,4,2,1,65,0,0
192522,-100,4,2,2,65,0,0
192600,-100,4,2,1,65,0,0
193706,-100,4,2,1,30,0,0
193785,-100,4,2,1,65,0,0
197495,-100,4,2,1,30,0,0
197574,-100,4,2,3,55,0,0
197732,-100,4,2,99,5,0,0
203890,-100,4,2,99,7,0,0

[Colours]
Combo1 : 250,180,240
Combo2 : 120,200,230
Combo3 : 255,230,130
Combo4 : 160,230,150

[HitObjects]
92,74,522,6,0,B|148:71|139:90|197:93,1,104.999996795654,2|0,0:2|0:2,0:2:0:0:
473,198,2416,2,0,P|477:164|464:117,1,69.9999978637696,0|0,0:2|0:2,0:0:0:0:
402,87,3048,2,0,L|288:98,1,104.999996795654,2|0,0:2|0:2,0:2:0:0:
35,198,5574,5,2,0:2:0:0:
160,360,6837,2,0,P|195:358|243:345,1,69.9999978637696,2|0,0:2|0:2,0:0:0:0:
288,295,7469,2,0,P|291:259|300:219,1,69.9999978637696,0|0,0:2|0:2,0:0:0:0:
366,167,8100,6,0,B|433:166|419:191|487:197,2,120,2|2|2,0:2|0:2|0:2,0:2:0:0:
174,271,9995,1,10,0:2:0:0:
174,271,10153,1,10,0:2:0:0:
62,184,10627,6,0,P|64:125|82:78,1,100,6|8,1:2|0:2,0:2:0:0:
116,55,11100,2,0,B|156:53|156:53|167:58|167:58|220:52,1,100,2|0,0:2|0:2,0:0:0:0:
259,28,11574,1,10,0:2:0:0:
321,105,11890,2,0,B|368:110|368:110|379:105|379:105|419:107,1,100,2|8,1:2|0:2,0:2:0:0:
466,137,12364,1,2,0:2:0:0:
466,137,12522,2,0,P|481:184|481:234,1,100,0|10,1:0|0:2,0:0:0:0:
420,313,13153,6,0,B|366:292|377:330|310:309,1,100,6|8,1:2|0:2,0:2:0:0:
277,289,13627,2,0,L|267:175,1,100,2|0,2:2|0:2,0:0:0:0:
245,144,14100,1,8,0:2:0:0:
170,77,14416,2,0,P|131:79|74:117,1,100,2|8,1:2|0:2,0:2:0:0:
13,185,15048,2,0,L|17:234,1,50,2|0,1:2|1:2,0:0:0:0:
48,273,15364,2,0,L|52:322,1,50,8|0,0:2|1:2,0:0:0:0:
89,356,15679,6,0,P|151:357|202:328,2,100,6|8|0,1:2|2:2|1:2,0:2:0:0:
5,299,16627,1,10,0:2:0:0:
74,227,16943,1,2,1:2:0:0:
10,150,17258,1,10,0:2:0:0:
88,87,17574,1,2,1:2:0:0:
153,162,17890,1,10,0:2:0:0:
235,105,18206,6,0,B|281:86|281:86|333:98,1,100,6|8,1:2|0:2,0:2:0:0:
364,133,18679,2,0,B|410:151|410:151|462:139,1,100,2|0,0:2|0:2,0:2:0:0:
485,183,19153,1,10,0:2:0:0:
431,267,19469,1,6,1:2:0:0:
337,232,19785,1,8,0:2:0:0:
303,325,20100,1,8,0:2:0:0:
205,304,20416,1,8,0:3:0:0:
124,365,20732,6,0,B|85:369|85:369|38:353,1,80,6|8,1:2|1:2,0:2:0:0:
4,287,21364,2,0,L|21:201,1,80,2|8,1:2|1:2,0:2:0:0:
82,158,21995,1,2,1:2:0:0:
147,204,22311,1,8,1:2:0:0:
223,180,22627,1,2,1:2:0:0:
281,234,22943,2,0,L|264:321,2,80,8|2|8,1:2|1:2|1:2,0:2:0:0:
354,188,23890,6,0,L|369:109,1,80,2|8,1:2|1:2,0:2:0:0:
331,38,24522,1,2,1:2:0:0:
275,95,24837,1,8,1:2:0:0:
203,59,25153,1,0,1:2:0:0:
161,127,25469,1,8,1:2:0:0:
84,103,25785,2,0,P|41:111|21:220,1,160,2|0,1:2|1:2,0:2:0:0:
60,286,26732,5,8,1:2:0:0:
129,246,27048,2,0,P|170:239|219:246,1,80,2|8,1:2|1:2,0:2:0:0:
284,264,27679,2,0,P|323:267|362:260,1,80,0|8,1:2|1:2,0:2:0:0:
428,214,28311,2,0,P|440:155|443:95,2,120,2|10|12,1:2|0:2|0:2,0:2:0:0:
389,284,29574,5,0,1:2:0:0:
307,250,29890,1,12,0:2:0:0:
262,325,30206,1,4,0:3:0:0:
186,280,30522,1,8,0:2:0:0:
126,349,30837,6,0,P|75:352|29:319,1,89.9999972534181,6|8,1:2|0:2,0:2:0:0:
5,307,31311,1,0,3:0:0:0:
5,307,31469,2,0,L|21:204,1,89.9999972534181,2|10,0:2|0:2,0:0:0:0:
91,164,32100,1,2,1:2:0:0:
163,217,32416,1,8,0:2:0:0:
251,201,32732,1,2,3:2:0:0:
321,257,33048,1,8,0:2:0:0:
408,234,33364,6,0,P|428:174|424:137,1,89.9999972534181,2|8,1:2|0:2,0:2:0:0:
421,103,33837,1,0,3:0:0:0:
421,103,33995,2,0,L|320:79,1,89.9999972534181,2|8,0:2|0:2,0:0:0:0:
244,95,34627,1,2,1:2:0:0:
164,52,34943,1,8,0:2:0:0:
80,85,35258,1,2,3:2:0:0:
63,173,35574,1,10,0:2:0:0:
124,239,35890,6,0,L|110:337,2,89.9999972534181,2|8|0,1:2|0:2|0:2,0:2:0:0:
189,177,36837,1,10,0:2:0:0:
259,232,37153,1,2,1:2:0:0:
338,187,37469,1,8,0:2:0:0:
338,187,37627,2,0,P|382:181|425:193,1,89.9999972534181,2|0,3:2|1:2,0:0:0:0:
457,225,38100,1,8,0:2:0:0:
418,306,38416,6,0,P|374:312|331:300,1,89.9999972534181,6|8,1:2|0:2,0:2:0:0:
292,324,38890,2,0,P|248:311|204:317,1,89.9999972534181,12|2,0:2|1:2,0:2:0:0:
165,339,39364,2,0,P|120:344|77:331,1,89.9999972534181,12|0,0:2|1:2,0:2:0:0:
42,313,39837,1,14,0:2:0:0:
42,313,39995,1,10,0:2:0:0:
81,232,40311,1,8,0:2:0:0:
32,155,40627,1,8,0:3:0:0:
92,88,40943,5,4,1:2:0:0:
92,88,41100,2,0,B|137:74|137:74|186:88,1,89.9999972534181,0|2,1:2|1:2,0:0:0:0:
208,119,41574,2,0,L|212:216,1,89.9999972534181,8|10,0:2|0:2,0:2:0:0:
228,250,42048,1,4,1:2:0:0:
308,290,42364,1,0,1:2:0:0:
393,256,42679,1,2,0:2:0:0:
393,256,42837,2,0,L|396:166,1,89.9999972534181,8|0,0:2|0:0,0:0:0:0:
442,90,43469,5,6,1:2:0:0:
442,90,43627,2,0,B|398:75|398:75|348:90,1,89.9999972534181,0|2,1:2|1:2,0:0:0:0:
319,113,44100,2,0,B|277:125|277:125|233:110,1,89.9999972534181,8|10,0:2|0:2,0:2:0:0:
189,122,44574,1,4,1:2:0:0:
113,82,44890,1,0,1:2:0:0:
113,82,45048,1,10,0:2:0:0:
31,121,45364,2,0,L|21:184,1,44.999998626709,10|0,0:2|1:2,0:0:0:0:
31,209,45679,2,0,L|21:272,1,44.999998626709,8|4,0:3|0:3,0:0:0:0:
45,298,45995,6,0,B|96:300|86:323|145:332,1,100,4|10,1:2|0:2,0:2:0:0:
228,373,46627,1,2,0:2:0:0:
304,308,46943,1,10,0:2:0:0:
217,258,47258,2,0,P|207:226|220:141,1,100,6|8,1:2|0:2,0:2:0:0:
245,123,47732,2,0,L|346:112,1,100,2|0,0:2|1:2,0:2:0:0:
385,83,48206,1,10,0:2:0:0:
453,155,48522,6,0,P|459:204|447:252,2,100,6|8|0,1:2|0:2|0:2,0:2:0:0:
385,83,49469,1,10,0:2:0:0:
295,127,49785,2,0,L|193:118,1,100,4|10,1:2|0:2,0:2:0:0:
147,133,50258,1,2,3:2:0:0:
100,221,50574,1,2,1:2:0:0:
156,310,50890,5,2,0:2:0:0:
156,310,51048,2,0,L|255:318,2,100,12|8|8,0:2|0:2|0:3,0:0:0:0:
76,368,51995,1,10,0:2:0:0:
76,368,52153,1,10,0:2:0:0:
0,86,53574,6,0,B|59:71|51:102|117:91,1,110.000003356934,6|8,1:2|0:2,0:2:0:0:
160,75,54048,1,2,0:2:0:0:
253,132,54364,1,2,1:2:0:0:
210,233,54679,1,4,1:2:0:0:
276,320,54995,1,2,1:2:0:0:
382,292,55311,1,2,3:2:0:0:
382,292,55469,2,0,P|394:238|403:184,1,110.000003356934,0|8,1:2|0:2,0:0:0:0:
467,83,56100,6,0,B|409:60|422:97|351:70,1,110.000003356934,6|8,1:2|0:2,0:2:0:0:
308,51,56574,1,2,0:2:0:0:
208,98,56890,1,2,1:2:0:0:
252,198,57206,1,6,1:2:0:0:
170,271,57522,1,2,1:2:0:0:
61,252,57837,2,0,P|49:199|49:143,1,110.000003356934,2|0,3:2|1:2,0:0:0:0:
58,89,58311,1,10,0:2:0:0:
154,36,58627,6,0,B|218:33|200:59|260:63,1,110.000003356934,6|10,1:2|0:2,0:2:0:0:
363,29,59258,1,2,1:2:0:0:
454,98,59574,1,8,0:2:0:0:
454,98,59732,2,0,P|460:143|446:218,1,110.000003356934,6|0,1:2|1:2,2:2:0:0:
432,258,60206,1,10,0:2:0:0:
322,249,60522,1,2,1:2:0:0:
290,353,60837,1,10,0:2:0:0:
180,362,61153,6,0,P|135:352|56:341,1,110.000003356934,6|8,1:2|0:2,0:2:0:0:
17,353,61627,1,2,1:2:0:0:
11,243,61943,1,2,1:2:0:0:
93,170,62258,2,0,P|147:177|201:189,1,110.000003356934,6|0,1:2|1:2,0:2:0:0:
253,206,62732,2,0,L|263:273,1,55.0000016784668,10|0,1:2|1:2,0:2:0:0:
288,308,63048,2,0,L|360:322,1,55.0000016784668,8|4,2:3|2:3,0:0:0:0:
386,351,63364,2,0,L|454:334,1,55.0000016784668,8|8,2:2|2:2,0:0:0:0:
484,306,63679,6,0,P|485:251|468:196,1,110.000003356934,6|8,1:2|0:2,0:2:0:0:
441,150,64153,1,2,0:2:0:0:
333,125,64469,1,2,1:2:0:0:
308,231,64785,1,14,0:2:0:0:
199,210,65100,1,2,1:2:0:0:
160,313,65416,1,2,3:2:0:0:
160,313,65574,2,0,B|101:322|101:322|44:291,1,110.000003356934,0|8,1:2|0:2,0:0:0:0:
8,198,66206,6,0,P|15:142|38:82,1,110.000003356934,6|8,1:2|0:2,0:2:0:0:
70,50,66679,1,2,0:2:0:0:
178,34,66995,1,2,1:2:0:0:
278,78,67311,1,6,1:2:0:0:
385,52,67627,1,2,1:2:0:0:
476,113,67943,2,0,P|494:164|500:219,1,110.000003356934,2|0,3:2|1:2,0:0:0:0:
499,273,68416,1,10,0:2:0:0:
409,338,68732,6,0,B|369:330|369:330|349:336|349:336|279:320,1,110.000003356934,6|8,1:2|0:2,0:0:0:0:
246,318,69206,1,2,1:2:0:0:
221,210,69522,1,2,1:2:0:0:
324,173,69837,2,0,B|347:124|347:124|330:63,1,110.000003356934,0|0,1:2|1:2,0:0:0:0:
297,27,70311,1,10,2:2:0:0:
187,15,70627,1,10,2:2:0:0:
140,114,70943,1,10,0:2:0:0:
224,183,71258,6,0,B|238:236|238:236|215:285,1,110.000003356934,6|8,1:2|0:2,0:0:0:0:
183,330,71732,1,8,0:2:0:0:
78,363,72048,1,4,0:3:0:0:
5,280,72364,1,6,1:2:0:0:
57,183,72679,2,0,P|53:157|45:122,2,55.0000016784668,10|10|10,0:2|0:2|0:2,0:0:0:0:
176,287,73469,6,0,P|203:284|230:274,1,44.999998626709,10|0,0:2|0:2,0:1:0:0:
251,239,73785,6,0,P|252:193|270:130,1,100,6|8,1:2|0:2,0:2:0:0:
304,109,74258,2,0,P|359:105|406:87,1,100,2|0,0:2|0:2,0:0:0:0:
436,53,74732,1,10,0:2:0:0:
495,136,75048,2,0,P|494:182|476:245,1,100,2|8,1:2|0:2,0:2:0:0:
460,280,75522,1,2,0:2:0:0:
460,280,75679,2,0,P|417:263|346:255,1,100,0|10,1:0|0:2,0:0:0:0:
300,332,76311,6,0,B|254:346|254:346|190:328,1,100,6|8,1:2|0:2,0:2:0:0:
157,351,76785,2,0,B|111:365|111:365|61:350,1,100,2|0,2:2|0:2,0:0:0:0:
11,341,77258,1,8,0:2:0:0:
2,241,77574,2,0,L|23:124,1,100,2|8,1:2|0:2,0:2:0:0:
102,85,78206,2,0,P|123:87|150:95,1,50,2|0,1:2|1:2,0:0:0:0:
187,129,78522,2,0,P|210:136|235:139,1,50,8|0,0:2|1:2,0:0:0:0:
283,125,78837,6,0,L|283:20,2,100,6|8|0,1:2|2:2|1:2,0:2:0:0:
208,192,79785,1,10,0:2:0:0:
278,263,80100,1,2,1:2:0:0:
357,322,80416,1,10,0:2:0:0:
434,259,80732,1,2,1:2:0:0:
500,184,81048,1,10,0:2:0:0:
432,110,81364,6,0,B|386:88|386:88|334:96,1,100,6|8,1:2|0:2,0:2:0:0:
288,105,81837,2,0,B|239:112|239:112|193:90,1,100,2|0,0:2|0:2,0:2:0:0:
151,62,82311,1,10,0:2:0:0:
60,104,82627,1,6,1:2:0:0:
112,188,82943,1,8,0:2:0:0:
36,253,83258,1,8,0:2:0:0:
92,335,83574,1,8,0:3:0:0:
193,315,83890,6,0,B|240:311|239:329|279:328,1,85.0000016212464,4|0,1:2|1:2,0:2:0:0:
360,312,84522,1,2,1:2:0:0:
425,365,84837,1,8,0:2:0:0:
492,313,85153,2,0,P|503:272|511:230,1,85.0000016212464,2|0,1:2|1:2,0:2:0:0:
494,191,85627,1,8,0:2:0:0:
494,191,85785,2,0,P|452:181|402:163,1,85.0000016212464,0|0,1:2|1:2,0:0:0:0:
344,218,86416,6,0,P|303:204|262:194,1,85.0000016212464,2|0,1:2|1:2,0:2:0:0:
181,168,87048,1,2,1:2:0:0:
103,203,87364,1,8,0:2:0:0:
21,177,87679,2,0,P|9:136|1:94,1,85.0000016212464,2|0,1:2|1:2,0:2:0:0:
24,58,88153,1,8,0:2:0:0:
24,58,88311,2,0,P|66:48|116:30,1,85.0000016212464,0|0,1:2|1:2,0:0:0:0:
178,78,88943,6,0,P|219:87|259:101,2,85.0000016212464,2|0|0,1:2|1:2|1:2,0:2:0:0:
96,100,89890,1,10,0:2:0:0:
107,184,90206,1,2,1:2:0:0:
191,171,90522,1,0,1:2:0:0:
206,254,90837,1,0,1:2:0:0:
290,242,91153,1,0,1:2:0:0:
340,310,91469,6,0,P|379:322|431:319,1,85.0000016212464,2|0,1:2|1:2,0:2:0:0:
455,293,91943,2,0,P|462:252|474:201,1,85.0000016212464,8|0,0:2|0:2,0:0:0:0:
492,172,92416,1,12,0:2:0:0:
453,96,92732,1,2,1:2:0:0:
368,92,93048,1,12,0:2:0:0:
328,167,93364,1,4,0:3:0:0:
379,234,93679,1,8,0:2:0:0:
327,307,93995,6,0,B|284:312|284:312|224:288,1,89.9999972534181,6|8,1:2|0:2,0:2:0:0:
212,330,94469,1,0,3:0:0:0:
212,330,94627,2,0,B|169:335|169:335|109:311,1,89.9999972534181,2|10,2:2|0:2,2:2:0:0:
37,336,95258,1,2,1:2:0:0:
10,249,95574,1,8,0:2:0:0:
98,234,95890,1,2,3:2:0:0:
187,224,96206,1,8,0:2:0:0:
250,159,96522,6,0,L|256:65,1,89.9999972534181,2|8,1:2|0:2,0:2:0:0:
295,45,96995,1,0,3:0:0:0:
295,45,97153,2,0,P|331:33|399:36,1,89.9999972534181,2|8,0:2|0:2,0:0:0:0:
465,69,97785,1,2,1:2:0:0:
421,147,98100,1,8,0:2:0:0:
480,214,98416,1,2,3:2:0:0:
431,289,98732,1,10,0:2:0:0:
341,284,99048,6,0,P|334:326|335:388,2,89.9999972534181,2|8|0,1:2|0:2|0:2,0:2:0:0:
391,209,99995,1,10,0:2:0:0:
340,134,100311,1,2,1:2:0:0:
281,202,100627,1,8,0:2:0:0:
281,202,100785,2,0,P|237:208|194:196,1,89.9999972534181,2|0,3:2|1:2,0:0:0:0:
153,216,101258,1,8,0:2:0:0:
83,158,101574,6,0,P|86:112|110:58,1,89.9999972534181,6|8,1:2|0:2,0:2:0:0:
136,41,102048,2,0,P|181:42|228:22,1,89.9999972534181,12|2,0:2|1:2,0:2:0:0:
258,52,102522,2,0,P|302:50|344:67,1,89.9999972534181,12|0,0:2|1:2,0:2:0:0:
384,96,102995,1,14,0:2:0:0:
384,96,103153,1,10,0:2:0:0:
418,179,103469,1,8,0:2:0:0:
366,252,103785,1,8,0:3:0:0:
280,257,104100,5,4,1:2:0:0:
280,257,104258,2,0,B|242:250|242:250|229:252|229:252|186:245,1,89.9999972534181,0|2,1:2|1:2,0:0:0:0:
152,223,104732,2,0,B|114:216|114:216|101:218|101:218|58:211,1,89.9999972534181,8|10,0:2|0:2,0:2:0:0:
28,183,105206,1,4,1:2:0:0:
2,269,105522,1,0,1:2:0:0:
51,343,105837,1,2,0:2:0:0:
51,343,105995,2,0,B|89:336|89:336|102:338|102:338|145:331,1,89.9999972534181,8|0,0:2|0:0,0:0:0:0:
224,377,106627,5,6,1:2:0:0:
224,377,106785,2,0,L|233:275,1,89.9999972534181,0|2,1:2|1:2,0:0:0:0:
227,242,107258,2,0,L|236:140,1,89.9999972534181,8|10,0:2|0:2,0:2:0:0:
215,111,107732,1,4,1:2:0:0:
293,63,108048,1,0,1:2:0:0:
293,63,108206,1,10,0:2:0:0:
360,122,108522,2,0,P|388:127|414:126,1,44.999998626709,10|0,0:2|1:2,0:0:0:0:
437,157,108837,2,0,P|441:181|438:222,1,44.999998626709,8|4,0:3|0:3,0:0:0:0:
413,243,109153,6,0,B|365:256|365:256|313:237,1,100,4|10,1:2|0:2,0:2:0:0:
226,196,109785,1,2,0:2:0:0:
261,102,110100,1,10,0:2:0:0:
186,35,110416,2,0,B|138:22|138:22|86:41,1,100,6|10,1:2|0:2,0:2:0:0:
54,74,110890,2,0,L|45:177,1,100,2|0,0:2|1:2,0:2:0:0:
19,216,111364,1,10,0:2:0:0:
97,278,111679,6,0,L|88:381,2,100,6|8|0,1:2|0:2|0:2,0:2:0:0:
183,226,112627,1,10,0:2:0:0:
245,304,112943,2,0,P|289:317|345:297,1,100,4|10,1:2|0:2,0:2:0:0:
384,278,113416,1,2,3:2:0:0:
361,180,113732,1,2,1:2:0:0:
454,144,114048,5,2,0:2:0:0:
454,144,114206,2,0,L|462:33,2,100,12|8|8,0:2|0:2|0:3,0:0:0:0:
450,247,115153,1,10,0:2:0:0:
450,247,115311,1,10,0:2:0:0:
214,381,116732,6,0,B|230:354|215:310|215:310|227:260,1,110.000003356934,6|8,1:2|0:2,0:2:0:0:
235,220,117206,1,2,0:2:0:0:
328,161,117522,1,2,1:2:0:0:
404,240,117837,1,4,1:2:0:0:
499,185,118153,1,2,1:2:0:0:
429,106,118469,1,2,3:2:0:0:
429,106,118627,2,0,P|365:85|320:65,1,110.000003356934,0|8,1:2|0:2,0:0:0:0:
223,26,119258,6,0,P|172:47|119:64,1,110.000003356934,6|8,1:2|0:2,0:2:0:0:
66,77,119732,1,2,0:2:0:0:
10,171,120048,1,2,1:2:0:0:
76,258,120364,1,6,1:2:0:0:
184,237,120679,1,2,1:2:0:0:
275,297,120995,2,0,P|333:320|392:331,1,110.000003356934,2|0,3:2|1:2,0:0:0:0:
434,325,121469,1,10,0:2:0:0:
493,232,121785,6,0,B|486:190|486:190|488:174|488:174|478:112,1,110.000003356934,6|10,1:2|0:2,0:2:0:0:
425,27,122416,1,2,1:2:0:0:
328,75,122732,1,8,0:2:0:0:
328,75,122890,2,0,B|319:125|319:125|321:141|321:141|314:183,1,110.000003356934,6|0,1:2|1:2,2:2:0:0:
302,237,123364,1,10,0:2:0:0:
215,304,123679,1,2,1:2:0:0:
106,288,123995,1,10,0:2:0:0:
36,202,124311,6,0,B|43:160|43:160|41:144|41:144|51:82,1,110.000003356934,6|8,1:2|0:2,0:2:0:0:
61,39,124785,1,2,1:2:0:0:
169,18,125100,1,2,1:2:0:0:
253,88,125416,2,0,B|244:138|244:138|246:154|246:154|239:196,1,110.000003356934,6|0,1:2|1:2,0:2:0:0:
233,251,125890,2,0,P|261:263|307:268,1,55.0000016784668,10|0,1:2|1:2,0:2:0:0:
304,319,126206,2,0,P|333:318|377:299,1,55.0000016784668,8|4,2:3|2:3,0:0:0:0:
401,344,126522,2,0,P|434:336|462:304,1,55.0000016784668,8|8,2:2|2:2,0:0:0:0:
492,288,126837,6,0,P|496:233|476:178,1,110.000003356934,6|8,1:2|0:2,0:2:0:0:
447,135,127311,1,2,0:2:0:0:
348,185,127627,1,2,1:2:0:0:
266,111,127943,1,14,0:2:0:0:
175,173,128258,1,2,1:2:0:0:
99,100,128574,1,2,3:2:0:0:
99,100,128732,2,0,B|44:90|44:90|5:128,1,110.000003356934,0|8,1:2|0:2,0:0:0:0:
1,239,129364,6,0,B|40:277|40:277|94:267,1,110.000003356934,6|8,1:2|0:2,0:2:0:0:
149,262,129837,1,2,0:2:0:0:
208,354,130153,1,2,1:2:0:0:
313,322,130469,1,6,1:2:0:0:
259,226,130785,1,2,1:2:0:0:
304,125,131100,2,0,P|369:106|426:102,1,110.000003356934,2|0,3:2|1:2,0:0:0:0:
457,131,131574,1,10,0:2:0:0:
498,233,131890,6,0,B|485:354,1,110.000003356934,6|8,1:2|0:2,0:0:0:0:
446,380,132364,1,0,1:2:0:0:
351,323,132679,1,0,1:2:0:0:
247,360,132995,2,0,B|192:368|192:368|138:344,1,110.000003356934,0|0,1:2|1:2,0:0:0:0:
92,321,133469,1,10,2:2:0:0:
120,214,133785,1,10,2:2:0:0:
40,138,134100,1,10,0:2:0:0:
99,45,134416,6,0,B|148:22|148:22|203:30,1,110.000003356934,6|8,1:2|0:2,0:0:0:0:
254,53,134890,1,8,0:2:0:0:
206,152,135206,1,4,0:3:0:0:
309,188,135522,1,6,1:2:0:0:
266,289,135837,2,0,P|256:323|246:363,2,55.0000016784668,10|10|10,0:2|0:2|0:2,0:0:0:0:
362,260,136469,6,0,B|405:271|405:271|463:255,1,89.9999972534181,2|0,1:2|0:2,0:0:0:0:
492,233,136943,5,6,1:2:0:0:
453,140,137258,1,10,0:2:0:0:
412,48,137574,1,2,1:2:0:0:
319,85,137890,1,10,0:2:0:0:
227,125,138206,1,2,2:2:0:0:
269,215,138522,1,10,0:2:0:0:
310,305,138837,1,2,1:2:0:0:
405,274,139153,1,10,0:2:0:0:
374,178,139469,6,2,P|358:129|330:64,1,100,6|10,1:2|0:2,0:2:0:0:
304,48,139943,1,2,0:2:0:0:
206,29,140258,2,0,P|169:35|140:42,1,50,2|8,1:2|0:2,0:0:0:0:
109,54,140574,2,0,P|90:100|74:147,1,100,6|0,1:2|1:2,0:2:0:0:
44,188,141048,1,8,0:2:0:0:
44,188,141206,2,0,P|38:244|117:308,1,150,2|8,3:2|0:2,0:0:0:0:
200,300,141995,6,0,L|222:189,2,100,6|8|0,1:2|0:2|1:0,0:2:0:0:
280,360,142943,1,8,0:2:0:0:
280,360,143100,2,0,P|338:361|392:333,1,100,6|0,1:2|1:2,0:2:0:0:
418,317,143574,1,8,0:2:0:0:
418,317,143732,2,0,P|422:257|434:208,1,100,2|2,0:2|1:2,0:2:0:0:
452,172,144206,1,8,0:2:0:0:
409,81,144522,6,0,P|362:63|312:66,1,100,6|8,1:2|0:2,0:2:0:0:
264,77,144995,1,2,1:2:0:0:
233,172,145311,1,2,1:2:0:0:
265,266,145627,2,0,P|218:283|168:280,1,100,6|0,1:2|1:2,0:2:0:0:
121,295,146100,2,0,P|93:281|68:253,1,50,10|8,0:2|2:3,0:0:0:0:
32,249,146416,2,0,P|23:221|20:185,1,50,8|4,3:2|3:3,3:2:0:0:
8,151,146732,2,0,P|21:120|39:94,1,50,8|8,0:2|0:2,0:0:0:0:
72,80,147048,6,0,B|121:81|121:81|178:47,2,100,6|8|0,1:2|0:2|1:2,0:2:0:0:
11,160,147995,1,8,0:2:0:0:
11,160,148153,2,0,L|22:278,1,100,14|0,0:2|1:2,0:2:0:0:
28,309,148627,1,10,0:2:0:0:
111,363,148943,1,2,1:2:0:0:
189,301,149258,1,10,0:2:0:0:
281,339,149574,6,0,B|331:349|331:349|390:323,1,100,6|8,1:2|0:2,0:2:0:0:
406,289,150048,2,0,P|412:231|428:184,1,100,2|0,0:2|1:2,0:2:0:0:
456,153,150522,1,8,0:2:0:0:
456,153,150679,2,0,P|451:103|437:55,1,100,6|0,1:2|1:2,0:2:0:0:
400,20,151153,1,8,0:2:0:0:
303,47,151469,1,0,1:2:0:0:
337,140,151785,1,10,0:2:0:0:
260,214,152100,6,0,P|206:216|160:189,1,110.000003356934,6|10,1:2|0:2,0:0:0:0:
124,151,152574,1,0,1:2:0:0:
125,152,152732,2,0,P|70:149|24:176,1,110.000003356934,10|10,0:2|0:2,0:0:0:0:
6,285,153364,1,14,0:2:0:0:
115,289,153679,1,10,0:2:0:0:
193,365,153995,2,0,P|231:372|265:370,1,55.0000016784668,10|0,0:2|1:2,0:0:0:0:
295,345,154311,2,0,P|301:319|315:291,1,55.0000016784668,8|8,0:2|0:3,0:0:0:0:
360,263,154627,6,0,B|407:293|407:293|478:283,2,110.000003356934,4|0|0,3:2|3:2|3:2,3:2:0:0:
282,193,155574,1,10,0:2:0:0:
282,193,155732,1,10,0:2:0:0:
451,16,157153,5,6,1:2:0:0:
259,11,164732,6,0,L|255:107,1,89.9999972534181,6|8,1:2|0:2,0:2:0:0:
249,145,165206,1,2,1:2:0:0:
158,143,165522,1,2,1:2:0:0:
68,135,165837,1,12,0:2:0:0:
8,202,166153,2,0,P|0:227|0:246,2,44.999998626709,10|10|10,0:2|0:2|0:2,0:0:0:0:
183,37,167258,6,0,P|210:38|234:43,1,44.999998626709,2|0,2:2|1:2,2:2:0:0:
263,76,167574,6,0,P|291:84|322:98,1,50,12|0,0:2|1:2,0:2:0:0:
345,134,167890,6,0,P|368:161|383:186,2,55.0000016784668,8|8|4,0:2|0:3|0:3,0:0:0:0:
290,121,168364,6,0,P|255:118|175:136,1,110.000003356934,6|2,1:2|1:2,0:2:0:0:
87,188,168995,1,2,3:2:0:0:
87,188,169153,2,0,P|70:241|68:302,1,110.000003356934,0|8,1:2|0:2,0:0:0:0:
160,354,169785,6,0,P|223:346|277:346,1,110.000003356934,6|8,1:2|0:2,0:2:0:0:
324,350,170258,1,2,0:2:0:0:
432,368,170574,1,2,1:2:0:0:
482,269,170890,1,6,1:2:0:0:
373,252,171206,1,2,1:2:0:0:
419,152,171522,2,0,P|418:97|402:41,1,110.000003356934,2|0,3:2|1:2,0:0:0:0:
359,11,171995,1,10,0:0:0:0:
271,77,172311,6,0,P|256:129|255:184,1,110.000003356934,6|10,1:2|0:2,0:2:0:0:
293,288,172943,1,2,1:2:0:0:
202,349,173258,1,8,0:2:0:0:
202,349,173416,2,0,P|150:356|81:339,1,110.000003356934,6|0,1:2|1:2,2:2:0:0:
41,326,173890,1,10,0:2:0:0:
6,221,174206,1,2,1:2:0:0:
26,112,174522,1,10,0:2:0:0:
110,41,174837,6,0,P|163:29|217:36,1,110.000003356934,6|8,1:2|0:2,0:2:0:0:
269,55,175311,1,2,1:2:0:0:
220,153,175627,1,2,1:2:0:0:
258,255,175943,2,0,P|311:266|365:259,1,110.000003356934,6|0,1:2|1:2,0:2:0:0:
416,281,176416,2,0,L|426:214,1,55.0000016784668,10|0,1:2|1:2,0:2:0:0:
469,198,176732,2,0,L|459:131,1,55.0000016784668,8|4,2:3|2:3,0:0:0:0:
492,98,177048,2,0,L|461:34,1,55.0000016784668,8|8,2:2|2:2,0:0:0:0:
418,24,177364,6,0,B|367:20|366:51|310:43,1,110.000003356934,6|8,1:2|0:2,0:2:0:0:
258,27,177837,1,2,0:2:0:0:
195,117,178153,1,2,1:2:0:0:
277,190,178469,1,14,0:2:0:0:
375,139,178785,1,2,1:2:0:0:
461,206,179100,1,2,3:2:0:0:
461,206,179258,2,0,B|475:261|475:261|456:321,1,110.000003356934,0|8,1:2|0:2,0:0:0:0:
362,365,179890,6,0,L|245:354,1,110.000003356934,6|8,1:2|0:2,0:2:0:0:
202,377,180364,1,2,0:2:0:0:
171,271,180679,1,2,1:2:0:0:
279,255,180995,1,6,1:2:0:0:
388,241,181311,1,2,1:2:0:0:
496,223,181627,2,0,P|490:168|472:116,1,110.000003356934,2|0,3:2|1:2,0:0:0:0:
438,72,182100,1,10,0:2:0:0:
330,47,182416,6,0,B|290:39|290:39|270:44|270:44|200:29,1,110.000003356934,6|8,1:2|0:2,0:0:0:0:
168,21,182890,1,0,1:2:0:0:
85,93,183206,1,0,1:2:0:0:
166,166,183522,2,0,B|206:174|206:174|226:169|226:169|296:184,1,110.000003356934,0|0,1:2|1:2,0:0:0:0:
328,186,183995,1,10,2:2:0:0:
419,246,184311,1,10,2:2:0:0:
378,348,184627,1,10,0:2:0:0:
268,363,184943,6,0,B|228:355|228:355|208:360|208:360|138:345,1,110.000003356934,6|8,1:2|0:2,0:0:0:0:
111,375,185416,1,8,0:2:0:0:
28,302,185732,1,4,0:3:0:0:
68,199,186048,1,6,1:2:0:0:
176,179,186364,2,0,P|172:153|164:118,2,55.0000016784668,10|10|10,0:2|0:2|0:2,0:0:0:0:
290,300,187153,6,0,P|317:305|353:302,1,50,10|0,0:2|0:2,0:1:0:0:
386,287,187469,6,0,B|396:248|396:248|394:235|394:235|405:178,1,100,6|8,1:2|0:2,0:2:0:0:
441,156,187943,2,0,B|451:117|451:117|449:104|449:104|457:58,1,100,2|0,0:2|0:2,0:0:0:0:
419,26,188416,1,10,0:2:0:0:
353,101,188732,2,0,P|294:120|234:119,1,100,2|8,1:2|0:2,0:2:0:0:
222,159,189206,1,2,0:2:0:0:
222,159,189364,2,0,P|172:155|125:138,1,100,0|10,1:0|0:2,0:0:0:0:
48,202,189995,6,0,B|61:309,1,100,6|8,1:2|0:2,0:2:0:0:
77,348,190469,2,0,B|124:358|124:358|176:336,1,100,2|0,2:2|0:2,0:0:0:0:
212,366,190942,1,8,0:2:0:0:
273,286,191258,2,0,L|291:166,1,100,2|8,1:2|0:2,0:2:0:0:
371,131,191890,2,0,P|389:131|421:137,1,50,2|0,1:2|1:2,0:0:0:0:
453,174,192206,2,0,L|463:242,1,50,8|0,0:2|1:2,0:0:0:0:
446,270,192521,6,0,B|450:307|450:307|445:328|445:328|452:376,2,100,6|8|0,1:2|2:2|1:2,0:2:0:0:
352,232,193469,1,10,0:2:0:0:
274,294,193784,1,2,1:2:0:0:
181,255,194100,1,10,0:2:0:0:
116,331,194416,1,2,1:2:0:0:
22,296,194732,1,10,0:2:0:0:
82,211,195048,6,0,B|92:94,1,100,6|8,1:2|0:2,0:2:0:0:
114,67,195521,2,0,B|160:49|160:49|209:60,1,100,2|0,0:2|0:2,0:2:0:0:
257,74,195995,1,10,0:2:0:0:
236,172,196311,1,6,1:2:0:0:
298,250,196627,1,8,0:2:0:0:
397,259,196942,1,8,0:2:0:0:
467,187,197258,1,8,0:3:0:0:
466,86,197574,5,6,1:2:0:0:
256,192,197732,12,0,203890,0:2:0:0:
